  0
SECTION
  2
HEADER
  9
$ACADVER
  1
AC1015
  9
$ACADMAINTVER
 70
     6
  9
$DWGCODEPAGE
  3
ANSI_1252
  9
$INSBASE
 10
0.0
 20
0.0
 30
0.0
  9
$EXTMIN
 10
-534.1825198004153
 20
-487.9434394342552
 30
0.0
  9
$EXTMAX
 10
-404.136163232913
 20
-323.9434394342552
 30
0.0
  9
$LIMMIN
 10
0.0
 20
0.0
  9
$LIMMAX
 10
12.0
 20
9.0
  9
$ORTHOMODE
 70
     0
  9
$REGENMODE
 70
     1
  9
$FILLMODE
 70
     1
  9
$QTEXTMODE
 70
     0
  9
$MIRRTEXT
 70
     1
  9
$LTSCALE
 40
1.0
  9
$ATTMODE
 70
     1
  9
$TEXTSIZE
 40
0.2
  9
$TRACEWID
 40
0.05
  9
$TEXTSTYLE
  7
Standard
  9
$CLAYER
  8
0
  9
$CELTYPE
  6
ByLayer
  9
$CECOLOR
 62
   256
  9
$CELTSCALE
 40
1.0
  9
$DISPSILH
 70
     0
  9
$DIMSCALE
 40
1.0
  9
$DIMASZ
 40
0.18
  9
$DIMEXO
 40
0.0625
  9
$DIMDLI
 40
0.38
  9
$DIMRND
 40
0.0
  9
$DIMDLE
 40
0.0
  9
$DIMEXE
 40
0.18
  9
$DIMTP
 40
0.0
  9
$DIMTM
 40
0.0
  9
$DIMTXT
 40
0.18
  9
$DIMCEN
 40
0.09
  9
$DIMTSZ
 40
0.0
  9
$DIMTOL
 70
     0
  9
$DIMLIM
 70
     0
  9
$DIMTIH
 70
     1
  9
$DIMTOH
 70
     1
  9
$DIMSE1
 70
     0
  9
$DIMSE2
 70
     0
  9
$DIMTAD
 70
     0
  9
$DIMZIN
 70
     0
  9
$DIMBLK
  1

  9
$DIMASO
 70
     1
  9
$DIMSHO
 70
     1
  9
$DIMPOST
  1

  9
$DIMAPOST
  1

  9
$DIMALT
 70
     0
  9
$DIMALTD
 70
     2
  9
$DIMALTF
 40
25.4
  9
$DIMLFAC
 40
1.0
  9
$DIMTOFL
 70
     0
  9
$DIMTVP
 40
0.0
  9
$DIMTIX
 70
     0
  9
$DIMSOXD
 70
     0
  9
$DIMSAH
 70
     0
  9
$DIMBLK1
  1

  9
$DIMBLK2
  1

  9
$DIMSTYLE
  2
Standard
  9
$DIMCLRD
 70
     0
  9
$DIMCLRE
 70
     0
  9
$DIMCLRT
 70
     0
  9
$DIMTFAC
 40
1.0
  9
$DIMGAP
 40
0.09
  9
$DIMJUST
 70
     0
  9
$DIMSD1
 70
     0
  9
$DIMSD2
 70
     0
  9
$DIMTOLJ
 70
     1
  9
$DIMTZIN
 70
     0
  9
$DIMALTZ
 70
     0
  9
$DIMALTTZ
 70
     0
  9
$DIMUPT
 70
     0
  9
$DIMDEC
 70
     4
  9
$DIMTDEC
 70
     4
  9
$DIMALTU
 70
     2
  9
$DIMALTTD
 70
     2
  9
$DIMTXSTY
  7
Standard
  9
$DIMAUNIT
 70
     0
  9
$DIMADEC
 70
     0
  9
$DIMALTRND
 40
0.0
  9
$DIMAZIN
 70
     0
  9
$DIMDSEP
 70
    46
  9
$DIMATFIT
 70
     3
  9
$DIMFRAC
 70
     0
  9
$DIMLDRBLK
  1

  9
$DIMLUNIT
 70
     2
  9
$DIMLWD
 70
    -2
  9
$DIMLWE
 70
    -2
  9
$DIMTMOVE
 70
     0
  9
$LUNITS
 70
     2
  9
$LUPREC
 70
     4
  9
$SKETCHINC
 40
0.1
  9
$FILLETRAD
 40
0.5
  9
$AUNITS
 70
     0
  9
$AUPREC
 70
     0
  9
$MENU
  1
.
  9
$ELEVATION
 40
0.0
  9
$PELEVATION
 40
0.0
  9
$THICKNESS
 40
0.0
  9
$LIMCHECK
 70
     0
  9
$CHAMFERA
 40
0.5
  9
$CHAMFERB
 40
0.5
  9
$CHAMFERC
 40
1.0
  9
$CHAMFERD
 40
0.0
  9
$SKPOLY
 70
     0
  9
$TDCREATE
 40
2454704.671746273
  9
$TDUCREATE
 40
2454704.58841294
  9
$TDUPDATE
 40
2454704.671746285
  9
$TDUUPDATE
 40
2454704.588412951
  9
$TDINDWG
 40
0.0000000116
  9
$TDUSRTIMER
 40
0.0000000116
  9
$USRTIMER
 70
     1
  9
$ANGBASE
 50
0.0
  9
$ANGDIR
 70
     0
  9
$PDMODE
 70
     0
  9
$PDSIZE
 40
0.0
  9
$PLINEWID
 40
0.0
  9
$SPLFRAME
 70
     0
  9
$SPLINETYPE
 70
     6
  9
$SPLINESEGS
 70
     8
  9
$HANDSEED
  5
114
  9
$SURFTAB1
 70
     6
  9
$SURFTAB2
 70
     6
  9
$SURFTYPE
 70
     6
  9
$SURFU
 70
     6
  9
$SURFV
 70
     6
  9
$UCSBASE
  2

  9
$UCSNAME
  2

  9
$UCSORG
 10
0.0
 20
0.0
 30
0.0
  9
$UCSXDIR
 10
1.0
 20
0.0
 30
0.0
  9
$UCSYDIR
 10
0.0
 20
1.0
 30
0.0
  9
$UCSORTHOREF
  2

  9
$UCSORTHOVIEW
 70
     0
  9
$UCSORGTOP
 10
0.0
 20
0.0
 30
0.0
  9
$UCSORGBOTTOM
 10
0.0
 20
0.0
 30
0.0
  9
$UCSORGLEFT
 10
0.0
 20
0.0
 30
0.0
  9
$UCSORGRIGHT
 10
0.0
 20
0.0
 30
0.0
  9
$UCSORGFRONT
 10
0.0
 20
0.0
 30
0.0
  9
$UCSORGBACK
 10
0.0
 20
0.0
 30
0.0
  9
$PUCSBASE
  2

  9
$PUCSNAME
  2

  9
$PUCSORG
 10
0.0
 20
0.0
 30
0.0
  9
$PUCSXDIR
 10
1.0
 20
0.0
 30
0.0
  9
$PUCSYDIR
 10
0.0
 20
1.0
 30
0.0
  9
$PUCSORTHOREF
  2

  9
$PUCSORTHOVIEW
 70
     0
  9
$PUCSORGTOP
 10
0.0
 20
0.0
 30
0.0
  9
$PUCSORGBOTTOM
 10
0.0
 20
0.0
 30
0.0
  9
$PUCSORGLEFT
 10
0.0
 20
0.0
 30
0.0
  9
$PUCSORGRIGHT
 10
0.0
 20
0.0
 30
0.0
  9
$PUCSORGFRONT
 10
0.0
 20
0.0
 30
0.0
  9
$PUCSORGBACK
 10
0.0
 20
0.0
 30
0.0
  9
$USERI1
 70
     0
  9
$USERI2
 70
     0
  9
$USERI3
 70
     0
  9
$USERI4
 70
     0
  9
$USERI5
 70
     0
  9
$USERR1
 40
15.5
  9
$USERR2
 40
0.0
  9
$USERR3
 40
0.0
  9
$USERR4
 40
0.0
  9
$USERR5
 40
0.0
  9
$WORLDVIEW
 70
     1
  9
$SHADEDGE
 70
     3
  9
$SHADEDIF
 70
    70
  9
$TILEMODE
 70
     1
  9
$MAXACTVP
 70
    64
  9
$PINSBASE
 10
0.0
 20
0.0
 30
0.0
  9
$PLIMCHECK
 70
     0
  9
$PEXTMIN
 10
1.00000000000000E+20
 20
1.00000000000000E+20
 30
1.00000000000000E+20
  9
$PEXTMAX
 10
-1.00000000000000E+20
 20
-1.00000000000000E+20
 30
-1.00000000000000E+20
  9
$PLIMMIN
 10
0.0
 20
0.0
  9
$PLIMMAX
 10
12.0
 20
9.0
  9
$UNITMODE
 70
     0
  9
$VISRETAIN
 70
     1
  9
$PLINEGEN
 70
     0
  9
$PSLTSCALE
 70
     1
  9
$TREEDEPTH
 70
  3020
  9
$CMLSTYLE
  2
Standard
  9
$CMLJUST
 70
     0
  9
$CMLSCALE
 40
1.0
  9
$PROXYGRAPHICS
 70
     1
  9
$MEASUREMENT
 70
     1
  9
$CELWEIGHT
370
    -1
  9
$ENDCAPS
280
     0
  9
$JOINSTYLE
280
     0
  9
$LWDISPLAY
290
     0
  9
$INSUNITS
 70
     1
  9
$HYPERLINKBASE
  1

  9
$STYLESHEET
  1

  9
$XEDIT
290
     1
  9
$CEPSNTYPE
380
     0
  9
$PSTYLEMODE
290
     1
  9
$FINGERPRINTGUID
  2
{0F1401C3-1046-465C-9D40-A983945BF5F6}
  9
$VERSIONGUID
  2
{FAEB1C32-E019-11D5-929B-00C0DF256EC4}
  9
$EXTNAMES
290
     1
  9
$PSVPSCALE
 40
0.0
  9
$OLESTARTUP
290
     0
  0
ENDSEC
  0
SECTION
  2
CLASSES
  0
CLASS
  1
ACDBDICTIONARYWDFLT
  2
AcDbDictionaryWithDefault
  3
ObjectDBX Classes
 90
        0
280
     0
281
     0
  0
CLASS
  1
VISUALSTYLE
  2
AcDbVisualStyle
  3
ObjectDBX Classes
 90
     4095
280
     0
281
     0
  0
CLASS
  1

  2
exOdDbSpline
  3

 90
        0
280
     0
281
     1
  0
CLASS
  1
ACDBPLACEHOLDER
  2
AcDbPlaceHolder
  3
ObjectDBX Classes
 90
        0
280
     0
281
     0
  0
CLASS
  1
LAYOUT
  2
AcDbLayout
  3
ObjectDBX Classes
 90
        0
280
     0
281
     0
  0
ENDSEC
  0
SECTION
  2
TABLES
  0
TABLE
  2
VPORT
  5
8
330
0
100
AcDbSymbolTable
 70
     1
  0
VPORT
  5
29
330
8
100
AcDbSymbolTableRecord
100
AcDbViewportTableRecord
  2
*Active
 70
     0
 10
0.0
 20
0.0
 11
1.0
 21
1.0
 12
-469.1593415166642
 22
-405.9434394342552
 13
0.0
 23
0.0
 14
0.5
 24
0.5
 15
0.5
 25
0.5
 16
0.0
 26
0.0
 36
1.0
 17
0.0
 27
0.0
 37
0.0
 40
180.4
 41
1.60267857142857
 42
50.0
 43
0.0
 44
0.0
 50
0.0
 51
0.0
 71
     0
 72
   100
 73
     1
 74
     3
 75
     0
 76
     0
 77
     0
 78
     0
281
     0
 65
     1
110
0.0
120
0.0
130
0.0
111
1.0
121
0.0
131
0.0
112
0.0
122
1.0
132
0.0
 79
     0
146
0.0
  0
ENDTAB
  0
TABLE
  2
LTYPE
  5
5
330
0
100
AcDbSymbolTable
 70
     8
  0
LTYPE
  5
14
330
5
100
AcDbSymbolTableRecord
100
AcDbLinetypeTableRecord
  2
ByBlock
 70
     0
  3

 72
    65
 73
     0
 40
0.0
  0
LTYPE
  5
15
330
5
100
AcDbSymbolTableRecord
100
AcDbLinetypeTableRecord
  2
ByLayer
 70
     0
  3

 72
    65
 73
     0
 40
0.0
  0
LTYPE
  5
16
330
5
100
AcDbSymbolTableRecord
100
AcDbLinetypeTableRecord
  2
Continuous
 70
     0
  3
Solid line
 72
    65
 73
     0
 40
0.0
  0
LTYPE
  5
3B
330
5
100
AcDbSymbolTableRecord
100
AcDbLinetypeTableRecord
  2
DASHED
 70
     0
  3
Dashed
 72
    65
 73
     2
 40
15.0
 49
7.0
 74
     0
 49
-8.0
 74
     0
  0
LTYPE
  5
3C
330
5
100
AcDbSymbolTableRecord
100
AcDbLinetypeTableRecord
  2
DOTTED
 70
     0
  3
Dotted
 72
    65
 73
     2
 40
1.0
 49
0.0
 74
     0
 49
-1.0
 74
     0
  0
LTYPE
  5
3D
330
5
100
AcDbSymbolTableRecord
100
AcDbLinetypeTableRecord
  2
DOT_CENTER
 70
     0
  3
Dot_Center
 72
    65
 73
     4
 40
14.0
 49
12.0
 74
     0
 49
-1.0
 74
     0
 49
0.0
 74
     0
 49
-1.0
 74
     0
  0
LTYPE
  5
3E
330
5
100
AcDbSymbolTableRecord
100
AcDbLinetypeTableRecord
  2
LONG_DASHED
 70
     0
  3
Long_Dashed
 72
    65
 73
     2
 40
15.0
 49
10.0
 74
     0
 49
-5.0
 74
     0
  0
LTYPE
  5
3F
330
5
100
AcDbSymbolTableRecord
100
AcDbLinetypeTableRecord
  2
DASH_CENTER
 70
     0
  3
Dash_Center
 72
    65
 73
     4
 40
14.0
 49
11.0
 74
     0
 49
-1.0
 74
     0
 49
1.0
 74
     0
 49
-1.0
 74
     0
  0
LTYPE
  5
40
330
5
100
AcDbSymbolTableRecord
100
AcDbLinetypeTableRecord
  2
PHANTOM
 70
     0
  3
Phantom
 72
    65
 73
     6
 40
13.0
 49
10.0
 74
     0
 49
-1.0
 74
     0
 49
0.0
 74
     0
 49
-1.0
 74
     0
 49
0.0
 74
     0
 49
-1.0
 74
     0
  0
LTYPE
  5
41
330
5
100
AcDbSymbolTableRecord
100
AcDbLinetypeTableRecord
  2
CENTER_DASH_DASH
 70
     0
  3
Center_Dash_Dash
 72
    65
 73
     6
 40
14.0
 49
9.0
 74
     0
 49
-1.0
 74
     0
 49
1.0
 74
     0
 49
-1.0
 74
     0
 49
1.0
 74
     0
 49
-1.0
 74
     0
  0
ENDTAB
  0
TABLE
  2
LAYER
  5
2
330
0
100
AcDbSymbolTable
 70
     2
  0
LAYER
  5
10
330
2
100
AcDbSymbolTableRecord
100
AcDbLayerTableRecord
  2
0
 70
     0
 62
     7
  6
Continuous
370
    -3
390
F
  0
LAYER
  5
42
330
2
100
AcDbSymbolTableRecord
100
AcDbLayerTableRecord
  2
1
 70
     0
 62
     7
  6
Continuous
370
    -3
390
F
  0
ENDTAB
  0
TABLE
  2
STYLE
  5
3
330
0
100
AcDbSymbolTable
 70
     2
  0
STYLE
  5
11
330
3
100
AcDbSymbolTableRecord
100
AcDbTextStyleTableRecord
  2
Standard
 70
     0
 40
0.0
 41
1.0
 50
0.0
 71
     0
 42
0.2
  3
txt
  4

  0
STYLE
  5
102
330
3
100
AcDbSymbolTableRecord
100
AcDbTextStyleTableRecord
  2
CONVERTER_11
 70
     0
 40
0.0
 41
0.9
 50
0.0
 71
     0
 42
0.2
  3
txt.shx
  4

  0
ENDTAB
  0
TABLE
  2
VIEW
  5
6
330
0
100
AcDbSymbolTable
 70
     0
  0
ENDTAB
  0
TABLE
  2
UCS
  5
7
330
0
100
AcDbSymbolTable
 70
     0
  0
ENDTAB
  0
TABLE
  2
APPID
  5
9
330
0
100
AcDbSymbolTable
 70
     1
  0
APPID
  5
12
330
9
100
AcDbSymbolTableRecord
100
AcDbRegAppTableRecord
  2
ACAD
 70
     0
  0
ENDTAB
  0
TABLE
  2
DIMSTYLE
  5
A
330
0
100
AcDbSymbolTable
 70
     3
100
AcDbDimStyleTable
  0
DIMSTYLE
105
27
330
A
100
AcDbSymbolTableRecord
100
AcDbDimStyleTableRecord
  2
Standard
 70
     0
340
11
  0
DIMSTYLE
105
106
102
{ACAD_REACTORS
330
107
102
}
330
A
100
AcDbSymbolTableRecord
100
AcDbDimStyleTableRecord
  2
ME10_DIM_10
 70
     0
 41
7.0
 42
0.0
 44
2.0
 73
     0
 74
     0
 77
     1
 78
     8
140
7.0
147
2.0
172
     1
173
     1
176
     4
177
     4
178
     1
271
     2
340
102
  0
DIMSTYLE
105
111
102
{ACAD_REACTORS
330
112
102
}
330
A
100
AcDbSymbolTableRecord
100
AcDbDimStyleTableRecord
  2
ME10_DIM_11
 70
     0
  3
x115
 41
7.0
 42
0.0
 44
2.0
 73
     0
 74
     0
 77
     1
 78
     8
140
7.0
147
2.0
172
     1
173
     1
176
     4
177
     4
178
     1
271
     2
340
102
  0
ENDTAB
  0
TABLE
  2
BLOCK_RECORD
  5
1
330
0
100
AcDbSymbolTable
 70
     5
  0
BLOCK_RECORD
  5
1F
330
1
100
AcDbSymbolTableRecord
100
AcDbBlockTableRecord
  2
*Model_Space
340
22
  0
BLOCK_RECORD
  5
1B
330
1
100
AcDbSymbolTableRecord
100
AcDbBlockTableRecord
  2
*Paper_Space
340
1E
  0
BLOCK_RECORD
  5
23
330
1
100
AcDbSymbolTableRecord
100
AcDbBlockTableRecord
  2
*Paper_Space0
340
26
  0
BLOCK_RECORD
  5
43
330
1
100
AcDbSymbolTableRecord
100
AcDbBlockTableRecord
  2
Einlaufrost_115x115__1
340
0
102
{BLKREFS
331
49
102
}
  0
BLOCK_RECORD
  5
46
330
1
100
AcDbSymbolTableRecord
100
AcDbBlockTableRecord
  2
Einlaufrost_115x115__2
340
0
102
{BLKREFS
331
4A
102
}
  0
BLOCK_RECORD
  5
FA
330
1
100
AcDbSymbolTableRecord
100
AcDbBlockTableRecord
  2
*D3
340
0
  0
BLOCK_RECORD
  5
108
330
1
100
AcDbSymbolTableRecord
100
AcDbBlockTableRecord
  2
*D4
340
0
  0
ENDTAB
  0
ENDSEC
  0
SECTION
  2
BLOCKS
  0
BLOCK
  5
20
330
1F
100
AcDbEntity
  8
0
100
AcDbBlockBegin
  2
*Model_Space
 70
     0
 71
     0
 10
0.0
 20
0.0
 30
0.0
  3
*Model_Space
  1

  0
ENDBLK
  5
21
330
1F
100
AcDbEntity
  8
0
100
AcDbBlockEnd
  0
BLOCK
  5
1C
330
1B
100
AcDbEntity
 67
     1
  8
0
100
AcDbBlockBegin
  2
*Paper_Space
 70
     0
 71
     0
 10
0.0
 20
0.0
 30
0.0
  3
*Paper_Space
  1

  0
ENDBLK
  5
1D
330
1B
100
AcDbEntity
 67
     1
  8
0
100
AcDbBlockEnd
  0
BLOCK
  5
24
330
23
100
AcDbEntity
  8
0
100
AcDbBlockBegin
  2
*Paper_Space0
 70
     0
 71
     0
 10
0.0
 20
0.0
 30
0.0
  3
*Paper_Space0
  1

  0
ENDBLK
  5
25
330
23
100
AcDbEntity
  8
0
100
AcDbBlockEnd
  0
BLOCK
  5
44
330
43
100
AcDbEntity
  8
0
100
AcDbBlockBegin
  2
Einlaufrost_115x115__1
 70
     0
 71
     0
 10
-40.22302152774864
 20
-293.4483803846451
 30
0.0
  3
Einlaufrost_115x115__1
  1

  0
POINT
  5
4B
330
43
100
AcDbEntity
  8
1
 62
     3
 60
     1
100
AcDbPoint
 10
-490.6825198004132
 20
-431.188325502433
 30
0.0
  0
POINT
  5
4C
330
43
100
AcDbEntity
  8
1
 62
     3
 60
     1
100
AcDbPoint
 10
-490.6825198004132
 20
-430.188325502433
 30
0.0
  0
POINT
  5
4D
330
43
100
AcDbEntity
  8
1
 62
     3
 60
     1
100
AcDbPoint
 10
-490.5825198004131
 20
-430.443439434257
 30
0.0
  0
POINT
  5
4E
330
43
100
AcDbEntity
  8
1
 62
     3
 60
     1
100
AcDbPoint
 10
-478.6825198004153
 20
-434.94333210894
 30
0.0
  0
POINT
  5
4F
330
43
100
AcDbEntity
  8
1
 62
     3
 60
     1
100
AcDbPoint
 10
-476.6825198004155
 20
-434.94333210894
 30
0.0
  0
POINT
  5
50
330
43
100
AcDbEntity
  8
1
 62
     3
 60
     1
100
AcDbPoint
 10
-541.342860954268
 20
-430.4434394342552
 30
0.0
  0
POINT
  5
51
330
43
100
AcDbEntity
  8
1
 62
     3
 60
     1
100
AcDbPoint
 10
-411.6563295358865
 20
-430.4434394342588
 30
0.0
  0
POINT
  5
52
330
43
100
AcDbEntity
  8
1
 62
     3
 60
     1
100
AcDbPoint
 10
-476.4995952450772
 20
-430.443439434257
 30
0.0
  0
POINT
  5
53
330
43
100
AcDbEntity
  8
1
 62
     3
 60
     1
100
AcDbPoint
 10
-476.6825198004153
 20
-367.8144875426024
 30
0.0
  0
POINT
  5
54
330
43
100
AcDbEntity
  8
1
 62
     3
 60
     1
100
AcDbPoint
 10
-476.6825198004153
 20
-495.3599677347356
 30
0.0
  0
POINT
  5
55
330
43
100
AcDbEntity
  8
1
 62
     3
 60
     1
100
AcDbPoint
 10
-476.6825198004153
 20
-431.587227638669
 30
0.0
  0
POINT
  5
56
330
43
100
AcDbEntity
  8
1
 62
     3
 60
     1
100
AcDbPoint
 10
-452.8355619822797
 20
-426.3954714893478
 30
0.0
  0
POINT
  5
57
330
43
100
AcDbEntity
  8
1
 62
     3
 60
     1
100
AcDbPoint
 10
-526.003239122601
 20
-472.9434394342552
 30
0.0
  0
POINT
  5
58
330
43
100
AcDbEntity
  8
1
 62
     3
 60
     1
100
AcDbPoint
 10
-519.1825198004135
 20
-472.9434394342552
 30
0.0
  0
POINT
  5
59
330
43
100
AcDbEntity
  8
1
 62
     3
 60
     1
100
AcDbPoint
 10
-516.3700395539062
 20
-470.1309591877478
 30
0.0
  0
POINT
  5
5A
330
43
100
AcDbEntity
  8
1
 62
     3
 60
     1
100
AcDbPoint
 10
-464.107911299508
 20
-428.502636313577
 30
0.0
  0
POINT
  5
5B
330
43
100
AcDbEntity
  8
1
 62
     3
 60
     1
100
AcDbPoint
 10
-472.9480864964748
 20
-426.7090061303163
 30
0.0
  0
POINT
  5
5C
330
43
100
AcDbEntity
  8
1
 62
     3
 60
     1
100
AcDbPoint
 10
-469.4248139896217
 20
-423.1857336234633
 30
0.0
  0
POINT
  5
5D
330
43
100
AcDbEntity
  8
1
 62
     3
 60
     1
100
AcDbPoint
 10
-459.5253190530084
 20
-433.0852285600766
 30
0.0
  0
POINT
  5
5E
330
43
100
AcDbEntity
  8
1
 62
     3
 60
     1
100
AcDbPoint
 10
-454.6689164084274
 20
-428.2288259154956
 30
0.0
  0
POINT
  5
5F
330
43
100
AcDbEntity
  8
1
 62
     3
 60
     1
100
AcDbPoint
 10
-427.054077841201
 20
-400.613987348269
 30
0.0
  0
POINT
  5
60
330
43
100
AcDbEntity
  8
1
 62
     3
 60
     1
100
AcDbPoint
 10
-416.686567828892
 20
-400.613987348269
 30
0.0
  0
LINE
  5
61
330
43
100
AcDbEntity
  8
1
  6
DOT_CENTER
 62
     2
100
AcDbLine
 10
-462.6825198004175
 20
-431.188325502433
 30
0.0
 11
-462.6825198004175
 21
-430.188325502433
 31
0.0
  0
LINE
  5
62
330
43
100
AcDbEntity
  8
1
  6
DOT_CENTER
 62
     2
100
AcDbLine
 10
-490.6825198004132
 20
-430.188325502433
 30
0.0
 11
-490.6825198004132
 21
-431.188325502433
 31
0.0
  0
LINE
  5
63
330
43
100
AcDbEntity
  8
1
  6
DOT_CENTER
 62
     2
100
AcDbLine
 10
-476.6825198004155
 20
-434.94333210894
 30
0.0
 11
-478.6825198004153
 21
-434.94333210894
 31
0.0
  0
LINE
  5
64
330
43
100
AcDbEntity
  8
1
  6
DOT_CENTER
 62
     2
100
AcDbLine
 10
-476.6825198004153
 20
-425.9435467595741
 30
0.0
 11
-478.6825198004161
 21
-425.9435467595742
 31
0.0
  0
LINE
  5
65
330
43
100
AcDbEntity
  8
0
  6
Continuous
 62
     7
100
AcDbLine
 10
-480.3325198004131
 20
-432.443439434257
 30
0.0
 11
-480.3325198004131
 21
-428.443439434257
 31
0.0
  0
LINE
  5
66
330
43
100
AcDbEntity
  8
0
  6
Continuous
 62
     7
100
AcDbLine
 10
-473.8325198004131
 20
-431.443439434257
 30
0.0
 11
-473.8325198004131
 21
-428.443439434257
 31
0.0
  0
LINE
  5
67
330
43
100
AcDbEntity
  8
0
  6
Continuous
 62
     7
100
AcDbLine
 10
-473.3325198004131
 20
-431.943439434257
 30
0.0
 11
-472.3325198004131
 21
-431.943439434257
 31
0.0
  0
LINE
  5
68
330
43
100
AcDbEntity
  8
0
  6
Continuous
 62
     7
100
AcDbLine
 10
-474.8325198004131
 20
-432.443439434257
 30
0.0
 11
-474.8325198004131
 21
-428.443439434257
 31
0.0
  0
LINE
  5
69
330
43
100
AcDbEntity
  8
0
  6
Continuous
 62
     7
100
AcDbLine
 10
-474.3325198004131
 20
-432.943439434257
 30
0.0
 11
-472.3325198004131
 21
-432.943439434257
 31
0.0
  0
LINE
  5
6A
330
43
100
AcDbEntity
  8
0
  6
Continuous
 62
     7
100
AcDbLine
 10
-479.3325198004131
 20
-432.443439434257
 30
0.0
 11
-479.3325198004131
 21
-430.943439434257
 31
0.0
  0
LINE
  5
6B
330
43
100
AcDbEntity
  8
0
  6
Continuous
 62
     7
100
AcDbLine
 10
-479.3325198004131
 20
-430.943439434257
 30
0.0
 11
-477.3325198004131
 21
-430.943439434257
 31
0.0
  0
LINE
  5
6C
330
43
100
AcDbEntity
  8
0
  6
Continuous
 62
     7
100
AcDbLine
 10
-479.3325198004131
 20
-429.943439434257
 30
0.0
 11
-477.3325198004131
 21
-429.943439434257
 31
0.0
  0
LINE
  5
6D
330
43
100
AcDbEntity
  8
0
  6
Continuous
 62
     7
100
AcDbLine
 10
-477.3325198004131
 20
-429.943439434257
 30
0.0
 11
-477.3325198004131
 21
-428.443439434257
 31
0.0
  0
LINE
  5
6E
330
43
100
AcDbEntity
  8
0
  6
Continuous
 62
     7
100
AcDbLine
 10
-479.3325198004131
 20
-429.943439434257
 30
0.0
 11
-479.3325198004131
 21
-428.443439434257
 31
0.0
  0
LINE
  5
6F
330
43
100
AcDbEntity
  8
0
  6
Continuous
 62
     7
100
AcDbLine
 10
-477.3325198004131
 20
-432.443439434257
 30
0.0
 11
-477.3325198004131
 21
-430.943439434257
 31
0.0
  0
LINE
  5
70
330
43
100
AcDbEntity
  8
0
  6
Continuous
 62
     7
100
AcDbLine
 10
-476.3325198004131
 20
-432.443439434257
 30
0.0
 11
-476.3325198004131
 21
-428.443439434257
 31
0.0
  0
LINE
  5
71
330
43
100
AcDbEntity
  8
0
  6
Continuous
 62
     7
100
AcDbLine
 10
-488.5825198004131
 20
-430.193439434257
 30
0.0
 11
-482.5825198004131
 21
-430.193439434257
 31
0.0
  0
LINE
  5
72
330
43
100
AcDbEntity
  8
0
  6
Continuous
 62
     7
100
AcDbLine
 10
-488.5825198004131
 20
-430.693439434257
 30
0.0
 11
-482.5825198004131
 21
-430.693439434257
 31
0.0
  0
LINE
  5
73
330
43
100
AcDbEntity
  8
0
  6
Continuous
 62
     7
100
AcDbLine
 10
-464.5825198004131
 20
-430.693439434257
 30
0.0
 11
-464.5825198004131
 21
-430.193439434257
 31
0.0
  0
LINE
  5
74
330
43
100
AcDbEntity
  8
0
  6
Continuous
 62
     7
100
AcDbLine
 10
-488.5825198004131
 20
-430.693439434257
 30
0.0
 11
-488.5825198004131
 21
-430.193439434257
 31
0.0
  0
LINE
  5
75
330
43
100
AcDbEntity
  8
0
  6
Continuous
 62
     7
100
AcDbLine
 10
-470.5825198004131
 20
-430.193439434257
 30
0.0
 11
-464.5825198004131
 21
-430.193439434257
 31
0.0
  0
LINE
  5
76
330
43
100
AcDbEntity
  8
0
  6
Continuous
 62
     7
100
AcDbLine
 10
-470.5825198004131
 20
-430.693439434257
 30
0.0
 11
-470.5825198004131
 21
-430.193439434257
 31
0.0
  0
LINE
  5
77
330
43
100
AcDbEntity
  8
0
  6
Continuous
 62
     7
100
AcDbLine
 10
-470.5825198004131
 20
-430.693439434257
 30
0.0
 11
-464.5825198004131
 21
-430.693439434257
 31
0.0
  0
LINE
  5
78
330
43
100
AcDbEntity
  8
0
  6
Continuous
 62
     7
100
AcDbLine
 10
-482.5825198004131
 20
-430.693439434257
 30
0.0
 11
-482.5825198004131
 21
-430.193439434257
 31
0.0
  0
LINE
  5
79
330
43
100
AcDbEntity
  8
0
  6
Continuous
 62
     7
100
AcDbLine
 10
-507.0881113914371
 20
-436.1002936837455
 30
0.0
 11
-520.5231402339817
 21
-449.5353225262902
 31
0.0
  0
LINE
  5
7A
330
43
100
AcDbEntity
  8
0
  6
Continuous
 62
     7
100
AcDbLine
 10
-502.1383639231322
 20
-436.1002936837444
 30
0.0
 11
-502.1383639231312
 21
-436.1002936837455
 31
0.0
  0
LINE
  5
7B
330
43
100
AcDbEntity
  8
0
  6
Continuous
 62
     7
100
AcDbLine
 10
-515.5733927656748
 20
-454.4850699945965
 30
0.0
 11
-502.1383639231319
 21
-441.05004115205
 31
0.0
  0
LINE
  5
7C
330
43
100
AcDbEntity
  8
0
  6
Continuous
 62
     7
100
AcDbLine
 10
-487.2891215182149
 20
-455.8992835569694
 30
0.0
 11
-500.7241503607588
 21
-469.3343123995132
 31
0.0
  0
LINE
  5
7D
330
43
100
AcDbEntity
  8
0
  6
Continuous
 62
     7
100
AcDbLine
 10
-495.774402892452
 20
-474.2840598678199
 30
0.0
 11
-482.3393740499083
 21
-460.849031025276
 31
0.0
  0
LINE
  5
7E
330
43
100
AcDbEntity
  8
0
  6
Continuous
 62
     7
100
AcDbLine
 10
-529.1825198004153
 20
-487.9434394342552
 30
0.0
 11
-424.1825198004153
 21
-487.9434394342552
 31
0.0
  0
LINE
  5
7F
330
43
100
AcDbEntity
  8
0
  6
Continuous
 62
     7
100
AcDbLine
 10
-424.1825198004152
 20
-372.9434394342551
 30
0.0
 11
-529.1825198004152
 21
-372.9434394342517
 31
0.0
  0
LINE
  5
80
330
43
100
AcDbEntity
  8
0
  6
Continuous
 62
     7
100
AcDbLine
 10
-509.2094317349952
 20
-467.9200988371435
 30
0.0
 11
-488.7033350805846
 21
-447.4140021827329
 31
0.0
  0
LINE
  5
81
330
43
100
AcDbEntity
  8
0
  6
Continuous
 62
     7
100
AcDbLine
 10
-493.6530825488913
 20
-442.4642547144263
 30
0.0
 11
-514.1591792033017
 21
-462.9703513688368
 31
0.0
  0
LINE
  5
82
330
43
100
AcDbEntity
  8
0
  6
Continuous
 62
     7
100
AcDbLine
 10
-534.1825198004153
 20
-377.9434394342517
 30
0.0
 11
-534.1825198004153
 21
-482.9434394342552
 31
0.0
  0
LINE
  5
83
330
43
100
AcDbEntity
  8
0
  6
Continuous
 62
     7
100
AcDbLine
 10
-419.1825198004153
 20
-482.9434394342552
 30
0.0
 11
-419.1825198004153
 21
-377.9434394342551
 31
0.0
  0
LINE
  5
84
330
43
100
AcDbEntity
  8
0
  6
Continuous
 62
     7
100
AcDbLine
 10
-464.661704520246
 20
-447.4140021827329
 30
0.0
 11
-444.1556078658355
 21
-467.9200988371434
 31
0.0
  0
LINE
  5
85
330
43
100
AcDbEntity
  8
0
  6
Continuous
 62
     7
100
AcDbLine
 10
-439.2058603975289
 20
-462.9703513688368
 30
0.0
 11
-459.7119570519394
 21
-442.4642547144263
 31
0.0
  0
LINE
  5
86
330
43
100
AcDbEntity
  8
0
  6
Continuous
 62
     7
100
AcDbLine
 10
-432.8418993668524
 20
-449.5353225262937
 30
0.0
 11
-446.2769282093963
 21
-436.1002936837498
 31
0.0
  0
LINE
  5
87
330
43
100
AcDbEntity
  8
0
  6
Continuous
 62
     7
100
AcDbLine
 10
-451.2266756777029
 20
-441.0500411520566
 30
0.0
 11
-437.7916468351591
 21
-454.4850699946004
 31
0.0
  0
LINE
  5
88
330
43
100
AcDbEntity
  8
0
  6
Continuous
 62
     7
100
AcDbLine
 10
-452.6408892400759
 20
-469.3343123995165
 30
0.0
 11
-466.0759180826224
 21
-455.8992835569735
 31
0.0
  0
LINE
  5
89
330
43
100
AcDbEntity
  8
0
  6
Continuous
 62
     7
100
AcDbLine
 10
-471.0256655509279
 20
-455.8992835569738
 30
0.0
 11
-471.0256655509269
 21
-455.8992835569728
 31
0.0
  0
LINE
  5
8A
330
43
100
AcDbEntity
  8
0
  6
Continuous
 62
     7
100
AcDbLine
 10
-471.0256655509269
 20
-460.8490310252786
 30
0.0
 11
-457.5906367083821
 21
-474.2840598678234
 31
0.0
  0
LINE
  5
8B
330
43
100
AcDbEntity
  8
0
  6
Continuous
 62
     7
100
AcDbLine
 10
-459.7119570519393
 20
-418.4226241540875
 30
0.0
 11
-439.2058603975288
 21
-397.9165274996769
 31
0.0
  0
LINE
  5
8C
330
43
100
AcDbEntity
  8
0
  6
Continuous
 62
     7
100
AcDbLine
 10
-444.1556078658353
 20
-392.9667800313704
 30
0.0
 11
-464.661704520246
 21
-413.4728766857809
 31
0.0
  0
LINE
  5
8D
330
43
100
AcDbEntity
  8
0
  6
Continuous
 62
     7
100
AcDbLine
 10
-457.5906367083784
 20
-386.602819000694
 30
0.0
 11
-471.0256655509224
 21
-400.0378478432379
 31
0.0
  0
LINE
  5
8E
330
43
100
AcDbEntity
  8
0
  6
Continuous
 62
     7
100
AcDbLine
 10
-466.0759180826157
 20
-404.9875953115446
 30
0.0
 11
-452.6408892400718
 21
-391.5525664690007
 31
0.0
  0
LINE
  5
8F
330
43
100
AcDbEntity
  8
0
  6
Continuous
 62
     7
100
AcDbLine
 10
-437.7916468351558
 20
-406.4018088739174
 30
0.0
 11
-451.2266756776987
 21
-419.8368377164638
 31
0.0
  0
LINE
  5
90
330
43
100
AcDbEntity
  8
0
  6
Continuous
 62
     7
100
AcDbLine
 10
-451.2266756776984
 20
-424.7865851847694
 30
0.0
 11
-451.2266756776995
 21
-424.7865851847683
 31
0.0
  0
LINE
  5
91
330
43
100
AcDbEntity
  8
0
  6
Continuous
 62
     7
100
AcDbLine
 10
-446.2769282093936
 20
-424.7865851847683
 30
0.0
 11
-432.841899366849
 21
-411.3515563422237
 31
0.0
  0
LINE
  5
92
330
43
100
AcDbEntity
  8
0
  6
Continuous
 62
     7
100
AcDbLine
 10
-488.7033350805846
 20
-413.4728766857808
 30
0.0
 11
-509.2094317349954
 21
-392.9667800313703
 31
0.0
  0
LINE
  5
93
330
43
100
AcDbEntity
  8
0
  6
Continuous
 62
     7
100
AcDbLine
 10
-514.1591792033018
 20
-397.9165274996769
 30
0.0
 11
-493.6530825488914
 21
-418.4226241540876
 31
0.0
  0
LINE
  5
94
330
43
100
AcDbEntity
  8
0
  6
Continuous
 62
     7
100
AcDbLine
 10
-520.5231402339783
 20
-411.35155634222
 30
0.0
 11
-507.0881113914344
 21
-424.786585184764
 31
0.0
  0
LINE
  5
95
330
43
100
AcDbEntity
  8
0
  6
Continuous
 62
     7
100
AcDbLine
 10
-502.1383639231278
 20
-419.8368377164573
 30
0.0
 11
-515.5733927656717
 21
-406.4018088739134
 31
0.0
  0
LINE
  5
96
330
43
100
AcDbEntity
  8
0
  6
Continuous
 62
     7
100
AcDbLine
 10
-500.7241503607549
 20
-391.5525664689972
 30
0.0
 11
-487.2891215182083
 21
-404.9875953115402
 31
0.0
  0
LINE
  5
97
330
43
100
AcDbEntity
  8
0
  6
Continuous
 62
     7
100
AcDbLine
 10
-482.3393740499028
 20
-404.9875953115399
 30
0.0
 11
-482.3393740499039
 21
-404.987595311541
 31
0.0
  0
LINE
  5
98
330
43
100
AcDbEntity
  8
0
  6
Continuous
 62
     7
100
AcDbLine
 10
-482.3393740499039
 20
-400.0378478432352
 30
0.0
 11
-495.7744028924486
 21
-386.6028190006903
 31
0.0
  0
ARC
  5
99
330
43
100
AcDbEntity
  8
0
  6
Continuous
 62
     7
100
AcDbCircle
 10
-474.3325198004131
 20
-428.443439434257
 30
0.0
 40
0.5
100
AcDbArc
 50
0.0
 51
90.0
  0
ARC
  5
9A
330
43
100
AcDbEntity
  8
0
  6
Continuous
 62
     7
100
AcDbCircle
 10
-472.3325198004131
 20
-432.443439434257
 30
0.0
 40
0.5
100
AcDbArc
 50
-90.0
 51
90.0
  0
ARC
  5
9B
330
43
100
AcDbEntity
  8
0
  6
Continuous
 62
     7
100
AcDbCircle
 10
-473.3325198004131
 20
-431.443439434257
 30
0.0
 40
0.5
100
AcDbArc
 50
180.0
 51
-90.0
  0
ARC
  5
9C
330
43
100
AcDbEntity
  8
0
  6
Continuous
 62
     7
100
AcDbCircle
 10
-474.3325198004131
 20
-432.443439434257
 30
0.0
 40
0.5
100
AcDbArc
 50
180.0
 51
-90.0
  0
ARC
  5
9D
330
43
100
AcDbEntity
  8
0
  6
Continuous
 62
     7
100
AcDbCircle
 10
-479.8325198004131
 20
-432.443439434257
 30
0.0
 40
0.5
100
AcDbArc
 50
180.0
 51
0.0
  0
ARC
  5
9E
330
43
100
AcDbEntity
  8
0
  6
Continuous
 62
     7
100
AcDbCircle
 10
-474.3325198004131
 20
-428.443439434257
 30
0.0
 40
0.5
100
AcDbArc
 50
90.0
 51
180.0
  0
ARC
  5
9F
330
43
100
AcDbEntity
  8
0
  6
Continuous
 62
     7
100
AcDbCircle
 10
-476.8325198004131
 20
-428.443439434257
 30
0.0
 40
0.5
100
AcDbArc
 50
0.0
 51
180.0
  0
ARC
  5
A0
330
43
100
AcDbEntity
  8
0
  6
Continuous
 62
     7
100
AcDbCircle
 10
-479.8325198004131
 20
-428.443439434257
 30
0.0
 40
0.5
100
AcDbArc
 50
0.0
 51
180.0
  0
ARC
  5
A1
330
43
100
AcDbEntity
  8
0
  6
Continuous
 62
     7
100
AcDbCircle
 10
-476.8325198004131
 20
-432.443439434257
 30
0.0
 40
0.5
100
AcDbArc
 50
180.0
 51
0.0
  0
SPLINE
  5
A2
330
43
100
AcDbEntity
  8
1
  6
Continuous
 62
     7
100
AcDbSpline
210
0.0
220
0.0
230
1.0
 70
     8
 71
     3
 72
    45
 73
    41
 74
    39
 42
0.0000000001
 43
0.0000000001
 44
0.00000001
 40
0.0
 40
0.0
 40
0.0
 40
0.0
 40
0.6036889123493713
 40
1.207496415147629
 40
2.398576041226879
 40
3.589682797808762
 40
4.732295557651636
 40
5.874970613017967
 40
6.939082821620557
 40
8.003315836006067
 40
8.962459155742103
 40
9.921823909511417
 40
10.75502599184482
 40
11.58871162246221
 40
12.2834369979548
 40
12.97904405711663
 40
13.5372234572746
 40
14.09829922635939
 40
14.54712557698896
 40
15.00000547341796
 40
15.40550218408721
 40
15.81099889475652
 40
16.26387879118556
 40
16.71270514181539
 40
17.27378091090018
 40
17.83196031105813
 40
18.52756737022014
 40
19.2222927457125
 40
20.05597837632981
 40
20.88918045866328
 40
21.84854521243278
 40
22.8076885321687
 40
23.87192154655409
 40
24.93603375515667
 40
26.07870881052304
 40
27.22132157036587
 40
28.41242832694792
 40
29.60350795302745
 40
30.20731545583173
 40
30.81100436818701
 40
30.81100436818701
 40
30.81100436818701
 40
30.81100436818701
 10
-476.6825198004244
 20
-434.9433321089398
 30
0.0
 10
-476.8837511750729
 20
-434.9425109308714
 30
0.0
 10
-477.2862534548607
 20
-434.9408684134197
 30
0.0
 10
-478.0856264662462
 20
-434.923560911172
 30
0.0
 10
-479.0802033914163
 20
-434.8815868353472
 30
0.0
 10
-480.2523632416923
 20
-434.7983892751908
 30
0.0
 10
-481.4054219760935
 20
-434.681514566309
 30
0.0
 10
-482.5124232888646
 20
-434.5348645709637
 30
0.0
 10
-483.5880408952644
 20
-434.3550941122677
 30
0.0
 10
-484.5968222722151
 20
-434.1499380132858
 30
0.0
 10
-485.5625446803605
 20
-433.9124553553601
 30
0.0
 10
-486.4435155958757
 20
-433.655687820284
 30
0.0
 10
-487.2704268393722
 20
-433.3673052127872
 30
0.0
 10
-487.9988987911609
 20
-433.0672722965558
 30
0.0
 10
-488.6626904422857
 20
-432.7359850490081
 30
0.0
 10
-489.2205109365789
 20
-432.4010991272287
 30
0.0
 10
-489.7030902702717
 20
-432.0344397617548
 30
0.0
 10
-490.0788214494053
 20
-431.6683332176094
 30
0.0
 10
-490.3667920579497
 20
-431.2707719569485
 30
0.0
 10
-490.5352873717046
 20
-430.8648341574415
 30
0.0
 10
-490.604832377806
 20
-430.4434394342569
 30
0.0
 10
-490.5352873717048
 20
-430.0220447110722
 30
0.0
 10
-490.3667920579497
 20
-429.6161069115651
 30
0.0
 10
-490.0788214494052
 20
-429.218545650904
 30
0.0
 10
-489.7030902702715
 20
-428.8524391067587
 30
0.0
 10
-489.2205109365786
 20
-428.4857797412846
 30
0.0
 10
-488.6626904422858
 20
-428.1508938195053
 30
0.0
 10
-487.9988987911605
 20
-427.8196065719578
 30
0.0
 10
-487.2704268393724
 20
-427.519573655726
 30
0.0
 10
-486.4435155958753
 20
-427.2311910482297
 30
0.0
 10
-485.5625446803603
 20
-426.9744235131535
 30
0.0
 10
-484.5968222722147
 20
-426.7369408552277
 30
0.0
 10
-483.5880408952642
 20
-426.5317847562459
 30
0.0
 10
-482.5124232888645
 20
-426.3520142975499
 30
0.0
 10
-481.4054219760935
 20
-426.2053643022049
 30
0.0
 10
-480.2523632416919
 20
-426.0884895933229
 30
0.0
 10
-479.080203391416
 20
-426.0052920331665
 30
0.0
 10
-478.0856264662436
 20
-425.963317957342
 30
0.0
 10
-477.2862534548541
 20
-425.9460104550939
 30
0.0
 10
-476.8837511750623
 20
-425.9443679376424
 30
0.0
 10
-476.6825198004119
 20
-425.9435467595741
 30
0.0
 11
-476.6825198004244
 21
-434.9433321089398
 31
0.0
 11
-477.2861938873296
 21
-434.9391013060898
 31
0.0
 11
-477.8898679742347
 21
-434.92640889754
 31
0.0
 11
-479.0798762619359
 21
-434.8759019587731
 31
0.0
 11
-480.2679643743736
 21
-434.7911556157304
 31
0.0
 11
-481.4047300426345
 21
-434.6757098084482
 31
0.0
 11
-482.5373978875638
 21
-434.5248130383708
 31
0.0
 11
-483.5868836896566
 21
-434.3489882855555
 31
0.0
 11
-484.6295004994038
 21
-434.1355823415408
 31
0.0
 11
-485.5607389862141
 21
-433.9059069434734
 31
0.0
 11
-486.4811907629191
 21
-433.6354457493338
 31
0.0
 11
-487.2676091731612
 21
-433.3601789804766
 31
0.0
 11
-488.0372161778446
 21
-433.0396531795803
 31
0.0
 11
-488.6581974385608
 21
-432.7281638199024
 31
0.0
 11
-489.2519900693812
 21
-432.3658387002389
 31
0.0
 11
-489.6950012494956
 21
-432.0262723045894
 31
0.0
 11
-490.0923926925091
 21
-431.6301838552832
 31
0.0
 11
-490.350809838281
 21
-431.2632156389612
 31
0.0
 11
-490.5237439306421
 21
-430.8446538152257
 31
0.0
 11
-490.582519800413
 21
-430.4434394342568
 31
0.0
 11
-490.5237439306421
 21
-430.0422250532879
 31
0.0
 11
-490.3508098382811
 21
-429.6236632295523
 31
0.0
 11
-490.0923926925088
 21
-429.2566950132302
 31
0.0
 11
-489.6950012494954
 21
-428.8606065639241
 31
0.0
 11
-489.2519900693811
 21
-428.5210401682745
 31
0.0
 11
-488.6581974385605
 21
-428.1587150486109
 31
0.0
 11
-488.0372161778445
 21
-427.8472256889331
 31
0.0
 11
-487.2676091731611
 21
-427.5266998880369
 31
0.0
 11
-486.481190762919
 21
-427.2514331191799
 31
0.0
 11
-485.5607389862138
 21
-426.9809719250402
 31
0.0
 11
-484.6295004994035
 21
-426.7512965269727
 31
0.0
 11
-483.5868836896565
 21
-426.5378905829581
 31
0.0
 11
-482.5373978875637
 21
-426.3620658301429
 31
0.0
 11
-481.4047300426344
 21
-426.2111690600657
 31
0.0
 11
-480.2679643743735
 21
-426.0957232527833
 31
0.0
 11
-479.0798762619356
 21
-426.0109769097406
 31
0.0
 11
-477.8898679742341
 21
-425.9604699709739
 31
0.0
 11
-477.286193887323
 21
-425.947777562424
 31
0.0
 11
-476.6825198004119
 21
-425.9435467595741
 31
0.0
  0
SPLINE
  5
A3
330
43
100
AcDbEntity
  8
1
  6
Continuous
 62
     7
100
AcDbSpline
210
0.0
220
0.0
230
1.0
 70
     8
 71
     3
 72
    27
 73
    23
 74
    21
 42
0.0000000001
 43
0.0000000001
 44
0.00000001
 40
0.0
 40
0.0
 40
0.0
 40
0.0
 40
0.603688912352384
 40
1.207496415153769
 40
2.398576041232901
 40
3.589682797814562
 40
4.732295557657389
 40
5.874970613023657
 40
6.939082821626144
 40
8.003315836011499
 40
8.962459155747604
 40
9.921823909517013
 40
10.75502599185048
 40
11.58871162246787
 40
12.28343699796036
 40
12.97904405712223
 40
13.5372234572802
 40
14.09829922636482
 40
14.54712557699431
 40
15.00000547342335
 40
15.40550218409251
 40
15.81099889476169
 40
15.81099889476169
 40
15.81099889476169
 40
15.81099889476169
 10
-476.6825198004119
 20
-425.9435467595741
 30
0.0
 10
-476.4812884257624
 20
-425.9443679376426
 30
0.0
 10
-476.0787861459723
 20
-425.9460104550941
 30
0.0
 10
-475.2794131345868
 20
-425.9633179573415
 30
0.0
 10
-474.2848362094005
 20
-426.0052920331708
 30
0.0
 10
-473.1126763591869
 20
-426.0884895933083
 30
0.0
 10
-471.9596176245647
 20
-426.2053643022582
 30
0.0
 10
-470.852616312591
 20
-426.3520142973566
 30
0.0
 10
-469.7769987034113
 20
-426.5317847569136
 30
0.0
 10
-468.768217336343
 20
-426.7369408528356
 30
0.0
 10
-467.8024948947767
 20
-426.9744235211106
 30
0.0
 10
-466.9215240958584
 20
-427.2311910200801
 30
0.0
 10
-466.0946124713302
 20
-427.5195737455707
 30
0.0
 10
-465.3661418216525
 20
-427.8196062585768
 30
0.0
 10
-464.7023460727206
 20
-428.1508947750954
 30
0.0
 10
-464.144539299875
 20
-428.4857764477443
 30
0.0
 10
-463.6619181802074
 20
-428.8524487531118
 30
0.0
 10
-463.2863259955288
 20
-429.2185122547422
 30
0.0
 10
-462.9979322852234
 20
-429.6162045376359
 30
0.0
 10
-462.8308966727336
 20
-430.0216903103799
 30
0.0
 10
-462.7564295663217
 20
-430.4446092639834
 30
0.0
 10
-462.8130069688995
 20
-430.7113056314784
 30
0.0
 10
-462.8412956701884
 20
-430.8446538152259
 30
0.0
 11
-476.6825198004119
 21
-425.9435467595741
 31
0.0
 11
-476.0788457135037
 21
-425.9477775624241
 31
0.0
 11
-475.4751716265955
 21
-425.960469970974
 31
0.0
 11
-474.2851633388944
 21
-426.0109769097407
 31
0.0
 11
-473.0970752264569
 21
-426.0957232527835
 31
0.0
 11
-471.9603095581961
 21
-426.2111690600659
 31
0.0
 11
-470.8276417132669
 21
-426.3620658301432
 31
0.0
 11
-469.7781559111741
 21
-426.5378905829585
 31
0.0
 11
-468.7355391014272
 21
-426.7512965269732
 31
0.0
 11
-467.8043006146167
 21
-426.9809719250408
 31
0.0
 11
-466.8838488379116
 21
-427.2514331191803
 31
0.0
 11
-466.0974304276695
 21
-427.5266998880374
 31
0.0
 11
-465.3278234229861
 21
-427.8472256889336
 31
0.0
 11
-464.70684216227
 21
-428.1587150486117
 31
0.0
 11
-464.1130495314496
 21
-428.5210401682752
 31
0.0
 11
-463.6700383513354
 21
-428.860606563925
 31
0.0
 11
-463.272646908322
 21
-429.256695013231
 31
0.0
 11
-463.0142297625499
 21
-429.6236632295528
 31
0.0
 11
-462.8412956701887
 21
-430.0422250532883
 31
0.0
 11
-462.7825198004176
 21
-430.4434394342571
 31
0.0
 11
-462.8412956701884
 21
-430.8446538152259
 31
0.0
  0
SPLINE
  5
A4
330
43
100
AcDbEntity
  8
1
  6
Continuous
 62
     7
100
AcDbSpline
210
0.0
220
0.0
230
1.0
 70
     8
 71
     3
 72
    25
 73
    21
 74
    19
 42
0.0000000001
 43
0.0000000001
 44
0.00000001
 40
0.0
 40
0.0
 40
0.0
 40
0.0
 40
0.4528798964291696
 40
0.9017062470590487
 40
1.462782016144074
 40
2.020961416301956
 40
2.716568475463762
 40
3.411293850956353
 40
4.24497948157385
 40
5.078181563907265
 40
6.037546317676563
 40
6.99668963741253
 40
8.060922651797984
 40
9.125034860400564
 40
10.26770991576687
 40
11.4103226756097
 40
12.60142943219141
 40
13.79250905827071
 40
14.39631656107801
 40
15.00000547343641
 40
15.00000547343641
 40
15.00000547343641
 40
15.00000547343641
 10
-462.8412956701884
 20
-430.8446538152259
 30
0.0
 10
-462.8922157400535
 20
-430.9875994027843
 30
0.0
 10
-462.993600114719
 20
-431.2722111294414
 30
0.0
 10
-463.2878079549076
 20
-431.6678409019978
 30
0.0
 10
-463.6614901219766
 20
-432.0345819652144
 30
0.0
 10
-464.144685451227
 20
-432.4010505748918
 30
0.0
 10
-464.7023036683014
 20
-432.7359991360061
 30
0.0
 10
-465.3661557279964
 20
-433.0672676767871
 30
0.0
 10
-466.0946084844846
 20
-433.3673065372416
 30
0.0
 10
-466.9215253450203
 20
-433.6556874053057
 30
0.0
 10
-467.8024945417035
 20
-433.9124554726537
 30
0.0
 10
-468.7682174425271
 20
-434.1499379780109
 30
0.0
 10
-469.7769986737952
 20
-434.3550941221068
 30
0.0
 10
-470.8526163211806
 20
-434.5348645681108
 30
0.0
 10
-471.9596176221979
 20
-434.6815145670956
 30
0.0
 10
-473.1126763598525
 20
-434.79838927497
 30
0.0
 10
-474.2848362092157
 20
-434.881586835409
 30
0.0
 10
-475.2794131346125
 20
-434.9235609111643
 30
0.0
 10
-476.0787861459747
 20
-434.9408684134214
 30
0.0
 10
-476.4812884257714
 20
-434.9425109308718
 30
0.0
 10
-476.6825198004244
 20
-434.9433321089398
 30
0.0
 11
-462.8412956701884
 21
-430.8446538152259
 31
0.0
 11
-463.0142297625495
 21
-431.2632156389616
 31
0.0
 11
-463.2726469083217
 21
-431.6301838552837
 31
0.0
 11
-463.6700383513354
 21
-432.0262723045901
 31
0.0
 11
-464.1130495314496
 21
-432.3658387002396
 31
0.0
 11
-464.70684216227
 21
-432.728163819903
 31
0.0
 11
-465.3278234229863
 21
-433.039653179581
 31
0.0
 11
-466.0974304276698
 21
-433.3601789804772
 31
0.0
 11
-466.8838488379119
 21
-433.6354457493343
 31
0.0
 11
-467.8043006146169
 21
-433.9059069434738
 31
0.0
 11
-468.7355391014272
 21
-434.1355823415412
 31
0.0
 11
-469.7781559111743
 21
-434.3489882855559
 31
0.0
 11
-470.8276417132672
 21
-434.5248130383711
 31
0.0
 11
-471.9603095581964
 21
-434.6757098084483
 31
0.0
 11
-473.0970752264573
 21
-434.7911556157307
 31
0.0
 11
-474.2851633388948
 21
-434.8759019587733
 31
0.0
 11
-475.4751716265961
 21
-434.9264088975401
 31
0.0
 11
-476.0788457135102
 21
-434.9391013060899
 31
0.0
 11
-476.6825198004244
 21
-434.9433321089398
 31
0.0
  0
XLINE
  5
A5
330
43
100
AcDbEntity
  8
1
  6
DOT_CENTER
 62
     3
 60
     1
100
AcDbXline
 10
-476.6825198004153
 20
-495.3599677347356
 30
0.0
 11
0.0
 21
1.0
 31
0.0
  0
XLINE
  5
A6
330
43
100
AcDbEntity
  8
1
  6
DOT_CENTER
 62
     3
 60
     1
100
AcDbXline
 10
-476.4995952450772
 20
-430.443439434257
 30
0.0
 11
-2.761378031368433E-14
 21
-1.0
 31
0.0
  0
XLINE
  5
A7
330
43
100
AcDbEntity
  8
1
  6
DOT_CENTER
 62
     3
 60
     1
100
AcDbXline
 10
-476.4995952450772
 20
-430.443439434257
 30
0.0
 11
1.0
 21
0.0
 31
0.0
  0
XLINE
  5
A8
330
43
100
AcDbEntity
  8
1
  6
DOT_CENTER
 62
     3
 60
     1
100
AcDbXline
 10
-476.6825198004153
 20
-431.587227638669
 30
0.0
 11
-1.0
 21
0.0
 31
0.0
  0
XLINE
  5
A9
330
43
100
AcDbEntity
  8
1
  6
DOT_CENTER
 62
     3
 60
     1
100
AcDbXline
 10
-476.6825198004153
 20
-431.587227638669
 30
0.0
 11
0.0
 21
1.0
 31
0.0
  0
ARC
  5
AA
330
43
100
AcDbEntity
  8
1
  6
Continuous
 62
     7
100
AcDbCircle
 10
-518.0482664998245
 20
-408.8766826080662
 30
0.0
 40
3.499999999999988
100
AcDbArc
 50
134.999999999852
 51
-134.9999999999993
  0
ARC
  5
AB
330
43
100
AcDbEntity
  8
1
  6
Continuous
 62
     7
100
AcDbCircle
 10
-518.0482664998245
 20
-408.8766826080662
 30
0.0
 40
3.499999999999868
100
AcDbArc
 50
44.99999999999869
 51
134.999999999852
  0
ARC
  5
AC
330
43
100
AcDbEntity
  8
1
  6
Continuous
 62
     7
100
AcDbCircle
 10
-511.6843054691482
 20
-395.4416537655232
 30
0.0
 40
3.499999999999908
100
AcDbArc
 50
135.0000000001546
 51
-134.9999999999993
  0
ARC
  5
AD
330
43
100
AcDbEntity
  8
1
  6
Continuous
 62
     7
100
AcDbCircle
 10
-511.6843054691482
 20
-395.4416537655232
 30
0.0
 40
3.499999999999908
100
AcDbArc
 50
45.00000000000066
 51
135.0000000001546
  0
ARC
  5
AE
330
43
100
AcDbEntity
  8
1
  6
Continuous
 62
     7
100
AcDbCircle
 10
-491.1782088147384
 20
-415.9477504199347
 30
0.0
 40
3.499999999999908
100
AcDbArc
 50
-44.99999999985064
 51
45.00000000000131
  0
ARC
  5
AF
330
43
100
AcDbEntity
  8
1
  6
Continuous
 62
     7
100
AcDbCircle
 10
-491.1782088147384
 20
-415.9477504199347
 30
0.0
 40
3.500000000000028
100
AcDbArc
 50
-135.0000000000013
 51
-44.99999999985064
  0
ARC
  5
B0
330
43
100
AcDbEntity
  8
1
  6
Continuous
 62
     7
100
AcDbCircle
 10
-504.6132376572815
 20
-422.311711450611
 30
0.0
 40
3.500000000000028
100
AcDbArc
 50
-45.00000000014476
 51
45.00000000000066
  0
ARC
  5
B1
330
43
100
AcDbEntity
  8
1
  6
Continuous
 62
     7
100
AcDbCircle
 10
-504.6132376572815
 20
-422.311711450611
 30
0.0
 40
3.500000000000028
100
AcDbArc
 50
-134.9999999999987
 51
-45.00000000014476
  0
ARC
  5
B2
330
43
100
AcDbEntity
  8
1
  6
Continuous
 62
     7
100
AcDbCircle
 10
-462.1868307860931
 20
-444.93912844858
 30
0.0
 40
3.500000000001073
100
AcDbArc
 50
45.0
 51
135.000000000148
  0
ARC
  5
B3
330
43
100
AcDbEntity
  8
1
  6
Continuous
 62
     7
100
AcDbCircle
 10
-462.1868307860931
 20
-444.93912844858
 30
0.0
 40
3.499999999999988
100
AcDbArc
 50
135.000000000148
 51
-135.0000000000007
  0
ARC
  5
B4
330
43
100
AcDbEntity
  8
1
  6
Continuous
 62
     7
100
AcDbCircle
 10
-468.5507918167739
 20
-458.3741572911257
 30
0.0
 40
3.500000000000028
100
AcDbArc
 50
135.0000000000013
 51
-135.0000000000013
  0
ARC
  5
B5
330
43
100
AcDbEntity
  8
1
  6
Continuous
 62
     7
100
AcDbCircle
 10
-468.550791816775
 20
-458.3741572911267
 30
0.0
 40
3.499999999999988
100
AcDbArc
 50
45.00000000000724
 51
134.9999999999993
  0
ARC
  5
B6
330
43
100
AcDbEntity
  8
1
  6
Continuous
 62
     7
100
AcDbCircle
 10
-448.7518019435492
 20
-438.5751674179028
 30
0.0
 40
3.499999999999988
100
AcDbArc
 50
134.9999999998546
 51
-134.999999999998
  0
ARC
  5
B7
330
43
100
AcDbEntity
  8
1
  6
Continuous
 62
     7
100
AcDbCircle
 10
-448.7518019435492
 20
-438.5751674179028
 30
0.0
 40
3.500000000000028
100
AcDbArc
 50
45.00000000000131
 51
134.9999999998546
  0
ARC
  5
B8
330
43
100
AcDbEntity
  8
1
  6
Continuous
 62
     7
100
AcDbCircle
 10
-435.3167731010062
 20
-452.0101962604475
 30
0.0
 40
3.500000000000068
100
AcDbArc
 50
-45.00000000014411
 51
44.99999999999935
  0
ARC
  5
B9
330
43
100
AcDbEntity
  8
1
  6
Continuous
 62
     7
100
AcDbCircle
 10
-435.3167731010062
 20
-452.0101962604475
 30
0.0
 40
3.499999999999948
100
AcDbArc
 50
-135.0
 51
-45.00000000014411
  0
ARC
  5
BA
330
43
100
AcDbEntity
  8
1
  6
Continuous
 62
     7
100
AcDbCircle
 10
-441.6807341316825
 20
-465.4452251029904
 30
0.0
 40
3.499999999999988
100
AcDbArc
 50
-44.99999999984932
 51
44.99999999999935
  0
ARC
  5
BB
330
43
100
AcDbEntity
  8
1
  6
Continuous
 62
     7
100
AcDbCircle
 10
-441.6807341316825
 20
-465.4452251029904
 30
0.0
 40
3.500000000000149
100
AcDbArc
 50
-134.9999999999993
 51
-44.99999999984932
  0
ARC
  5
BC
330
43
100
AcDbEntity
  8
1
  6
Continuous
 62
     7
100
AcDbCircle
 10
-455.1157629742291
 20
-471.8091861336704
 30
0.0
 40
3.499999999999988
100
AcDbArc
 50
-45.00000000015068
 51
45.00000000000855
  0
ARC
  5
BD
330
43
100
AcDbEntity
  8
1
  6
Continuous
 62
     7
100
AcDbCircle
 10
-455.1157629742291
 20
-471.8091861336704
 30
0.0
 40
3.500000000000109
100
AcDbArc
 50
-135.0
 51
-45.00000000015068
  0
ARC
  5
BE
330
43
100
AcDbEntity
  8
1
  6
Continuous
 62
     7
100
AcDbCircle
 10
-462.1868307860922
 20
-415.9477504199347
 30
0.0
 40
3.500000000001315
100
AcDbArc
 50
135.0
 51
-134.9999999998533
  0
ARC
  5
BF
330
43
100
AcDbEntity
  8
1
  6
Continuous
 62
     7
100
AcDbCircle
 10
-462.1868307860922
 20
-415.9477504199347
 30
0.0
 40
3.500000000000068
100
AcDbArc
 50
-134.9999999998533
 51
-44.99999999999869
  0
ARC
  5
C0
330
43
100
AcDbEntity
  8
1
  6
Continuous
 62
     7
100
AcDbCircle
 10
-448.7518019435455
 20
-422.3117114506164
 30
0.0
 40
3.499999999999988
100
AcDbArc
 50
135.0000000000072
 51
-134.999999999998
  0
ARC
  5
C1
330
43
100
AcDbEntity
  8
1
  6
Continuous
 62
     7
100
AcDbCircle
 10
-448.7518019435465
 20
-422.3117114506154
 30
0.0
 40
3.500000000000028
100
AcDbArc
 50
-135.0000000000013
 51
-44.99999999999935
  0
ARC
  5
C2
330
43
100
AcDbEntity
  8
1
  6
Continuous
 62
     7
100
AcDbCircle
 10
-435.3167731010026
 20
-408.87668260807
 30
0.0
 40
3.500000000001033
100
AcDbArc
 50
-45.00000000000198
 51
44.99999999985393
  0
ARC
  5
C3
330
43
100
AcDbEntity
  8
1
  6
Continuous
 62
     7
100
AcDbCircle
 10
-435.3167731010026
 20
-408.87668260807
 30
0.0
 40
3.499999999999948
100
AcDbArc
 50
44.99999999985393
 51
135.0000000000072
  0
ARC
  5
C4
330
43
100
AcDbEntity
  8
1
  6
Continuous
 62
     7
100
AcDbCircle
 10
-441.6807341316824
 20
-395.4416537655233
 30
0.0
 40
3.500000000000953
100
AcDbArc
 50
-44.99999999999935
 51
45.00000000015397
  0
ARC
  5
C5
330
43
100
AcDbEntity
  8
1
  6
Continuous
 62
     7
100
AcDbCircle
 10
-441.6807341316824
 20
-395.4416537655233
 30
0.0
 40
3.500000000000028
100
AcDbArc
 50
45.00000000015397
 51
134.9999999999993
  0
ARC
  5
C6
330
43
100
AcDbEntity
  8
1
  6
Continuous
 62
     7
100
AcDbCircle
 10
-455.1157629742256
 20
-389.077692734847
 30
0.0
 40
3.500000000001194
100
AcDbArc
 50
-44.99999999999802
 51
44.99999999985459
  0
ARC
  5
C7
330
43
100
AcDbEntity
  8
1
  6
Continuous
 62
     7
100
AcDbCircle
 10
-455.1157629742256
 20
-389.077692734847
 30
0.0
 40
3.500000000000068
100
AcDbArc
 50
44.99999999985459
 51
134.9999999999974
  0
ARC
  5
C8
330
43
100
AcDbEntity
  8
1
  6
Continuous
 62
     7
100
AcDbCircle
 10
-468.5507918167695
 20
-402.5127215773908
 30
0.0
 40
3.500000000000068
100
AcDbArc
 50
-135.0000000001441
 51
-45.00000000000066
  0
ARC
  5
C9
330
43
100
AcDbEntity
  8
1
  6
Continuous
 62
     7
100
AcDbCircle
 10
-468.5507918167695
 20
-402.5127215773908
 30
0.0
 40
3.499999999999948
100
AcDbArc
 50
135.0
 51
-135.0000000001441
  0
ARC
  5
CA
330
43
100
AcDbEntity
  8
1
  6
Continuous
 62
     7
100
AcDbCircle
 10
-498.2492766266016
 20
-389.0776927348432
 30
0.0
 40
3.499999999999988
100
AcDbArc
 50
134.9999999998493
 51
-134.9999999999914
  0
ARC
  5
CB
330
43
100
AcDbEntity
  8
1
  6
Continuous
 62
     7
100
AcDbCircle
 10
-498.2492766266016
 20
-389.0776927348432
 30
0.0
 40
3.500000000000028
100
AcDbArc
 50
44.99999999999869
 51
134.9999999998493
  0
ARC
  5
CC
330
43
100
AcDbEntity
  8
1
  6
Continuous
 62
     7
100
AcDbCircle
 10
-484.8142477840568
 20
-402.5127215773881
 30
0.0
 40
3.499999999999988
100
AcDbArc
 50
-44.99999999999935
 51
44.99999999999935
  0
ARC
  5
CD
330
43
100
AcDbEntity
  8
1
  6
Continuous
 62
     7
100
AcDbCircle
 10
-484.8142477840557
 20
-402.512721577387
 30
0.0
 40
3.499999999999948
100
AcDbArc
 50
-134.9999999999934
 51
-45.0
  0
ARC
  5
CE
330
43
100
AcDbEntity
  8
1
  6
Continuous
 62
     7
100
AcDbCircle
 10
-511.6843054691481
 20
-465.4452251029906
 30
0.0
 40
3.500000000001113
100
AcDbArc
 50
134.999999999998
 51
-134.99999999985
  0
ARC
  5
CF
330
43
100
AcDbEntity
  8
1
  6
Continuous
 62
     7
100
AcDbCircle
 10
-511.6843054691481
 20
-465.4452251029906
 30
0.0
 40
3.500000000000028
100
AcDbArc
 50
-134.99999999985
 51
-44.99999999999935
  0
ARC
  5
D0
330
43
100
AcDbEntity
  8
1
  6
Continuous
 62
     7
100
AcDbCircle
 10
-498.249276626605
 20
-471.809186133667
 30
0.0
 40
3.500000000001275
100
AcDbArc
 50
134.9999999999993
 51
-135.0000000001448
  0
ARC
  5
D1
330
43
100
AcDbEntity
  8
1
  6
Continuous
 62
     7
100
AcDbCircle
 10
-498.249276626605
 20
-471.809186133667
 30
0.0
 40
3.500000000000028
100
AcDbArc
 50
-135.0000000001448
 51
-44.99999999999802
  0
ARC
  5
D2
330
43
100
AcDbEntity
  8
1
  6
Continuous
 62
     7
100
AcDbCircle
 10
-484.8142477840619
 20
-458.3741572911223
 30
0.0
 40
3.500000000001033
100
AcDbArc
 50
-45.00000000000198
 51
44.99999999985393
  0
ARC
  5
D3
330
43
100
AcDbEntity
  8
1
  6
Continuous
 62
     7
100
AcDbCircle
 10
-484.8142477840619
 20
-458.3741572911223
 30
0.0
 40
3.499999999999948
100
AcDbArc
 50
44.99999999985393
 51
135.000000000002
  0
ARC
  5
D4
330
43
100
AcDbEntity
  8
1
  6
Continuous
 62
     7
100
AcDbCircle
 10
-491.1782088147384
 20
-444.9391284485792
 30
0.0
 40
3.500000000001154
100
AcDbArc
 50
-44.99999999999869
 51
45.00000000015134
  0
ARC
  5
D5
330
43
100
AcDbEntity
  8
1
  6
Continuous
 62
     7
100
AcDbCircle
 10
-491.1782088147384
 20
-444.9391284485792
 30
0.0
 40
3.500000000000028
100
AcDbArc
 50
45.00000000015134
 51
135.0
  0
ARC
  5
D6
330
43
100
AcDbEntity
  8
1
  6
Continuous
 62
     7
100
AcDbCircle
 10
-504.6132376572841
 20
-438.5751674178984
 30
0.0
 40
3.499999999999988
100
AcDbArc
 50
44.99999999999935
 51
135.0000000000013
  0
ARC
  5
D7
330
43
100
AcDbEntity
  8
1
  6
Continuous
 62
     7
100
AcDbCircle
 10
-504.6132376572851
 20
-438.5751674178974
 30
0.0
 40
3.499999999999988
100
AcDbArc
 50
-44.99999999999407
 51
45.00000000000131
  0
ARC
  5
D8
330
43
100
AcDbEntity
  8
1
  6
Continuous
 62
     7
100
AcDbCircle
 10
-518.0482664998289
 20
-452.0101962604431
 30
0.0
 40
3.500000000000028
100
AcDbArc
 50
-135.0000000001487
 51
-44.99999999999276
  0
ARC
  5
D9
330
43
100
AcDbEntity
  8
1
  6
Continuous
 62
     7
100
AcDbCircle
 10
-518.0482664998289
 20
-452.0101962604431
 30
0.0
 40
3.499999999999948
100
AcDbArc
 50
135.0
 51
-135.0000000001487
  0
ARC
  5
DA
330
43
100
AcDbEntity
  8
1
  6
Continuous
 62
     7
100
AcDbCircle
 10
-424.1825198004153
 20
-482.9434394342552
 30
0.0
 40
5.0
100
AcDbArc
 50
-90.0
 51
0.0
  0
ARC
  5
DB
330
43
100
AcDbEntity
  8
1
  6
Continuous
 62
     7
100
AcDbCircle
 10
-424.1825198004153
 20
-377.9434394342551
 30
0.0
 40
5.0
100
AcDbArc
 50
0.0
 51
89.9999999999987
  0
ARC
  5
DC
330
43
100
AcDbEntity
  8
1
  6
Continuous
 62
     7
100
AcDbCircle
 10
-529.1825198004153
 20
-377.9434394342517
 30
0.0
 40
5.0
100
AcDbArc
 50
89.9999999999987
 51
180.0
  0
ARC
  5
DD
330
43
100
AcDbEntity
  8
1
  6
Continuous
 62
     7
100
AcDbCircle
 10
-529.1825198004153
 20
-482.9434394342552
 30
0.0
 40
5.0
100
AcDbArc
 50
180.0
 51
-90.0
  0
ENDBLK
  5
45
330
43
100
AcDbEntity
  8
0
100
AcDbBlockEnd
  0
BLOCK
  5
47
330
46
100
AcDbEntity
  8
0
100
AcDbBlockBegin
  2
Einlaufrost_115x115__2
 70
     0
 71
     0
 10
-40.22302152774864
 20
-149.4483803846451
 30
0.0
  3
Einlaufrost_115x115__2
  1

  0
POINT
  5
DE
330
46
100
AcDbEntity
  8
1
 62
     3
 60
     1
100
AcDbPoint
 10
-532.6825198004153
 20
-318.9434394342552
 30
0.0
  0
POINT
  5
DF
330
46
100
AcDbEntity
  8
1
 62
     3
 60
     1
100
AcDbPoint
 10
-420.6825198004153
 20
-318.9434394342552
 30
0.0
  0
POINT
  5
E0
330
46
100
AcDbEntity
  8
1
 62
     3
 60
     1
100
AcDbPoint
 10
-476.6825198004153
 20
-322.13804583843
 30
0.0
  0
POINT
  5
E1
330
46
100
AcDbEntity
  8
1
 62
     3
 60
     1
100
AcDbPoint
 10
-528.1825198004153
 20
-317.4434394342552
 30
0.0
  0
POINT
  5
E2
330
46
100
AcDbEntity
  8
1
 62
     3
 60
     1
100
AcDbPoint
 10
-528.1825198004153
 20
-315.9434394342552
 30
0.0
  0
POINT
  5
E3
330
46
100
AcDbEntity
  8
1
 62
     3
 60
     1
100
AcDbPoint
 10
-495.1825198004153
 20
-315.9434394342552
 30
0.0
  0
POINT
  5
E4
330
46
100
AcDbEntity
  8
1
 62
     3
 60
     1
100
AcDbPoint
 10
-495.1825198004153
 20
-317.4434394342552
 30
0.0
  0
POINT
  5
E5
330
46
100
AcDbEntity
  8
1
 62
     3
 60
     1
100
AcDbPoint
 10
-453.1825198004153
 20
-317.4434394342552
 30
0.0
  0
POINT
  5
E6
330
46
100
AcDbEntity
  8
1
 62
     3
 60
     1
100
AcDbPoint
 10
-430.1825198004153
 20
-317.4434394342552
 30
0.0
  0
POINT
  5
E7
330
46
100
AcDbEntity
  8
1
 62
     3
 60
     1
100
AcDbPoint
 10
-449.0
 20
-302.0
 30
0.0
  0
LINE
  5
E8
330
46
100
AcDbEntity
  8
0
  6
Continuous
 62
     7
100
AcDbLine
 10
-419.1825198004153
 20
-345.9434394342552
 30
0.0
 11
-419.1825198004153
 21
-342.9434394342552
 31
0.0
  0
LINE
  5
E9
330
46
100
AcDbEntity
  8
0
  6
Continuous
 62
     7
100
AcDbLine
 10
-534.1825198004153
 20
-345.9434394342552
 30
0.0
 11
-532.6825198004153
 21
-345.9434394342552
 31
0.0
  0
LINE
  5
EA
330
46
100
AcDbEntity
  8
0
  6
Continuous
 62
     7
100
AcDbLine
 10
-532.6825198004153
 20
-345.9434394342552
 30
0.0
 11
-420.6825198004153
 21
-345.9434394342552
 31
0.0
  0
LINE
  5
EB
330
46
100
AcDbEntity
  8
0
  6
Continuous
 62
     7
100
AcDbLine
 10
-420.6825198004153
 20
-345.9434394342552
 30
0.0
 11
-419.1825198004153
 21
-345.9434394342552
 31
0.0
  0
LINE
  5
EC
330
46
100
AcDbEntity
  8
1
  6
Continuous
 62
     7
100
AcDbLine
 10
-532.1825198004153
 20
-340.9434394342552
 30
0.0
 11
-530.1825198004153
 21
-340.9434394342552
 31
0.0
  0
LINE
  5
ED
330
46
100
AcDbEntity
  8
0
  6
Continuous
 62
     7
100
AcDbLine
 10
-534.1825198004153
 20
-342.9434394342552
 30
0.0
 11
-534.1825198004153
 21
-345.9434394342552
 31
0.0
  0
LINE
  5
EE
330
46
100
AcDbEntity
  8
1
  6
PHANTOM
 62
     2
100
AcDbLine
 10
-476.6825198004153
 20
-339.209799575946
 30
0.0
 11
-476.6825198004153
 21
-349.13804583843
 31
0.0
  0
LINE
  5
EF
330
46
100
AcDbEntity
  8
1
  6
Continuous
 62
     7
100
AcDbLine
 10
-530.1825198004153
 20
-340.9434394342552
 30
0.0
 11
-493.1825198004153
 21
-340.9434394342552
 31
0.0
  0
LINE
  5
F0
330
46
100
AcDbEntity
  8
1
  6
Continuous
 62
     7
100
AcDbLine
 10
-493.1825198004153
 20
-340.9434394342552
 30
0.0
 11
-455.1825198004153
 21
-340.9434394342552
 31
0.0
  0
LINE
  5
F1
330
46
100
AcDbEntity
  8
1
  6
Continuous
 62
     7
100
AcDbLine
 10
-455.1825198004153
 20
-340.9434394342552
 30
0.0
 11
-428.1825198004153
 21
-340.9434394342552
 31
0.0
  0
LINE
  5
F2
330
46
100
AcDbEntity
  8
1
  6
Continuous
 62
     7
100
AcDbLine
 10
-428.1825198004153
 20
-340.9434394342552
 30
0.0
 11
-421.1825198004153
 21
-340.9434394342552
 31
0.0
  0
LINE
  5
F3
330
46
100
AcDbEntity
  8
1
  6
Continuous
 62
     7
100
AcDbLine
 10
-534.1825198004153
 20
-342.9434394342552
 30
0.0
 11
-419.1825198004153
 21
-342.9434394342552
 31
0.0
  0
XLINE
  5
F4
330
46
100
AcDbEntity
  8
1
  6
DOT_CENTER
 62
     3
 60
     1
100
AcDbXline
 10
-476.6825198004153
 20
-322.13804583843
 30
0.0
 11
0.0
 21
1.0
 31
0.0
  0
XLINE
  5
F5
330
46
100
AcDbEntity
  8
1
  6
DOT_CENTER
 62
     3
 60
     1
100
AcDbXline
 10
-476.6825198004153
 20
-322.13804583843
 30
0.0
 11
0.0
 21
1.0
 31
0.0
  0
XLINE
  5
F6
330
46
100
AcDbEntity
  8
1
  6
DOT_CENTER
 62
     3
 60
     1
100
AcDbXline
 10
-476.6825198004153
 20
-312.209799575946
 30
0.0
 11
0.0
 21
1.0
 31
0.0
  0
XLINE
  5
F7
330
46
100
AcDbEntity
  8
1
  6
DOT_CENTER
 62
     3
 60
     1
100
AcDbXline
 10
-449.0
 20
-302.0
 30
0.0
 11
0.0
 21
1.0
 31
0.0
  0
ARC
  5
F8
330
46
100
AcDbEntity
  8
1
  6
Continuous
 62
     7
100
AcDbCircle
 10
-532.1825198004153
 20
-342.9434394342552
 30
0.0
 40
2.0
100
AcDbArc
 50
90.0
 51
180.0
  0
ARC
  5
F9
330
46
100
AcDbEntity
  8
1
  6
Continuous
 62
     7
100
AcDbCircle
 10
-421.1825198004153
 20
-342.9434394342552
 30
0.0
 40
2.0
100
AcDbArc
 50
0.0
 51
90.0
  0
ENDBLK
  5
48
330
46
100
AcDbEntity
  8
0
100
AcDbBlockEnd
  0
BLOCK
  5
104
330
FA
100
AcDbEntity
  8
0
100
AcDbBlockBegin
  2
*D3
 70
     1
 71
     0
 10
0.0
 20
0.0
 30
0.0
  3
*D3
  1

  0
LINE
  5
FB
330
FA
100
AcDbEntity
  8
1
  6
Continuous
 62
     4
100
AcDbLine
 10
-406.136163232913
 20
-359.9434394342552
 30
0.0
 11
-406.136163232913
 21
-345.9434394342552
 31
0.0
  0
LINE
  5
FC
330
FA
100
AcDbEntity
  8
1
  6
Continuous
 62
     4
100
AcDbLine
 10
-406.136163232913
 20
-345.9434394342552
 30
0.0
 11
-406.136163232913
 21
-340.9434394342552
 31
0.0
  0
LINE
  5
FD
330
FA
100
AcDbEntity
  8
1
  6
Continuous
 62
     4
100
AcDbLine
 10
-406.136163232913
 20
-340.9434394342552
 30
0.0
 11
-406.136163232913
 21
-325.884666627091
 31
0.0
  0
LINE
  5
FE
330
FA
100
AcDbEntity
  8
1
  6
Continuous
 62
     4
100
AcDbLine
 10
-420.6825198004153
 20
-345.9434394342552
 30
0.0
 11
-404.136163232913
 21
-345.9434394342552
 31
0.0
  0
LINE
  5
FF
330
FA
100
AcDbEntity
  8
1
  6
Continuous
 62
     4
100
AcDbLine
 10
-421.1825198004153
 20
-340.9434394342552
 30
0.0
 11
-404.136163232913
 21
-340.9434394342552
 31
0.0
  0
SOLID
  5
100
330
FA
100
AcDbEntity
  8
1
 62
     4
100
AcDbTrace
 10
-407.0577307160248
 20
-333.9434394342552
 30
0.0
 11
-405.2145957498013
 21
-333.9434394342552
 31
0.0
 12
-406.136163232913
 22
-340.9434394342552
 32
0.0
 13
-406.136163232913
 23
-340.9434394342552
 33
0.0
  0
SOLID
  5
101
330
FA
100
AcDbEntity
  8
1
 62
     4
100
AcDbTrace
 10
-405.2145957498013
 20
-352.9434394342552
 30
0.0
 11
-407.0577307160248
 21
-352.9434394342552
 31
0.0
 12
-406.136163232913
 22
-345.9434394342552
 32
0.0
 13
-406.136163232913
 23
-345.9434394342552
 33
0.0
  0
MTEXT
  5
103
330
FA
100
AcDbEntity
  8
1
 62
     1
100
AcDbMText
 10
-408.136163232913
 20
-330.084666627091
 30
0.0
 40
7.0
 41
0.0
 71
     7
 72
     1
  1
5
  7
CONVERTER_11
 11
0.0
 21
1.0
 31
0.0
 73
     1
 44
0.60024009603842
  0
ENDBLK
  5
105
330
FA
100
AcDbEntity
  8
0
100
AcDbBlockEnd
  0
BLOCK
  5
10F
330
108
100
AcDbEntity
  8
0
100
AcDbBlockBegin
  2
*D4
 70
     1
 71
     0
 10
0.0
 20
0.0
 30
0.0
  3
*D4
  1

  0
LINE
  5
109
330
108
100
AcDbEntity
  8
1
  6
Continuous
 62
     4
100
AcDbLine
 10
-534.1825198004153
 20
-332.9434394342552
 30
0.0
 11
-419.1825198004153
 21
-332.9434394342552
 31
0.0
  0
LINE
  5
10A
330
108
100
AcDbEntity
  8
1
  6
Continuous
 62
     4
100
AcDbLine
 10
-534.1825198004153
 20
-345.9434394342552
 30
0.0
 11
-534.1825198004153
 21
-330.9434394342552
 31
0.0
  0
LINE
  5
10B
330
108
100
AcDbEntity
  8
1
  6
Continuous
 62
     4
100
AcDbLine
 10
-419.1825198004153
 20
-342.9434394342552
 30
0.0
 11
-419.1825198004153
 21
-330.9434394342552
 31
0.0
  0
SOLID
  5
10C
330
108
100
AcDbEntity
  8
1
 62
     4
100
AcDbTrace
 10
-426.1825198004153
 20
-333.8650069173669
 30
0.0
 11
-426.1825198004153
 21
-332.0218719511435
 31
0.0
 12
-419.1825198004153
 22
-332.9434394342552
 32
0.0
 13
-419.1825198004153
 23
-332.9434394342552
 33
0.0
  0
SOLID
  5
10D
330
108
100
AcDbEntity
  8
1
 62
     4
100
AcDbTrace
 10
-527.1825198004153
 20
-332.0218719511435
 30
0.0
 11
-527.1825198004153
 21
-333.8650069173669
 31
0.0
 12
-534.1825198004153
 22
-332.9434394342552
 32
0.0
 13
-534.1825198004153
 23
-332.9434394342552
 33
0.0
  0
MTEXT
  5
10E
330
108
100
AcDbEntity
  8
1
 62
     1
100
AcDbMText
 10
-497.354016433741
 20
-330.9434394342552
 30
0.0
 40
7.0
 41
0.0
 71
     7
 72
     1
  1
\C1;115\C1;x115
  7
CONVERTER_11
 11
0.9999999999970619
 21
2.424068405545306E-6
 31
0.0
 73
     1
 44
0.60024009603842
  0
ENDBLK
  5
110
330
108
100
AcDbEntity
  8
0
100
AcDbBlockEnd
  0
ENDSEC
  0
SECTION
  2
ENTITIES
  0
INSERT
  5
49
330
1F
100
AcDbEntity
  8
0
100
AcDbBlockReference
  2
Einlaufrost_115x115__1
 10
-40.22302152774864
 20
-293.4483803846451
 30
0.0
  0
INSERT
  5
4A
330
1F
100
AcDbEntity
  8
0
100
AcDbBlockReference
  2
Einlaufrost_115x115__2
 10
-40.22302152774864
 20
-149.4483803846451
 30
0.0
  0
DIMENSION
  5
107
330
1F
100
AcDbEntity
  8
1
100
AcDbDimension
  2
*D3
 10
-406.136163232913
 20
-340.9434394342552
 30
0.0
 11
-411.636163232913
 21
-327.984666627091
 31
0.0
 70
    32
  1
<>
 71
     5
 42
-1.0
 53
90.0
  3
ME10_DIM_10
100
AcDbAlignedDimension
 13
-420.6825198004153
 23
-345.9434394342552
 33
0.0
 14
-421.1825198004153
 24
-340.9434394342552
 34
0.0
 50
90.0
100
AcDbRotatedDimension
  0
DIMENSION
  5
112
330
1F
100
AcDbEntity
  8
1
100
AcDbDimension
  2
*D4
 10
-419.1825198004153
 20
-332.9434394342552
 30
0.0
 11
-479.854016433741
 21
-327.4434394342552
 31
0.0
 70
    32
  1
<>
 71
     5
 42
-1.0
 53
0.00013888888889
  3
ME10_DIM_11
100
AcDbAlignedDimension
 13
-534.1825198004153
 23
-345.9434394342552
 33
0.0
 14
-419.1825198004153
 24
-342.9434394342552
 34
0.0
100
AcDbRotatedDimension
  0
ENDSEC
  0
SECTION
  2
OBJECTS
  0
DICTIONARY
  5
C
330
0
100
AcDbDictionary
281
     1
  3
ACAD_GROUP
350
D
  3
ACAD_LAYOUT
350
1A
  3
ACAD_MLINESTYLE
350
17
  3
ACAD_PLOTSETTINGS
350
19
  3
ACAD_PLOTSTYLENAME
350
E
  3
ACAD_TABLESTYLE
350
113
  3
ACAD_VISUALSTYLE
350
2A
  0
DICTIONARY
  5
D
102
{ACAD_REACTORS
330
C
102
}
330
C
100
AcDbDictionary
281
     1
  0
DICTIONARY
  5
1A
102
{ACAD_REACTORS
330
C
102
}
330
C
100
AcDbDictionary
281
     1
  3
Layout1
350
1E
  3
Layout2
350
26
  3
Model
350
22
  0
DICTIONARY
  5
17
102
{ACAD_REACTORS
330
C
102
}
330
C
100
AcDbDictionary
281
     1
  3
Standard
350
18
  0
DICTIONARY
  5
19
102
{ACAD_REACTORS
330
C
102
}
330
C
100
AcDbDictionary
281
     1
  0
ACDBDICTIONARYWDFLT
  5
E
102
{ACAD_REACTORS
330
C
102
}
330
C
100
AcDbDictionary
281
     1
  3
Normal
350
F
100
AcDbDictionaryWithDefault
340
F
  0
DICTIONARY
  5
113
102
{ACAD_REACTORS
330
C
102
}
330
C
100
AcDbDictionary
281
     1
  0
DICTIONARY
  5
2A
102
{ACAD_REACTORS
330
C
102
}
330
C
100
AcDbDictionary
281
     1
  3
2dWireframe
350
2F
  3
3D Hidden
350
31
  3
3dWireframe
350
30
  3
Basic
350
32
  3
Brighten
350
36
  3
ColorChange
350
3A
  3
Conceptual
350
34
  3
Dim
350
35
  3
Facepattern
350
39
  3
Flat
350
2B
  3
FlatWithEdges
350
2C
  3
Gouraud
350
2D
  3
GouraudWithEdges
350
2E
  3
Linepattern
350
38
  3
Realistic
350
33
  3
Thicken
350
37
  0
LAYOUT
  5
1E
102
{ACAD_REACTORS
330
1A
102
}
330
1A
100
AcDbPlotSettings
  1

  2
none_device
  4

  6

 40
0.0
 41
0.0
 42
0.0
 43
0.0
 44
0.0
 45
0.0
 46
0.0
 47
0.0
 48
0.0
 49
0.0
140
0.0
141
0.0
142
1.0
143
1.0
 70
   688
 72
     0
 73
     0
 74
     5
  7

 75
    16
147
1.0
148
0.0
149
0.0
100
AcDbLayout
  1
Layout1
 70
     1
 71
     1
 10
0.0
 20
0.0
 11
12.0
 21
9.0
 12
0.0
 22
0.0
 32
0.0
 14
1.00000000000000E+20
 24
1.00000000000000E+20
 34
1.00000000000000E+20
 15
-1.00000000000000E+20
 25
-1.00000000000000E+20
 35
-1.00000000000000E+20
146
0.0
 13
0.0
 23
0.0
 33
0.0
 16
1.0
 26
0.0
 36
0.0
 17
0.0
 27
1.0
 37
0.0
 76
     0
330
1B
  0
LAYOUT
  5
26
102
{ACAD_REACTORS
330
1A
102
}
330
1A
100
AcDbPlotSettings
  1

  2
none_device
  4

  6

 40
0.0
 41
0.0
 42
0.0
 43
0.0
 44
0.0
 45
0.0
 46
0.0
 47
0.0
 48
0.0
 49
0.0
140
0.0
141
0.0
142
1.0
143
1.0
 70
   688
 72
     0
 73
     0
 74
     5
  7

 75
    16
147
1.0
148
0.0
149
0.0
100
AcDbLayout
  1
Layout2
 70
     1
 71
     2
 10
0.0
 20
0.0
 11
0.0
 21
0.0
 12
0.0
 22
0.0
 32
0.0
 14
0.0
 24
0.0
 34
0.0
 15
0.0
 25
0.0
 35
0.0
146
0.0
 13
0.0
 23
0.0
 33
0.0
 16
1.0
 26
0.0
 36
0.0
 17
0.0
 27
1.0
 37
0.0
 76
     0
330
23
  0
LAYOUT
  5
22
102
{ACAD_REACTORS
330
1A
102
}
330
1A
100
AcDbPlotSettings
  1

  2
none_device
  4

  6

 40
0.0
 41
0.0
 42
0.0
 43
0.0
 44
0.0
 45
0.0
 46
0.0
 47
0.0
 48
0.0
 49
0.0
140
0.0
141
0.0
142
1.0
143
1.0
 70
  1712
 72
     0
 73
     0
 74
     0
  7

 75
     0
147
1.0
148
0.0
149
0.0
100
AcDbLayout
  1
Model
 70
     1
 71
     0
 10
0.0
 20
0.0
 11
12.0
 21
9.0
 12
0.0
 22
0.0
 32
0.0
 14
-534.1825198004153
 24
-487.9434394342552
 34
0.0
 15
-404.136163232913
 25
-323.9434394342552
 35
0.0
146
0.0
 13
0.0
 23
0.0
 33
0.0
 16
1.0
 26
0.0
 36
0.0
 17
0.0
 27
1.0
 37
0.0
 76
     0
330
1F
331
29
  0
MLINESTYLE
  5
18
102
{ACAD_REACTORS
330
17
102
}
330
17
100
AcDbMlineStyle
  2
Standard
 70
     0
  3

 62
   256
 51
90.0
 52
90.0
 71
     2
 49
0.5
 62
   256
  6
BYLAYER
 49
-0.5
 62
   256
  6
BYLAYER
  0
ACDBPLACEHOLDER
  5
F
102
{ACAD_REACTORS
330
E
102
}
330
E
  0
VISUALSTYLE
  5
2F
102
{ACAD_REACTORS
330
2A
102
}
330
2A
100
AcDbVisualStyle
  2
2dWireframe
 70
     4
 71
     0
 72
     2
 73
     0
 90
        0
 40
-0.6
 41
-30.0
 62
     5
 63
     7
 74
     1
 91
        4
 64
     7
 65
   257
 75
     1
175
     1
 42
1.0
 92
        0
 66
   257
 43
1.0
 76
     1
 77
     6
 78
     2
 67
     7
 79
     5
170
     0
171
     0
290
     0
174
     0
 93
        1
 44
0.0
173
     0
291
     0
 45
0.0
1001
ACAD
1000
AcDbSavedByObjectVersion
1070
     0
  0
VISUALSTYLE
  5
31
102
{ACAD_REACTORS
330
2A
102
}
330
2A
100
AcDbVisualStyle
  2
3D Hidden
 70
     6
 71
     1
 72
     2
 73
     2
 90
        0
 40
-0.6
 41
-30.0
 62
     5
 63
     7
 74
     2
 91
        2
 64
     7
 65
   257
 75
     2
175
     1
 42
40.0
 92
        0
 66
   257
 43
1.0
 76
     1
 77
     6
 78
     2
 67
     7
 79
     3
170
     0
171
     0
290
     0
174
     0
 93
        1
 44
0.0
173
     0
291
     0
 45
0.0
1001
ACAD
1000
AcDbSavedByObjectVersion
1070
     0
  0
VISUALSTYLE
  5
30
102
{ACAD_REACTORS
330
2A
102
}
330
2A
100
AcDbVisualStyle
  2
3dWireframe
 70
     5
 71
     0
 72
     2
 73
     0
 90
        0
 40
-0.6
 41
-30.0
 62
     5
 63
     7
 74
     1
 91
        4
 64
     7
 65
   257
 75
     1
175
     1
 42
1.0
 92
        0
 66
   257
 43
1.0
 76
     1
 77
     6
 78
     2
 67
     7
 79
     5
170
     0
171
     0
290
     0
174
     0
 93
        1
 44
0.0
173
     0
291
     0
 45
0.0
1001
ACAD
1000
AcDbSavedByObjectVersion
1070
     0
  0
VISUALSTYLE
  5
32
102
{ACAD_REACTORS
330
2A
102
}
330
2A
100
AcDbVisualStyle
  2
Basic
 70
     7
 71
     1
 72
     0
 73
     1
 90
        0
 40
-0.6
 41
-30.0
 62
     5
 63
     7
 74
     0
 91
        4
 64
     7
 65
   257
 75
     1
175
     1
 42
1.0
 92
        8
 66
     7
 43
1.0
 76
     1
 77
     6
 78
     2
 67
     7
 79
     5
170
     0
171
     0
290
     0
174
     0
 93
        1
 44
0.0
173
     0
291
     1
 45
0.0
1001
ACAD
1000
AcDbSavedByObjectVersion
1070
     0
  0
VISUALSTYLE
  5
36
102
{ACAD_REACTORS
330
2A
102
}
330
2A
100
AcDbVisualStyle
  2
Brighten
 70
    12
 71
     2
 72
     2
 73
     0
 90
        0
 40
-0.6
 41
-30.0
 62
     5
 63
     7
 74
     1
 91
        4
 64
     7
 65
   257
 75
     1
175
     1
 42
1.0
 92
        8
 66
     7
 43
1.0
 76
     1
 77
     6
 78
     2
 67
     7
 79
     5
170
     0
171
     0
290
     0
174
     0
 93
        1
 44
50.0
173
     0
291
     1
 45
0.0
1001
ACAD
1000
AcDbSavedByObjectVersion
1070
     0
  0
VISUALSTYLE
  5
3A
102
{ACAD_REACTORS
330
2A
102
}
330
2A
100
AcDbVisualStyle
  2
ColorChange
 70
    16
 71
     2
 72
     2
 73
     3
 90
        0
 40
-0.6
 41
-30.0
 62
     5
 63
     8
 74
     1
 91
        4
 64
     7
 65
   257
 75
     1
175
     1
 42
1.0
 92
        8
 66
     8
 43
1.0
 76
     1
 77
     6
 78
     2
 67
     7
 79
     5
170
     0
171
     0
290
     0
174
     0
 93
        1
 44
0.0
173
     0
291
     1
 45
0.0
1001
ACAD
1000
AcDbSavedByObjectVersion
1070
     0
  0
VISUALSTYLE
  5
34
102
{ACAD_REACTORS
330
2A
102
}
330
2A
100
AcDbVisualStyle
  2
Conceptual
 70
     9
 71
     3
 72
     2
 73
     0
 90
        0
 40
-0.6
 41
-30.0
 62
     5
 63
     7
 74
     2
 91
        2
 64
     7
 65
   257
 75
     1
175
     1
 42
40.0
 92
        8
 66
     7
 43
1.0
 76
     1
 77
     6
 78
     2
 67
     7
 79
     3
170
     0
171
     0
290
     0
174
     0
 93
        1
 44
0.0
173
     0
291
     0
 45
0.0
1001
ACAD
1000
AcDbSavedByObjectVersion
1070
     0
  0
VISUALSTYLE
  5
35
102
{ACAD_REACTORS
330
2A
102
}
330
2A
100
AcDbVisualStyle
  2
Dim
 70
    11
 71
     2
 72
     2
 73
     0
 90
        0
 40
-0.6
 41
-30.0
 62
     5
 63
     7
 74
     1
 91
        4
 64
     7
 65
   257
 75
     1
175
     1
 42
1.0
 92
        8
 66
     7
 43
1.0
 76
     1
 77
     6
 78
     2
 67
     7
 79
     5
170
     0
171
     0
290
     0
174
     0
 93
        1
 44
-50.0
173
     0
291
     1
 45
0.0
1001
ACAD
1000
AcDbSavedByObjectVersion
1070
     0
  0
VISUALSTYLE
  5
39
102
{ACAD_REACTORS
330
2A
102
}
330
2A
100
AcDbVisualStyle
  2
Facepattern
 70
    15
 71
     2
 72
     2
 73
     0
 90
        0
 40
-0.6
 41
-30.0
 62
     5
 63
     7
 74
     1
 91
        4
 64
     7
 65
   257
 75
     1
175
     1
 42
1.0
 92
        8
 66
     7
 43
1.0
 76
     1
 77
     6
 78
     2
 67
     7
 79
     5
170
     0
171
     0
290
     0
174
     0
 93
        1
 44
0.0
173
     0
291
     1
 45
0.0
1001
ACAD
1000
AcDbSavedByObjectVersion
1070
     0
  0
VISUALSTYLE
  5
2B
102
{ACAD_REACTORS
330
2A
102
}
330
2A
100
AcDbVisualStyle
  2
Flat
 70
     0
 71
     2
 72
     1
 73
     1
 90
        2
 40
-0.6
 41
30.0
 62
     5
 63
     7
 74
     0
 91
        4
 64
     7
 65
   257
 75
     1
175
     1
 42
1.0
 92
        8
 66
     7
 43
1.0
 76
     1
 77
     6
 78
     2
 67
     7
 79
     5
170
     0
171
     0
290
     0
174
     0
 93
       13
 44
0.0
173
     0
291
     1
 45
0.0
1001
ACAD
1000
AcDbSavedByObjectVersion
1070
     0
  0
VISUALSTYLE
  5
2C
102
{ACAD_REACTORS
330
2A
102
}
330
2A
100
AcDbVisualStyle
  2
FlatWithEdges
 70
     1
 71
     2
 72
     1
 73
     1
 90
        2
 40
-0.6
 41
30.0
 62
     5
 63
     7
 74
     1
 91
        4
 64
     7
 65
   257
 75
     1
175
     1
 42
1.0
 92
        0
 66
   257
 43
1.0
 76
     1
 77
     6
 78
     2
 67
     7
 79
     5
170
     0
171
     0
290
     0
174
     0
 93
       13
 44
0.0
173
     0
291
     1
 45
0.0
1001
ACAD
1000
AcDbSavedByObjectVersion
1070
     0
  0
VISUALSTYLE
  5
2D
102
{ACAD_REACTORS
330
2A
102
}
330
2A
100
AcDbVisualStyle
  2
Gouraud
 70
     2
 71
     2
 72
     2
 73
     1
 90
        2
 40
-0.6
 41
30.0
 62
     5
 63
     7
 74
     0
 91
        4
 64
     7
 65
   257
 75
     1
175
     1
 42
1.0
 92
        0
 66
     7
 43
1.0
 76
     1
 77
     6
 78
     2
 67
     7
 79
     5
170
     0
171
     0
290
     0
174
     0
 93
       13
 44
0.0
173
     0
291
     1
 45
0.0
1001
ACAD
1000
AcDbSavedByObjectVersion
1070
     0
  0
VISUALSTYLE
  5
2E
102
{ACAD_REACTORS
330
2A
102
}
330
2A
100
AcDbVisualStyle
  2
GouraudWithEdges
 70
     3
 71
     2
 72
     2
 73
     1
 90
        2
 40
-0.6
 41
30.0
 62
     5
 63
     7
 74
     1
 91
        4
 64
     7
 65
   257
 75
     1
175
     1
 42
1.0
 92
        0
 66
   257
 43
1.0
 76
     1
 77
     6
 78
     2
 67
     7
 79
     5
170
     0
171
     0
290
     0
174
     0
 93
       13
 44
0.0
173
     0
291
     1
 45
0.0
1001
ACAD
1000
AcDbSavedByObjectVersion
1070
     0
  0
VISUALSTYLE
  5
38
102
{ACAD_REACTORS
330
2A
102
}
330
2A
100
AcDbVisualStyle
  2
Linepattern
 70
    14
 71
     2
 72
     2
 73
     0
 90
        0
 40
-0.6
 41
-30.0
 62
     5
 63
     7
 74
     1
 91
        4
 64
     7
 65
   257
 75
     7
175
     7
 42
1.0
 92
        8
 66
     7
 43
1.0
 76
     1
 77
     6
 78
     2
 67
     7
 79
     5
170
     0
171
     0
290
     0
174
     0
 93
        1
 44
0.0
173
     0
291
     1
 45
0.0
1001
ACAD
1000
AcDbSavedByObjectVersion
1070
     0
  0
VISUALSTYLE
  5
33
102
{ACAD_REACTORS
330
2A
102
}
330
2A
100
AcDbVisualStyle
  2
Realistic
 70
     8
 71
     2
 72
     2
 73
     0
 90
        0
 40
-0.6
 41
-30.0
 62
     5
 63
     7
 74
     1
 91
        0
 64
     7
 65
   257
 75
     1
175
     1
 42
1.0
 92
        8
 66
     8
 43
1.0
 76
     1
 77
     6
 78
     2
 67
     7
 79
     5
170
     0
171
     0
290
     0
174
     0
 93
       13
 44
0.0
173
     0
291
     0
 45
0.0
1001
ACAD
1000
AcDbSavedByObjectVersion
1070
     0
  0
VISUALSTYLE
  5
37
102
{ACAD_REACTORS
330
2A
102
}
330
2A
100
AcDbVisualStyle
  2
Thicken
 70
    13
 71
     2
 72
     2
 73
     0
 90
        0
 40
-0.6
 41
-30.0
 62
     5
 63
     7
 74
     1
 91
        4
 64
     7
 65
   257
 75
     1
175
     1
 42
1.0
 92
       12
 66
     7
 43
1.0
 76
     1
 77
     6
 78
     2
 67
     7
 79
     5
170
     0
171
     0
290
     0
174
     0
 93
        1
 44
0.0
173
     0
291
     1
 45
0.0
1001
ACAD
1000
AcDbSavedByObjectVersion
1070
     0
  0
ENDSEC
  0
EOF
