  0
SECTION
  2
HEADER
  9
$ACADVER
  1
AC1015
  9
$ACADMAINTVER
 70
     6
  9
$DWGCODEPAGE
  3
ANSI_1252
  9
$INSBASE
 10
0.0
 20
0.0
 30
0.0
  9
$EXTMIN
 10
-82.9252645326507
 20
259.328555061973
 30
0.0
  9
$EXTMAX
 10
14.3496340746308
 20
373.161313225452
 30
0.0
  9
$LIMMIN
 10
0.0
 20
0.0
  9
$LIMMAX
 10
12.0
 20
9.0
  9
$ORTHOMODE
 70
     0
  9
$REGENMODE
 70
     1
  9
$FILLMODE
 70
     1
  9
$QTEXTMODE
 70
     0
  9
$MIRRTEXT
 70
     1
  9
$LTSCALE
 40
1.0
  9
$ATTMODE
 70
     1
  9
$TEXTSIZE
 40
0.2
  9
$TRACEWID
 40
0.05
  9
$TEXTSTYLE
  7
Standard
  9
$CLAYER
  8
0
  9
$CELTYPE
  6
ByLayer
  9
$CECOLOR
 62
   256
  9
$CELTSCALE
 40
1.0
  9
$DISPSILH
 70
     0
  9
$DIMSCALE
 40
1.0
  9
$DIMASZ
 40
0.18
  9
$DIMEXO
 40
0.0625
  9
$DIMDLI
 40
0.38
  9
$DIMRND
 40
0.0
  9
$DIMDLE
 40
0.0
  9
$DIMEXE
 40
0.18
  9
$DIMTP
 40
0.0
  9
$DIMTM
 40
0.0
  9
$DIMTXT
 40
0.18
  9
$DIMCEN
 40
0.09
  9
$DIMTSZ
 40
0.0
  9
$DIMTOL
 70
     0
  9
$DIMLIM
 70
     0
  9
$DIMTIH
 70
     1
  9
$DIMTOH
 70
     1
  9
$DIMSE1
 70
     0
  9
$DIMSE2
 70
     0
  9
$DIMTAD
 70
     0
  9
$DIMZIN
 70
     0
  9
$DIMBLK
  1

  9
$DIMASO
 70
     1
  9
$DIMSHO
 70
     1
  9
$DIMPOST
  1

  9
$DIMAPOST
  1

  9
$DIMALT
 70
     0
  9
$DIMALTD
 70
     2
  9
$DIMALTF
 40
25.4
  9
$DIMLFAC
 40
1.0
  9
$DIMTOFL
 70
     0
  9
$DIMTVP
 40
0.0
  9
$DIMTIX
 70
     0
  9
$DIMSOXD
 70
     0
  9
$DIMSAH
 70
     0
  9
$DIMBLK1
  1

  9
$DIMBLK2
  1

  9
$DIMSTYLE
  2
Standard
  9
$DIMCLRD
 70
     0
  9
$DIMCLRE
 70
     0
  9
$DIMCLRT
 70
     0
  9
$DIMTFAC
 40
1.0
  9
$DIMGAP
 40
0.09
  9
$DIMJUST
 70
     0
  9
$DIMSD1
 70
     0
  9
$DIMSD2
 70
     0
  9
$DIMTOLJ
 70
     1
  9
$DIMTZIN
 70
     0
  9
$DIMALTZ
 70
     0
  9
$DIMALTTZ
 70
     0
  9
$DIMUPT
 70
     0
  9
$DIMDEC
 70
     4
  9
$DIMTDEC
 70
     4
  9
$DIMALTU
 70
     2
  9
$DIMALTTD
 70
     2
  9
$DIMTXSTY
  7
Standard
  9
$DIMAUNIT
 70
     0
  9
$DIMADEC
 70
     0
  9
$DIMALTRND
 40
0.0
  9
$DIMAZIN
 70
     0
  9
$DIMDSEP
 70
    46
  9
$DIMATFIT
 70
     3
  9
$DIMFRAC
 70
     0
  9
$DIMLDRBLK
  1

  9
$DIMLUNIT
 70
     2
  9
$DIMLWD
 70
    -2
  9
$DIMLWE
 70
    -2
  9
$DIMTMOVE
 70
     0
  9
$LUNITS
 70
     2
  9
$LUPREC
 70
     4
  9
$SKETCHINC
 40
0.1
  9
$FILLETRAD
 40
0.5
  9
$AUNITS
 70
     0
  9
$AUPREC
 70
     0
  9
$MENU
  1
.
  9
$ELEVATION
 40
0.0
  9
$PELEVATION
 40
0.0
  9
$THICKNESS
 40
0.0
  9
$LIMCHECK
 70
     0
  9
$CHAMFERA
 40
0.5
  9
$CHAMFERB
 40
0.5
  9
$CHAMFERC
 40
1.0
  9
$CHAMFERD
 40
0.0
  9
$SKPOLY
 70
     0
  9
$TDCREATE
 40
2456967.396160278
  9
$TDUCREATE
 40
2456967.354493611
  9
$TDUPDATE
 40
2456967.396160463
  9
$TDUUPDATE
 40
2456967.354493796
  9
$TDINDWG
 40
0.0000000116
  9
$TDUSRTIMER
 40
0.0000000116
  9
$USRTIMER
 70
     1
  9
$ANGBASE
 50
0.0
  9
$ANGDIR
 70
     0
  9
$PDMODE
 70
     0
  9
$PDSIZE
 40
0.0
  9
$PLINEWID
 40
0.0
  9
$SPLFRAME
 70
     0
  9
$SPLINETYPE
 70
     6
  9
$SPLINESEGS
 70
     8
  9
$HANDSEED
  5
14C
  9
$SURFTAB1
 70
     6
  9
$SURFTAB2
 70
     6
  9
$SURFTYPE
 70
     6
  9
$SURFU
 70
     6
  9
$SURFV
 70
     6
  9
$UCSBASE
  2

  9
$UCSNAME
  2

  9
$UCSORG
 10
0.0
 20
0.0
 30
0.0
  9
$UCSXDIR
 10
1.0
 20
0.0
 30
0.0
  9
$UCSYDIR
 10
0.0
 20
1.0
 30
0.0
  9
$UCSORTHOREF
  2

  9
$UCSORTHOVIEW
 70
     0
  9
$UCSORGTOP
 10
0.0
 20
0.0
 30
0.0
  9
$UCSORGBOTTOM
 10
0.0
 20
0.0
 30
0.0
  9
$UCSORGLEFT
 10
0.0
 20
0.0
 30
0.0
  9
$UCSORGRIGHT
 10
0.0
 20
0.0
 30
0.0
  9
$UCSORGFRONT
 10
0.0
 20
0.0
 30
0.0
  9
$UCSORGBACK
 10
0.0
 20
0.0
 30
0.0
  9
$PUCSBASE
  2

  9
$PUCSNAME
  2

  9
$PUCSORG
 10
0.0
 20
0.0
 30
0.0
  9
$PUCSXDIR
 10
1.0
 20
0.0
 30
0.0
  9
$PUCSYDIR
 10
0.0
 20
1.0
 30
0.0
  9
$PUCSORTHOREF
  2

  9
$PUCSORTHOVIEW
 70
     0
  9
$PUCSORGTOP
 10
0.0
 20
0.0
 30
0.0
  9
$PUCSORGBOTTOM
 10
0.0
 20
0.0
 30
0.0
  9
$PUCSORGLEFT
 10
0.0
 20
0.0
 30
0.0
  9
$PUCSORGRIGHT
 10
0.0
 20
0.0
 30
0.0
  9
$PUCSORGFRONT
 10
0.0
 20
0.0
 30
0.0
  9
$PUCSORGBACK
 10
0.0
 20
0.0
 30
0.0
  9
$USERI1
 70
     0
  9
$USERI2
 70
     0
  9
$USERI3
 70
     0
  9
$USERI4
 70
     0
  9
$USERI5
 70
     0
  9
$USERR1
 40
18.1
  9
$USERR2
 40
0.0
  9
$USERR3
 40
0.0
  9
$USERR4
 40
0.0
  9
$USERR5
 40
0.0
  9
$WORLDVIEW
 70
     1
  9
$SHADEDGE
 70
     3
  9
$SHADEDIF
 70
    70
  9
$TILEMODE
 70
     1
  9
$MAXACTVP
 70
    64
  9
$PINSBASE
 10
0.0
 20
0.0
 30
0.0
  9
$PLIMCHECK
 70
     0
  9
$PEXTMIN
 10
1.00000000000000E+20
 20
1.00000000000000E+20
 30
1.00000000000000E+20
  9
$PEXTMAX
 10
-1.00000000000000E+20
 20
-1.00000000000000E+20
 30
-1.00000000000000E+20
  9
$PLIMMIN
 10
0.0
 20
0.0
  9
$PLIMMAX
 10
12.0
 20
9.0
  9
$UNITMODE
 70
     0
  9
$VISRETAIN
 70
     1
  9
$PLINEGEN
 70
     0
  9
$PSLTSCALE
 70
     1
  9
$TREEDEPTH
 70
  3020
  9
$CMLSTYLE
  2
Standard
  9
$CMLJUST
 70
     0
  9
$CMLSCALE
 40
1.0
  9
$PROXYGRAPHICS
 70
     1
  9
$MEASUREMENT
 70
     1
  9
$CELWEIGHT
370
    -1
  9
$ENDCAPS
280
     0
  9
$JOINSTYLE
280
     0
  9
$LWDISPLAY
290
     0
  9
$INSUNITS
 70
     1
  9
$HYPERLINKBASE
  1

  9
$STYLESHEET
  1

  9
$XEDIT
290
     1
  9
$CEPSNTYPE
380
     0
  9
$PSTYLEMODE
290
     1
  9
$FINGERPRINTGUID
  2
{F9DAB099-7504-4964-8C48-0B16B54EF88B}
  9
$VERSIONGUID
  2
{FAEB1C32-E019-11D5-929B-00C0DF256EC4}
  9
$EXTNAMES
290
     1
  9
$PSVPSCALE
 40
0.0
  9
$OLESTARTUP
290
     0
  0
ENDSEC
  0
SECTION
  2
CLASSES
  0
CLASS
  1
ACDBDICTIONARYWDFLT
  2
AcDbDictionaryWithDefault
  3
ObjectDBX Classes
 90
        0
280
     0
281
     0
  0
CLASS
  1
VISUALSTYLE
  2
AcDbVisualStyle
  3
ObjectDBX Classes
 90
     4095
280
     0
281
     0
  0
CLASS
  1
MATERIAL
  2
AcDbMaterial
  3
ObjectDBX Classes
 90
     1153
280
     0
281
     0
  0
CLASS
  1
DICTIONARYVAR
  2
AcDbDictionaryVar
  3
ObjectDBX Classes
 90
        0
280
     0
281
     0
  0
CLASS
  1
ACDBPLACEHOLDER
  2
AcDbPlaceHolder
  3
ObjectDBX Classes
 90
        0
280
     0
281
     0
  0
CLASS
  1
LAYOUT
  2
AcDbLayout
  3
ObjectDBX Classes
 90
        0
280
     0
281
     0
  0
ENDSEC
  0
SECTION
  2
TABLES
  0
TABLE
  2
VPORT
  5
8
330
0
100
AcDbSymbolTable
 70
     1
  0
VPORT
  5
29
330
8
100
AcDbSymbolTableRecord
100
AcDbViewportTableRecord
  2
*Active
 70
     0
 10
0.0
 20
0.0
 11
1.0
 21
1.0
 12
-34.28781522900995
 22
316.2449341437125
 13
0.0
 23
0.0
 14
0.5
 24
0.5
 15
0.5
 25
0.5
 16
0.0
 26
0.0
 36
1.0
 17
0.0
 27
0.0
 37
0.0
 40
125.2160339798269
 41
1.60267857142857
 42
50.0
 43
0.0
 44
0.0
 50
0.0
 51
0.0
 71
     0
 72
   100
 73
     1
 74
     3
 75
     0
 76
     0
 77
     0
 78
     0
281
     0
 65
     1
110
0.0
120
0.0
130
0.0
111
1.0
121
0.0
131
0.0
112
0.0
122
1.0
132
0.0
 79
     0
146
0.0
  0
ENDTAB
  0
TABLE
  2
LTYPE
  5
5
330
0
100
AcDbSymbolTable
 70
     8
  0
LTYPE
  5
14
330
5
100
AcDbSymbolTableRecord
100
AcDbLinetypeTableRecord
  2
ByBlock
 70
     0
  3

 72
    65
 73
     0
 40
0.0
  0
LTYPE
  5
15
330
5
100
AcDbSymbolTableRecord
100
AcDbLinetypeTableRecord
  2
ByLayer
 70
     0
  3

 72
    65
 73
     0
 40
0.0
  0
LTYPE
  5
16
330
5
100
AcDbSymbolTableRecord
100
AcDbLinetypeTableRecord
  2
Continuous
 70
     0
  3
Solid line
 72
    65
 73
     0
 40
0.0
  0
LTYPE
  5
3F
330
5
100
AcDbSymbolTableRecord
100
AcDbLinetypeTableRecord
  2
DASHED
 70
     0
  3
Dashed
 72
    65
 73
     2
 40
15.0
 49
7.0
 74
     0
 49
-8.0
 74
     0
  0
LTYPE
  5
40
330
5
100
AcDbSymbolTableRecord
100
AcDbLinetypeTableRecord
  2
DOTTED
 70
     0
  3
Dotted
 72
    65
 73
     2
 40
1.0
 49
0.0
 74
     0
 49
-1.0
 74
     0
  0
LTYPE
  5
41
330
5
100
AcDbSymbolTableRecord
100
AcDbLinetypeTableRecord
  2
DOT_CENTER
 70
     0
  3
Dot_Center
 72
    65
 73
     4
 40
14.0
 49
12.0
 74
     0
 49
-1.0
 74
     0
 49
0.0
 74
     0
 49
-1.0
 74
     0
  0
LTYPE
  5
42
330
5
100
AcDbSymbolTableRecord
100
AcDbLinetypeTableRecord
  2
LONG_DASHED
 70
     0
  3
Long_Dashed
 72
    65
 73
     2
 40
15.0
 49
10.0
 74
     0
 49
-5.0
 74
     0
  0
LTYPE
  5
43
330
5
100
AcDbSymbolTableRecord
100
AcDbLinetypeTableRecord
  2
DASH_CENTER
 70
     0
  3
Dash_Center
 72
    65
 73
     4
 40
14.0
 49
11.0
 74
     0
 49
-1.0
 74
     0
 49
1.0
 74
     0
 49
-1.0
 74
     0
  0
LTYPE
  5
44
330
5
100
AcDbSymbolTableRecord
100
AcDbLinetypeTableRecord
  2
PHANTOM
 70
     0
  3
Phantom
 72
    65
 73
     6
 40
13.0
 49
10.0
 74
     0
 49
-1.0
 74
     0
 49
0.0
 74
     0
 49
-1.0
 74
     0
 49
0.0
 74
     0
 49
-1.0
 74
     0
  0
LTYPE
  5
45
330
5
100
AcDbSymbolTableRecord
100
AcDbLinetypeTableRecord
  2
CENTER_DASH_DASH
 70
     0
  3
Center_Dash_Dash
 72
    65
 73
     6
 40
14.0
 49
9.0
 74
     0
 49
-1.0
 74
     0
 49
1.0
 74
     0
 49
-1.0
 74
     0
 49
1.0
 74
     0
 49
-1.0
 74
     0
  0
ENDTAB
  0
TABLE
  2
LAYER
  5
2
330
0
100
AcDbSymbolTable
 70
     2
  0
LAYER
  5
10
330
2
100
AcDbSymbolTableRecord
100
AcDbLayerTableRecord
  2
0
 70
     0
 62
     7
  6
Continuous
370
    -3
390
F
  0
LAYER
  5
46
330
2
100
AcDbSymbolTableRecord
100
AcDbLayerTableRecord
  2
1
 70
     0
 62
     7
  6
Continuous
370
    -3
390
F
  0
ENDTAB
  0
TABLE
  2
STYLE
  5
3
330
0
100
AcDbSymbolTable
 70
     2
  0
STYLE
  5
11
330
3
100
AcDbSymbolTableRecord
100
AcDbTextStyleTableRecord
  2
Standard
 70
     0
 40
0.0
 41
1.0
 50
0.0
 71
     0
 42
0.2
  3
txt
  4

  0
STYLE
  5
F1
330
3
100
AcDbSymbolTableRecord
100
AcDbTextStyleTableRecord
  2
CONVERTER_11
 70
     0
 40
0.0
 41
0.9
 50
0.0
 71
     0
 42
0.2
  3
txt.shx
  4

  0
ENDTAB
  0
TABLE
  2
VIEW
  5
6
330
0
100
AcDbSymbolTable
 70
     0
  0
ENDTAB
  0
TABLE
  2
UCS
  5
7
330
0
100
AcDbSymbolTable
 70
     0
  0
ENDTAB
  0
TABLE
  2
APPID
  5
9
330
0
100
AcDbSymbolTable
 70
     1
  0
APPID
  5
12
330
9
100
AcDbSymbolTableRecord
100
AcDbRegAppTableRecord
  2
ACAD
 70
     0
  0
ENDTAB
  0
TABLE
  2
DIMSTYLE
  5
A
330
0
100
AcDbSymbolTable
 70
     5
100
AcDbDimStyleTable
  0
DIMSTYLE
105
27
330
A
100
AcDbSymbolTableRecord
100
AcDbDimStyleTableRecord
  2
Standard
 70
     0
178
     0
340
11
  0
DIMSTYLE
105
FC
102
{ACAD_REACTORS
330
FD
102
}
330
A
100
AcDbSymbolTableRecord
100
AcDbDimStyleTableRecord
  2
ME10_DIM_10
 70
     0
 41
7.0
 42
0.0
 44
2.0
 73
     0
 74
     0
 77
     1
 78
     8
140
7.0
147
2.0
172
     1
173
     1
174
     1
175
     1
176
     4
177
     4
271
     2
178
     1
271
     2
340
F1
  0
DIMSTYLE
105
107
102
{ACAD_REACTORS
330
108
102
}
330
A
100
AcDbSymbolTableRecord
100
AcDbDimStyleTableRecord
  2
ME10_DIM_11
 70
     0
 41
7.0
 42
0.0
 44
2.0
 73
     0
 74
     0
 77
     1
 78
     8
140
7.0
147
2.0
172
     1
173
     1
174
     1
175
     1
176
     4
177
     4
271
     2
178
     1
271
     2
340
F1
  0
DIMSTYLE
105
112
102
{ACAD_REACTORS
330
113
102
}
330
A
100
AcDbSymbolTableRecord
100
AcDbDimStyleTableRecord
  2
ME10_DIM_12
 70
     0
 41
7.0
 42
0.0
 44
2.0
 73
     0
 74
     0
 77
     1
 78
     8
140
7.0
147
2.0
172
     1
173
     1
174
     1
175
     1
176
     4
177
     4
271
     2
178
     1
271
     2
340
F1
  0
DIMSTYLE
105
11F
102
{ACAD_REACTORS
330
120
102
}
330
A
100
AcDbSymbolTableRecord
100
AcDbDimStyleTableRecord
  2
ME10_DIM_13
 70
     0
 41
7.0
 42
0.0
 44
2.0
 73
     0
 74
     0
 77
     1
 78
     8
140
7.0
147
2.0
172
     1
173
     1
174
     1
175
     1
176
     4
177
     4
271
     2
178
     1
271
     2
340
F1
  0
ENDTAB
  0
TABLE
  2
BLOCK_RECORD
  5
1
330
0
100
AcDbSymbolTable
 70
    10
  0
BLOCK_RECORD
  5
1F
330
1
100
AcDbSymbolTableRecord
100
AcDbBlockTableRecord
  2
*Model_Space
340
22
  0
BLOCK_RECORD
  5
1B
330
1
100
AcDbSymbolTableRecord
100
AcDbBlockTableRecord
  2
*Paper_Space
340
1E
  0
BLOCK_RECORD
  5
23
330
1
100
AcDbSymbolTableRecord
100
AcDbBlockTableRecord
  2
*Paper_Space0
340
26
  0
BLOCK_RECORD
  5
47
330
1
100
AcDbSymbolTableRecord
100
AcDbBlockTableRecord
  2
Dichtstopfen
340
0
102
{BLKREFS
331
51
102
}
  0
BLOCK_RECORD
  5
4A
330
1
100
AcDbSymbolTableRecord
100
AcDbBlockTableRecord
  2
Holländermutter_1
340
0
102
{BLKREFS
331
52
102
}
  0
BLOCK_RECORD
  5
4D
330
1
100
AcDbSymbolTableRecord
100
AcDbBlockTableRecord
  2
HL19_ABS_10003_ABS
340
0
102
{BLKREFS
331
53
102
}
  0
BLOCK_RECORD
  5
50
330
1
100
AcDbSymbolTableRecord
100
AcDbBlockTableRecord
  2
WEB-Zeichnung-HL19ABSC
340
0
102
{BLKREFS
331
57
102
}
  0
BLOCK_RECORD
  5
56
330
1
100
AcDbSymbolTableRecord
100
AcDbBlockTableRecord
  2
Vordans1
340
0
102
{BLKREFS
331
5A
102
}
  0
BLOCK_RECORD
  5
F3
330
1
100
AcDbSymbolTableRecord
100
AcDbBlockTableRecord
  2
*D6
340
0
  0
BLOCK_RECORD
  5
FE
330
1
100
AcDbSymbolTableRecord
100
AcDbBlockTableRecord
  2
*D7
340
0
  0
BLOCK_RECORD
  5
109
330
1
100
AcDbSymbolTableRecord
100
AcDbBlockTableRecord
  2
*D8
340
0
  0
BLOCK_RECORD
  5
114
330
1
100
AcDbSymbolTableRecord
100
AcDbBlockTableRecord
  2
*D9
340
0
  0
ENDTAB
  0
ENDSEC
  0
SECTION
  2
BLOCKS
  0
BLOCK
  5
20
330
1F
100
AcDbEntity
  8
0
100
AcDbBlockBegin
  2
*Model_Space
 70
     0
 10
0.0
 20
0.0
 30
0.0
  3
*Model_Space
  1

  0
ENDBLK
  5
21
330
1F
100
AcDbEntity
  8
0
100
AcDbBlockEnd
  0
BLOCK
  5
1C
330
1B
100
AcDbEntity
 67
     1
  8
0
100
AcDbBlockBegin
  2
*Paper_Space
 70
     0
 10
0.0
 20
0.0
 30
0.0
  3
*Paper_Space
  1

  0
ENDBLK
  5
1D
330
1B
100
AcDbEntity
 67
     1
  8
0
100
AcDbBlockEnd
  0
BLOCK
  5
24
330
23
100
AcDbEntity
  8
0
100
AcDbBlockBegin
  2
*Paper_Space0
 70
     0
 10
0.0
 20
0.0
 30
0.0
  3
*Paper_Space0
  1

  0
ENDBLK
  5
25
330
23
100
AcDbEntity
  8
0
100
AcDbBlockEnd
  0
BLOCK
  5
48
330
47
100
AcDbEntity
  8
0
100
AcDbBlockBegin
  2
Dichtstopfen
 70
     0
 10
-56.87500000019979
 20
273.924999809325
 30
0.0
  3
Dichtstopfen
  1

  0
LINE
  5
5B
330
47
100
AcDbEntity
  8
0
  6
Continuous
 62
     7
100
AcDbLine
 10
-56.87500000019979
 20
273.924999809325
 30
0.0
 11
-35.37500000019981
 21
273.924999809325
 31
0.0
  0
LINE
  5
5C
330
47
100
AcDbEntity
  8
0
  6
Continuous
 62
     7
100
AcDbLine
 10
-55.8892857144855
 20
275.224999809325
 30
0.0
 11
-54.87500000019979
 21
275.224999809325
 31
0.0
  0
LINE
  5
5D
330
47
100
AcDbEntity
  8
0
  6
Continuous
 62
     7
100
AcDbLine
 10
-54.87500000019979
 20
275.224999809325
 30
0.0
 11
-39.87500000019981
 21
275.224999809325
 31
0.0
  0
LINE
  5
5E
330
47
100
AcDbEntity
  8
0
  6
Continuous
 62
     7
100
AcDbLine
 10
-39.87500000019981
 20
275.224999809325
 30
0.0
 11
-38.8607142859141
 21
275.224999809325
 31
0.0
  0
LINE
  5
5F
330
47
100
AcDbEntity
  8
0
  6
Continuous
 62
     7
100
AcDbLine
 10
-56.87500000019979
 20
275.224999809325
 30
0.0
 11
-55.8892857144855
 21
275.224999809325
 31
0.0
  0
LINE
  5
60
330
47
100
AcDbEntity
  8
0
  6
Continuous
 62
     7
100
AcDbLine
 10
-35.37500000019981
 20
273.924999809325
 30
0.0
 11
-35.37500000019981
 21
275.224999809325
 31
0.0
  0
LINE
  5
61
330
47
100
AcDbEntity
  8
0
  6
Continuous
 62
     7
100
AcDbLine
 10
-38.8607142859141
 20
275.224999809325
 30
0.0
 11
-35.37500000019981
 21
275.224999809325
 31
0.0
  0
LINE
  5
62
330
47
100
AcDbEntity
  8
0
  6
Continuous
 62
     7
100
AcDbLine
 10
-56.87500000019979
 20
273.924999809325
 30
0.0
 11
-56.87500000019979
 21
275.224999809325
 31
0.0
  0
ENDBLK
  5
49
330
47
100
AcDbEntity
  8
0
100
AcDbBlockEnd
  0
BLOCK
  5
4B
330
4A
100
AcDbEntity
  8
0
100
AcDbBlockBegin
  2
Holländermutter_1
 70
     0
 10
-24.7543517604305
 20
313.0749998093232
 30
0.0
  3
Holländermutter_1
  1

  0
LINE
  5
63
330
4A
100
AcDbEntity
  8
1
  6
DOT_CENTER
 62
     2
100
AcDbLine
 10
-39.87500000019979
 20
333.2249998093248
 30
0.0
 11
-6.87500000019979
 21
333.224999809325
 31
0.0
  0
LINE
  5
64
330
4A
100
AcDbEntity
  8
0
  6
Continuous
 62
     7
100
AcDbLine
 10
-9.7543517604303
 20
320.7547636888356
 30
0.0
 11
-19.45435176043
 21
320.7547636888356
 31
0.0
  0
LINE
  5
65
330
4A
100
AcDbEntity
  8
0
  6
Continuous
 62
     7
100
AcDbLine
 10
-20.25435176043021
 20
315.1609471078943
 30
0.0
 11
-19.49412157583481
 21
315.1609471078943
 31
0.0
  0
LINE
  5
66
330
4A
100
AcDbEntity
  8
0
  6
Continuous
 62
     7
100
AcDbLine
 10
-20.25435176043021
 20
319.3310712745852
 30
0.0
 11
-9.7543517604303
 21
319.3310712745849
 31
0.0
  0
LINE
  5
67
330
4A
100
AcDbEntity
  8
0
  6
Continuous
 62
     7
100
AcDbLine
 10
-9.7543517604303
 20
318.6259172662568
 30
0.0
 11
-19.45435176043
 21
318.6259172662568
 31
0.0
  0
LINE
  5
68
330
4A
100
AcDbEntity
  8
0
  6
Continuous
 62
     7
100
AcDbLine
 10
-9.7543517604303
 20
319.3310712745849
 30
0.0
 11
-9.7543517604303
 21
318.6259172662568
 31
0.0
  0
LINE
  5
69
330
4A
100
AcDbEntity
  8
0
  6
Continuous
 62
     7
100
AcDbLine
 10
-9.7543517604303
 20
336.724999809325
 30
0.0
 11
-9.7543517604303
 21
329.724999809325
 31
0.0
  0
LINE
  5
6A
330
4A
100
AcDbEntity
  8
0
  6
Continuous
 62
     7
100
AcDbLine
 10
-9.7543517604303
 20
315.1259172662569
 30
0.0
 11
-9.7543517604303
 21
314.3467053948374
 31
0.0
  0
LINE
  5
6B
330
4A
100
AcDbEntity
  8
0
  6
Continuous
 62
     7
100
AcDbLine
 10
-9.7543517604303
 20
314.0249998093231
 30
0.0
 11
-9.7543517604303
 21
313.5749998093234
 31
0.0
  0
LINE
  5
6C
330
4A
100
AcDbEntity
  8
0
  6
Continuous
 62
     7
100
AcDbLine
 10
-9.7543517604303
 20
314.3467053948374
 30
0.0
 11
-9.7543517604303
 21
314.0249998093231
 31
0.0
  0
LINE
  5
6D
330
4A
100
AcDbEntity
  8
0
  6
Continuous
 62
     7
100
AcDbLine
 10
-9.7543517604303
 20
326.8169415153267
 30
0.0
 11
-9.7543517604303
 21
320.7547636888356
 31
0.0
  0
LINE
  5
6E
330
4A
100
AcDbEntity
  8
0
  6
Continuous
 62
     7
100
AcDbLine
 10
-9.7543517604303
 20
320.7547636888356
 30
0.0
 11
-9.7543517604303
 21
319.3310712745849
 31
0.0
  0
LINE
  5
6F
330
4A
100
AcDbEntity
  8
0
  6
Continuous
 62
     7
100
AcDbLine
 10
-9.7543517604303
 20
327.2240623718551
 30
0.0
 11
-9.7543517604303
 21
326.8169415153267
 31
0.0
  0
LINE
  5
70
330
4A
100
AcDbEntity
  8
0
  6
Continuous
 62
     7
100
AcDbLine
 10
-9.7543517604303
 20
329.724999809325
 30
0.0
 11
-9.7543517604303
 21
327.2240623718551
 31
0.0
  0
LINE
  5
71
330
4A
100
AcDbEntity
  8
0
  6
Continuous
 62
     7
100
AcDbLine
 10
-9.7543517604303
 20
339.2259372467948
 30
0.0
 11
-9.7543517604303
 21
336.724999809325
 31
0.0
  0
LINE
  5
72
330
4A
100
AcDbEntity
  8
0
  6
Continuous
 62
     7
100
AcDbLine
 10
-9.7543517604303
 20
352.1032942238126
 30
0.0
 11
-9.7543517604303
 21
351.3240823523931
 31
0.0
  0
LINE
  5
73
330
4A
100
AcDbEntity
  8
0
  6
Continuous
 62
     7
100
AcDbLine
 10
-9.7543517604303
 20
351.3240823523931
 30
0.0
 11
-9.7543517604303
 21
347.8240823523931
 31
0.0
  0
LINE
  5
74
330
4A
100
AcDbEntity
  8
0
  6
Continuous
 62
     7
100
AcDbLine
 10
-9.7543517604303
 20
352.8749998093265
 30
0.0
 11
-9.7543517604303
 21
352.4249998093269
 31
0.0
  0
LINE
  5
75
330
4A
100
AcDbEntity
  8
0
  6
Continuous
 62
     7
100
AcDbLine
 10
-9.7543517604303
 20
352.4249998093269
 30
0.0
 11
-9.7543517604303
 21
352.1032942238126
 31
0.0
  0
LINE
  5
76
330
4A
100
AcDbEntity
  8
0
  6
Continuous
 62
     7
100
AcDbLine
 10
-9.7543517604303
 20
347.8240823523931
 30
0.0
 11
-9.7543517604303
 21
347.118928344065
 31
0.0
  0
LINE
  5
77
330
4A
100
AcDbEntity
  8
0
  6
Continuous
 62
     7
100
AcDbLine
 10
-9.7543517604303
 20
345.6952359298143
 30
0.0
 11
-9.7543517604303
 21
339.6330581033233
 31
0.0
  0
LINE
  5
78
330
4A
100
AcDbEntity
  8
0
  6
Continuous
 62
     7
100
AcDbLine
 10
-9.7543517604303
 20
347.118928344065
 30
0.0
 11
-9.7543517604303
 21
345.6952359298143
 31
0.0
  0
LINE
  5
79
330
4A
100
AcDbEntity
  8
0
  6
Continuous
 62
     7
100
AcDbLine
 10
-9.7543517604303
 20
339.6330581033233
 30
0.0
 11
-9.7543517604303
 21
339.2259372467948
 31
0.0
  0
LINE
  5
7A
330
4A
100
AcDbEntity
  8
0
  6
Continuous
 62
     3
100
AcDbLine
 10
-9.25435176043021
 20
353.3749998093265
 30
0.0
 11
-9.25435176043021
 21
313.0749998093234
 31
0.0
  0
LINE
  5
7B
330
4A
100
AcDbEntity
  8
0
  6
Continuous
 62
     7
100
AcDbLine
 10
-9.7543517604303
 20
315.1259172662569
 30
0.0
 11
-19.45435176043
 21
315.1259172662569
 31
0.0
  0
LINE
  5
7C
330
4A
100
AcDbEntity
  8
0
  6
Continuous
 62
     7
100
AcDbLine
 10
-19.45435176043
 20
352.4249998093269
 30
0.0
 11
-9.7543517604303
 21
352.4249998093269
 31
0.0
  0
LINE
  5
7D
330
4A
100
AcDbEntity
  8
0
  6
Continuous
 62
     7
100
AcDbLine
 10
-9.7543517604303
 20
352.1032942238126
 30
0.0
 11
-19.45435176043
 21
352.1032942238126
 31
0.0
  0
LINE
  5
7E
330
4A
100
AcDbEntity
  8
0
  6
Continuous
 62
     7
100
AcDbLine
 10
-9.7543517604303
 20
351.3240823523931
 30
0.0
 11
-19.45435176043
 21
351.3240823523931
 31
0.0
  0
LINE
  5
7F
330
4A
100
AcDbEntity
  8
0
  6
Continuous
 62
     7
100
AcDbLine
 10
-9.7543517604303
 20
339.6330581033233
 30
0.0
 11
-19.45435176043
 21
339.6330581033233
 31
0.0
  0
LINE
  5
80
330
4A
100
AcDbEntity
  8
0
  6
Continuous
 62
     7
100
AcDbLine
 10
-19.45435176043
 20
345.6952359298143
 30
0.0
 11
-19.45435176043
 21
339.6330581033233
 31
0.0
  0
LINE
  5
81
330
4A
100
AcDbEntity
  8
0
  6
Continuous
 62
     7
100
AcDbLine
 10
-9.7543517604303
 20
345.6952359298143
 30
0.0
 11
-19.45435176043
 21
345.6952359298143
 31
0.0
  0
LINE
  5
82
330
4A
100
AcDbEntity
  8
0
  6
Continuous
 62
     7
100
AcDbLine
 10
-9.7543517604303
 20
347.8240823523931
 30
0.0
 11
-19.45435176043
 21
347.8240823523931
 31
0.0
  0
LINE
  5
83
330
4A
100
AcDbEntity
  8
0
  6
Continuous
 62
     7
100
AcDbLine
 10
-19.45435176043
 20
352.4249998093269
 30
0.0
 11
-19.45435176043
 21
352.1032942238126
 31
0.0
  0
LINE
  5
84
330
4A
100
AcDbEntity
  8
0
  6
Continuous
 62
     7
100
AcDbLine
 10
-9.7543517604303
 20
329.724999809325
 30
0.0
 11
-19.45435176043
 21
329.724999809325
 31
0.0
  0
LINE
  5
85
330
4A
100
AcDbEntity
  8
0
  6
Continuous
 62
     7
100
AcDbLine
 10
-9.7543517604303
 20
336.724999809325
 30
0.0
 11
-19.45435176043
 21
336.724999809325
 31
0.0
  0
LINE
  5
86
330
4A
100
AcDbEntity
  8
0
  6
Continuous
 62
     7
100
AcDbLine
 10
-19.45435176043
 20
314.0249998093231
 30
0.0
 11
-9.7543517604303
 21
314.0249998093231
 31
0.0
  0
LINE
  5
87
330
4A
100
AcDbEntity
  8
0
  6
Continuous
 62
     7
100
AcDbLine
 10
-9.7543517604303
 20
314.3467053948374
 30
0.0
 11
-19.45435176043
 21
314.3467053948374
 31
0.0
  0
LINE
  5
88
330
4A
100
AcDbEntity
  8
0
  6
Continuous
 62
     7
100
AcDbLine
 10
-19.45435176043
 20
314.3467053948374
 30
0.0
 11
-19.45435176043
 21
314.0249998093231
 31
0.0
  0
LINE
  5
89
330
4A
100
AcDbEntity
  8
0
  6
Continuous
 62
     7
100
AcDbLine
 10
-7.2543517604303
 20
313.0749998093234
 30
0.0
 11
-9.25435176043021
 21
313.0749998093234
 31
0.0
  0
LINE
  5
8A
330
4A
100
AcDbEntity
  8
0
  6
Continuous
 62
     7
100
AcDbLine
 10
-9.7543517604303
 20
318.6259172662568
 30
0.0
 11
-9.7543517604303
 21
315.1259172662569
 31
0.0
  0
LINE
  5
8B
330
4A
100
AcDbEntity
  8
0
  6
Continuous
 62
     7
100
AcDbLine
 10
-7.2543517604303
 20
353.3749998093265
 30
0.0
 11
-7.2543517604303
 21
313.0749998093234
 31
0.0
  0
LINE
  5
8C
330
4A
100
AcDbEntity
  8
0
  6
Continuous
 62
     7
100
AcDbLine
 10
-7.2543517604303
 20
353.3749998093265
 30
0.0
 11
-9.25435176043021
 21
353.3749998093265
 31
0.0
  0
LINE
  5
8D
330
4A
100
AcDbEntity
  8
0
  6
Continuous
 62
     7
100
AcDbLine
 10
-23.75435176043021
 20
351.6249998093267
 30
0.0
 11
-20.25435176043021
 21
351.6249998093267
 31
0.0
  0
LINE
  5
8E
330
4A
100
AcDbEntity
  8
0
  6
Continuous
 62
     7
100
AcDbLine
 10
-20.25435176043021
 20
351.6249998093267
 30
0.0
 11
-19.45435176043
 21
352.4249998093269
 31
0.0
  0
LINE
  5
8F
330
4A
100
AcDbEntity
  8
0
  6
Continuous
 62
     7
100
AcDbLine
 10
-20.25435176043021
 20
336.724999809325
 30
0.0
 11
-19.45435176043
 21
336.724999809325
 31
0.0
  0
LINE
  5
90
330
4A
100
AcDbEntity
  8
0
  6
Continuous
 62
     7
100
AcDbLine
 10
-20.25435176043021
 20
347.1189283440648
 30
0.0
 11
-9.7543517604303
 21
347.118928344065
 31
0.0
  0
LINE
  5
91
330
4A
100
AcDbEntity
  8
0
  6
Continuous
 62
     7
100
AcDbLine
 10
-20.25435176043021
 20
351.2890525107556
 30
0.0
 11
-20.25435176043021
 21
351.6249998093267
 31
0.0
  0
LINE
  5
92
330
4A
100
AcDbEntity
  8
0
  6
Continuous
 62
     7
100
AcDbLine
 10
-20.25435176043021
 20
339.2259372467947
 30
0.0
 11
-9.7543517604303
 21
339.2259372467948
 31
0.0
  0
LINE
  5
93
330
4A
100
AcDbEntity
  8
0
  6
Continuous
 62
     7
100
AcDbLine
 10
-20.25435176043021
 20
327.2240623718552
 30
0.0
 11
-9.7543517604303
 21
327.2240623718551
 31
0.0
  0
LINE
  5
94
330
4A
100
AcDbEntity
  8
0
  6
Continuous
 62
     7
100
AcDbLine
 10
-9.7543517604303
 20
326.8169415153267
 30
0.0
 11
-19.45435176043
 21
326.8169415153267
 31
0.0
  0
LINE
  5
95
330
4A
100
AcDbEntity
  8
0
  6
Continuous
 62
     7
100
AcDbLine
 10
-20.25435176043021
 20
314.8249998093233
 30
0.0
 11
-19.45435176043
 21
314.0249998093231
 31
0.0
  0
LINE
  5
96
330
4A
100
AcDbEntity
  8
0
  6
Continuous
 62
     3
100
AcDbLine
 10
-23.75435176043021
 20
351.6249998093267
 30
0.0
 11
-23.75435176043021
 21
314.8249998093233
 31
0.0
  0
LINE
  5
97
330
4A
100
AcDbEntity
  8
0
  6
Continuous
 62
     7
100
AcDbLine
 10
-19.45435176043
 20
336.724999809325
 30
0.0
 11
-19.45435176043
 21
329.724999809325
 31
0.0
  0
LINE
  5
98
330
4A
100
AcDbEntity
  8
0
  6
Continuous
 62
     7
100
AcDbLine
 10
-20.25435176043021
 20
321.1618845453642
 30
0.0
 11
-20.25435176043021
 21
327.2240623718552
 31
0.0
  0
LINE
  5
99
330
4A
100
AcDbEntity
  8
0
  6
Continuous
 62
     7
100
AcDbLine
 10
-20.25435176043021
 20
347.1189283440648
 30
0.0
 11
-20.25435176043021
 21
350.6189283440648
 31
0.0
  0
LINE
  5
9A
330
4A
100
AcDbEntity
  8
0
  6
Continuous
 62
     7
100
AcDbLine
 10
-19.45435176043
 20
351.3240823523931
 30
0.0
 11
-19.45435176043
 21
347.8240823523931
 31
0.0
  0
LINE
  5
9B
330
4A
100
AcDbEntity
  8
0
  6
Continuous
 62
     7
100
AcDbLine
 10
-20.25435176043021
 20
329.724999809325
 30
0.0
 11
-20.25435176043021
 21
336.724999809325
 31
0.0
  0
LINE
  5
9C
330
4A
100
AcDbEntity
  8
0
  6
Continuous
 62
     7
100
AcDbLine
 10
-20.25435176043021
 20
339.2259372467947
 30
0.0
 11
-20.25435176043021
 21
345.2881150732858
 31
0.0
  0
LINE
  5
9D
330
4A
100
AcDbEntity
  8
0
  6
Continuous
 62
     7
100
AcDbLine
 10
-20.25435176043021
 20
351.2890525107556
 30
0.0
 11
-19.49412157583501
 21
351.2890525107556
 31
0.0
  0
LINE
  5
9E
330
4A
100
AcDbEntity
  8
0
  6
Continuous
 62
     7
100
AcDbLine
 10
-19.45435176043
 20
329.724999809325
 30
0.0
 11
-20.25435176043021
 21
329.724999809325
 31
0.0
  0
LINE
  5
9F
330
4A
100
AcDbEntity
  8
0
  6
Continuous
 62
     7
100
AcDbLine
 10
-20.25435176043021
 20
315.8310712745852
 30
0.0
 11
-20.25435176043021
 21
319.3310712745852
 31
0.0
  0
LINE
  5
A0
330
4A
100
AcDbEntity
  8
0
  6
Continuous
 62
     7
100
AcDbLine
 10
-19.45435176043
 20
318.6259172662568
 30
0.0
 11
-19.45435176043
 21
315.1259172662569
 31
0.0
  0
LINE
  5
A1
330
4A
100
AcDbEntity
  8
0
  6
Continuous
 62
     7
100
AcDbLine
 10
-19.45435176043
 20
326.8169415153267
 30
0.0
 11
-19.45435176043
 21
320.7547636888356
 31
0.0
  0
LINE
  5
A2
330
4A
100
AcDbEntity
  8
0
  6
Continuous
 62
     7
100
AcDbLine
 10
-20.25435176043021
 20
314.8249998093233
 30
0.0
 11
-20.25435176043021
 21
315.1609471078943
 31
0.0
  0
LINE
  5
A3
330
4A
100
AcDbEntity
  8
0
  6
Continuous
 62
     7
100
AcDbLine
 10
-23.75435176043021
 20
314.8249998093233
 30
0.0
 11
-20.25435176043021
 21
314.8249998093233
 31
0.0
  0
LINE
  5
A4
330
4A
100
AcDbEntity
  8
0
  6
Continuous
 62
     7
100
AcDbLine
 10
-24.75435176043021
 20
350.6249998093265
 30
0.0
 11
-24.75435176043021
 21
315.8249998093235
 31
0.0
  0
ARC
  5
A5
330
4A
100
AcDbEntity
  8
0
  6
Continuous
 62
     7
100
AcDbCircle
 10
-9.2543517604301
 20
313.5749998093234
 30
0.0
 40
0.500000000000199
100
AcDbArc
 50
180.0
 51
269.999999999987
  0
ARC
  5
A6
330
4A
100
AcDbEntity
  8
0
  6
Continuous
 62
     7
100
AcDbCircle
 10
-23.7543517604303
 20
315.8249998093235
 30
0.0
 40
0.9999999999999112
100
AcDbArc
 50
180.0
 51
270.0000000000051
  0
ARC
  5
A7
330
4A
100
AcDbEntity
  8
0
  6
Continuous
 62
     7
100
AcDbCircle
 10
-23.7543517604303
 20
350.6249998093265
 30
0.0
 40
1.000000000000227
100
AcDbArc
 50
89.99999999999491
 51
180.0
  0
ARC
  5
A8
330
4A
100
AcDbEntity
  8
0
  6
Continuous
 62
     7
100
AcDbCircle
 10
-9.2543517604301
 20
352.8749998093265
 30
0.0
 40
0.5
100
AcDbArc
 50
90.00000000001303
 51
180.0
  0
SPLINE
  5
A9
330
4A
100
AcDbEntity
  8
0
  6
Continuous
 62
     7
100
AcDbSpline
210
0.0
220
0.0
230
1.0
 70
     8
 71
     3
 72
    11
 73
     7
 74
     5
 42
0.000000001
 43
0.0000000001
 44
0.00000001
 40
0.0
 40
0.0
 40
0.0
 40
0.0
 40
0.22321796941583
 40
0.4487652474511635
 40
0.6720534812135501
 40
0.8976343441809813
 40
0.8976343441809813
 40
0.8976343441809813
 40
0.8976343441809813
 10
-20.25435176043021
 20
321.1618845453642
 30
0.0
 10
-20.18804787356304
 20
321.1281199791478
 30
0.0
 10
-20.05474820329474
 20
321.0602385224735
 30
0.0
 10
-19.85510283288188
 20
320.9586230045384
 30
0.0
 10
-19.65474203084444
 20
320.8566767268023
 30
0.0
 10
-19.52137557889073
 20
320.7888501732592
 30
0.0
 10
-19.45435176043
 20
320.7547636888356
 30
0.0
 11
-20.25435176043021
 21
321.1618845453642
 31
0.0
 11
-20.05543663828164
 21
321.0605976456628
 31
0.0
 11
-19.8544294808751
 21
320.9582858804487
 31
0.0
 11
-19.65541993796356
 21
320.8570295859898
 31
0.0
 11
-19.45435176043
 21
320.7547636888356
 31
0.0
  0
SPLINE
  5
AA
330
4A
100
AcDbEntity
  8
0
  6
Continuous
 62
     7
100
AcDbSpline
210
0.0
220
0.0
230
1.0
 70
     8
 71
     3
 72
    11
 73
     7
 74
     5
 42
0.000000001
 43
0.0000000001
 44
0.00000001
 40
0.0
 40
0.0
 40
0.0
 40
0.0
 40
0.265149574798783
 40
0.5331932871598193
 40
0.798481181011022
 40
1.066415597480048
 40
1.066415597480048
 40
1.066415597480048
 40
1.066415597480048
 10
-20.25435176043021
 20
319.3310712745852
 30
0.0
 10
-20.18806804371068
 20
319.2726071188008
 30
0.0
 10
-20.05477710606041
 20
319.1550406756551
 30
0.0
 10
-19.8551233665485
 20
318.9790300490928
 30
0.0
 10
-19.6547446178842
 20
318.8024380957178
 30
0.0
 10
-19.52137004059894
 20
318.6849519106008
 30
0.0
 10
-19.45435176043
 20
318.6259172662568
 30
0.0
 11
-20.25435176043021
 21
319.3310712745852
 31
0.0
 11
-20.05549325820155
 21
319.1556871444369
 31
0.0
 11
-19.8544294808751
 21
318.9784280425984
 31
0.0
 11
-19.65539963436252
 21
318.8030291063924
 31
0.0
 11
-19.45435176043
 21
318.6259172662568
 31
0.0
  0
SPLINE
  5
AB
330
4A
100
AcDbEntity
  8
0
  6
Continuous
 62
     7
100
AcDbSpline
210
0.0
220
0.0
230
1.0
 70
     8
 71
     3
 72
    11
 73
     7
 74
     5
 42
0.000000001
 43
0.0000000001
 44
0.00000001
 40
0.0
 40
0.0
 40
0.0
 40
0.0
 40
0.2650026194976501
 40
0.5331932871597583
 40
0.7984517946445484
 40
1.06641559747999
 40
1.06641559747999
 40
1.06641559747999
 40
1.06641559747999
 10
-20.25435176043021
 20
350.6189283440648
 30
0.0
 10
-20.18810478211685
 20
350.6773600987747
 30
0.0
 10
-20.05481384772013
 20
350.7949265456079
 30
0.0
 10
-19.85516746476314
 20
350.9709307043898
 30
0.0
 10
-19.65475196737906
 20
351.1475550471403
 30
0.0
 10
-19.52137739069255
 20
351.2650412329373
 30
0.0
 10
-19.45435176043
 20
351.3240823523931
 30
0.0
 11
-20.25435176043021
 21
350.6189283440648
 31
0.0
 11
-20.05560348220247
 21
350.7942152809502
 31
0.0
 11
-19.8544294808751
 21
350.9715715760515
 31
0.0
 11
-19.65542168301094
 21
351.1469510850692
 31
0.0
 11
-19.45435176043
 21
351.3240823523931
 31
0.0
  0
SPLINE
  5
AC
330
4A
100
AcDbEntity
  8
0
  6
Continuous
 62
     7
100
AcDbSpline
210
0.0
220
0.0
230
1.0
 70
     8
 71
     3
 72
    11
 73
     7
 74
     5
 42
0.000000001
 43
0.0000000001
 44
0.00000001
 40
0.0
 40
0.0
 40
0.0
 40
0.0
 40
0.2255797515741039
 40
0.4488690967297662
 40
0.6744126663340512
 40
0.8976343441809552
 40
0.8976343441809552
 40
0.8976343441809552
 40
0.8976343441809552
 10
-19.45435176043
 20
345.6952359298143
 30
0.0
 10
-19.52137524868355
 20
345.6611496133406
 30
0.0
 10
-19.65474170064968
 20
345.5933230598218
 30
0.0
 10
-19.85510140099178
 20
345.491377342727
 30
0.0
 10
-20.05474710168651
 20
345.3897616569889
 30
0.0
 10
-20.18804677200073
 20
345.3218802004048
 30
0.0
 10
-20.25435176043021
 20
345.2881150732858
 30
0.0
 11
-19.45435176043
 21
345.6952359298143
 31
0.0
 11
-19.65541894737694
 21
345.592970536578
 31
0.0
 11
-19.8544294808751
 21
345.4917137382013
 31
0.0
 11
-20.05543333347082
 21
345.3894036554516
 31
0.0
 11
-20.25435176043021
 21
345.2881150732858
 31
0.0
  0
SPLINE
  5
AD
330
4A
100
AcDbEntity
  8
0
  6
Continuous
 62
     7
100
AcDbSpline
210
0.0
220
0.0
230
1.0
 70
     8
 71
     3
 72
    11
 73
     7
 74
     5
 42
0.000000001
 43
0.0000000001
 44
0.00000001
 40
0.0
 40
0.0
 40
0.0
 40
0.0
 40
0.2866987054017129
 40
0.5707427748941203
 40
0.8577732734533345
 40
1.141485710262874
 40
1.141485710262874
 40
1.141485710262874
 40
1.141485710262874
 10
-19.45435176043
 20
352.1032942238126
 30
0.0
 10
-19.52135049328027
 20
352.0351467722589
 30
0.0
 10
-19.65472758540793
 20
351.8994828579296
 30
0.0
 10
-19.85513270580499
 20
351.6955452071265
 30
0.0
 10
-20.05480685339301
 20
351.4922848515409
 30
0.0
 10
-20.18809508907643
 20
351.3565335606883
 30
0.0
 10
-20.25435176043021
 20
351.2890525107556
 30
0.0
 11
-19.45435176043
 21
352.1032942238126
 31
0.0
 11
-19.65533985678373
 21
351.8988439051443
 31
0.0
 11
-19.8544294808751
 21
351.6962498405865
 31
0.0
 11
-20.0555731983916
 21
351.4914872658617
 31
0.0
 11
-20.25435176043021
 21
351.2890525107556
 31
0.0
  0
SPLINE
  5
AE
330
4A
100
AcDbEntity
  8
0
  6
Continuous
 62
     7
100
AcDbSpline
210
0.0
220
0.0
230
1.0
 70
     8
 71
     3
 72
    11
 73
     7
 74
     5
 42
0.000000001
 43
0.0000000001
 44
0.00000001
 40
0.0
 40
0.0
 40
0.0
 40
0.0
 40
0.2257350453692286
 40
0.4488690967298276
 40
0.6744398470785254
 40
0.8976343441810185
 40
0.8976343441810185
 40
0.8976343441810185
 40
0.8976343441810185
 10
-19.45435176043
 20
339.6330581033233
 30
0.0
 10
-19.52142138820336
 20
339.5989483194595
 30
0.0
 10
-19.65478783849377
 20
339.5311217626446
 30
0.0
 10
-19.8551556087326
 20
339.4291719266944
 30
0.0
 10
-20.05475517589053
 20
339.3275797201049
 30
0.0
 10
-20.18805484585059
 20
339.2596982628256
 30
0.0
 10
-20.25435176043021
 20
339.2259372467947
 30
0.0
 11
-19.45435176043
 21
339.6330581033233
 31
0.0
 11
-19.65555736097716
 21
339.5307222981689
 31
0.0
 11
-19.8544294808751
 21
339.4295359117102
 31
0.0
 11
-20.05545755590263
 21
339.327213497429
 31
0.0
 11
-20.25435176043021
 21
339.2259372467947
 31
0.0
  0
SPLINE
  5
AF
330
4A
100
AcDbEntity
  8
0
  6
Continuous
 62
     7
100
AcDbSpline
210
0.0
220
0.0
230
1.0
 70
     8
 71
     3
 72
    11
 73
     7
 74
     5
 42
0.000000001
 43
0.0000000001
 44
0.00000001
 40
0.0
 40
0.0
 40
0.0
 40
0.0
 40
0.2678832079393364
 40
0.5332223103202236
 40
0.8014521220036088
 40
1.066415597479986
 40
1.066415597479986
 40
1.066415597479986
 40
1.066415597479986
 10
-19.45435176043
 20
347.8240823523931
 30
0.0
 10
-19.521357232316
 20
347.7650589914911
 30
0.0
 10
-19.65473181054912
 20
347.6475728074504
 30
0.0
 10
-19.85515710186399
 20
347.4709398432449
 30
0.0
 10
-20.05482363445222
 20
347.2949179159858
 30
0.0
 10
-20.18811456800098
 20
347.1773514681916
 30
0.0
 10
-20.25435176043021
 20
347.1189283440648
 30
0.0
 11
-19.45435176043
 21
347.8240823523931
 31
0.0
 11
-19.65536121250122
 21
347.6470043659738
 31
0.0
 11
-19.8544294808751
 21
347.4715715760515
 31
0.0
 11
-20.05563284222106
 21
347.2941893918845
 31
0.0
 11
-20.25435176043021
 21
347.1189283440648
 31
0.0
  0
SPLINE
  5
B0
330
4A
100
AcDbEntity
  8
0
  6
Continuous
 62
     7
100
AcDbSpline
210
0.0
220
0.0
230
1.0
 70
     8
 71
     3
 72
    11
 73
     7
 74
     5
 42
0.000000001
 43
0.0000000001
 44
0.00000001
 40
0.0
 40
0.0
 40
0.0
 40
0.0
 40
0.2839714124427414
 40
0.5707429353686457
 40
0.8546478952704466
 40
1.14148571026278
 40
1.14148571026278
 40
1.14148571026278
 40
1.14148571026278
 10
-20.25435176043021
 20
315.1609471078943
 30
0.0
 10
-20.18803460622253
 20
315.0934044635896
 30
0.0
 10
-20.05474636435086
 20
314.9576531788113
 30
0.0
 10
-19.85510469503684
 20
314.7544259189489
 30
0.0
 10
-19.65476008968634
 20
314.5505498308925
 30
0.0
 10
-19.52138300041682
 20
314.4148859137522
 30
0.0
 10
-19.45435176043
 20
314.3467053948374
 30
0.0
 11
-20.25435176043021
 21
315.1609471078943
 31
0.0
 11
-20.05539173293218
 21
314.9583275862699
 31
0.0
 11
-19.8544294808751
 21
314.7537497780635
 31
0.0
 11
-19.65543736945609
 21
314.551254924176
 31
0.0
 11
-19.45435176043
 21
314.3467053948374
 31
0.0
  0
SPLINE
  5
B1
330
4A
100
AcDbEntity
  8
0
  6
Continuous
 62
     7
100
AcDbSpline
210
0.0
220
0.0
230
1.0
 70
     8
 71
     3
 72
    11
 73
     7
 74
     5
 42
0.000000001
 43
0.0000000001
 44
0.00000001
 40
0.0
 40
0.0
 40
0.0
 40
0.0
 40
0.2653179004677399
 40
0.5331932871598035
 40
0.7984354947490344
 40
1.066415597479959
 40
1.066415597479959
 40
1.066415597479959
 40
1.066415597479959
 10
-20.25435176043021
 20
315.8310712745852
 30
0.0
 10
-20.18802596277992
 20
315.7725700059265
 30
0.0
 10
-20.05473502142039
 20
315.6550035669849
 30
0.0
 10
-19.85509269526042
 20
315.4790030226176
 30
0.0
 10
-19.65475604409193
 20
315.3024481633263
 30
0.0
 10
-19.52138146765178
 20
315.1849619772495
 30
0.0
 10
-19.45435176043
 20
315.1259172662569
 30
0.0
 11
-20.25435176043021
 21
315.8310712745852
 31
0.0
 11
-20.05536700531754
 21
315.6555758172597
 31
0.0
 11
-19.8544294808751
 21
315.4784280425984
 31
0.0
 11
-19.65543391285437
 21
315.3030593093649
 31
0.0
 11
-19.45435176043
 21
315.1259172662569
 31
0.0
  0
SPLINE
  5
B2
330
4A
100
AcDbEntity
  8
0
  6
Continuous
 62
     7
100
AcDbSpline
210
0.0
220
0.0
230
1.0
 70
     8
 71
     3
 72
    11
 73
     7
 74
     5
 42
0.000000001
 43
0.0000000001
 44
0.00000001
 40
0.0
 40
0.0
 40
0.0
 40
0.0
 40
0.2232182509284059
 40
0.4487652474511635
 40
0.6718805072453411
 40
0.8976343441809664
 40
0.8976343441809664
 40
0.8976343441809664
 40
0.8976343441809664
 10
-20.25435176043021
 20
327.2240623718552
 30
0.0
 10
-20.18804778995194
 20
327.1902977630398
 30
0.0
 10
-20.05474811970069
 20
327.1224163063323
 30
0.0
 10
-19.85515413410015
 20
327.0208269426478
 30
0.0
 10
-19.65479342147998
 20
326.9188806961024
 30
0.0
 10
-19.52142697138905
 20
326.8510541388953
 30
0.0
 10
-19.45435176043
 20
326.8169415153267
 30
0.0
 11
-20.25435176043021
 21
327.2240623718552
 31
0.0
 11
-20.05543638740849
 21
327.1227753444354
 31
0.0
 11
-19.8544294808751
 21
327.0204637069397
 31
0.0
 11
-19.65557410992893
 21
326.9192858407853
 31
0.0
 11
-19.45435176043
 21
326.8169415153267
 31
0.0
  0
ENDBLK
  5
4C
330
4A
100
AcDbEntity
  8
0
100
AcDbBlockEnd
  0
BLOCK
  5
4E
330
4D
100
AcDbEntity
  8
0
100
AcDbBlockBegin
  2
HL19_ABS_10003_ABS
 70
     0
 10
-59.12500000019969
 20
275.224999809325
 30
0.0
  3
HL19_ABS_10003_ABS
  1

  0
LINE
  5
B3
330
4D
100
AcDbEntity
  8
1
  6
DOT_CENTER
 62
     2
100
AcDbLine
 10
-37.87500000019961
 20
333.224999809325
 30
0.0
 11
-24.75435176043021
 21
333.224999809325
 31
0.0
  0
LINE
  5
B4
330
4D
100
AcDbEntity
  8
1
  6
DOT_CENTER
 62
     2
100
AcDbLine
 10
-6.8750000001996
 20
333.224999809325
 30
0.0
 11
-9.25435176043021
 21
333.224999809325
 31
0.0
  0
LINE
  5
B5
330
4D
100
AcDbEntity
  8
1
  6
DOT_CENTER
 62
     2
100
AcDbLine
 10
-47.3750000001996
 20
323.724999809325
 30
0.0
 11
-47.3750000001996
 21
309.5249998093249
 31
0.0
  0
LINE
  5
B6
330
4D
100
AcDbEntity
  8
1
  6
DOT_CENTER
 62
     2
100
AcDbLine
 10
-47.37500000019974
 20
275.224999809325
 30
0.0
 11
-47.37500000019966
 21
309.0249998093248
 31
0.0
  0
LINE
  5
B7
330
4D
100
AcDbEntity
  8
1
  6
DOT_CENTER
 62
     2
100
AcDbLine
 10
-47.37500000019974
 20
275.224999809325
 30
0.0
 11
-47.37500000019999
 21
325.724999809325
 31
0.0
  0
LINE
  5
B8
330
4D
100
AcDbEntity
  8
1
  6
DOT_CENTER
 62
     2
100
AcDbLine
 10
-37.87500000019961
 20
333.224999809325
 30
0.0
 11
-24.75435176043021
 21
333.224999809325
 31
0.0
  0
LINE
  5
B9
330
4D
100
AcDbEntity
  8
0
  6
Continuous
 62
     7
100
AcDbLine
 10
-37.87500000019961
 20
323.724999809325
 30
0.0
 11
-24.75435176043021
 21
323.724999809325
 31
0.0
  0
LINE
  5
BA
330
4D
100
AcDbEntity
  8
0
  6
Continuous
 62
     7
100
AcDbLine
 10
-6.87500000019961
 20
322.2249998093249
 30
0.0
 11
-7.2543517604303
 21
321.8456480490942
 31
0.0
  0
LINE
  5
BB
330
4D
100
AcDbEntity
  8
0
  6
Continuous
 62
     7
100
AcDbLine
 10
-6.87500000019961
 20
344.2249998093251
 30
0.0
 11
-7.2543517604303
 21
344.6043515695558
 31
0.0
  0
LINE
  5
BC
330
4D
100
AcDbEntity
  8
0
  6
Continuous
 62
     7
100
AcDbLine
 10
-6.87500000019961
 20
344.2249998093251
 30
0.0
 11
-6.87500000019961
 21
322.2249998093249
 31
0.0
  0
LINE
  5
BD
330
4D
100
AcDbEntity
  8
0
  6
Continuous
 62
     7
100
AcDbLine
 10
-37.37500000019961
 20
309.0249998093249
 30
0.0
 11
-35.62500000019969
 21
309.024999809325
 31
0.0
  0
LINE
  5
BE
330
4D
100
AcDbEntity
  8
0
  6
Continuous
 62
     7
100
AcDbLine
 10
-56.87500000019969
 20
302.024999809325
 30
0.0
 11
-59.12500000019969
 21
309.024999809325
 31
0.0
  0
LINE
  5
BF
330
4D
100
AcDbEntity
  8
0
  6
Continuous
 62
     7
100
AcDbLine
 10
-56.62500000019969
 20
295.524999809325
 30
0.0
 11
-58.37500000019969
 21
302.024999809325
 31
0.0
  0
LINE
  5
C0
330
4D
100
AcDbEntity
  8
0
  6
Continuous
 62
     7
100
AcDbLine
 10
-56.37500000019979
 20
288.524999809325
 30
0.0
 11
-57.62500000019979
 21
295.524999809325
 31
0.0
  0
LINE
  5
C1
330
4D
100
AcDbEntity
  8
0
  6
Continuous
 62
     7
100
AcDbLine
 10
-38.37500000019981
 20
288.524999809325
 30
0.0
 11
-37.12500000019969
 21
295.524999809325
 31
0.0
  0
LINE
  5
C2
330
4D
100
AcDbEntity
  8
0
  6
Continuous
 62
     7
100
AcDbLine
 10
-38.62500000019981
 20
282.024999809325
 30
0.0
 11
-37.62500000019981
 21
288.524999809325
 31
0.0
  0
LINE
  5
C3
330
4D
100
AcDbEntity
  8
0
  6
Continuous
 62
     3
100
AcDbLine
 10
-56.87500000019959
 20
309.524999809325
 30
0.0
 11
-37.87500000019961
 21
309.5249998093249
 31
0.0
  0
LINE
  5
C4
330
4D
100
AcDbEntity
  8
0
  6
Continuous
 62
     7
100
AcDbLine
 10
-56.12500000019979
 20
282.024999809325
 30
0.0
 11
-38.62500000019981
 21
282.024999809325
 31
0.0
  0
LINE
  5
C5
330
4D
100
AcDbEntity
  8
0
  6
Continuous
 62
     7
100
AcDbLine
 10
-38.62500000019981
 20
282.024999809325
 30
0.0
 11
-38.37500000019981
 21
282.024999809325
 31
0.0
  0
LINE
  5
C6
330
4D
100
AcDbEntity
  8
0
  6
Continuous
 62
     7
100
AcDbLine
 10
-56.37500000019979
 20
282.024999809325
 30
0.0
 11
-56.12500000019979
 21
282.024999809325
 31
0.0
  0
LINE
  5
C7
330
4D
100
AcDbEntity
  8
0
  6
Continuous
 62
     7
100
AcDbLine
 10
-55.8892857144855
 20
275.224999809325
 30
0.0
 11
-56.37500000019979
 21
282.024999809325
 31
0.0
  0
LINE
  5
C8
330
4D
100
AcDbEntity
  8
0
  6
Continuous
 62
     7
100
AcDbLine
 10
-55.8892857144855
 20
275.224999809325
 30
0.0
 11
-54.87500000019979
 21
275.224999809325
 31
0.0
  0
LINE
  5
C9
330
4D
100
AcDbEntity
  8
0
  6
Continuous
 62
     7
100
AcDbLine
 10
-54.87500000019979
 20
275.224999809325
 30
0.0
 11
-39.87500000019981
 21
275.224999809325
 31
0.0
  0
LINE
  5
CA
330
4D
100
AcDbEntity
  8
0
  6
Continuous
 62
     7
100
AcDbLine
 10
-39.87500000019981
 20
275.224999809325
 30
0.0
 11
-38.8607142859141
 21
275.224999809325
 31
0.0
  0
LINE
  5
CB
330
4D
100
AcDbEntity
  8
0
  6
Continuous
 62
     7
100
AcDbLine
 10
-56.37500000019979
 20
288.524999809325
 30
0.0
 11
-38.37500000019981
 21
288.524999809325
 31
0.0
  0
LINE
  5
CC
330
4D
100
AcDbEntity
  8
0
  6
Continuous
 62
     7
100
AcDbLine
 10
-38.37500000019981
 20
288.524999809325
 30
0.0
 11
-37.62500000019981
 21
288.524999809325
 31
0.0
  0
LINE
  5
CD
330
4D
100
AcDbEntity
  8
0
  6
Continuous
 62
     7
100
AcDbLine
 10
-38.8607142859141
 20
275.224999809325
 30
0.0
 11
-38.37500000019981
 21
282.024999809325
 31
0.0
  0
LINE
  5
CE
330
4D
100
AcDbEntity
  8
0
  6
Continuous
 62
     7
100
AcDbLine
 10
-57.37500000019959
 20
309.024999809325
 30
0.0
 11
-37.37500000019961
 21
309.0249998093249
 31
0.0
  0
LINE
  5
CF
330
4D
100
AcDbEntity
  8
0
  6
Continuous
 62
     7
100
AcDbLine
 10
-56.12500000019979
 20
282.024999809325
 30
0.0
 11
-57.12500000019979
 21
288.524999809325
 31
0.0
  0
LINE
  5
D0
330
4D
100
AcDbEntity
  8
0
  6
Continuous
 62
     7
100
AcDbLine
 10
-57.12500000019979
 20
288.524999809325
 30
0.0
 11
-56.37500000019979
 21
288.524999809325
 31
0.0
  0
LINE
  5
D1
330
4D
100
AcDbEntity
  8
0
  6
Continuous
 62
     7
100
AcDbLine
 10
-56.62500000019969
 20
295.524999809325
 30
0.0
 11
-38.12500000019969
 21
295.524999809325
 31
0.0
  0
LINE
  5
D2
330
4D
100
AcDbEntity
  8
0
  6
Continuous
 62
     7
100
AcDbLine
 10
-57.62500000019979
 20
295.524999809325
 30
0.0
 11
-56.62500000019969
 21
295.524999809325
 31
0.0
  0
LINE
  5
D3
330
4D
100
AcDbEntity
  8
0
  6
Continuous
 62
     7
100
AcDbLine
 10
-56.87500000019969
 20
302.024999809325
 30
0.0
 11
-37.87500000019969
 21
302.024999809325
 31
0.0
  0
LINE
  5
D4
330
4D
100
AcDbEntity
  8
0
  6
Continuous
 62
     7
100
AcDbLine
 10
-59.12500000019969
 20
309.024999809325
 30
0.0
 11
-57.37500000019959
 21
309.024999809325
 31
0.0
  0
LINE
  5
D5
330
4D
100
AcDbEntity
  8
0
  6
Continuous
 62
     7
100
AcDbLine
 10
-58.37500000019969
 20
302.024999809325
 30
0.0
 11
-56.87500000019969
 21
302.024999809325
 31
0.0
  0
LINE
  5
D6
330
4D
100
AcDbEntity
  8
0
  6
Continuous
 62
     7
100
AcDbLine
 10
-37.87500000019969
 20
302.024999809325
 30
0.0
 11
-35.62500000019969
 21
309.024999809325
 31
0.0
  0
LINE
  5
D7
330
4D
100
AcDbEntity
  8
0
  6
Continuous
 62
     7
100
AcDbLine
 10
-56.87500000019959
 20
323.724999809325
 30
0.0
 11
-56.87500000019959
 21
309.524999809325
 31
0.0
  0
LINE
  5
D8
330
4D
100
AcDbEntity
  8
0
  6
Continuous
 62
     7
100
AcDbLine
 10
-56.87500000019959
 20
323.724999809325
 30
0.0
 11
-56.87500000019959
 21
328.224999809325
 31
0.0
  0
LINE
  5
D9
330
4D
100
AcDbEntity
  8
0
  6
Continuous
 62
     3
100
AcDbLine
 10
-56.8412558598307
 20
323.724999809325
 30
0.0
 11
-56.87500000019959
 21
323.724999809325
 31
0.0
  0
LINE
  5
DA
330
4D
100
AcDbEntity
  8
0
  6
Continuous
 62
     7
100
AcDbLine
 10
-38.12500000019969
 20
295.524999809325
 30
0.0
 11
-37.12500000019969
 21
295.524999809325
 31
0.0
  0
LINE
  5
DB
330
4D
100
AcDbEntity
  8
0
  6
Continuous
 62
     7
100
AcDbLine
 10
-37.87500000019961
 20
323.724999809325
 30
0.0
 11
-37.87500000019961
 21
309.5249998093249
 31
0.0
  0
LINE
  5
DC
330
4D
100
AcDbEntity
  8
0
  6
Continuous
 62
     7
100
AcDbLine
 10
-38.12500000019969
 20
295.524999809325
 30
0.0
 11
-36.37500000019969
 21
302.024999809325
 31
0.0
  0
LINE
  5
DD
330
4D
100
AcDbEntity
  8
0
  6
Continuous
 62
     7
100
AcDbLine
 10
-37.87500000019969
 20
302.024999809325
 30
0.0
 11
-36.37500000019969
 21
302.024999809325
 31
0.0
  0
LINE
  5
DE
330
4D
100
AcDbEntity
  8
0
  6
Continuous
 62
     7
100
AcDbLine
 10
-37.87500000019961
 20
342.724999809325
 30
0.0
 11
-24.75435176043021
 21
342.724999809325
 31
0.0
  0
LINE
  5
DF
330
4D
100
AcDbEntity
  8
0
  6
Continuous
 62
     7
100
AcDbLine
 10
-37.87500000019961
 20
342.724999809325
 30
0.0
 11
-42.37500000019959
 21
342.724999809325
 31
0.0
  0
LINE
  5
E0
330
4D
100
AcDbEntity
  8
0
  6
Continuous
 62
     3
100
AcDbLine
 10
-37.87500000019961
 20
342.6912556689561
 30
0.0
 11
-37.87500000019961
 21
342.724999809325
 31
0.0
  0
LINE
  5
E1
330
4D
100
AcDbEntity
  8
0
  6
Continuous
 62
     3
100
AcDbLine
 10
-37.87500000019961
 20
323.724999809325
 30
0.0
 11
-37.87500000019961
 21
342.6912556689561
 31
0.0
  0
LINE
  5
E2
330
4D
100
AcDbEntity
  8
0
  6
Continuous
 62
     3
100
AcDbLine
 10
-37.87500000019961
 20
323.724999809325
 30
0.0
 11
-56.8412558598307
 21
323.724999809325
 31
0.0
  0
ARC
  5
E3
330
4D
100
AcDbEntity
  8
0
  6
Continuous
 62
     7
100
AcDbCircle
 10
-37.87500000019961
 20
323.724999809325
 30
0.0
 40
19.0
100
AcDbArc
 50
90.0
 51
180.0
  0
ARC
  5
E4
330
4D
100
AcDbEntity
  8
0
  6
Continuous
 62
     7
100
AcDbCircle
 10
-37.37500000019961
 20
309.5249998093249
 30
0.0
 40
0.5
100
AcDbArc
 50
180.0
 51
270.0
  0
ARC
  5
E5
330
4D
100
AcDbEntity
  8
0
  6
Continuous
 62
     7
100
AcDbCircle
 10
-57.37500000019959
 20
309.5249998093249
 30
0.0
 40
0.4999999999999432
100
AcDbArc
 50
270.0
 51
0.00000000000651
  0
ARC
  5
E6
330
4D
100
AcDbEntity
  8
0
  6
Continuous
 62
     3
100
AcDbCircle
 10
-37.87500000019961
 20
323.724999809325
 30
0.0
 40
18.96625585963108
100
AcDbArc
 50
90.0
 51
180.0
  0
ARC
  5
E7
330
4D
100
AcDbEntity
  8
0
  6
Continuous
 62
     7
100
AcDbCircle
 10
-42.37500000019959
 20
328.224999809325
 30
0.0
 40
14.5
100
AcDbArc
 50
90.0
 51
180.0
  0
ARC
  5
E8
330
4D
100
AcDbEntity
  8
0
  6
Continuous
 62
     3
100
AcDbCircle
 10
-47.37500000019969
 20
333.224999809325
 30
0.0
 40
1.543712436559525
100
AcDbArc
 50
32.77577707086181
 51
237.2242229291882
  0
ARC
  5
E9
330
4D
100
AcDbEntity
  8
0
  6
Continuous
 62
     3
100
AcDbCircle
 10
-47.37500000019969
 20
333.224999809325
 30
0.0
 40
1.248270110646801
100
AcDbArc
 50
357.3915449065955
 51
272.6084550934019
  0
ARC
  5
EA
330
4D
100
AcDbEntity
  8
0
  6
Continuous
 62
     7
100
AcDbCircle
 10
-37.87500000019961
 20
323.724999809325
 30
0.0
 40
12.54138126514923
100
AcDbArc
 50
131.1523389503294
 51
138.8476610496713
  0
SPLINE
  5
EB
330
4D
100
AcDbEntity
  8
0
  6
Continuous
 62
     7
100
AcDbSpline
210
0.0
220
0.0
230
1.0
 70
     8
 71
     3
 72
    39
 73
    35
 74
    33
 42
0.000000001
 43
0.0000000001
 44
0.00000001
 40
0.0
 40
0.0
 40
0.0
 40
0.0
 40
0.1177780265595748
 40
0.2222550528377995
 40
0.332123750673986
 40
0.442027169114982
 40
0.6583162300858723
 40
0.8744988184189643
 40
1.075473671946927
 40
1.276107302124884
 40
1.382657404056763
 40
1.47797930785429
 40
1.586291329373779
 40
1.682967782486781
 40
1.847099949043677
 40
2.010887696227247
 40
2.164669111040523
 40
2.34991160405912
 40
2.516372850420207
 40
2.656543559203904
 40
2.825844903446772
 40
2.968160554728809
 40
3.276648930834568
 40
3.585585405743977
 40
3.918976346677204
 40
4.253699939441065
 40
4.65688996985217
 40
5.061814371535497
 40
5.175544521161977
 40
5.276771486303831
 40
5.390698334713345
 40
5.492065070682706
 40
5.711951743565421
 40
5.93161927274663
 40
5.93161927274663
 40
5.93161927274663
 40
5.93161927274663
 10
-46.07705345880599
 20
334.0606928525369
 30
0.0
 10
-46.09654857556364
 20
334.0947900576499
 30
0.0
 10
-46.13333717954683
 20
334.1591337706753
 30
0.0
 10
-46.19653751650787
 20
334.2501718663927
 30
0.0
 10
-46.26349908051314
 20
334.3350990817206
 30
0.0
 10
-46.36115965186474
 20
334.442890071306
 30
0.0
 10
-46.49565432587582
 20
334.5645522685782
 30
0.0
 10
-46.67006690839916
 20
334.6846518805113
 30
0.0
 10
-46.85360278678893
 20
334.7791520177426
 30
0.0
 10
-47.01303090449293
 20
334.8377432049915
 30
0.0
 10
-47.14285778112088
 20
334.8719288232645
 30
0.0
 10
-47.2443497383601
 20
334.8919819835345
 30
0.0
 10
-47.34366384562511
 20
334.9051556227711
 30
0.0
 10
-47.46648273277378
 20
334.9135248878945
 30
0.0
 10
-47.60827020820613
 20
334.9116087054499
 30
0.0
 10
-47.76802837735724
 20
334.8928612131328
 30
0.0
 10
-47.93193290108447
 20
334.8566402867034
 30
0.0
 10
-48.09196026572171
 20
334.8025937300285
 30
0.0
 10
-48.24067281034964
 20
334.7327985113388
 30
0.0
 10
-48.37709057722036
 20
334.6514251483757
 30
0.0
 10
-48.4983114477962
 20
334.5615022304494
 30
0.0
 10
-48.65119887292403
 20
334.4220648807317
 30
0.0
 10
-48.81254021957356
 20
334.2244266560874
 30
0.0
 10
-48.96095025645567
 20
333.9420815868531
 30
0.0
 10
-49.05078391652935
 20
333.6263916318683
 30
0.0
 10
-49.07414357058706
 20
333.267463661135
 30
0.0
 10
-49.01058005158588
 20
332.8877920508921
 30
0.0
 10
-48.88493762670829
 20
332.6034686992409
 30
0.0
 10
-48.77256977218545
 20
332.4299535009063
 30
0.0
 10
-48.70703118116579
 20
332.3419842114407
 30
0.0
 10
-48.63854068236913
 20
332.261592666621
 30
0.0
 10
-48.53724568413699
 20
332.1577339699737
 30
0.0
 10
-48.39971818311944
 20
332.0397292801719
 30
0.0
 10
-48.27368047944783
 20
331.9645994502299
 30
0.0
 10
-48.2106930434104
 20
331.9270532679306
 30
0.0
 11
-46.07705345880599
 21
334.0606928525369
 31
0.0
 11
-46.13708462244138
 21
334.162023621665
 31
0.0
 11
-46.1963375827536
 21
334.2480732353193
 31
0.0
 11
-46.26445025647521
 21
334.3342810920752
 31
0.0
 11
-46.33822263542629
 21
334.4157451796132
 31
0.0
 11
-46.49864089318829
 21
334.5608208172923
 31
0.0
 11
-46.676690325097
 21
334.6834312223481
 31
0.0
 11
-46.85537899006723
 21
334.775416291062
 31
0.0
 11
-47.043702836918
 21
334.8446115392291
 31
0.0
 11
-47.14674104994521
 21
334.8717417973786
 31
0.0
 11
-47.24025581442909
 21
334.8902148640184
 31
0.0
 11
-47.34762790133236
 21
334.9044531571508
 31
0.0
 11
-47.4440809865349
 21
334.91102118328
 31
0.0
 11
-47.6081978593681
 21
334.9087805969401
 31
0.0
 11
-47.7708673776269
 21
334.8896742096131
 31
0.0
 11
-47.92102205213462
 21
334.8564733460955
 31
0.0
 11
-48.0965163907413
 21
334.7971731062442
 31
0.0
 11
-48.24720212775691
 21
334.7264401203651
 31
0.0
 11
-48.3675778108303
 21
334.6546242266398
 31
0.0
 11
-48.50355029227249
 21
334.5537558492812
 31
0.0
 11
-48.608692921886
 21
334.4578456198593
 31
0.0
 11
-48.80377101295623
 21
334.2188694350389
 31
0.0
 11
-48.94760234217179
 21
333.9454571189338
 31
0.0
 11
-49.03899289546854
 21
333.6248369594885
 31
0.0
 11
-49.0608951524264
 21
333.2908307094536
 31
0.0
 11
-48.99444763597266
 21
332.8931537944638
 31
0.0
 11
-48.8310302423811
 21
332.5226696151157
 31
0.0
 11
-48.76922002506403
 21
332.4272021126678
 31
0.0
 11
-48.708747094391
 21
332.3460237708703
 31
0.0
 11
-48.63483537037091
 21
332.2593266895068
 31
0.0
 11
-48.5641459837414
 21
332.186675289947
 31
0.0
 11
-48.39608831858256
 21
332.044876944167
 31
0.0
 11
-48.2106930434104
 21
331.9270532679306
 31
0.0
  0
SPLINE
  5
EC
330
4D
100
AcDbEntity
  8
0
  6
Continuous
 62
     7
100
AcDbSpline
210
0.0
220
0.0
230
1.0
 70
     8
 71
     3
 72
    23
 73
    19
 74
    17
 42
0.000000001
 43
0.0000000001
 44
0.00000001
 40
0.0
 40
0.0
 40
0.0
 40
0.0
 40
0.0532060288349262
 40
0.1140263690514959
 40
0.1753878423401755
 40
0.2298825586279467
 40
0.2920047638695651
 40
0.3467937544916648
 40
0.4097533404947448
 40
0.464542375850816
 40
0.5192264740648034
 40
0.5841403144896606
 40
0.6381155931323567
 40
0.7044580693736456
 40
0.8139844563235389
 40
0.9044735229127843
 40
0.9288551504922614
 40
0.9476573164942794
 40
0.9476573164942794
 40
0.9476573164942794
 40
0.9476573164942794
 10
-46.07705345880599
 20
334.0606928525369
 30
0.0
 10
-46.06886353475982
 20
334.044955157286
 30
0.0
 10
-46.05131163973156
 20
334.0112275399653
 30
0.0
 10
-46.0287862479056
 20
333.9571994618317
 30
0.0
 10
-46.00972074536956
 20
333.9014380858989
 30
0.0
 10
-45.99429922011733
 20
333.8441117192129
 30
0.0
 10
-45.98302713238368
 20
333.7880526644648
 30
0.0
 10
-45.97498768066652
 20
333.7286033425804
 30
0.0
 10
-45.97092962976548
 20
333.6711872158514
 30
0.0
 10
-45.97054020143096
 20
333.6136778660723
 30
0.0
 10
-45.97361626940972
 20
333.5555967440553
 30
0.0
 10
-45.9805014254016
 20
333.4980955976304
 30
0.0
 10
-45.99200785511047
 20
333.4373921468586
 30
0.0
 10
-46.01172253366944
 20
333.3632797925439
 30
0.0
 10
-46.04431260438412
 20
333.2803031160384
 30
0.0
 10
-46.08363271127383
 20
333.2159856220819
 30
0.0
 10
-46.11284217468799
 20
333.1822241840659
 30
0.0
 10
-46.12341839108802
 20
333.1724473478658
 30
0.0
 10
-46.12802326623739
 20
333.1681905311137
 30
0.0
 11
-46.07705345880599
 21
334.0606928525369
 31
0.0
 11
-46.05311668346044
 21
334.0131753640442
 31
0.0
 11
-46.0294769988502
 21
333.957137174367
 31
0.0
 11
-46.00967079326137
 21
333.8990601172812
 31
0.0
 11
-45.9954919934963
 21
333.8464422899293
 31
0.0
 11
-45.98324028999896
 21
333.7855402031305
 31
0.0
 11
-45.975892726288
 21
333.7312461259009
 31
0.0
 11
-45.97145321198374
 21
333.6684432580984
 31
0.0
 11
-45.9710855822741
 21
333.613655456032
 31
0.0
 11
-45.97398659955177
 21
333.559048362137
 31
0.0
 11
-45.9817311028079
 21
333.4945981538173
 31
0.0
 11
-45.99181239403045
 21
333.4415727045474
 31
0.0
 11
-46.00893394261989
 21
333.3774776445424
 31
0.0
 11
-46.04981288453836
 21
333.275865925406
 31
0.0
 11
-46.09830217516409
 21
333.1994652736663
 31
0.0
 11
-46.11442473886105
 21
333.1811752056348
 31
0.0
 11
-46.12802326623739
 21
333.1681905311137
 31
0.0
  0
SPLINE
  5
ED
330
4D
100
AcDbEntity
  8
0
  6
Continuous
 62
     7
100
AcDbSpline
210
0.0
220
0.0
230
1.0
 70
     8
 71
     3
 72
    21
 73
    17
 74
    15
 42
0.000000001
 43
0.0000000001
 44
0.00000001
 40
0.0
 40
0.0
 40
0.0
 40
0.0
 40
0.0208496131651041
 40
0.0432556775421783
 40
0.1337853821849228
 40
0.2433592839065327
 40
0.309599826400322
 40
0.3635189041939192
 40
0.4181846365934645
 40
0.4827191890955144
 40
0.5376795434520165
 40
0.6008671714240295
 40
0.6554326231481019
 40
0.71726894523453
 40
0.8328919387197206
 40
0.9475303318560637
 40
0.9475303318560637
 40
0.9475303318560637
 40
0.9475303318560637
 10
-47.3181907219884
 20
331.9780230753627
 30
0.0
 10
-47.32292479271205
 20
331.9729283780678
 30
0.0
 10
-47.33274634900151
 20
331.9623586679773
 30
0.0
 10
-47.36662237731356
 20
331.9332416586462
 30
0.0
 10
-47.43040601319204
 20
331.8942577273335
 30
0.0
 10
-47.51338561093151
 20
331.8616888009498
 30
0.0
 10
-47.5874638866215
 20
331.8419932291305
 30
0.0
 10
-47.64475919400845
 20
331.8311349912242
 30
0.0
 10
-47.7020497546624
 20
331.823934068302
 30
0.0
 10
-47.76005487711612
 20
331.8205253050421
 30
0.0
 10
-47.82098189020061
 20
331.8209160955946
 30
0.0
 10
-47.87845451392423
 20
331.824976435137
 30
0.0
 10
-47.93782341875972
 20
331.8329788098158
 30
0.0
 10
-48.01364931390363
 20
331.848299994131
 30
0.0
 10
-48.10745348999542
 20
331.8760850849193
 30
0.0
 10
-48.17637810154369
 20
331.9101123699051
 30
0.0
 10
-48.2106930434104
 20
331.9270532679306
 30
0.0
 11
-47.3181907219884
 21
331.9780230753627
 31
0.0
 11
-47.33265577952895
 21
331.9630074570123
 31
0.0
 11
-47.34952134926729
 21
331.9482567216697
 31
0.0
 11
-47.42596650798781
 21
331.8997617239378
 31
0.0
 11
-47.5276306940998
 21
331.8588858979118
 31
0.0
 11
-47.59162964175535
 21
331.8417995239774
 31
0.0
 11
-47.64460023739059
 21
331.8317306134803
 31
0.0
 11
-47.69883712130596
 21
331.8248966733256
 31
0.0
 11
-47.7632595781476
 21
331.8210946277246
 31
0.0
 11
-47.81821881682643
 21
331.8214448563351
 31
0.0
 11
-47.8812496930462
 21
331.8258928902415
 31
0.0
 11
-47.9353231154809
 21
331.833204082023
 31
0.0
 11
-47.99594981181049
 21
331.8453751299001
 31
0.0
 11
-48.10650356782935
 21
331.8792357713127
 31
0.0
 11
-48.2106930434104
 21
331.9270532679306
 31
0.0
  0
ENDBLK
  5
4F
330
4D
100
AcDbEntity
  8
0
100
AcDbBlockEnd
  0
BLOCK
  5
54
330
50
100
AcDbEntity
  8
0
100
AcDbBlockBegin
  2
WEB-Zeichnung-HL19ABSC
 70
     0
 10
-59.12500000019969
 20
273.924999809325
 30
0.0
  3
WEB-Zeichnung-HL19ABSC
  1

  0
INSERT
  5
51
330
50
100
AcDbEntity
  8
0
100
AcDbBlockReference
  2
Dichtstopfen
 10
-56.87500000019979
 20
273.924999809325
 30
0.0
  0
INSERT
  5
52
330
50
100
AcDbEntity
  8
0
100
AcDbBlockReference
  2
Holländermutter_1
 10
-24.7543517604305
 20
313.0749998093232
 30
0.0
  0
INSERT
  5
53
330
50
100
AcDbEntity
  8
0
100
AcDbBlockReference
  2
HL19_ABS_10003_ABS
 10
-59.12500000019969
 20
275.224999809325
 30
0.0
  0
ENDBLK
  5
55
330
50
100
AcDbEntity
  8
0
100
AcDbBlockEnd
  0
BLOCK
  5
58
330
56
100
AcDbEntity
  8
0
100
AcDbBlockBegin
  2
Vordans1
 70
     0
 10
-32.9999999999994
 20
314.0
 30
0.0
  3
Vordans1
  1

  0
INSERT
  5
57
330
56
100
AcDbEntity
  8
0
100
AcDbBlockReference
  2
WEB-Zeichnung-HL19ABSC
 10
-59.12500000019969
 20
273.924999809325
 30
0.0
  0
LINE
  5
EE
330
56
100
AcDbEntity
  8
1
  6
Continuous
 62
     7
100
AcDbLine
 10
-4.12269529225409
 20
349.849499809325
 30
0.0
 11
-2.12269529225409
 21
349.849499809325
 31
0.0
  0
LINE
  5
EF
330
56
100
AcDbEntity
  8
1
  6
Continuous
 62
     7
100
AcDbLine
 10
-2.12269529225409
 20
316.600499809325
 30
0.0
 11
-4.12269529225409
 21
316.600499809325
 31
0.0
  0
LINE
  5
F0
330
56
100
AcDbEntity
  8
1
  6
Continuous
 62
     7
100
AcDbLine
 10
-18.37500000020069
 20
353.517612551391
 30
0.0
 11
-18.37500000020069
 21
354.517612551391
 31
0.0
  0
MTEXT
  5
F2
330
56
100
AcDbEntity
  8
1
 62
     1
100
AcDbMText
 10
-33.00000000020009
 20
268.9250005722647
 30
0.0
 40
3.5
 41
0.0
 71
     2
 72
     1
  1
 
  7
CONVERTER_11
 73
     1
 44
1.32052821128451
  0
DIMENSION
  5
FD
330
56
100
AcDbEntity
  8
1
100
AcDbDimension
  2
*D6
 10
-73.9252645326507
 20
333.224999809325
 30
0.0
 11
-79.4252645326507
 21
304.055419845993
 31
0.0
 70
    32
  1
<>
 71
     5
 42
-1.0
 53
90.0
  3
ME10_DIM_10
100
AcDbAlignedDimension
 13
-55.8892857144855
 23
275.224999809325
 33
0.0
 14
-37.87500000019961
 24
333.224999809325
 34
0.0
 50
90.0
100
AcDbRotatedDimension
  0
DIMENSION
  5
108
330
56
100
AcDbEntity
  8
1
100
AcDbDimension
  2
*D7
 10
-18.37500000020069
 20
364.161313225452
 30
0.0
 11
-32.6494102900038
 21
369.661313225452
 31
0.0
 70
    32
  1
<>
 71
     5
 42
-1.0
 53
0.00013888888889
  3
ME10_DIM_11
100
AcDbAlignedDimension
 13
-47.37500000019999
 23
325.724999809325
 33
0.0
 14
-18.37500000020069
 24
354.517612551391
 34
0.0
100
AcDbRotatedDimension
  0
DIMENSION
  5
113
330
56
100
AcDbEntity
  8
1
100
AcDbDimension
  2
*D8
 10
12.3496340746308
 20
316.600499809325
 30
0.0
 11
6.8496340746308
 21
334.155088746688
 31
0.0
 70
    32
  1
1"
 71
     5
 42
-1.0
 53
90.0
  3
ME10_DIM_12
100
AcDbAlignedDimension
 13
-2.12269529225409
 23
349.849499809325
 33
0.0
 14
-2.12269529225409
 24
316.600499809325
 34
0.0
 50
90.0
100
AcDbRotatedDimension
  0
DIMENSION
  5
120
330
56
100
AcDbEntity
  8
1
100
AcDbDimension
  2
*D9
 10
-55.8892857144855
 20
261.328555061973
 30
0.0
 11
-18.10865743041531
 21
266.828555061973
 31
0.0
 70
    32
  1
3/4"
 71
     5
 42
-1.0
 53
0.00013888888889
  3
ME10_DIM_13
100
AcDbAlignedDimension
 13
-38.8607142859141
 23
275.224999809325
 33
0.0
 14
-55.8892857144855
 24
275.224999809325
 34
0.0
100
AcDbRotatedDimension
  0
ENDBLK
  5
59
330
56
100
AcDbEntity
  8
0
100
AcDbBlockEnd
  0
BLOCK
  5
FA
330
F3
100
AcDbEntity
  8
0
100
AcDbBlockBegin
  2
*D6
 70
     1
 10
0.0
 20
0.0
 30
0.0
  3
*D6
  1

  0
LINE
  5
F4
330
F3
100
AcDbEntity
  8
1
  6
Continuous
 62
     4
100
AcDbLine
 10
-73.9252645326507
 20
333.224999809325
 30
0.0
 11
-73.9252645326507
 21
275.224999809325
 31
0.0
  0
LINE
  5
F5
330
F3
100
AcDbEntity
  8
1
  6
Continuous
 62
     4
100
AcDbLine
 10
-55.8892857144855
 20
275.224999809325
 30
0.0
 11
-75.9252645326507
 21
275.224999809325
 31
0.0
  0
LINE
  5
F6
330
F3
100
AcDbEntity
  8
1
  6
Continuous
 62
     4
100
AcDbLine
 10
-37.8750000001996
 20
333.224999809325
 30
0.0
 11
-75.9252645326507
 21
333.224999809325
 31
0.0
  0
SOLID
  5
F7
330
F3
100
AcDbEntity
  8
1
 62
     4
100
AcDbTrace
 10
-73.00369704953893
 20
326.224999809325
 30
0.0
 11
-74.84683201576247
 21
326.224999809325
 31
0.0
 12
-73.9252645326507
 22
333.224999809325
 32
0.0
 13
-73.9252645326507
 23
333.224999809325
 33
0.0
  0
SOLID
  5
F8
330
F3
100
AcDbEntity
  8
1
 62
     4
100
AcDbTrace
 10
-74.84683201576247
 20
282.224999809325
 30
0.0
 11
-73.00369704953893
 21
282.224999809325
 31
0.0
 12
-73.9252645326507
 22
275.224999809325
 32
0.0
 13
-73.9252645326507
 23
275.224999809325
 33
0.0
  0
MTEXT
  5
F9
330
F3
100
AcDbEntity
  8
1
 62
     1
100
AcDbMText
 10
-75.9252645326507
 20
298.805419845993
 30
0.0
 40
7.0
 41
0.0
 71
     7
 72
     1
  1
58
  7
CONVERTER_11
 11
0.0
 21
1.0
 31
0.0
 73
     1
 44
0.60024009603842
  0
ENDBLK
  5
FB
330
F3
100
AcDbEntity
  8
0
100
AcDbBlockEnd
  0
BLOCK
  5
105
330
FE
100
AcDbEntity
  8
0
100
AcDbBlockBegin
  2
*D7
 70
     1
 10
0.0
 20
0.0
 30
0.0
  3
*D7
  1

  0
LINE
  5
FF
330
FE
100
AcDbEntity
  8
1
  6
Continuous
 62
     4
100
AcDbLine
 10
-18.37500000020069
 20
364.161313225452
 30
0.0
 11
-47.37500000019999
 21
364.161313225452
 31
0.0
  0
LINE
  5
100
330
FE
100
AcDbEntity
  8
1
  6
Continuous
 62
     4
100
AcDbLine
 10
-47.37500000019999
 20
325.724999809325
 30
0.0
 11
-47.37500000019999
 21
366.161313225452
 31
0.0
  0
LINE
  5
101
330
FE
100
AcDbEntity
  8
1
  6
Continuous
 62
     4
100
AcDbLine
 10
-18.37500000020069
 20
354.517612551391
 30
0.0
 11
-18.37500000020069
 21
366.161313225452
 31
0.0
  0
SOLID
  5
102
330
FE
100
AcDbEntity
  8
1
 62
     4
100
AcDbTrace
 10
-25.37500000020069
 20
363.2397457423402
 30
0.0
 11
-25.37500000020069
 21
365.0828807085637
 31
0.0
 12
-18.37500000020069
 22
364.161313225452
 32
0.0
 13
-18.37500000020069
 23
364.161313225452
 33
0.0
  0
SOLID
  5
103
330
FE
100
AcDbEntity
  8
1
 62
     4
100
AcDbTrace
 10
-40.37500000019999
 20
365.0828807085637
 30
0.0
 11
-40.37500000019999
 21
363.2397457423402
 31
0.0
 12
-47.37500000019999
 22
364.161313225452
 32
0.0
 13
-47.37500000019999
 23
364.161313225452
 33
0.0
  0
MTEXT
  5
104
330
FE
100
AcDbEntity
  8
1
 62
     1
100
AcDbMText
 10
-37.8994102900038
 20
366.161313225452
 30
0.0
 40
7.0
 41
0.0
 71
     7
 72
     1
  1
29
  7
CONVERTER_11
 11
0.9999999999970619
 21
2.424068405545306E-6
 31
0.0
 73
     1
 44
0.60024009603842
  0
ENDBLK
  5
106
330
FE
100
AcDbEntity
  8
0
100
AcDbBlockEnd
  0
BLOCK
  5
110
330
109
100
AcDbEntity
  8
0
100
AcDbBlockBegin
  2
*D8
 70
     1
 10
0.0
 20
0.0
 30
0.0
  3
*D8
  1

  0
LINE
  5
10A
330
109
100
AcDbEntity
  8
1
  6
Continuous
 62
     4
100
AcDbLine
 10
12.3496340746308
 20
316.600499809325
 30
0.0
 11
12.3496340746308
 21
349.849499809325
 31
0.0
  0
LINE
  5
10B
330
109
100
AcDbEntity
  8
1
  6
Continuous
 62
     4
100
AcDbLine
 10
-2.12269529225409
 20
349.849499809325
 30
0.0
 11
14.3496340746308
 21
349.849499809325
 31
0.0
  0
LINE
  5
10C
330
109
100
AcDbEntity
  8
1
  6
Continuous
 62
     4
100
AcDbLine
 10
-2.12269529225409
 20
316.600499809325
 30
0.0
 11
14.3496340746308
 21
316.600499809325
 31
0.0
  0
SOLID
  5
10D
330
109
100
AcDbEntity
  8
1
 62
     4
100
AcDbTrace
 10
11.42806659151903
 20
323.600499809325
 30
0.0
 11
13.27120155774257
 21
323.600499809325
 31
0.0
 12
12.3496340746308
 22
316.600499809325
 32
0.0
 13
12.3496340746308
 23
316.600499809325
 33
0.0
  0
SOLID
  5
10E
330
109
100
AcDbEntity
  8
1
 62
     4
100
AcDbTrace
 10
13.27120155774257
 20
342.849499809325
 30
0.0
 11
11.42806659151903
 21
342.849499809325
 31
0.0
 12
12.3496340746308
 22
349.849499809325
 32
0.0
 13
12.3496340746308
 23
349.849499809325
 33
0.0
  0
MTEXT
  5
10F
330
109
100
AcDbEntity
  8
1
 62
     1
100
AcDbMText
 10
10.3496340746308
 20
331.355088746688
 30
0.0
 40
7.0
 41
0.0
 71
     7
 72
     1
  1
1"
  7
CONVERTER_11
 11
0.0
 21
1.0
 31
0.0
 73
     1
 44
0.60024009603842
  0
ENDBLK
  5
111
330
109
100
AcDbEntity
  8
0
100
AcDbBlockEnd
  0
BLOCK
  5
11D
330
114
100
AcDbEntity
  8
0
100
AcDbBlockBegin
  2
*D9
 70
     1
 10
0.0
 20
0.0
 30
0.0
  3
*D9
  1

  0
LINE
  5
115
330
114
100
AcDbEntity
  8
1
  6
Continuous
 62
     4
100
AcDbLine
 10
-38.8607142859141
 20
261.328555061973
 30
0.0
 11
-8.65865743041531
 21
261.328555061973
 31
0.0
  0
LINE
  5
116
330
114
100
AcDbEntity
  8
1
  6
Continuous
 62
     4
100
AcDbLine
 10
-55.8892857144855
 20
261.328555061973
 30
0.0
 11
-38.8607142859141
 21
261.328555061973
 31
0.0
  0
LINE
  5
117
330
114
100
AcDbEntity
  8
1
  6
Continuous
 62
     4
100
AcDbLine
 10
-69.8892857144855
 20
261.328555061973
 30
0.0
 11
-55.8892857144855
 21
261.328555061973
 31
0.0
  0
LINE
  5
118
330
114
100
AcDbEntity
  8
1
  6
Continuous
 62
     4
100
AcDbLine
 10
-38.8607142859141
 20
275.224999809325
 30
0.0
 11
-38.8607142859141
 21
259.328555061973
 31
0.0
  0
LINE
  5
119
330
114
100
AcDbEntity
  8
1
  6
Continuous
 62
     4
100
AcDbLine
 10
-55.8892857144855
 20
275.224999809325
 30
0.0
 11
-55.8892857144855
 21
259.328555061973
 31
0.0
  0
SOLID
  5
11A
330
114
100
AcDbEntity
  8
1
 62
     4
100
AcDbTrace
 10
-62.8892857144855
 20
260.4069875788613
 30
0.0
 11
-62.8892857144855
 21
262.2501225450848
 31
0.0
 12
-55.8892857144855
 22
261.328555061973
 32
0.0
 13
-55.8892857144855
 23
261.328555061973
 33
0.0
  0
SOLID
  5
11B
330
114
100
AcDbEntity
  8
1
 62
     4
100
AcDbTrace
 10
-31.8607142859141
 20
262.2501225450848
 30
0.0
 11
-31.8607142859141
 21
260.4069875788613
 31
0.0
 12
-38.8607142859141
 22
261.328555061973
 32
0.0
 13
-38.8607142859141
 23
261.328555061973
 33
0.0
  0
MTEXT
  5
11C
330
114
100
AcDbEntity
  8
1
 62
     1
100
AcDbMText
 10
-27.55865743041531
 20
263.328555061973
 30
0.0
 40
7.0
 41
0.0
 71
     7
 72
     1
  1
3/4"
  7
CONVERTER_11
 11
0.9999999999970619
 21
2.424068405545306E-6
 31
0.0
 73
     1
 44
0.60024009603842
  0
ENDBLK
  5
11E
330
114
100
AcDbEntity
  8
0
100
AcDbBlockEnd
  0
ENDSEC
  0
SECTION
  2
ENTITIES
  0
INSERT
  5
5A
330
1F
100
AcDbEntity
  8
0
100
AcDbBlockReference
  2
Vordans1
 10
-32.9999999999994
 20
314.0
 30
0.0
  0
ENDSEC
  0
SECTION
  2
OBJECTS
  0
DICTIONARY
  5
C
330
0
100
AcDbDictionary
281
     1
  3
ACAD_GROUP
350
D
  3
ACAD_LAYOUT
350
1A
  3
ACAD_MATERIAL
350
3B
  3
ACAD_MLEADERSTYLE
350
123
  3
ACAD_MLINESTYLE
350
17
  3
ACAD_PLOTSETTINGS
350
19
  3
ACAD_PLOTSTYLENAME
350
E
  3
ACAD_VISUALSTYLE
350
2A
  3
AcDbVariableDictionary
350
121
  0
DICTIONARY
  5
D
102
{ACAD_REACTORS
330
C
102
}
330
C
100
AcDbDictionary
281
     1
  0
DICTIONARY
  5
1A
102
{ACAD_REACTORS
330
C
102
}
330
C
100
AcDbDictionary
281
     1
  3
Layout1
350
1E
  3
Layout2
350
26
  3
Model
350
22
  0
DICTIONARY
  5
3B
102
{ACAD_REACTORS
330
C
102
}
330
C
100
AcDbDictionary
281
     1
  3
ByBlock
350
3D
  3
ByLayer
350
3C
  3
Global
350
3E
  0
DICTIONARY
  5
123
102
{ACAD_REACTORS
330
C
102
}
330
C
100
AcDbDictionary
281
     1
  0
DICTIONARY
  5
17
102
{ACAD_REACTORS
330
C
102
}
330
C
100
AcDbDictionary
281
     1
  3
Standard
350
18
  0
DICTIONARY
  5
19
102
{ACAD_REACTORS
330
C
102
}
330
C
100
AcDbDictionary
281
     1
  0
ACDBDICTIONARYWDFLT
  5
E
102
{ACAD_REACTORS
330
C
102
}
330
C
100
AcDbDictionary
281
     1
  3
Normal
350
F
100
AcDbDictionaryWithDefault
340
F
  0
DICTIONARY
  5
2A
102
{ACAD_REACTORS
330
C
102
}
330
C
100
AcDbDictionary
281
     1
  3
2dWireframe
350
2F
  3
3D Hidden
350
31
  3
3dWireframe
350
30
  3
Basic
350
32
  3
Brighten
350
36
  3
ColorChange
350
3A
  3
Conceptual
350
34
  3
Dim
350
35
  3
Facepattern
350
39
  3
Flat
350
2B
  3
FlatWithEdges
350
2C
  3
Gouraud
350
2D
  3
GouraudWithEdges
350
2E
  3
Linepattern
350
38
  3
Realistic
350
33
  3
Thicken
350
37
  0
DICTIONARY
  5
121
102
{ACAD_REACTORS
330
C
102
}
330
C
100
AcDbDictionary
281
     1
  3
DIMASSOC
350
124
  3
HIDETEXT
350
125
  0
LAYOUT
  5
1E
102
{ACAD_REACTORS
330
1A
102
}
330
1A
100
AcDbPlotSettings
  1

  2
none_device
  4

  6

 40
0.0
 41
0.0
 42
0.0
 43
0.0
 44
0.0
 45
0.0
 46
0.0
 47
0.0
 48
0.0
 49
0.0
140
0.0
141
0.0
142
1.0
143
1.0
 70
   688
 72
     0
 73
     0
 74
     5
  7

 75
    16
147
1.0
148
0.0
149
0.0
100
AcDbLayout
  1
Layout1
 70
     1
 71
     1
 10
0.0
 20
0.0
 11
12.0
 21
9.0
 12
0.0
 22
0.0
 32
0.0
 14
1.00000000000000E+20
 24
1.00000000000000E+20
 34
1.00000000000000E+20
 15
-1.00000000000000E+20
 25
-1.00000000000000E+20
 35
-1.00000000000000E+20
146
0.0
 13
0.0
 23
0.0
 33
0.0
 16
1.0
 26
0.0
 36
0.0
 17
0.0
 27
1.0
 37
0.0
 76
     0
330
1B
  0
LAYOUT
  5
26
102
{ACAD_REACTORS
330
1A
102
}
330
1A
100
AcDbPlotSettings
  1

  2
none_device
  4

  6

 40
0.0
 41
0.0
 42
0.0
 43
0.0
 44
0.0
 45
0.0
 46
0.0
 47
0.0
 48
0.0
 49
0.0
140
0.0
141
0.0
142
1.0
143
1.0
 70
   688
 72
     0
 73
     0
 74
     5
  7

 75
    16
147
1.0
148
0.0
149
0.0
100
AcDbLayout
  1
Layout2
 70
     1
 71
     2
 10
0.0
 20
0.0
 11
0.0
 21
0.0
 12
0.0
 22
0.0
 32
0.0
 14
0.0
 24
0.0
 34
0.0
 15
0.0
 25
0.0
 35
0.0
146
0.0
 13
0.0
 23
0.0
 33
0.0
 16
1.0
 26
0.0
 36
0.0
 17
0.0
 27
1.0
 37
0.0
 76
     0
330
23
  0
LAYOUT
  5
22
102
{ACAD_REACTORS
330
1A
102
}
330
1A
100
AcDbPlotSettings
  1

  2
none_device
  4

  6

 40
0.0
 41
0.0
 42
0.0
 43
0.0
 44
0.0
 45
0.0
 46
0.0
 47
0.0
 48
0.0
 49
0.0
140
0.0
141
0.0
142
1.0
143
1.0
 70
  1712
 72
     0
 73
     0
 74
     0
  7

 75
     0
147
1.0
148
0.0
149
0.0
100
AcDbLayout
  1
Model
 70
     1
 71
     0
 10
0.0
 20
0.0
 11
12.0
 21
9.0
 12
0.0
 22
0.0
 32
0.0
 14
-82.9252645326507
 24
259.328555061973
 34
0.0
 15
14.3496340746308
 25
373.161313225452
 35
0.0
146
0.0
 13
0.0
 23
0.0
 33
0.0
 16
1.0
 26
0.0
 36
0.0
 17
0.0
 27
1.0
 37
0.0
 76
     0
330
1F
331
29
  0
MATERIAL
  5
3D
102
{ACAD_REACTORS
330
3B
102
}
102
{ACAD_XDICTIONARY
360
148
102
}
330
3B
100
AcDbMaterial
  1
ByBlock
  0
MATERIAL
  5
3C
102
{ACAD_REACTORS
330
3B
102
}
102
{ACAD_XDICTIONARY
360
146
102
}
330
3B
100
AcDbMaterial
  1
ByLayer
  0
MATERIAL
  5
3E
102
{ACAD_REACTORS
330
3B
102
}
102
{ACAD_XDICTIONARY
360
14A
102
}
330
3B
100
AcDbMaterial
  1
Global
  0
MLINESTYLE
  5
18
102
{ACAD_REACTORS
330
17
102
}
330
17
100
AcDbMlineStyle
  2
Standard
 70
     0
  3

 62
   256
 51
90.0
 52
90.0
 71
     2
 49
0.5
 62
   256
  6
BYLAYER
 49
-0.5
 62
   256
  6
BYLAYER
  0
ACDBPLACEHOLDER
  5
F
102
{ACAD_REACTORS
330
E
102
}
330
E
  0
VISUALSTYLE
  5
2F
102
{ACAD_REACTORS
330
2A
102
}
102
{ACAD_XDICTIONARY
360
12E
102
}
330
2A
100
AcDbVisualStyle
  2
2dWireframe
 70
     4
 71
     0
 72
     2
 73
     0
 90
        0
 40
-0.6
 41
-30.0
 62
     5
 63
     7
 74
     1
 91
        4
 64
     7
 65
   257
 75
     1
175
     1
 42
1.0
 92
        0
 66
   257
 43
1.0
 76
     1
 77
     6
 78
     2
 67
     7
 79
     5
170
     0
171
     0
290
     0
174
     0
 93
        1
 44
0.0
173
     0
291
     0
 45
0.0
1001
ACAD
1000
AcDbSavedByObjectVersion
1070
     0
  0
VISUALSTYLE
  5
31
102
{ACAD_REACTORS
330
2A
102
}
102
{ACAD_XDICTIONARY
360
132
102
}
330
2A
100
AcDbVisualStyle
  2
3D Hidden
 70
     6
 71
     1
 72
     2
 73
     2
 90
        0
 40
-0.6
 41
-30.0
 62
     5
 63
     7
 74
     2
 91
        2
 64
     7
 65
   257
 75
     2
175
     1
 42
40.0
 92
        0
 66
   257
 43
1.0
 76
     1
 77
     6
 78
     2
 67
     7
 79
     3
170
     0
171
     0
290
     0
174
     0
 93
        1
 44
0.0
173
     0
291
     0
 45
0.0
1001
ACAD
1000
AcDbSavedByObjectVersion
1070
     0
  0
VISUALSTYLE
  5
30
102
{ACAD_REACTORS
330
2A
102
}
102
{ACAD_XDICTIONARY
360
130
102
}
330
2A
100
AcDbVisualStyle
  2
3dWireframe
 70
     5
 71
     0
 72
     2
 73
     0
 90
        0
 40
-0.6
 41
-30.0
 62
     5
 63
     7
 74
     1
 91
        4
 64
     7
 65
   257
 75
     1
175
     1
 42
1.0
 92
        0
 66
   257
 43
1.0
 76
     1
 77
     6
 78
     2
 67
     7
 79
     5
170
     0
171
     0
290
     0
174
     0
 93
        1
 44
0.0
173
     0
291
     0
 45
0.0
1001
ACAD
1000
AcDbSavedByObjectVersion
1070
     0
  0
VISUALSTYLE
  5
32
102
{ACAD_REACTORS
330
2A
102
}
102
{ACAD_XDICTIONARY
360
134
102
}
330
2A
100
AcDbVisualStyle
  2
Basic
 70
     7
 71
     1
 72
     0
 73
     1
 90
        0
 40
-0.6
 41
-30.0
 62
     5
 63
     7
 74
     0
 91
        4
 64
     7
 65
   257
 75
     1
175
     1
 42
1.0
 92
        8
 66
     7
 43
1.0
 76
     1
 77
     6
 78
     2
 67
     7
 79
     5
170
     0
171
     0
290
     0
174
     0
 93
        1
 44
0.0
173
     0
291
     1
 45
0.0
1001
ACAD
1000
AcDbSavedByObjectVersion
1070
     0
  0
VISUALSTYLE
  5
36
102
{ACAD_REACTORS
330
2A
102
}
102
{ACAD_XDICTIONARY
360
13C
102
}
330
2A
100
AcDbVisualStyle
  2
Brighten
 70
    12
 71
     2
 72
     2
 73
     0
 90
        0
 40
-0.6
 41
-30.0
 62
     5
 63
     7
 74
     1
 91
        4
 64
     7
 65
   257
 75
     1
175
     1
 42
1.0
 92
        8
 66
     7
 43
1.0
 76
     1
 77
     6
 78
     2
 67
     7
 79
     5
170
     0
171
     0
290
     0
174
     0
 93
        1
 44
50.0
173
     0
291
     1
 45
0.0
1001
ACAD
1000
AcDbSavedByObjectVersion
1070
     0
  0
VISUALSTYLE
  5
3A
102
{ACAD_REACTORS
330
2A
102
}
102
{ACAD_XDICTIONARY
360
144
102
}
330
2A
100
AcDbVisualStyle
  2
ColorChange
 70
    16
 71
     2
 72
     2
 73
     3
 90
        0
 40
-0.6
 41
-30.0
 62
     5
 63
     8
 74
     1
 91
        4
 64
     7
 65
   257
 75
     1
175
     1
 42
1.0
 92
        8
 66
     8
 43
1.0
 76
     1
 77
     6
 78
     2
 67
     7
 79
     5
170
     0
171
     0
290
     0
174
     0
 93
        1
 44
0.0
173
     0
291
     1
 45
0.0
1001
ACAD
1000
AcDbSavedByObjectVersion
1070
     0
  0
VISUALSTYLE
  5
34
102
{ACAD_REACTORS
330
2A
102
}
102
{ACAD_XDICTIONARY
360
138
102
}
330
2A
100
AcDbVisualStyle
  2
Conceptual
 70
     9
 71
     3
 72
     2
 73
     0
 90
        0
 40
-0.6
 41
-30.0
 62
     5
 63
     7
 74
     2
 91
        2
 64
     7
 65
   257
 75
     1
175
     1
 42
40.0
 92
        8
 66
     7
 43
1.0
 76
     1
 77
     6
 78
     2
 67
     7
 79
     3
170
     0
171
     0
290
     0
174
     0
 93
        1
 44
0.0
173
     0
291
     0
 45
0.0
1001
ACAD
1000
AcDbSavedByObjectVersion
1070
     0
  0
VISUALSTYLE
  5
35
102
{ACAD_REACTORS
330
2A
102
}
102
{ACAD_XDICTIONARY
360
13A
102
}
330
2A
100
AcDbVisualStyle
  2
Dim
 70
    11
 71
     2
 72
     2
 73
     0
 90
        0
 40
-0.6
 41
-30.0
 62
     5
 63
     7
 74
     1
 91
        4
 64
     7
 65
   257
 75
     1
175
     1
 42
1.0
 92
        8
 66
     7
 43
1.0
 76
     1
 77
     6
 78
     2
 67
     7
 79
     5
170
     0
171
     0
290
     0
174
     0
 93
        1
 44
-50.0
173
     0
291
     1
 45
0.0
1001
ACAD
1000
AcDbSavedByObjectVersion
1070
     0
  0
VISUALSTYLE
  5
39
102
{ACAD_REACTORS
330
2A
102
}
102
{ACAD_XDICTIONARY
360
142
102
}
330
2A
100
AcDbVisualStyle
  2
Facepattern
 70
    15
 71
     2
 72
     2
 73
     0
 90
        0
 40
-0.6
 41
-30.0
 62
     5
 63
     7
 74
     1
 91
        4
 64
     7
 65
   257
 75
     1
175
     1
 42
1.0
 92
        8
 66
     7
 43
1.0
 76
     1
 77
     6
 78
     2
 67
     7
 79
     5
170
     0
171
     0
290
     0
174
     0
 93
        1
 44
0.0
173
     0
291
     1
 45
0.0
1001
ACAD
1000
AcDbSavedByObjectVersion
1070
     0
  0
VISUALSTYLE
  5
2B
102
{ACAD_REACTORS
330
2A
102
}
102
{ACAD_XDICTIONARY
360
126
102
}
330
2A
100
AcDbVisualStyle
  2
Flat
 70
     0
 71
     2
 72
     1
 73
     1
 90
        2
 40
-0.6
 41
30.0
 62
     5
 63
     7
 74
     0
 91
        4
 64
     7
 65
   257
 75
     1
175
     1
 42
1.0
 92
        8
 66
     7
 43
1.0
 76
     1
 77
     6
 78
     2
 67
     7
 79
     5
170
     0
171
     0
290
     0
174
     0
 93
       13
 44
0.0
173
     0
291
     1
 45
0.0
1001
ACAD
1000
AcDbSavedByObjectVersion
1070
     0
  0
VISUALSTYLE
  5
2C
102
{ACAD_REACTORS
330
2A
102
}
102
{ACAD_XDICTIONARY
360
128
102
}
330
2A
100
AcDbVisualStyle
  2
FlatWithEdges
 70
     1
 71
     2
 72
     1
 73
     1
 90
        2
 40
-0.6
 41
30.0
 62
     5
 63
     7
 74
     1
 91
        4
 64
     7
 65
   257
 75
     1
175
     1
 42
1.0
 92
        0
 66
   257
 43
1.0
 76
     1
 77
     6
 78
     2
 67
     7
 79
     5
170
     0
171
     0
290
     0
174
     0
 93
       13
 44
0.0
173
     0
291
     1
 45
0.0
1001
ACAD
1000
AcDbSavedByObjectVersion
1070
     0
  0
VISUALSTYLE
  5
2D
102
{ACAD_REACTORS
330
2A
102
}
102
{ACAD_XDICTIONARY
360
12A
102
}
330
2A
100
AcDbVisualStyle
  2
Gouraud
 70
     2
 71
     2
 72
     2
 73
     1
 90
        2
 40
-0.6
 41
30.0
 62
     5
 63
     7
 74
     0
 91
        4
 64
     7
 65
   257
 75
     1
175
     1
 42
1.0
 92
        0
 66
     7
 43
1.0
 76
     1
 77
     6
 78
     2
 67
     7
 79
     5
170
     0
171
     0
290
     0
174
     0
 93
       13
 44
0.0
173
     0
291
     1
 45
0.0
1001
ACAD
1000
AcDbSavedByObjectVersion
1070
     0
  0
VISUALSTYLE
  5
2E
102
{ACAD_REACTORS
330
2A
102
}
102
{ACAD_XDICTIONARY
360
12C
102
}
330
2A
100
AcDbVisualStyle
  2
GouraudWithEdges
 70
     3
 71
     2
 72
     2
 73
     1
 90
        2
 40
-0.6
 41
30.0
 62
     5
 63
     7
 74
     1
 91
        4
 64
     7
 65
   257
 75
     1
175
     1
 42
1.0
 92
        0
 66
   257
 43
1.0
 76
     1
 77
     6
 78
     2
 67
     7
 79
     5
170
     0
171
     0
290
     0
174
     0
 93
       13
 44
0.0
173
     0
291
     1
 45
0.0
1001
ACAD
1000
AcDbSavedByObjectVersion
1070
     0
  0
VISUALSTYLE
  5
38
102
{ACAD_REACTORS
330
2A
102
}
102
{ACAD_XDICTIONARY
360
140
102
}
330
2A
100
AcDbVisualStyle
  2
Linepattern
 70
    14
 71
     2
 72
     2
 73
     0
 90
        0
 40
-0.6
 41
-30.0
 62
     5
 63
     7
 74
     1
 91
        4
 64
     7
 65
   257
 75
     7
175
     7
 42
1.0
 92
        8
 66
     7
 43
1.0
 76
     1
 77
     6
 78
     2
 67
     7
 79
     5
170
     0
171
     0
290
     0
174
     0
 93
        1
 44
0.0
173
     0
291
     1
 45
0.0
1001
ACAD
1000
AcDbSavedByObjectVersion
1070
     0
  0
VISUALSTYLE
  5
33
102
{ACAD_REACTORS
330
2A
102
}
102
{ACAD_XDICTIONARY
360
136
102
}
330
2A
100
AcDbVisualStyle
  2
Realistic
 70
     8
 71
     2
 72
     2
 73
     0
 90
        0
 40
-0.6
 41
-30.0
 62
     5
 63
     7
 74
     1
 91
        0
 64
     7
 65
   257
 75
     1
175
     1
 42
1.0
 92
        8
 66
     8
 43
1.0
 76
     1
 77
     6
 78
     2
 67
     7
 79
     5
170
     0
171
     0
290
     0
174
     0
 93
       13
 44
0.0
173
     0
291
     0
 45
0.0
1001
ACAD
1000
AcDbSavedByObjectVersion
1070
     0
  0
VISUALSTYLE
  5
37
102
{ACAD_REACTORS
330
2A
102
}
102
{ACAD_XDICTIONARY
360
13E
102
}
330
2A
100
AcDbVisualStyle
  2
Thicken
 70
    13
 71
     2
 72
     2
 73
     0
 90
        0
 40
-0.6
 41
-30.0
 62
     5
 63
     7
 74
     1
 91
        4
 64
     7
 65
   257
 75
     1
175
     1
 42
1.0
 92
       12
 66
     7
 43
1.0
 76
     1
 77
     6
 78
     2
 67
     7
 79
     5
170
     0
171
     0
290
     0
174
     0
 93
        1
 44
0.0
173
     0
291
     1
 45
0.0
1001
ACAD
1000
AcDbSavedByObjectVersion
1070
     0
  0
DICTIONARYVAR
  5
124
102
{ACAD_REACTORS
330
121
102
}
330
121
100
DictionaryVariables
280
     0
  1
2
  0
DICTIONARYVAR
  5
125
102
{ACAD_REACTORS
330
121
102
}
330
121
100
DictionaryVariables
280
     0
  1
1
  0
DICTIONARY
  5
148
330
3D
100
AcDbDictionary
280
     1
281
     1
  3
ACAD_XREC_ROUNDTRIP
360
149
  0
DICTIONARY
  5
146
330
3C
100
AcDbDictionary
280
     1
281
     1
  3
ACAD_XREC_ROUNDTRIP
360
147
  0
DICTIONARY
  5
14A
330
3E
100
AcDbDictionary
280
     1
281
     1
  3
ACAD_XREC_ROUNDTRIP
360
14B
  0
DICTIONARY
  5
12E
330
2F
100
AcDbDictionary
280
     1
281
     1
  3
ACAD_XREC_ROUNDTRIP
360
12F
  0
DICTIONARY
  5
132
330
31
100
AcDbDictionary
280
     1
281
     1
  3
ACAD_XREC_ROUNDTRIP
360
133
  0
DICTIONARY
  5
130
330
30
100
AcDbDictionary
280
     1
281
     1
  3
ACAD_XREC_ROUNDTRIP
360
131
  0
DICTIONARY
  5
134
330
32
100
AcDbDictionary
280
     1
281
     1
  3
ACAD_XREC_ROUNDTRIP
360
135
  0
DICTIONARY
  5
13C
330
36
100
AcDbDictionary
280
     1
281
     1
  3
ACAD_XREC_ROUNDTRIP
360
13D
  0
DICTIONARY
  5
144
330
3A
100
AcDbDictionary
280
     1
281
     1
  3
ACAD_XREC_ROUNDTRIP
360
145
  0
DICTIONARY
  5
138
330
34
100
AcDbDictionary
280
     1
281
     1
  3
ACAD_XREC_ROUNDTRIP
360
139
  0
DICTIONARY
  5
13A
330
35
100
AcDbDictionary
280
     1
281
     1
  3
ACAD_XREC_ROUNDTRIP
360
13B
  0
DICTIONARY
  5
142
330
39
100
AcDbDictionary
280
     1
281
     1
  3
ACAD_XREC_ROUNDTRIP
360
143
  0
DICTIONARY
  5
126
330
2B
100
AcDbDictionary
280
     1
281
     1
  3
ACAD_XREC_ROUNDTRIP
360
127
  0
DICTIONARY
  5
128
330
2C
100
AcDbDictionary
280
     1
281
     1
  3
ACAD_XREC_ROUNDTRIP
360
129
  0
DICTIONARY
  5
12A
330
2D
100
AcDbDictionary
280
     1
281
     1
  3
ACAD_XREC_ROUNDTRIP
360
12B
  0
DICTIONARY
  5
12C
330
2E
100
AcDbDictionary
280
     1
281
     1
  3
ACAD_XREC_ROUNDTRIP
360
12D
  0
DICTIONARY
  5
140
330
38
100
AcDbDictionary
280
     1
281
     1
  3
ACAD_XREC_ROUNDTRIP
360
141
  0
DICTIONARY
  5
136
330
33
100
AcDbDictionary
280
     1
281
     1
  3
ACAD_XREC_ROUNDTRIP
360
137
  0
DICTIONARY
  5
13E
330
37
100
AcDbDictionary
280
     1
281
     1
  3
ACAD_XREC_ROUNDTRIP
360
13F
  0
XRECORD
  5
149
102
{ACAD_REACTORS
330
148
102
}
330
148
100
AcDbXrecord
280
     1
102
MATERIAL
148
0.0
149
0.0
149
0.0
 93
        0
 94
      127
282
     0
 72
     1
 77
     1
171
     1
175
     1
179
     1
273
     0
  0
XRECORD
  5
147
102
{ACAD_REACTORS
330
146
102
}
330
146
100
AcDbXrecord
280
     1
102
MATERIAL
148
0.0
149
0.0
149
0.0
 93
        0
 94
      127
282
     0
 72
     1
 77
     1
171
     1
175
     1
179
     1
273
     0
  0
XRECORD
  5
14B
102
{ACAD_REACTORS
330
14A
102
}
330
14A
100
AcDbXrecord
280
     1
102
MATERIAL
148
0.0
149
0.0
149
0.0
 93
        0
 94
      127
282
     0
 72
     1
 77
     1
171
     1
175
     1
179
     1
273
     0
  0
XRECORD
  5
12F
102
{ACAD_REACTORS
330
12E
102
}
330
12E
100
AcDbXrecord
280
     1
102
RTVSPropertyOp0
 70
     1
102
RTVSPropertyOp1
 70
     1
102
RTVSPropertyOp2
 70
     1
102
RTVSPropertyOp3
 70
     1
102
RTVSPropertyOp4
 70
     1
102
RTVSPropertyOp5
 70
     1
102
RTVSPropertyOp6
 70
     1
102
RTVSPropertyOp7
 70
     1
102
RTVSPropertyOp8
 70
     1
102
RTVSPropertyOp9
 70
     1
102
RTVSPropertyOp10
 70
     1
102
RTVSPropertyOp11
 70
     1
102
RTVSPropertyOp12
 70
     1
102
RTVSPropertyOp13
 70
     1
102
RTVSPropertyOp14
 70
     1
102
RTVSPropertyOp15
 70
     1
102
RTVSPropertyOp16
 70
     1
102
RTVSPropertyOp17
 70
     1
102
RTVSPropertyOp18
 70
     1
102
RTVSPropertyOp19
 70
     1
102
RTVSPropertyOp20
 70
     1
102
RTVSPropertyOp21
 70
     1
102
RTVSPropertyOp22
 70
     1
102
RTVSPropertyOp23
 70
     1
102
RTVSPropertyOp24
 70
     1
102
RTVSPropertyOp25
 70
     1
102
RTVSPropertyOp26
 70
     1
102
RTVSPropertyOp27
 70
     1
102
RTVSPropertyOp28
 70
     1
102
RTVSPropertyOp29
 70
     1
102
RTVSPropertyOp30
 70
     1
102
RTVSPropertyOp31
 70
     1
102
RTVSPropertyOp32
 70
     1
  0
XRECORD
  5
133
102
{ACAD_REACTORS
330
132
102
}
330
132
100
AcDbXrecord
280
     1
102
RTVSPropertyOp0
 70
     1
102
RTVSPropertyOp1
 70
     1
102
RTVSPropertyOp2
 70
     1
102
RTVSPropertyOp3
 70
     1
102
RTVSPropertyOp4
 70
     1
102
RTVSPropertyOp5
 70
     1
102
RTVSPropertyOp6
 70
     1
102
RTVSPropertyOp7
 70
     1
102
RTVSPropertyOp8
 70
     1
102
RTVSPropertyOp9
 70
     1
102
RTVSPropertyOp10
 70
     1
102
RTVSPropertyOp11
 70
     1
102
RTVSPropertyOp12
 70
     1
102
RTVSPropertyOp13
 70
     1
102
RTVSPropertyOp14
 70
     1
102
RTVSPropertyOp15
 70
     1
102
RTVSPropertyOp16
 70
     1
102
RTVSPropertyOp17
 70
     1
102
RTVSPropertyOp18
 70
     1
102
RTVSPropertyOp19
 70
     1
102
RTVSPropertyOp20
 70
     1
102
RTVSPropertyOp21
 70
     1
102
RTVSPropertyOp22
 70
     1
102
RTVSPropertyOp23
 70
     1
102
RTVSPropertyOp24
 70
     1
102
RTVSPropertyOp25
 70
     1
102
RTVSPropertyOp26
 70
     1
102
RTVSPropertyOp27
 70
     1
102
RTVSPropertyOp28
 70
     1
102
RTVSPropertyOp29
 70
     1
102
RTVSPropertyOp30
 70
     1
102
RTVSPropertyOp31
 70
     1
102
RTVSPropertyOp32
 70
     1
  0
XRECORD
  5
131
102
{ACAD_REACTORS
330
130
102
}
330
130
100
AcDbXrecord
280
     1
102
RTVSPropertyOp0
 70
     1
102
RTVSPropertyOp1
 70
     1
102
RTVSPropertyOp2
 70
     1
102
RTVSPropertyOp3
 70
     1
102
RTVSPropertyOp4
 70
     1
102
RTVSPropertyOp5
 70
     1
102
RTVSPropertyOp6
 70
     1
102
RTVSPropertyOp7
 70
     1
102
RTVSPropertyOp8
 70
     1
102
RTVSPropertyOp9
 70
     1
102
RTVSPropertyOp10
 70
     1
102
RTVSPropertyOp11
 70
     1
102
RTVSPropertyOp12
 70
     1
102
RTVSPropertyOp13
 70
     1
102
RTVSPropertyOp14
 70
     1
102
RTVSPropertyOp15
 70
     1
102
RTVSPropertyOp16
 70
     1
102
RTVSPropertyOp17
 70
     1
102
RTVSPropertyOp18
 70
     1
102
RTVSPropertyOp19
 70
     1
102
RTVSPropertyOp20
 70
     1
102
RTVSPropertyOp21
 70
     1
102
RTVSPropertyOp22
 70
     1
102
RTVSPropertyOp23
 70
     1
102
RTVSPropertyOp24
 70
     1
102
RTVSPropertyOp25
 70
     1
102
RTVSPropertyOp26
 70
     1
102
RTVSPropertyOp27
 70
     1
102
RTVSPropertyOp28
 70
     1
102
RTVSPropertyOp29
 70
     1
102
RTVSPropertyOp30
 70
     1
102
RTVSPropertyOp31
 70
     1
102
RTVSPropertyOp32
 70
     1
  0
XRECORD
  5
135
102
{ACAD_REACTORS
330
134
102
}
330
134
100
AcDbXrecord
280
     1
102
RTVSPropertyOp0
 70
     1
102
RTVSPropertyOp1
 70
     1
102
RTVSPropertyOp2
 70
     1
102
RTVSPropertyOp3
 70
     1
102
RTVSPropertyOp4
 70
     1
102
RTVSPropertyOp5
 70
     1
102
RTVSPropertyOp6
 70
     1
102
RTVSPropertyOp7
 70
     1
102
RTVSPropertyOp8
 70
     1
102
RTVSPropertyOp9
 70
     1
102
RTVSPropertyOp10
 70
     1
102
RTVSPropertyOp11
 70
     1
102
RTVSPropertyOp12
 70
     1
102
RTVSPropertyOp13
 70
     1
102
RTVSPropertyOp14
 70
     1
102
RTVSPropertyOp15
 70
     1
102
RTVSPropertyOp16
 70
     1
102
RTVSPropertyOp17
 70
     1
102
RTVSPropertyOp18
 70
     1
102
RTVSPropertyOp19
 70
     1
102
RTVSPropertyOp20
 70
     1
102
RTVSPropertyOp21
 70
     1
102
RTVSPropertyOp22
 70
     1
102
RTVSPropertyOp23
 70
     1
102
RTVSPropertyOp24
 70
     1
102
RTVSPropertyOp25
 70
     1
102
RTVSPropertyOp26
 70
     1
102
RTVSPropertyOp27
 70
     1
102
RTVSPropertyOp28
 70
     1
102
RTVSPropertyOp29
 70
     1
102
RTVSPropertyOp30
 70
     1
102
RTVSPropertyOp31
 70
     1
102
RTVSPropertyOp32
 70
     1
  0
XRECORD
  5
13D
102
{ACAD_REACTORS
330
13C
102
}
330
13C
100
AcDbXrecord
280
     1
102
RTVSPropertyOp0
 70
     1
102
RTVSPropertyOp1
 70
     1
102
RTVSPropertyOp2
 70
     1
102
RTVSPropertyOp3
 70
     1
102
RTVSPropertyOp4
 70
     1
102
RTVSPropertyOp5
 70
     1
102
RTVSPropertyOp6
 70
     1
102
RTVSPropertyOp7
 70
     1
102
RTVSPropertyOp8
 70
     1
102
RTVSPropertyOp9
 70
     1
102
RTVSPropertyOp10
 70
     1
102
RTVSPropertyOp11
 70
     1
102
RTVSPropertyOp12
 70
     1
102
RTVSPropertyOp13
 70
     1
102
RTVSPropertyOp14
 70
     1
102
RTVSPropertyOp15
 70
     1
102
RTVSPropertyOp16
 70
     1
102
RTVSPropertyOp17
 70
     1
102
RTVSPropertyOp18
 70
     1
102
RTVSPropertyOp19
 70
     1
102
RTVSPropertyOp20
 70
     1
102
RTVSPropertyOp21
 70
     1
102
RTVSPropertyOp22
 70
     1
102
RTVSPropertyOp23
 70
     1
102
RTVSPropertyOp24
 70
     1
102
RTVSPropertyOp25
 70
     1
102
RTVSPropertyOp26
 70
     1
102
RTVSPropertyOp27
 70
     1
102
RTVSPropertyOp28
 70
     1
102
RTVSPropertyOp29
 70
     1
102
RTVSPropertyOp30
 70
     1
102
RTVSPropertyOp31
 70
     1
102
RTVSPropertyOp32
 70
     1
  0
XRECORD
  5
145
102
{ACAD_REACTORS
330
144
102
}
330
144
100
AcDbXrecord
280
     1
102
RTVSPropertyOp0
 70
     1
102
RTVSPropertyOp1
 70
     1
102
RTVSPropertyOp2
 70
     1
102
RTVSPropertyOp3
 70
     1
102
RTVSPropertyOp4
 70
     1
102
RTVSPropertyOp5
 70
     1
102
RTVSPropertyOp6
 70
     1
102
RTVSPropertyOp7
 70
     1
102
RTVSPropertyOp8
 70
     1
102
RTVSPropertyOp9
 70
     1
102
RTVSPropertyOp10
 70
     1
102
RTVSPropertyOp11
 70
     1
102
RTVSPropertyOp12
 70
     1
102
RTVSPropertyOp13
 70
     1
102
RTVSPropertyOp14
 70
     1
102
RTVSPropertyOp15
 70
     1
102
RTVSPropertyOp16
 70
     1
102
RTVSPropertyOp17
 70
     1
102
RTVSPropertyOp18
 70
     1
102
RTVSPropertyOp19
 70
     1
102
RTVSPropertyOp20
 70
     1
102
RTVSPropertyOp21
 70
     1
102
RTVSPropertyOp22
 70
     1
102
RTVSPropertyOp23
 70
     1
102
RTVSPropertyOp24
 70
     1
102
RTVSPropertyOp25
 70
     1
102
RTVSPropertyOp26
 70
     1
102
RTVSPropertyOp27
 70
     1
102
RTVSPropertyOp28
 70
     1
102
RTVSPropertyOp29
 70
     1
102
RTVSPropertyOp30
 70
     1
102
RTVSPropertyOp31
 70
     1
102
RTVSPropertyOp32
 70
     1
  0
XRECORD
  5
139
102
{ACAD_REACTORS
330
138
102
}
330
138
100
AcDbXrecord
280
     1
102
RTVSPropertyOp0
 70
     1
102
RTVSPropertyOp1
 70
     1
102
RTVSPropertyOp2
 70
     1
102
RTVSPropertyOp3
 70
     1
102
RTVSPropertyOp4
 70
     1
102
RTVSPropertyOp5
 70
     1
102
RTVSPropertyOp6
 70
     1
102
RTVSPropertyOp7
 70
     1
102
RTVSPropertyOp8
 70
     1
102
RTVSPropertyOp9
 70
     1
102
RTVSPropertyOp10
 70
     1
102
RTVSPropertyOp11
 70
     1
102
RTVSPropertyOp12
 70
     1
102
RTVSPropertyOp13
 70
     1
102
RTVSPropertyOp14
 70
     1
102
RTVSPropertyOp15
 70
     1
102
RTVSPropertyOp16
 70
     1
102
RTVSPropertyOp17
 70
     1
102
RTVSPropertyOp18
 70
     1
102
RTVSPropertyOp19
 70
     1
102
RTVSPropertyOp20
 70
     1
102
RTVSPropertyOp21
 70
     1
102
RTVSPropertyOp22
 70
     1
102
RTVSPropertyOp23
 70
     1
102
RTVSPropertyOp24
 70
     1
102
RTVSPropertyOp25
 70
     1
102
RTVSPropertyOp26
 70
     1
102
RTVSPropertyOp27
 70
     1
102
RTVSPropertyOp28
 70
     1
102
RTVSPropertyOp29
 70
     1
102
RTVSPropertyOp30
 70
     1
102
RTVSPropertyOp31
 70
     1
102
RTVSPropertyOp32
 70
     1
  0
XRECORD
  5
13B
102
{ACAD_REACTORS
330
13A
102
}
330
13A
100
AcDbXrecord
280
     1
102
RTVSPropertyOp0
 70
     1
102
RTVSPropertyOp1
 70
     1
102
RTVSPropertyOp2
 70
     1
102
RTVSPropertyOp3
 70
     1
102
RTVSPropertyOp4
 70
     1
102
RTVSPropertyOp5
 70
     1
102
RTVSPropertyOp6
 70
     1
102
RTVSPropertyOp7
 70
     1
102
RTVSPropertyOp8
 70
     1
102
RTVSPropertyOp9
 70
     1
102
RTVSPropertyOp10
 70
     1
102
RTVSPropertyOp11
 70
     1
102
RTVSPropertyOp12
 70
     1
102
RTVSPropertyOp13
 70
     1
102
RTVSPropertyOp14
 70
     1
102
RTVSPropertyOp15
 70
     1
102
RTVSPropertyOp16
 70
     1
102
RTVSPropertyOp17
 70
     1
102
RTVSPropertyOp18
 70
     1
102
RTVSPropertyOp19
 70
     1
102
RTVSPropertyOp20
 70
     1
102
RTVSPropertyOp21
 70
     1
102
RTVSPropertyOp22
 70
     1
102
RTVSPropertyOp23
 70
     1
102
RTVSPropertyOp24
 70
     1
102
RTVSPropertyOp25
 70
     1
102
RTVSPropertyOp26
 70
     1
102
RTVSPropertyOp27
 70
     1
102
RTVSPropertyOp28
 70
     1
102
RTVSPropertyOp29
 70
     1
102
RTVSPropertyOp30
 70
     1
102
RTVSPropertyOp31
 70
     1
102
RTVSPropertyOp32
 70
     1
  0
XRECORD
  5
143
102
{ACAD_REACTORS
330
142
102
}
330
142
100
AcDbXrecord
280
     1
102
RTVSPropertyOp0
 70
     1
102
RTVSPropertyOp1
 70
     1
102
RTVSPropertyOp2
 70
     1
102
RTVSPropertyOp3
 70
     1
102
RTVSPropertyOp4
 70
     1
102
RTVSPropertyOp5
 70
     1
102
RTVSPropertyOp6
 70
     1
102
RTVSPropertyOp7
 70
     1
102
RTVSPropertyOp8
 70
     1
102
RTVSPropertyOp9
 70
     1
102
RTVSPropertyOp10
 70
     1
102
RTVSPropertyOp11
 70
     1
102
RTVSPropertyOp12
 70
     1
102
RTVSPropertyOp13
 70
     1
102
RTVSPropertyOp14
 70
     1
102
RTVSPropertyOp15
 70
     1
102
RTVSPropertyOp16
 70
     1
102
RTVSPropertyOp17
 70
     1
102
RTVSPropertyOp18
 70
     1
102
RTVSPropertyOp19
 70
     1
102
RTVSPropertyOp20
 70
     1
102
RTVSPropertyOp21
 70
     1
102
RTVSPropertyOp22
 70
     1
102
RTVSPropertyOp23
 70
     1
102
RTVSPropertyOp24
 70
     1
102
RTVSPropertyOp25
 70
     1
102
RTVSPropertyOp26
 70
     1
102
RTVSPropertyOp27
 70
     1
102
RTVSPropertyOp28
 70
     1
102
RTVSPropertyOp29
 70
     1
102
RTVSPropertyOp30
 70
     1
102
RTVSPropertyOp31
 70
     1
102
RTVSPropertyOp32
 70
     1
  0
XRECORD
  5
127
102
{ACAD_REACTORS
330
126
102
}
330
126
100
AcDbXrecord
280
     1
102
RTVSPropertyOp0
 70
     1
102
RTVSPropertyOp1
 70
     1
102
RTVSPropertyOp2
 70
     1
102
RTVSPropertyOp3
 70
     1
102
RTVSPropertyOp4
 70
     1
102
RTVSPropertyOp5
 70
     1
102
RTVSPropertyOp6
 70
     1
102
RTVSPropertyOp7
 70
     1
102
RTVSPropertyOp8
 70
     1
102
RTVSPropertyOp9
 70
     1
102
RTVSPropertyOp10
 70
     1
102
RTVSPropertyOp11
 70
     1
102
RTVSPropertyOp12
 70
     1
102
RTVSPropertyOp13
 70
     1
102
RTVSPropertyOp14
 70
     1
102
RTVSPropertyOp15
 70
     1
102
RTVSPropertyOp16
 70
     1
102
RTVSPropertyOp17
 70
     1
102
RTVSPropertyOp18
 70
     1
102
RTVSPropertyOp19
 70
     1
102
RTVSPropertyOp20
 70
     1
102
RTVSPropertyOp21
 70
     1
102
RTVSPropertyOp22
 70
     1
102
RTVSPropertyOp23
 70
     1
102
RTVSPropertyOp24
 70
     1
102
RTVSPropertyOp25
 70
     1
102
RTVSPropertyOp26
 70
     1
102
RTVSPropertyOp27
 70
     1
102
RTVSPropertyOp28
 70
     1
102
RTVSPropertyOp29
 70
     1
102
RTVSPropertyOp30
 70
     1
102
RTVSPropertyOp31
 70
     1
102
RTVSPropertyOp32
 70
     1
  0
XRECORD
  5
129
102
{ACAD_REACTORS
330
128
102
}
330
128
100
AcDbXrecord
280
     1
102
RTVSPropertyOp0
 70
     1
102
RTVSPropertyOp1
 70
     1
102
RTVSPropertyOp2
 70
     1
102
RTVSPropertyOp3
 70
     1
102
RTVSPropertyOp4
 70
     1
102
RTVSPropertyOp5
 70
     1
102
RTVSPropertyOp6
 70
     1
102
RTVSPropertyOp7
 70
     1
102
RTVSPropertyOp8
 70
     1
102
RTVSPropertyOp9
 70
     1
102
RTVSPropertyOp10
 70
     1
102
RTVSPropertyOp11
 70
     1
102
RTVSPropertyOp12
 70
     1
102
RTVSPropertyOp13
 70
     1
102
RTVSPropertyOp14
 70
     1
102
RTVSPropertyOp15
 70
     1
102
RTVSPropertyOp16
 70
     1
102
RTVSPropertyOp17
 70
     1
102
RTVSPropertyOp18
 70
     1
102
RTVSPropertyOp19
 70
     1
102
RTVSPropertyOp20
 70
     1
102
RTVSPropertyOp21
 70
     1
102
RTVSPropertyOp22
 70
     1
102
RTVSPropertyOp23
 70
     1
102
RTVSPropertyOp24
 70
     1
102
RTVSPropertyOp25
 70
     1
102
RTVSPropertyOp26
 70
     1
102
RTVSPropertyOp27
 70
     1
102
RTVSPropertyOp28
 70
     1
102
RTVSPropertyOp29
 70
     1
102
RTVSPropertyOp30
 70
     1
102
RTVSPropertyOp31
 70
     1
102
RTVSPropertyOp32
 70
     1
  0
XRECORD
  5
12B
102
{ACAD_REACTORS
330
12A
102
}
330
12A
100
AcDbXrecord
280
     1
102
RTVSPropertyOp0
 70
     1
102
RTVSPropertyOp1
 70
     1
102
RTVSPropertyOp2
 70
     1
102
RTVSPropertyOp3
 70
     1
102
RTVSPropertyOp4
 70
     1
102
RTVSPropertyOp5
 70
     1
102
RTVSPropertyOp6
 70
     1
102
RTVSPropertyOp7
 70
     1
102
RTVSPropertyOp8
 70
     1
102
RTVSPropertyOp9
 70
     1
102
RTVSPropertyOp10
 70
     1
102
RTVSPropertyOp11
 70
     1
102
RTVSPropertyOp12
 70
     1
102
RTVSPropertyOp13
 70
     1
102
RTVSPropertyOp14
 70
     1
102
RTVSPropertyOp15
 70
     1
102
RTVSPropertyOp16
 70
     1
102
RTVSPropertyOp17
 70
     1
102
RTVSPropertyOp18
 70
     1
102
RTVSPropertyOp19
 70
     1
102
RTVSPropertyOp20
 70
     1
102
RTVSPropertyOp21
 70
     1
102
RTVSPropertyOp22
 70
     1
102
RTVSPropertyOp23
 70
     1
102
RTVSPropertyOp24
 70
     1
102
RTVSPropertyOp25
 70
     1
102
RTVSPropertyOp26
 70
     1
102
RTVSPropertyOp27
 70
     1
102
RTVSPropertyOp28
 70
     1
102
RTVSPropertyOp29
 70
     1
102
RTVSPropertyOp30
 70
     1
102
RTVSPropertyOp31
 70
     1
102
RTVSPropertyOp32
 70
     1
  0
XRECORD
  5
12D
102
{ACAD_REACTORS
330
12C
102
}
330
12C
100
AcDbXrecord
280
     1
102
RTVSPropertyOp0
 70
     1
102
RTVSPropertyOp1
 70
     1
102
RTVSPropertyOp2
 70
     1
102
RTVSPropertyOp3
 70
     1
102
RTVSPropertyOp4
 70
     1
102
RTVSPropertyOp5
 70
     1
102
RTVSPropertyOp6
 70
     1
102
RTVSPropertyOp7
 70
     1
102
RTVSPropertyOp8
 70
     1
102
RTVSPropertyOp9
 70
     1
102
RTVSPropertyOp10
 70
     1
102
RTVSPropertyOp11
 70
     1
102
RTVSPropertyOp12
 70
     1
102
RTVSPropertyOp13
 70
     1
102
RTVSPropertyOp14
 70
     1
102
RTVSPropertyOp15
 70
     1
102
RTVSPropertyOp16
 70
     1
102
RTVSPropertyOp17
 70
     1
102
RTVSPropertyOp18
 70
     1
102
RTVSPropertyOp19
 70
     1
102
RTVSPropertyOp20
 70
     1
102
RTVSPropertyOp21
 70
     1
102
RTVSPropertyOp22
 70
     1
102
RTVSPropertyOp23
 70
     1
102
RTVSPropertyOp24
 70
     1
102
RTVSPropertyOp25
 70
     1
102
RTVSPropertyOp26
 70
     1
102
RTVSPropertyOp27
 70
     1
102
RTVSPropertyOp28
 70
     1
102
RTVSPropertyOp29
 70
     1
102
RTVSPropertyOp30
 70
     1
102
RTVSPropertyOp31
 70
     1
102
RTVSPropertyOp32
 70
     1
  0
XRECORD
  5
141
102
{ACAD_REACTORS
330
140
102
}
330
140
100
AcDbXrecord
280
     1
102
RTVSPropertyOp0
 70
     1
102
RTVSPropertyOp1
 70
     1
102
RTVSPropertyOp2
 70
     1
102
RTVSPropertyOp3
 70
     1
102
RTVSPropertyOp4
 70
     1
102
RTVSPropertyOp5
 70
     1
102
RTVSPropertyOp6
 70
     1
102
RTVSPropertyOp7
 70
     1
102
RTVSPropertyOp8
 70
     1
102
RTVSPropertyOp9
 70
     1
102
RTVSPropertyOp10
 70
     1
102
RTVSPropertyOp11
 70
     1
102
RTVSPropertyOp12
 70
     1
102
RTVSPropertyOp13
 70
     1
102
RTVSPropertyOp14
 70
     1
102
RTVSPropertyOp15
 70
     1
102
RTVSPropertyOp16
 70
     1
102
RTVSPropertyOp17
 70
     1
102
RTVSPropertyOp18
 70
     1
102
RTVSPropertyOp19
 70
     1
102
RTVSPropertyOp20
 70
     1
102
RTVSPropertyOp21
 70
     1
102
RTVSPropertyOp22
 70
     1
102
RTVSPropertyOp23
 70
     1
102
RTVSPropertyOp24
 70
     1
102
RTVSPropertyOp25
 70
     1
102
RTVSPropertyOp26
 70
     1
102
RTVSPropertyOp27
 70
     1
102
RTVSPropertyOp28
 70
     1
102
RTVSPropertyOp29
 70
     1
102
RTVSPropertyOp30
 70
     1
102
RTVSPropertyOp31
 70
     1
102
RTVSPropertyOp32
 70
     1
  0
XRECORD
  5
137
102
{ACAD_REACTORS
330
136
102
}
330
136
100
AcDbXrecord
280
     1
102
RTVSPropertyOp0
 70
     1
102
RTVSPropertyOp1
 70
     1
102
RTVSPropertyOp2
 70
     1
102
RTVSPropertyOp3
 70
     1
102
RTVSPropertyOp4
 70
     1
102
RTVSPropertyOp5
 70
     1
102
RTVSPropertyOp6
 70
     1
102
RTVSPropertyOp7
 70
     1
102
RTVSPropertyOp8
 70
     1
102
RTVSPropertyOp9
 70
     1
102
RTVSPropertyOp10
 70
     1
102
RTVSPropertyOp11
 70
     1
102
RTVSPropertyOp12
 70
     1
102
RTVSPropertyOp13
 70
     1
102
RTVSPropertyOp14
 70
     1
102
RTVSPropertyOp15
 70
     1
102
RTVSPropertyOp16
 70
     1
102
RTVSPropertyOp17
 70
     1
102
RTVSPropertyOp18
 70
     1
102
RTVSPropertyOp19
 70
     1
102
RTVSPropertyOp20
 70
     1
102
RTVSPropertyOp21
 70
     1
102
RTVSPropertyOp22
 70
     1
102
RTVSPropertyOp23
 70
     1
102
RTVSPropertyOp24
 70
     1
102
RTVSPropertyOp25
 70
     1
102
RTVSPropertyOp26
 70
     1
102
RTVSPropertyOp27
 70
     1
102
RTVSPropertyOp28
 70
     1
102
RTVSPropertyOp29
 70
     1
102
RTVSPropertyOp30
 70
     1
102
RTVSPropertyOp31
 70
     1
102
RTVSPropertyOp32
 70
     1
  0
XRECORD
  5
13F
102
{ACAD_REACTORS
330
13E
102
}
330
13E
100
AcDbXrecord
280
     1
102
RTVSPropertyOp0
 70
     1
102
RTVSPropertyOp1
 70
     1
102
RTVSPropertyOp2
 70
     1
102
RTVSPropertyOp3
 70
     1
102
RTVSPropertyOp4
 70
     1
102
RTVSPropertyOp5
 70
     1
102
RTVSPropertyOp6
 70
     1
102
RTVSPropertyOp7
 70
     1
102
RTVSPropertyOp8
 70
     1
102
RTVSPropertyOp9
 70
     1
102
RTVSPropertyOp10
 70
     1
102
RTVSPropertyOp11
 70
     1
102
RTVSPropertyOp12
 70
     1
102
RTVSPropertyOp13
 70
     1
102
RTVSPropertyOp14
 70
     1
102
RTVSPropertyOp15
 70
     1
102
RTVSPropertyOp16
 70
     1
102
RTVSPropertyOp17
 70
     1
102
RTVSPropertyOp18
 70
     1
102
RTVSPropertyOp19
 70
     1
102
RTVSPropertyOp20
 70
     1
102
RTVSPropertyOp21
 70
     1
102
RTVSPropertyOp22
 70
     1
102
RTVSPropertyOp23
 70
     1
102
RTVSPropertyOp24
 70
     1
102
RTVSPropertyOp25
 70
     1
102
RTVSPropertyOp26
 70
     1
102
RTVSPropertyOp27
 70
     1
102
RTVSPropertyOp28
 70
     1
102
RTVSPropertyOp29
 70
     1
102
RTVSPropertyOp30
 70
     1
102
RTVSPropertyOp31
 70
     1
102
RTVSPropertyOp32
 70
     1
  0
ENDSEC
  0
EOF
