  0
SECTION
  2
HEADER
  9
$ACADVER
  1
AC1014
  9
$ACADMAINTVER
 70
             0
  9
$DWGCODEPAGE
  3
ANSI_1252
  9
$INSBASE
 10
0.0
 20
0.0
 30
0.0
  9
$EXTMIN
 10
-44.32974502485925
 20
-84.39601613191601
 30
0.0
  9
$EXTMAX
 10
16.4982276854591
 20
14.7999999999999
 30
0.0
  9
$LIMMIN
 10
0.0
 20
0.0
  9
$LIMMAX
 10
0.0
 20
0.0
  9
$ORTHOMODE
 70
             0
  9
$REGENMODE
 70
             1
  9
$FILLMODE
 70
             1
  9
$QTEXTMODE
 70
             0
  9
$MIRRTEXT
 70
             1
  9
$DRAGMODE
 70
             2
  9
$LTSCALE
 40
1.0
  9
$OSMODE
 70
             0
  9
$ATTMODE
 70
             1
  9
$TEXTSIZE
 40
0.2
  9
$TRACEWID
 40
0.05
  9
$TEXTSTYLE
  7
STANDARD
  9
$CLAYER
  8
0
  9
$CELTYPE
  6
CONTINUOUS
  9
$CECOLOR
 62
           256
  9
$CELTSCALE
 40
1.0
  9
$DELOBJ
 70
             1
  9
$DISPSILH
 70
             0
  9
$DIMSCALE
 40
1.0
  9
$DIMASZ
 40
0.18
  9
$DIMEXO
 40
0.0625
  9
$DIMDLI
 40
0.38
  9
$DIMRND
 40
0.0
  9
$DIMDLE
 40
0.0
  9
$DIMEXE
 40
0.18
  9
$DIMTP
 40
0.0
  9
$DIMTM
 40
0.0
  9
$DIMTXT
 40
0.18
  9
$DIMCEN
 40
0.09
  9
$DIMTSZ
 40
0.0
  9
$DIMTOL
 70
             0
  9
$DIMLIM
 70
             0
  9
$DIMTIH
 70
             1
  9
$DIMTOH
 70
             1
  9
$DIMSE1
 70
             0
  9
$DIMSE2
 70
             0
  9
$DIMTAD
 70
             0
  9
$DIMZIN
 70
             0
  9
$DIMBLK
  1

  9
$DIMASO
 70
             1
  9
$DIMSHO
 70
             1
  9
$DIMPOST
  1

  9
$DIMAPOST
  1

  9
$DIMALT
 70
             0
  9
$DIMALTD
 70
             2
  9
$DIMALTF
 40
25.4
  9
$DIMLFAC
 40
1.0
  9
$DIMTOFL
 70
             0
  9
$DIMTVP
 40
0.0
  9
$DIMTIX
 70
             0
  9
$DIMSOXD
 70
             0
  9
$DIMSAH
 70
             0
  9
$DIMBLK1
  1

  9
$DIMBLK2
  1

  9
$DIMSTYLE
  2
STANDARD
  9
$DIMCLRD
 70
             0
  9
$DIMCLRE
 70
             0
  9
$DIMCLRT
 70
             0
  9
$DIMTFAC
 40
1.0
  9
$DIMGAP
 40
0.09
  9
$DIMJUST
 70
             0
  9
$DIMSD1
 70
             0
  9
$DIMSD2
 70
             0
  9
$DIMTOLJ
 70
             1
  9
$DIMTZIN
 70
             0
  9
$DIMALTZ
 70
             0
  9
$DIMALTTZ
 70
             0
  9
$DIMFIT
 70
             3
  9
$DIMUPT
 70
             0
  9
$DIMUNIT
 70
             2
  9
$DIMDEC
 70
             4
  9
$DIMTDEC
 70
             4
  9
$DIMALTU
 70
             2
  9
$DIMALTTD
 70
             2
  9
$DIMTXSTY
  7
STANDARD
  9
$DIMAUNIT
 70
             0
  9
$LUNITS
 70
             2
  9
$LUPREC
 70
             4
  9
$SKETCHINC
 40
0.1
  9
$FILLETRAD
 40
0.0
  9
$AUNITS
 70
             0
  9
$AUPREC
 70
             0
  9
$MENU
  1
acad
  9
$ELEVATION
 40
0.0
  9
$PELEVATION
 40
0.0
  9
$THICKNESS
 40
0.0
  9
$LIMCHECK
 70
             0
  9
$BLIPMODE
 70
             1
  9
$CHAMFERA
 40
0.0
  9
$CHAMFERB
 40
0.0
  9
$CHAMFERC
 40
0.0
  9
$CHAMFERD
 40
0.0
  9
$SKPOLY
 70
             0
  9
$TDCREATE
 40
0.000000000
  9
$TDUPDATE
 40
0.000000000
  9
$TDINDWG
 40
0.0000000000
  9
$TDUSRTIMER
 40
0.0000000000
  9
$USRTIMER
 70
             1
  9
$ANGBASE
 50
0.0
  9
$ANGDIR
 70
             0
  9
$PDMODE
 70
             0
  9
$PDSIZE
 40
0.0
  9
$PLINEWID
 40
0.0
  9
$COORDS
 70
             0
  9
$SPLFRAME
 70
             0
  9
$SPLINETYPE
 70
             6
  9
$SPLINESEGS
 70
             8
  9
$ATTDIA
 70
             0
  9
$ATTREQ
 70
             1
  9
$HANDLING
 70
             1
  9
$HANDSEED
  5
F4
  9
$SURFTAB1
 70
             6
  9
$SURFTAB2
 70
             6
  9
$SURFTYPE
 70
             6
  9
$SURFU
 70
             6
  9
$SURFV
 70
             6
  9
$UCSNAME
  2

  9
$UCSORG
 10
0.0
 20
0.0
 30
0.0
  9
$UCSXDIR
 10
1.0
 20
0.0
 30
0.0
  9
$UCSYDIR
 10
0.0
 20
1.0
 30
0.0
  9
$PUCSNAME
  2

  9
$PUCSORG
 10
0.0
 20
0.0
 30
0.0
  9
$PUCSXDIR
 10
1.0
 20
0.0
 30
0.0
  9
$PUCSYDIR
 10
0.0
 20
1.0
 30
0.0
  9
$USERI1
 70
             0
  9
$USERI2
 70
             0
  9
$USERI3
 70
             0
  9
$USERI4
 70
             0
  9
$USERI5
 70
             0
  9
$USERR1
 40
12.01
  9
$USERR2
 40
0.0
  9
$USERR3
 40
0.0
  9
$USERR4
 40
0.0
  9
$USERR5
 40
0.0
  9
$WORLDVIEW
 70
             1
  9
$SHADEDGE
 70
             3
  9
$SHADEDIF
 70
            70
  9
$TILEMODE
 70
             1
  9
$MAXACTVP
 70
            16
  9
$PINSBASE
 10
0.0
 20
0.0
 30
0.0
  9
$PLIMCHECK
 70
             0
  9
$PEXTMIN
 10
1.00000000000000E+20
 20
1.00000000000000E+20
 30
1.00000000000000E+20
  9
$PEXTMAX
 10
-1.00000000000000E+20
 20
-1.00000000000000E+20
 30
-1.00000000000000E+20
  9
$PLIMMIN
 10
0.0
 20
0.0
  9
$PLIMMAX
 10
12.0
 20
9.0
  9
$UNITMODE
 70
             0
  9
$VISRETAIN
 70
             0
  9
$PLINEGEN
 70
             1
  9
$PSLTSCALE
 70
             0
  9
$TREEDEPTH
 70
          3020
  9
$PICKSTYLE
 70
             1
  9
$CMLSTYLE
  2
STANDARD
  9
$CMLJUST
 70
             0
  9
$CMLSCALE
 40
1.0
  9
$PROXYGRAPHICS
 70
             0
  9
$MEASUREMENT
 70
             1
  0
ENDSEC
  0
SECTION
  2
CLASSES
  0
CLASS
  1
LWPOLYLINE
  2
AcDbPolyline
  3
"AutoCAD"
 90
        0
280
             0
281
             1
  0
CLASS
  1
IMAGE
  2
AcDbRasterImage
  3
ISM
 90
      127
280
             0
281
             1
  0
CLASS
  1
OLE2FRAME
  2
AcDbOle2Frame
  3
""
 90
        0
280
             0
281
             1
  0
CLASS
  1
HATCH
  2
AcDbHatch
  3
"ACAD_SEDONA"
 90
        0
280
             0
281
             1
  0
CLASS
  1
DICTIONARYVAR
  2
AcDbDictionaryVar
  3
"AutoCAD"
 90
        0
280
             0
281
             0
  0
CLASS
  1
RASTERVARIABLES
  2
AcDbRasterVariables
  3
ISM
 90
        0
280
             0
281
             0
  0
CLASS
  1
IMAGEDEF
  2
AcDbRasterImageDef
  3
ISM
 90
        0
280
             0
281
             0
  0
CLASS
  1
IMAGEDEF_REACTOR
  2
AcDbRasterImageDefReactor
  3
ISM
 90
        1
280
             0
281
             0
  0
CLASS
  1
IDBUFFER
  2
AcDbIdBuffer
  3
"Acad"
 90
        0
280
             0
281
             0
  0
CLASS
  1
SPATIAL_FILTER
  2
AcDbSpatialFilter
  3
"Acad"
 90
        0
280
             0
281
             0
  0
CLASS
  1
XRECORD
  2
AcDbXrecord
  3
"<Built In>"
 90
        0
280
             0
281
             0
  0
CLASS
  1
SORTENTSTABLE
  2
AcDbSortentsTable
  3
"AutoCAD"
 90
        0
280
             0
281
             0
  0
CLASS
  1
LAYER_INDEX
  2
AcDbLayerIndex
  3
"Acad"
 90
        0
280
             0
281
             0
  0
CLASS
  1
SPATIAL_INDEX
  2
AcDbSpatialIndex
  3
"Acad"
 90
        0
280
             0
281
             0
  0
CLASS
  1
OBJECT_PTR
  2
CAseDLPNTableRecord
  3
"ASE-LPNTableRecord"
 90
        1
280
             0
281
             0
  0
CLASS
  1
LAYOUT
  2
AcDbLayout
  3
"AutoCAD 2000"
 90
        0
280
             0
281
             0
  0
CLASS
  1
PLOTSETTINGS
  2
AcDbPlotSettings
  3
"AutoCAD 2000"
 90
        0
280
             0
281
             0
  0
CLASS
  1
ACDBDICTIONARYWDFLT
  2
AcDbDictionaryWithDefault
  3
"AutoCAD 2000"
 90
        0
280
             0
281
             0
  0
CLASS
  1
ACDBPLACEHOLDER
  2
AcDbPlaceHolder
  3
"AutoCAD 2000"
 90
        0
280
             0
281
             0
  0
ENDSEC
  0
SECTION
  2
TABLES
  0
TABLE
  2
VPORT
  5
7
100
AcDbSymbolTable
 70
             1
  0
VPORT
  5
15
100
AcDbSymbolTableRecord
100
AcDbViewportTableRecord
  2
*ACTIVE
 70
             0
 10
0.0
 20
0.0
 11
1.0
 21
1.0
 12
-13.91575866970008
 22
-34.79800806595806
 13
0.0
 23
0.0
 14
1.0
 24
1.0
 15
0.0
 25
0.0
 16
0.0
 26
0.0
 36
1.0
 17
0.0
 27
0.0
 37
0.0
 40
109.11561774510751
 41
1.60267857142857
 42
50.0
 43
0.0
 44
0.0
 50
0.0
 51
0.0
 71
             0
 72
           100
 73
             1
 74
             1
 75
             0
 76
             0
 77
             0
 78
             0
  0
ENDTAB
  0
TABLE
  2
LTYPE
  5
4
100
AcDbSymbolTable
 70
            10
  0
LTYPE
  5
11
100
AcDbSymbolTableRecord
100
AcDbLinetypeTableRecord
  2
BYBLOCK
 70
            64
  3

 72
            65
 73
             0
 40
0.0
  0
LTYPE
  5
12
100
AcDbSymbolTableRecord
100
AcDbLinetypeTableRecord
  2
BYLAYER
 70
            64
  3

 72
            65
 73
             0
 40
0.0
  0
LTYPE
  5
13
100
AcDbSymbolTableRecord
100
AcDbLinetypeTableRecord
  2
CONTINUOUS
 70
            64
  3
Solid line
 72
            65
 73
             0
 40
0.0
  0
LTYPE
  5
1D
100
AcDbSymbolTableRecord
100
AcDbLinetypeTableRecord
  2
DASHED
 70
            64
  3
Dashed
 72
            65
 73
             2
 40
15.0
 49
7.0
 74
             0
 49
-8.0
 74
             0
  0
LTYPE
  5
1E
100
AcDbSymbolTableRecord
100
AcDbLinetypeTableRecord
  2
DOTTED
 70
            64
  3
Dotted
 72
            65
 73
             2
 40
1.0
 49
0.0
 74
             0
 49
-1.0
 74
             0
  0
LTYPE
  5
1F
100
AcDbSymbolTableRecord
100
AcDbLinetypeTableRecord
  2
DOT_CENTER
 70
            64
  3
Dot_Center
 72
            65
 73
             4
 40
14.0
 49
12.0
 74
             0
 49
-1.0
 74
             0
 49
0.0
 74
             0
 49
-1.0
 74
             0
  0
LTYPE
  5
20
100
AcDbSymbolTableRecord
100
AcDbLinetypeTableRecord
  2
LONG_DASHED
 70
            64
  3
Long_Dashed
 72
            65
 73
             2
 40
15.0
 49
10.0
 74
             0
 49
-5.0
 74
             0
  0
LTYPE
  5
21
100
AcDbSymbolTableRecord
100
AcDbLinetypeTableRecord
  2
DASH_CENTER
 70
            64
  3
Dash_Center
 72
            65
 73
             4
 40
14.0
 49
11.0
 74
             0
 49
-1.0
 74
             0
 49
1.0
 74
             0
 49
-1.0
 74
             0
  0
LTYPE
  5
22
100
AcDbSymbolTableRecord
100
AcDbLinetypeTableRecord
  2
PHANTOM
 70
            64
  3
Phantom
 72
            65
 73
             6
 40
13.0
 49
10.0
 74
             0
 49
-1.0
 74
             0
 49
0.0
 74
             0
 49
-1.0
 74
             0
 49
0.0
 74
             0
 49
-1.0
 74
             0
  0
LTYPE
  5
23
100
AcDbSymbolTableRecord
100
AcDbLinetypeTableRecord
  2
CENTER_DASH_DASH
 70
            64
  3
Center_Dash_Dash
 72
            65
 73
             6
 40
14.0
 49
9.0
 74
             0
 49
-1.0
 74
             0
 49
1.0
 74
             0
 49
-1.0
 74
             0
 49
1.0
 74
             0
 49
-1.0
 74
             0
  0
ENDTAB
  0
TABLE
  2
LAYER
  5
2
100
AcDbSymbolTable
 70
             2
  0
LAYER
  5
14
100
AcDbSymbolTableRecord
100
AcDbLayerTableRecord
  2
0
 70
             0
 62
             7
  6
CONTINUOUS
  0
LAYER
  5
24
100
AcDbSymbolTableRecord
100
AcDbLayerTableRecord
  2
1
 70
             0
 62
             7
  6
CONTINUOUS
  0
ENDTAB
  0
TABLE
  2
STYLE
  5
3
100
AcDbSymbolTable
 70
             2
  0
STYLE
  5
17
100
AcDbSymbolTableRecord
100
AcDbTextStyleTableRecord
  2
STANDARD
 70
             0
 40
0.0
 41
1.0
 50
0.0
 71
             0
 42
0.0
  3
txt
  4

  0
STYLE
  5
CB
100
AcDbSymbolTableRecord
100
AcDbTextStyleTableRecord
  2
CONVERTER_1
 70
             0
 40
0.0
 41
0.9
 50
0.0
 71
             0
 42
0.0
  3
txt.shx
  4

  0
ENDTAB
  0
TABLE
  2
VIEW
  5
5
100
AcDbSymbolTable
 70
             0
  0
ENDTAB
  0
TABLE
  2
UCS
  5
6
100
AcDbSymbolTable
 70
             0
  0
ENDTAB
  0
TABLE
  2
APPID
  5
8
100
AcDbSymbolTable
 70
             1
  0
APPID
  5
16
100
AcDbSymbolTableRecord
100
AcDbRegAppTableRecord
  2
ACAD
 70
             0
  0
ENDTAB
  0
TABLE
  2
DIMSTYLE
  5
9
100
AcDbSymbolTable
 70
             5
  0
DIMSTYLE
105
18
100
AcDbSymbolTableRecord
100
AcDbDimStyleTableRecord
  2
STANDARD
 70
             0
  3

  4

  5

  6

  7

 40
1.0
 41
0.18
 42
0.0625
 43
0.38
 44
0.18
 45
0.0
 46
0.0
 47
0.0
 48
0.0
 71
             0
 72
             0
 73
             1
 74
             1
 75
             0
 76
             0
 77
             0
 78
             0
140
0.18
141
0.09
142
0.0
143
25.4
144
1.0
145
0.0
146
1.0
147
0.09
170
             0
171
             2
172
             0
173
             0
174
             0
175
             0
176
             0
177
             0
178
             0
270
             2
271
             4
272
             4
273
             2
274
             2
275
             0
280
             0
281
             0
282
             0
283
             1
284
             0
285
             0
286
             0
287
             3
288
             0
340
17
  0
DIMSTYLE
105
CE
100
AcDbSymbolTableRecord
100
AcDbDimStyleTableRecord
  2
ME10_DIM_0
 70
             0
  3
Ø<>
  4

  5

  6

  7

 40
1.0
 41
7.0
 42
0.0
 43
0.38
 44
2.0
 45
0.0
 46
0.0
 47
0.0
 48
0.0
 71
             0
 72
             0
 73
             0
 74
             0
 75
             0
 76
             0
 77
             1
 78
             8
140
7.0
141
0.09
142
0.0
143
25.4
144
1.0
145
0.0
146
1.0
147
0.625
170
             0
171
             2
172
             1
173
             1
174
             0
175
             0
176
             4
177
             4
178
             1
270
             2
271
             2
272
             4
273
             2
274
             2
275
             0
280
             0
281
             0
282
             0
283
             1
284
             0
285
             0
286
             0
287
             3
288
             0
340
CB
  0
DIMSTYLE
105
D9
100
AcDbSymbolTableRecord
100
AcDbDimStyleTableRecord
  2
ME10_DIM_1
 70
             0
  3

  4

  5

  6

  7

 40
1.0
 41
7.0
 42
0.0
 43
0.38
 44
2.0
 45
0.0
 46
0.0
 47
0.0
 48
0.0
 71
             0
 72
             0
 73
             0
 74
             0
 75
             0
 76
             0
 77
             1
 78
             8
140
7.0
141
0.09
142
0.0
143
25.4
144
1.0
145
0.0
146
1.0
147
0.625
170
             0
171
             2
172
             1
173
             1
174
             0
175
             0
176
             4
177
             4
178
             1
270
             2
271
             2
272
             4
273
             2
274
             2
275
             0
280
             0
281
             0
282
             0
283
             1
284
             0
285
             0
286
             0
287
             3
288
             0
340
CB
  0
DIMSTYLE
105
E4
100
AcDbSymbolTableRecord
100
AcDbDimStyleTableRecord
  2
ME10_DIM_2
 70
             0
  3

  4

  5

  6

  7

 40
1.0
 41
7.0
 42
0.0
 43
0.38
 44
2.0
 45
0.0
 46
0.0
 47
0.0
 48
0.0
 71
             0
 72
             0
 73
             0
 74
             0
 75
             0
 76
             0
 77
             1
 78
             8
140
7.0
141
0.09
142
0.0
143
25.4
144
1.0
145
0.0
146
1.0
147
0.625
170
             0
171
             2
172
             1
173
             1
174
             0
175
             0
176
             4
177
             4
178
             1
270
             2
271
             2
272
             4
273
             2
274
             2
275
             0
280
             0
281
             0
282
             0
283
             1
284
             0
285
             0
286
             0
287
             3
288
             0
340
CB
  0
DIMSTYLE
105
F1
100
AcDbSymbolTableRecord
100
AcDbDimStyleTableRecord
  2
ME10_DIM_3
 70
             0
  3

  4

  5

  6

  7

 40
1.0
 41
7.0
 42
0.0
 43
0.38
 44
2.0
 45
0.0
 46
0.0
 47
0.0
 48
0.0
 71
             0
 72
             0
 73
             0
 74
             0
 75
             0
 76
             0
 77
             1
 78
             8
140
7.0
141
0.09
142
0.0
143
25.4
144
1.0
145
0.0
146
1.0
147
0.625
170
             0
171
             2
172
             1
173
             1
174
             0
175
             0
176
             4
177
             4
178
             1
270
             2
271
             2
272
             4
273
             2
274
             2
275
             0
280
             0
281
             0
282
             0
283
             1
284
             0
285
             0
286
             0
287
             3
288
             0
340
CB
  0
ENDTAB
  0
TABLE
  2
BLOCK_RECORD
  5
1
100
AcDbSymbolTable
 70
             7
  0
BLOCK_RECORD
  5
A
100
AcDbSymbolTableRecord
100
AcDbBlockTableRecord
  2
*MODEL_SPACE
  0
BLOCK_RECORD
  5
B
100
AcDbSymbolTableRecord
100
AcDbBlockTableRecord
  2
*PAPER_SPACE
  0
BLOCK_RECORD
  5
25
100
AcDbSymbolTableRecord
100
AcDbBlockTableRecord
  2
042_1D_DICHTRING_1_2
  0
BLOCK_RECORD
  5
27
100
AcDbSymbolTableRecord
100
AcDbBlockTableRecord
  2
1_2_MESSINGSTOPFEN
  0
BLOCK_RECORD
  5
29
100
AcDbSymbolTableRecord
100
AcDbBlockTableRecord
  2
STOPFEN-PP
  0
BLOCK_RECORD
  5
C4
100
AcDbSymbolTableRecord
100
AcDbBlockTableRecord
  2
*D3
  0
BLOCK_RECORD
  5
D0
100
AcDbSymbolTableRecord
100
AcDbBlockTableRecord
  2
*D4
  0
BLOCK_RECORD
  5
DB
100
AcDbSymbolTableRecord
100
AcDbBlockTableRecord
  2
*D5
  0
BLOCK_RECORD
  5
E6
100
AcDbSymbolTableRecord
100
AcDbBlockTableRecord
  2
*D6
  0
ENDTAB
  0
ENDSEC
  0
SECTION
  2
BLOCKS
  0
BLOCK
  5
D
100
AcDbEntity
  8
0
100
AcDbBlockBegin
  2
*MODEL_SPACE
 70
             0
 10
0.0
 20
0.0
 30
0.0
  3
*MODEL_SPACE
  1

  0
ENDBLK
  5
E
100
AcDbEntity
  8
0
100
AcDbBlockEnd
  0
BLOCK
  5
F
100
AcDbEntity
 67
             1
  8
0
100
AcDbBlockBegin
  2
*PAPER_SPACE
 70
             0
 10
0.0
 20
0.0
 30
0.0
  3
*PAPER_SPACE
  1

  0
ENDBLK
  5
10
100
AcDbEntity
 67
             1
  8
0
100
AcDbBlockEnd
  0
BLOCK
  5
26
100
AcDbEntity
  8
0
100
AcDbBlockBegin
  2
042_1D_DICHTRING_1_2
 70
             0
 10
-122.7376609657189
 20
-8.89230041189148
 30
0.0
  3
042_1D_DICHTRING_1_2
  1

  0
LINE
  5
32
100
AcDbEntity
  8
1
  6
CONTINUOUS
 62
             7
100
AcDbLine
 10
14.00000000001845
 20
-9.10000000000227
 11
14.00000000001845
 21
-10.00000000000009
  0
LINE
  5
31
100
AcDbEntity
  8
1
  6
CONTINUOUS
 62
             7
100
AcDbLine
 10
-13.99999999999673
 20
-10.00000000000009
 11
-13.99999999999673
 21
-9.10000000000227
  0
LINE
  5
30
100
AcDbEntity
  8
1
  6
CONTINUOUS
 62
             7
100
AcDbLine
 10
-13.99999999999673
 20
-9.10000000000227
 11
14.00000000001845
 21
-9.10000000000227
  0
ENDBLK
  5
33
100
AcDbEntity
  8
0
100
AcDbBlockEnd
  0
BLOCK
  5
28
100
AcDbEntity
  8
0
100
AcDbBlockBegin
  2
1_2_MESSINGSTOPFEN
 70
             0
 10
-0.31841389061351
 20
195.89609706681901
 30
0.0
  3
1_2_MESSINGSTOPFEN
  1

  0
LINE
  5
42
100
AcDbEntity
  8
1
  6
PHANTOM
 62
             2
100
AcDbLine
 10
0.0
 20
0.65017770377029
 11
0.0
 21
-12.24022730368472
  0
LINE
  5
41
100
AcDbEntity
  8
1
  6
CONTINUOUS
 62
             2
100
AcDbLine
 10
9.3155
 20
-0.25
 11
9.3155
 21
-8.85000000001318
  0
LINE
  5
40
100
AcDbEntity
  8
1
  6
CONTINUOUS
 62
             2
100
AcDbLine
 10
-9.31550000000001
 20
-0.25
 11
-9.31550000000001
 21
-8.85000000001318
  0
LINE
  5
3F
100
AcDbEntity
  8
0
  6
CONTINUOUS
 62
             7
100
AcDbLine
 10
10.47749999999999
 20
-8.40000000000228
 11
-10.47749999999999
 21
-8.40000000000228
  0
LINE
  5
3E
100
AcDbEntity
  8
0
  6
CONTINUOUS
 62
             7
100
AcDbLine
 10
10.47749999999999
 20
-0.7000000000001
 11
10.47749999999999
 21
-8.40000000000228
  0
LINE
  5
3D
100
AcDbEntity
  8
0
  6
CONTINUOUS
 62
             7
100
AcDbLine
 10
-10.47749999999999
 20
-0.7000000000001
 11
-10.47749999999999
 21
-8.40000000000228
  0
LINE
  5
3C
100
AcDbEntity
  8
0
  6
CONTINUOUS
 62
             7
100
AcDbLine
 10
-9.7775
 20
0.0
 11
-10.47749999999999
 21
-0.7000000000001
  0
LINE
  5
3B
100
AcDbEntity
  8
0
  6
CONTINUOUS
 62
             7
100
AcDbLine
 10
9.7775
 20
0.0
 11
-9.7775
 21
0.0
  0
LINE
  5
3A
100
AcDbEntity
  8
0
  6
CONTINUOUS
 62
             7
100
AcDbLine
 10
10.47749999999999
 20
-0.7000000000001
 11
-10.47749999999999
 21
-0.7000000000001
  0
LINE
  5
39
100
AcDbEntity
  8
0
  6
CONTINUOUS
 62
             7
100
AcDbLine
 10
9.7775
 20
0.0
 11
10.47749999999999
 21
-0.7000000000001
  0
LINE
  5
38
100
AcDbEntity
  8
0
  6
CONTINUOUS
 62
             7
100
AcDbLine
 10
9.7
 20
-9.10000000000227
 11
9.7775
 21
-9.10000000000227
  0
LINE
  5
37
100
AcDbEntity
  8
0
  6
CONTINUOUS
 62
             7
100
AcDbLine
 10
9.7775
 20
-9.10000000000227
 11
10.47749999999999
 21
-8.40000000000228
  0
LINE
  5
36
100
AcDbEntity
  8
0
  6
CONTINUOUS
 62
             7
100
AcDbLine
 10
-9.7775
 20
-9.10000000000227
 11
-10.47749999999999
 21
-8.40000000000228
  0
LINE
  5
35
100
AcDbEntity
  8
0
  6
CONTINUOUS
 62
             7
100
AcDbLine
 10
-9.7775
 20
-9.10000000000227
 11
-9.69999999999999
 21
-9.10000000000227
  0
LINE
  5
34
100
AcDbEntity
  8
1
  6
CONTINUOUS
 62
             7
100
AcDbLine
 10
-9.69999999999999
 20
-9.10000000000227
 11
9.7
 21
-9.10000000000227
  0
ENDBLK
  5
43
100
AcDbEntity
  8
0
100
AcDbBlockEnd
  0
BLOCK
  5
2A
100
AcDbEntity
  8
0
100
AcDbBlockBegin
  2
STOPFEN-PP
 70
             0
 10
-140.7157124556023
 20
-1011.50120836369
 30
0.0
  3
STOPFEN-PP
  1

  0
ARC
  5
C1
100
AcDbEntity
  8
1
  6
CONTINUOUS
 62
             7
100
AcDbCircle
 10
-15.9982276854638
 20
-69.50000000000009
 40
0.49999999999895
100
AcDbArc
 50
179.71352348996356
 51
-89.99999999999776
  0
SPLINE
  5
C0
100
AcDbEntity
  8
0
  6
CONTINUOUS
 62
             7
100
AcDbSpline
210
0.0
220
0.0
230
1.0
 70
             0
 71
             3
 72
            11
 73
             7
 74
             5
 42
0.00000000001
 43
0.00000000001
 44
0.00000000001
 40
0.0
 40
0.0
 40
0.0
 40
0.0
 40
0.0012498412875356
 40
0.0012498412875356
 40
0.0012498412875356
 40
0.0024999771941125
 40
0.0024999771941125
 40
0.0024999771941125
 40
0.0024999771941125
 10
-13.90176461602101
 20
-69.500000000000085
 30
0.0
 10
-13.90176461602101
 20
-69.4995833860267
 30
0.0
 10
-13.90176413187152
 20
-69.499166772213385
 30
0.0
 10
-13.901763163510591
 20
-69.498750159557005
 30
0.0
 10
-13.901762194924199
 20
-69.49833344830779
 30
0.0
 10
-13.901760741897309
 20
-69.497916738542784
 30
0.0
 10
-13.901758804499
 20
-69.497500031251604
 30
0.0
 11
-13.90176461602101
 21
-69.500000000000085
 31
0.0
 11
-13.901764252901149
 21
-69.499375079284675
 31
0.0
 11
-13.901763163510591
 21
-69.498750159557005
 31
0.0
 11
-13.901761347309264
 21
-69.498125093920038
 31
0.0
 11
-13.901758804499
 21
-69.497500031251604
 31
0.0
  0
SPLINE
  5
BF
100
AcDbEntity
  8
0
  6
CONTINUOUS
 62
             7
100
AcDbSpline
210
0.0
220
0.0
230
1.0
 70
             0
 71
             3
 72
            11
 73
             7
 74
             5
 42
0.00000000001
 43
0.00000000001
 44
0.00000000001
 40
0.0
 40
0.0
 40
0.0
 40
0.0
 40
3.998793234252255
 40
3.998793234252255
 40
3.998793234252255
 40
7.9975864682961326
 40
7.9975864682961326
 40
7.9975864682961326
 40
7.9975864682961326
 10
-13.901758804499
 20
-69.497500031251604
 30
0.0
 10
-13.89556166798141
 20
-68.164583359237497
 30
0.0
 10
-13.889364480830411
 20
-66.831666687499904
 30
0.0
 10
-13.883167242856899
 20
-65.498750016042408
 30
0.0
 10
-13.876970004883299
 20
-64.165833344570387
 30
0.0
 10
-13.870772716083589
 20
-62.832916673374797
 30
0.0
 10
-13.86457537626481
 20
-61.500000002459387
 30
0.0
 11
-13.901758804499
 21
-69.497500031251604
 31
0.0
 11
-13.89246306172392
 21
-67.498125023438277
 31
0.0
 11
-13.883167242856899
 21
-65.498750016042408
 31
0.0
 11
-13.873871347752798
 21
-63.499375009042168
 31
0.0
 11
-13.86457537626481
 21
-61.500000002459387
 31
0.0
  0
SPLINE
  5
BE
100
AcDbEntity
  8
0
  6
CONTINUOUS
 62
             7
100
AcDbSpline
210
0.0
220
0.0
230
1.0
 70
             0
 71
             3
 72
            11
 73
             7
 74
             5
 42
0.00000000001
 43
0.00000000001
 44
0.00000000001
 40
0.0
 40
0.0
 40
0.0
 40
0.0
 40
3.9987574303036268
 40
3.9987574303036268
 40
3.9987574303036268
 40
7.9975148619904024
 40
7.9975148619904024
 40
7.9975148619904024
 40
7.9975148619904024
 10
4.2652348008726904
 20
-61.500000000000092
 30
0.0
 10
4.2678018230784858
 20
-62.832916671326593
 30
0.0
 10
4.2703688241475959
 20
-64.165833342933297
 30
0.0
 10
4.2729358041673891
 20
-65.498750014812799
 30
0.0
 10
4.2755027841870969
 20
-66.831666686681388
 30
0.0
 10
4.2780697431539068
 20
-68.1645833588301
 30
0.0
 10
4.2806366811476844
 20
-69.497500031251604
 30
0.0
 11
4.2652348008726904
 21
-61.500000000000092
 31
0.0
 11
4.2690853183397897
 21
-63.499375007199063
 31
0.0
 11
4.2729358041673891
 21
-65.498750014812799
 31
0.0
 11
4.2767862584172613
 21
-67.498125022824865
 31
0.0
 11
4.2806366811476844
 21
-69.497500031251604
 31
0.0
  0
SPLINE
  5
BD
100
AcDbEntity
  8
0
  6
CONTINUOUS
 62
             7
100
AcDbSpline
210
0.0
220
0.0
230
1.0
 70
             0
 71
             3
 72
            11
 73
             7
 74
             5
 42
0.00000000001
 43
0.00000000001
 44
0.00000000001
 40
0.0
 40
0.0
 40
0.0
 40
0.0
 40
3.9987574304579812
 40
3.9987574304579812
 40
3.9987574304579812
 40
7.9975148595331982
 40
7.9975148595331982
 40
7.9975148595331982
 40
7.9975148595331982
 10
-4.3806366811477062
 20
-69.497500031251604
 30
0.0
 10
-4.3780697431539011
 20
-68.164583359237497
 30
0.0
 10
-4.3755027841908154
 20
-66.831666687499904
 30
0.0
 10
-4.3729358041709929
 20
-65.498750016042408
 30
0.0
 10
-4.3703688241511998
 20
-64.165833344570387
 30
0.0
 10
-4.3678018230820896
 20
-62.832916673374797
 30
0.0
 10
-4.3652348008799891
 20
-61.500000002459387
 30
0.0
 11
-4.3806366811477062
 21
-69.497500031251604
 31
0.0
 11
-4.3767862584191057
 21
-67.498125023438277
 31
0.0
 11
-4.3729358041709929
 21
-65.498750016042408
 31
0.0
 11
-4.3690853183438563
 21
-63.499375009042161
 31
0.0
 11
-4.3652348008799891
 21
-61.500000002459387
 31
0.0
  0
SPLINE
  5
BC
100
AcDbEntity
  8
0
  6
CONTINUOUS
 62
             7
100
AcDbSpline
210
0.0
220
0.0
230
1.0
 70
             0
 71
             3
 72
            11
 73
             7
 74
             5
 42
0.00000000001
 43
0.00000000001
 44
0.00000000001
 40
0.0
 40
0.0
 40
0.0
 40
0.0
 40
0.0012498405883165
 40
0.0012498405883165
 40
0.0012498405883165
 40
0.0024999701991925
 40
0.0024999701991925
 40
0.0024999701991925
 40
0.0024999701991925
 10
-4.3806390883619031
 20
-69.500000000000085
 30
0.0
 10
-4.3806390883619031
 20
-69.4995833860267
 30
0.0
 10
-4.3806388878220162
 20
-69.499166772213385
 30
0.0
 10
-4.3806384867129964
 20
-69.498750159557005
 30
0.0
 10
-4.3806380855093892
 20
-69.49833344830779
 30
0.0
 10
-4.3806374836458133
 20
-69.497916738542784
 30
0.0
 10
-4.3806366811477062
 20
-69.497500031251604
 30
0.0
 11
-4.3806390883619031
 21
-69.500000000000085
 31
0.0
 11
-4.3806389379533321
 21
-69.499375079284675
 31
0.0
 11
-4.3806384867129964
 21
-69.498750159557005
 31
0.0
 11
-4.3806377344157887
 21
-69.498125093920038
 31
0.0
 11
-4.3806366811477062
 21
-69.497500031251604
 31
0.0
  0
SPLINE
  5
BB
100
AcDbEntity
  8
0
  6
CONTINUOUS
 62
             7
100
AcDbSpline
210
0.0
220
0.0
230
1.0
 70
             0
 71
             3
 72
            11
 73
             7
 74
             5
 42
0.00000000001
 43
0.00000000001
 44
0.00000000001
 40
0.0
 40
0.0
 40
0.0
 40
0.0
 40
3.9987932352723981
 40
3.9987932352723981
 40
3.9987932352723981
 40
7.9975864707533653
 40
7.9975864707533653
 40
7.9975864707533653
 40
7.9975864707533653
 10
13.864575376250301
 20
-61.500000000000092
 30
0.0
 10
13.87077271607269
 20
-62.832916671326593
 30
0.0
 10
13.87697000487241
 20
-64.165833342929602
 30
0.0
 10
13.8831672428496
 20
-65.498750014812799
 30
0.0
 10
13.889364480826799
 20
-66.831666686681388
 30
0.0
 10
13.895561667977701
 20
-68.1645833588301
 30
0.0
 10
13.9017588044953
 20
-69.497500031251604
 30
0.0
 11
13.864575376250301
 21
-61.500000000000092
 31
0.0
 11
13.873871347741897
 21
-63.499375007197671
 31
0.0
 11
13.8831672428496
 21
-65.498750014812799
 31
0.0
 11
13.8924630617198
 21
-67.498125022824865
 31
0.0
 11
13.9017588044953
 21
-69.497500031251604
 31
0.0
  0
SPLINE
  5
BA
100
AcDbEntity
  8
0
  6
CONTINUOUS
 62
             7
100
AcDbSpline
210
0.0
220
0.0
230
1.0
 70
             1
 71
             3
 72
            86
 73
            82
 74
            55
 42
0.00000000001
 43
0.00000000001
 44
0.00000000001
 40
0.0
 40
0.0
 40
0.0
 40
0.0
 40
0.3142737254258599
 40
0.3142737254258599
 40
0.3142737254258599
 40
0.6808603978629577
 40
0.6808603978629577
 40
0.6808603978629577
 40
1.046158152573895
 40
1.046158152573895
 40
1.046158152573895
 40
1.4008055185558059
 40
1.4008055185558059
 40
1.4008055185558059
 40
1.7562316288806059
 40
1.7562316288806059
 40
1.7562316288806059
 40
2.4602970735991021
 40
2.4602970735991021
 40
2.4602970735991021
 40
2.820556872094484
 40
2.820556872094484
 40
2.820556872094484
 40
3.1803402224422261
 40
3.1803402224422261
 40
3.1803402224422261
 40
3.550403461728469
 40
3.550403461728469
 40
3.550403461728469
 40
3.7344807486417029
 40
3.7344807486417029
 40
3.7344807486417029
 40
3.9194086557668468
 40
3.9194086557668468
 40
3.9194086557668468
 40
4.296413928947997
 40
4.296413928947997
 40
4.296413928947997
 40
4.6714826724876648
 40
4.6714826724876648
 40
4.6714826724876648
 40
5.422944972646337
 40
5.422944972646337
 40
5.422944972646337
 40
5.6092268478259459
 40
5.6092268478259459
 40
5.6092268478259459
 40
5.7960942543878078
 40
5.7960942543878078
 40
5.7960942543878078
 40
5.9820951652728986
 40
5.9820951652728986
 40
5.9820951652728986
 40
6.1681187508722441
 40
6.1681187508722441
 40
6.1681187508722441
 40
6.5275083215000347
 40
6.5275083215000347
 40
6.5275083215000347
 40
6.8865664648237503
 40
6.8865664648237503
 40
6.8865664648237503
 40
7.2359820581966252
 40
7.2359820581966252
 40
7.2359820581966252
 40
7.5865866338430443
 40
7.5865866338430443
 40
7.5865866338430443
 40
7.9413703512601543
 40
7.9413703512601543
 40
7.9413703512601543
 40
8.2967918290809557
 40
8.2967918290809557
 40
8.2967918290809557
 40
8.6665620257906308
 40
8.6665620257906308
 40
8.6665620257906308
 40
9.0352797303582975
 40
9.0352797303582975
 40
9.0352797303582975
 40
9.3418404456683337
 40
9.3418404456683337
 40
9.3418404456683337
 40
9.3418404456683337
 10
1.471843307339384
 20
-14.002722835714
 30
0.0
 10
1.471785170597286
 20
-13.879346741709099
 30
0.0
 10
1.4568826478353001
 20
-13.7733861131602
 30
0.0
 10
1.439631575041886
 20
-13.69051806727299
 30
0.0
 10
1.414644723390694
 20
-13.57049007863691
 30
0.0
 10
1.3753778457102901
 20
-13.454044527669
 30
0.0
 10
1.3227129562473861
 20
-13.343774004839389
 30
0.0
 10
1.270016301357799
 20
-13.233436971080691
 30
0.0
 10
1.2043007116807869
 20
-13.13010999158371
 30
0.0
 10
1.127038378897794
 20
-13.03609761379639
 30
0.0
 10
1.051653028502187
 20
-12.9443691377638
 30
0.0
 10
0.965817216539989
 20
-12.86216781067569
 30
0.0
 10
0.8713568974417001
 20
-12.79124289746329
 30
0.0
 10
0.7975383455267888
 20
-12.735816720229311
 30
0.0
 10
0.6950076621469918
 20
-12.669654684807091
 30
0.0
 10
0.5639822322118846
 20
-12.6140904383538
 30
0.0
 10
0.3458368335595878
 20
-12.521581032357091
 30
0.0
 10
0.109109941200586
 20
-12.484081062204609
 30
0.0
 10
-0.1262245363469106
 20
-12.504789911276109
 30
0.0
 10
-0.2459730380687972
 20
-12.515327481774991
 30
0.0
 10
-0.3640027947695046
 20
-12.540819986890799
 30
0.0
 10
-0.4776801338666985
 20
-12.58069323088429
 30
0.0
 10
-0.5908423618602967
 20
-12.6203857954971
 30
0.0
 10
-0.698842494533892
 20
-12.67403126605871
 30
0.0
 10
-0.7992924747123027
 20
-12.7404351172919
 30
0.0
 10
-0.9021264231706141
 20
-12.808414923787611
 30
0.0
 10
-0.9962583952838031
 20
-12.88924414801301
 30
0.0
 10
-1.0795050608321901
 20
-12.981044686173901
 30
0.0
 10
-1.116137398155814
 20
-13.021441118369809
 30
0.0
 10
-1.155382123535702
 20
-13.069166975838099
 30
0.0
 10
-1.194488634020701
 20
-13.124680568944401
 30
0.0
 10
-1.233685937953908
 20
-13.180323047767191
 30
0.0
 10
-1.2655795540595141
 20
-13.233618636706611
 30
0.0
 10
-1.2914768481786889
 20
-13.28203223224779
 30
0.0
 10
-1.350748108732716
 20
-13.392836659248189
 30
0.0
 10
-1.3961338306725961
 20
-13.51083119356929
 30
0.0
 10
-1.4265557311809971
 20
-13.63323441181279
 30
0.0
 10
-1.456742976752111
 20
-13.754693490507689
 30
0.0
 10
-1.471957530411601
 20
-13.87953260906221
 30
0.0
 10
-1.471842834322189
 20
-14.0048535400602
 30
0.0
 10
-1.4716113793074039
 20
-14.257749332919101
 30
0.0
 10
-1.4089751186621129
 20
-14.50647571085219
 30
0.0
 10
-1.289773647906316
 20
-14.72806484961259
 30
0.0
 10
-1.260307562526606
 20
-14.782840721421991
 30
0.0
 10
-1.227530379455914
 20
-14.8356861502144
 30
0.0
 10
-1.191633564565592
 20
-14.88629392505041
 30
0.0
 10
-1.1595843831929069
 20
-14.931477258436701
 30
0.0
 10
-1.120812972116312
 20
-14.980848667353801
 30
0.0
 10
-1.0743003203752151
 20
-15.0316155957299
 30
0.0
 10
-1.0370408217277149
 20
-15.07228303197201
 30
0.0
 10
-0.9926273902893001
 20
-15.11623252085349
 30
0.0
 10
-0.940394461104006
 20
-15.1605795062934
 30
0.0
 10
-0.8983568530020136
 20
-15.19627042433069
 30
0.0
 10
-0.8487823249560904
 20
-15.234317831604191
 30
0.0
 10
-0.7913605060348061
 20
-15.27175150535189
 30
0.0
 10
-0.7134906510910071
 20
-15.322515392657889
 30
0.0
 10
-0.6055077331293148
 20
-15.382392912666599
 30
0.0
 10
-0.4690989146619984
 20
-15.429288868890691
 30
0.0
 10
-0.3323009097875911
 20
-15.47631862341589
 30
0.0
 10
-0.2105613737330998
 20
-15.49528735859721
 30
0.0
 10
-0.1183755873971961
 20
-15.5028928625762
 30
0.0
 10
-0.0020874080618967
 20
-15.512486860156089
 30
0.0
 10
0.1149011889828842
 20
-15.507909659794789
 30
0.0
 10
0.2301297968006111
 20
-15.4892589304946
 30
0.0
 10
0.3199619403457916
 20
-15.474718834735601
 30
0.0
 10
0.4368527383884953
 20
-15.447086933592891
 30
0.0
 10
0.5662835128933068
 20
-15.39192807035948
 30
0.0
 10
0.6506935245487853
 20
-15.35595547955751
 30
0.0
 10
0.7588407232723853
 20
-15.300444266315081
 30
0.0
 10
0.8728312988859841
 20
-15.2146209187741
 30
0.0
 10
0.9674045532374009
 20
-15.1434168456945
 30
0.0
 10
1.0533014629945969
 20
-15.060900260788999
 30
0.0
 10
1.1286876678678079
 20
-14.9688358236964
 30
0.0
 10
1.2067266168415069
 20
-14.873531756857201
 30
0.0
 10
1.2729172871877099
 20
-14.768710340227781
 30
0.0
 10
1.3257400330331
 20
-14.65676667009771
 30
0.0
 10
1.3781940014850991
 20
-14.5456045249376
 30
0.0
 10
1.417066799705907
 20
-14.42826531813628
 30
0.0
 10
1.441474828614389
 20
-14.307391795217089
 30
0.0
 10
1.457921732646412
 20
-14.225943381701679
 30
0.0
 10
1.471899804029789
 20
-14.1226184533335
 30
0.0
 10
1.471843307339384
 20
-14.002722835714
 30
0.0
 11
1.471843307339384
 21
-14.002722835714
 31
0.0
 11
1.4621847922098785
 21
-13.83142993344936
 31
0.0
 11
1.439631575041886
 21
-13.69051806727299
 31
0.0
 11
1.391551529824028
 21
-13.513486986378762
 31
0.0
 11
1.3227129562473861
 21
-13.343774004839387
 31
0.0
 11
1.2340877967826169
 21
-13.183814063328619
 31
0.0
 11
1.127038378897794
 21
-13.03609761379639
 31
0.0
 11
1.0063507514332528
 21
-12.905868919572269
 31
0.0
 11
0.8713568974417001
 21
-12.79124289746329
 31
0.0
 11
0.7391221440843658
 21
-12.702718443865788
 31
0.0
 11
0.5639822322118846
 21
-12.6140904383538
 31
0.0
 11
0.2253247525181867
 21
-12.516983329164376
 31
0.0
 11
-0.1262245363469106
 21
-12.504789911276109
 31
0.0
 11
-0.3042290210910643
 21
-12.531740693519723
 31
0.0
 11
-0.4776801338666985
 21
-12.58069323088429
 31
0.0
 11
-0.6432533972201959
 21
-12.650547441605452
 31
0.0
 11
-0.7992924747123027
 21
-12.7404351172919
 31
0.0
 11
-0.9467439988634683
 21
-12.851807127358457
 31
0.0
 11
-1.0795050608321901
 21
-12.981044686173901
 31
0.0
 11
-1.1360690324909299
 21
-13.047193692217753
 31
0.0
 11
-1.194488634020701
 21
-13.124680568944401
 31
0.0
 11
-1.2479702447799572
 21
-13.206067231826699
 31
0.0
 11
-1.2914768481786889
 21
-13.28203223224779
 31
0.0
 11
-1.3698347996969527
 21
-13.453283775314127
 31
0.0
 11
-1.4265557311809971
 21
-13.63323441181279
 31
0.0
 11
-1.4605625108742903
 21
-13.817595781322835
 31
0.0
 11
-1.471842834322189
 21
-14.0048535400602
 31
0.0
 11
-1.425421997017132
 21
-14.378199190123333
 31
0.0
 11
-1.289773647906316
 21
-14.72806484961259
 31
0.0
 11
-1.2431151298024337
 21
-14.80874242369652
 31
0.0
 11
-1.191633564565592
 21
-14.88629392505041
 31
0.0
 11
-1.1383907438585579
 21
-14.956860912268978
 31
0.0
 11
-1.0743003203752151
 21
-15.0316155957299
 31
0.0
 11
-1.0129624271912836
 21
-15.094717720062475
 31
0.0
 11
-0.940394461104006
 21
-15.1605795062934
 31
0.0
 11
-0.8716465626266405
 21
-15.215511972431241
 31
0.0
 11
-0.7913605060348061
 21
-15.27175150535189
 31
0.0
 11
-0.6521818216697213
 21
-15.351970661277006
 31
0.0
 11
-0.4690989146619984
 21
-15.429288868890691
 31
0.0
 11
-0.2770076690776588
 21
-15.480874959688276
 31
0.0
 11
-0.1183755873971961
 21
-15.5028928625762
 31
0.0
 11
0.0562744440207972
 21
-15.50666766911543
 31
0.0
 11
0.2301297968006111
 21
-15.4892589304946
 31
0.0
 11
0.3833571682370977
 21
-15.455825538229945
 31
0.0
 11
0.5662835128933068
 21
-15.39192807035948
 31
0.0
 11
0.7084646944053503
 21
-15.32196852834392
 31
0.0
 11
0.8728312988859841
 21
-15.2146209187741
 31
0.0
 11
1.0079546269312232
 21
-15.099551007740125
 31
0.0
 11
1.1286876678678079
 21
-14.9688358236964
 31
0.0
 11
1.2366699266235692
 21
-14.819041098131132
 31
0.0
 11
1.3257400330331
 21
-14.65676667009771
 31
0.0
 11
1.3941246581525637
 21
-14.485720999317055
 31
0.0
 11
1.441474828614389
 21
-14.307391795217089
 31
0.0
 11
1.4628478432477969
 21
-14.169475017004578
 31
0.0
 11
1.471843307339384
 21
-14.002722835714
 31
0.0
  0
SPLINE
  5
B9
100
AcDbEntity
  8
0
  6
CONTINUOUS
 62
             7
100
AcDbSpline
210
0.0
220
0.0
230
1.0
 70
             1
 71
             3
 72
            74
 73
            70
 74
            47
 42
0.00000000001
 43
0.00000000001
 44
0.00000000001
 40
0.0
 40
0.0
 40
0.0
 40
0.0
 40
0.1521288770683196
 40
0.1521288770683196
 40
0.1521288770683196
 40
0.3350467873850125
 40
0.3350467873850125
 40
0.3350467873850125
 40
0.5184425973095166
 40
0.5184425973095166
 40
0.5184425973095166
 40
0.6991662010828315
 40
0.6991662010828315
 40
0.6991662010828315
 40
0.8803888058618745
 40
0.8803888058618745
 40
0.8803888058618745
 40
1.0595944487057869
 40
1.0595944487057869
 40
1.0595944487057869
 40
1.238615846236353
 40
1.238615846236353
 40
1.238615846236353
 40
1.4183199257100261
 40
1.4183199257100261
 40
1.4183199257100261
 40
1.5989352991948991
 40
1.5989352991948991
 40
1.5989352991948991
 40
1.7831339582522541
 40
1.7831339582522541
 40
1.7831339582522541
 40
1.967965452992803
 40
1.967965452992803
 40
1.967965452992803
 40
2.1540948338786401
 40
2.1540948338786401
 40
2.1540948338786401
 40
2.3404510800396898
 40
2.3404510800396898
 40
2.3404510800396898
 40
2.7124619580442699
 40
2.7124619580442699
 40
2.7124619580442699
 40
3.0799129795124651
 40
3.0799129795124651
 40
3.0799129795124651
 40
3.260230030475304
 40
3.260230030475304
 40
3.260230030475304
 40
3.4399393442166231
 40
3.4399393442166231
 40
3.4399393442166231
 40
3.6189358781466039
 40
3.6189358781466039
 40
3.6189358781466039
 40
3.798464718755163
 40
3.798464718755163
 40
3.798464718755163
 40
4.1572846645438961
 40
4.1572846645438961
 40
4.1572846645438961
 40
4.3396389370641044
 40
4.3396389370641044
 40
4.3396389370641044
 40
4.5226340763283526
 40
4.5226340763283526
 40
4.5226340763283526
 40
4.6787258532474088
 40
4.6787258532474088
 40
4.6787258532474088
 40
4.6787258532474088
 10
0.7408529119020102
 20
-14.000000000000091
 30
0.0
 10
0.7408529119020102
 20
-13.9492169710357
 30
0.0
 10
0.735757347200007
 20
-13.898565610685299
 30
0.0
 10
0.7256448813240866
 20
-13.84882533991188
 30
0.0
 10
0.7109685700961848
 20
-13.776636844744701
 30
0.0
 10
0.6881279504704878
 20
-13.7181585997424
 30
0.0
 10
0.6679558375107888
 20
-13.67559534803161
 30
0.0
 10
0.6477206761192065
 20
-13.63289906383949
 30
0.0
 10
0.6167912255477859
 20
-13.5779860367112
 30
0.0
 10
0.5700148143151012
 20
-13.52094637452331
 30
0.0
 10
0.5316884173880965
 20
-13.474210751242991
 30
0.0
 10
0.4878957556248054
 20
-13.432360629180099
 30
0.0
 10
0.4395994346377847
 20
-13.396316279569991
 30
0.0
 10
0.3810838775571028
 20
-13.352645143677391
 30
0.0
 10
0.3255569372923048
 20
-13.324654458967499
 30
0.0
 10
0.2824949805689982
 20
-13.306671362806901
 30
0.0
 10
0.2272243252737098
 20
-13.28358979418781
 30
0.0
 10
0.1693964187871018
 20
-13.26736620553859
 30
0.0
 10
0.1102726154094853
 20
-13.258355732701689
 30
0.0
 10
0.0391630053090921
 20
-13.2475186218654
 30
0.0
 10
-0.0222449443936057
 20
-13.24887468194729
 30
0.0
 10
-0.0683392323298904
 20
-13.253198093043491
 30
0.0
 10
-0.1402172693414912
 20
-13.259939889409109
 30
0.0
 10
-0.1997126692149038
 20
-13.27624251765531
 30
0.0
 10
-0.24352824440939
 20
-13.29168273478729
 30
0.0
 10
-0.2874407153539949
 20
-13.30715709711521
 30
0.0
 10
-0.3442671146877103
 20
-13.331865777207099
 30
0.0
 10
-0.4049430094200943
 20
-13.371962226036089
 30
0.0
 10
-0.4561915335289086
 20
-13.40582878595168
 30
0.0
 10
-0.5030975897352903
 20
-13.44599301243591
 30
0.0
 10
-0.5445890941882965
 20
-13.4915360392807
 30
0.0
 10
-0.5764799575553923
 20
-13.52654095090119
 30
0.0
 10
-0.615799626040797
 20
-13.57637516198159
 30
0.0
 10
-0.6510866165918117
 20
-13.64217226398989
 30
0.0
 10
-0.6804330520754149
 20
-13.6968924421345
 30
0.0
 10
-0.7029349445766115
 20
-13.7550999319902
 30
0.0
 10
-0.718071404757211
 20
-13.815451727609
 30
0.0
 10
-0.7363612096633005
 20
-13.8883764771673
 30
0.0
 10
-0.7408564265315079
 20
-13.95228393214359
 30
0.0
 10
-0.740852909846609
 20
-14.000055884789701
 30
0.0
 10
-0.7408437017110998
 20
-14.12514268607271
 30
0.0
 10
-0.7099261709444988
 20
-14.24823421174381
 30
0.0
 10
-0.6509240444175077
 20
-14.35813070650698
 30
0.0
 10
-0.5923759001088911
 20
-14.467181620650191
 30
0.0
 10
-0.5080085083137078
 20
-14.55982173345188
 30
0.0
 10
-0.4053909442409065
 20
-14.62774153165819
 30
0.0
 10
-0.3448618201437057
 20
-14.66780412651139
 30
0.0
 10
-0.2881623317699109
 20
-14.692532007277009
 30
0.0
 10
-0.2443164889228058
 20
-14.708038990717
 30
0.0
 10
-0.200517144396116
 20
-14.723529529066701
 30
0.0
 10
-0.1410384853371056
 20
-14.739900319200499
 30
0.0
 10
-0.0691662403224029
 20
-14.746723864362201
 30
0.0
 10
-0.0096557399301958
 20
-14.75237378648319
 30
0.0
 10
0.0503110059543985
 20
-14.750711259595899
 30
0.0
 10
0.1094267145271886
 20
-14.74177267710189
 30
0.0
 10
0.1807162321420037
 20
-14.730993355507991
 30
0.0
 10
0.2391454361385854
 20
-14.71139525690899
 30
0.0
 10
0.2820041932899926
 20
-14.6935333865259
 30
0.0
 10
0.3929334429848836
 20
-14.647302370715011
 30
0.0
 10
0.4911132799389009
 20
-14.57449282612299
 30
0.0
 10
0.5681065716561875
 20
-14.481371058187589
 30
0.0
 10
0.5980104196351022
 20
-14.445202982635291
 30
0.0
 10
0.6343878283041988
 20
-14.39428748130379
 30
0.0
 10
0.6662135111727991
 20
-14.328055631136611
 30
0.0
 10
0.6926549935778894
 20
-14.2730287426931
 30
0.0
 10
0.712345324591297
 20
-14.21493220658888
 30
0.0
 10
0.724844160249603
 20
-14.155061046203681
 30
0.0
 10
0.7373512093872989
 20
-14.095150542107209
 30
0.0
 10
0.7408529119020102
 20
-14.0421164489054
 30
0.0
 10
0.7408529119020102
 20
-14.000000000000091
 30
0.0
 11
0.7408529119020102
 21
-14.000000000000091
 31
0.0
 11
0.7370410713165183
 21
-13.924021635634368
 31
0.0
 11
0.7256448813240866
 21
-13.84882533991188
 31
0.0
 11
0.6988612850668616
 21
-13.751100877675601
 31
0.0
 11
0.6679558375107888
 21
-13.67559534803161
 31
0.0
 11
0.6289382946033583
 21
-13.60364962802587
 31
0.0
 11
0.5700148143151012
 21
-13.52094637452331
 31
0.0
 11
0.5085458459989489
 21
-13.454622099420321
 31
0.0
 11
0.4395994346377847
 21
-13.396316279569991
 31
0.0
 11
0.3552521074693757
 21
-13.341860806288945
 31
0.0
 11
0.2824949805689982
 21
-13.306671362806901
 31
0.0
 11
0.1978287285201148
 21
-13.277236886835972
 31
0.0
 11
0.1102726154094853
 21
-13.258355732701689
 31
0.0
 11
0.0115859457282567
 21
-13.250091717147907
 31
0.0
 11
-0.0683392323298904
 21
-13.253198093043491
 31
0.0
 11
-0.1664571615510582
 21
-13.269178506128004
 31
0.0
 11
-0.24352824440939
 21
-13.29168273478729
 31
0.0
 11
-0.3179493429943252
 21
-13.322589197973791
 31
0.0
 11
-0.4049430094200943
 21
-13.371962226036089
 31
0.0
 11
-0.4784249341751233
 21
-13.427370457559945
 31
0.0
 11
-0.5445890941882965
 21
-13.4915360392807
 31
0.0
 11
-0.5965643076960845
 21
-13.555307080239867
 31
0.0
 11
-0.6510866165918117
 21
-13.64217226398989
 31
0.0
 11
-0.6899077514131379
 21
-13.726700139246626
 31
0.0
 11
-0.718071404757211
 21
-13.815451727609
 31
0.0
 11
-0.7363221528985304
 21
-13.91718610504142
 31
0.0
 11
-0.740852909846609
 21
-14.000055884789701
 31
0.0
 11
-0.7180108215288642
 21
-14.18478966059328
 31
0.0
 11
-0.6509240444175077
 21
-14.35813070650698
 31
0.0
 11
-0.5446835267407764
 21
-14.508360287558922
 31
0.0
 11
-0.4053909442409065
 21
-14.62774153165819
 31
0.0
 11
-0.3185974861130703
 21
-14.677098615467548
 31
0.0
 11
-0.2443164889228058
 21
-14.708038990717
 31
0.0
 11
-0.1672687023056092
 21
-14.730631549985098
 31
0.0
 11
-0.0691662403224029
 21
-14.746723864362201
 31
0.0
 11
0.0202782840346742
 21
-14.749718959962671
 31
0.0
 11
0.1094267145271886
 21
-14.74177267710189
 31
0.0
 11
0.2063769890823686
 21
-14.720308987609842
 31
0.0
 11
0.2820041932899926
 21
-14.6935333865259
 31
0.0
 11
0.4377813667146917
 21
-14.605036254403437
 31
0.0
 11
0.5681065716561875
 21
-14.481371058187589
 31
0.0
 11
0.6164393533308609
 21
-14.415987260142682
 31
0.0
 11
0.6662135111727991
 21
-14.328055631136611
 31
0.0
 11
0.7007573282412452
 21
-14.243374940648279
 31
0.0
 11
0.724844160249603
 21
-14.155061046203681
 31
0.0
 11
0.7375386795024426
 21
-14.070857752405203
 31
0.0
 11
0.7408529119020102
 21
-14.000000000000091
 31
0.0
  0
SPLINE
  5
B8
100
AcDbEntity
  8
0
  6
CONTINUOUS
 62
             7
100
AcDbSpline
210
0.0
220
0.0
230
1.0
 70
             0
 71
             3
 72
            11
 73
             7
 74
             5
 42
0.00000000001
 43
0.00000000001
 44
0.00000000001
 40
0.0
 40
0.0
 40
0.0
 40
0.0
 40
0.0012501359065911
 40
0.0012501359065911
 40
0.0012501359065911
 40
0.0024999771941267
 40
0.0024999771941267
 40
0.0024999771941267
 40
0.0024999771941267
 10
13.9017588044953
 20
-69.497500031251604
 30
0.0
 10
13.90176074189729
 20
-69.497916738542784
 30
0.0
 10
13.90176219492059
 20
-69.49833344830779
 30
0.0
 10
13.901763163510591
 20
-69.498750159557005
 30
0.0
 10
13.90176413186779
 20
-69.499166772213385
 30
0.0
 10
13.901764616021
 20
-69.4995833860267
 30
0.0
 10
13.901764616021
 20
-69.500000000000085
 30
0.0
 11
13.9017588044953
 21
-69.497500031251604
 31
0.0
 11
13.901761347307438
 21
-69.498125093920038
 31
0.0
 11
13.901763163510591
 21
-69.498750159557005
 31
0.0
 11
13.901764252899746
 21
-69.499375079284661
 31
0.0
 11
13.901764616021
 21
-69.500000000000085
 31
0.0
  0
SPLINE
  5
B7
100
AcDbEntity
  8
0
  6
CONTINUOUS
 62
             7
100
AcDbSpline
210
0.0
220
0.0
230
1.0
 70
             0
 71
             3
 72
            11
 73
             7
 74
             5
 42
0.00000000001
 43
0.00000000001
 44
0.00000000001
 40
0.0
 40
0.0
 40
0.0
 40
0.0
 40
0.0012501296108973
 40
0.0012501296108973
 40
0.0012501296108973
 40
0.0024999701992067
 40
0.0024999701992067
 40
0.0024999701992067
 40
0.0024999701992067
 10
4.2806366811476844
 20
-69.497500031251604
 30
0.0
 10
4.2806374836457914
 20
-69.497916738542784
 30
0.0
 10
4.2806380855093948
 20
-69.49833344830779
 30
0.0
 10
4.2806384867130021
 20
-69.498750159557005
 30
0.0
 10
4.2806388878182986
 20
-69.499166772213385
 30
0.0
 10
4.2806390883582992
 20
-69.4995833860267
 30
0.0
 10
4.2806390883582992
 20
-69.500000000000085
 30
0.0
 11
4.2806366811476844
 21
-69.497500031251604
 31
0.0
 11
4.2806377344157802
 21
-69.498125093920038
 31
0.0
 11
4.2806384867130021
 21
-69.498750159557005
 31
0.0
 11
4.2806389379501368
 21
-69.499375079284661
 31
0.0
 11
4.2806390883582992
 21
-69.500000000000085
 31
0.0
  0
CIRCLE
  5
B6
100
AcDbEntity
  8
0
  6
CONTINUOUS
 62
             7
100
AcDbCircle
 10
10.0
 20
-34.50000000000009
 40
2.50000000000102
  0
ARC
  5
B5
100
AcDbEntity
  8
0
  6
CONTINUOUS
 62
             7
100
AcDbCircle
 10
15.9982276854565
 20
-69.50000000000009
 40
0.5
100
AcDbArc
 50
-90.0
 51
0.28647651003435
  0
ARC
  5
B4
100
AcDbEntity
  8
0
  6
CONTINUOUS
 62
             7
100
AcDbCircle
 10
-9.0
 20
-35.50000000000009
 40
1.0
100
AcDbArc
 50
89.99999999916949
 51
180.0
  0
ARC
  5
B3
100
AcDbEntity
  8
0
  6
CONTINUOUS
 62
             7
100
AcDbCircle
 10
-1.0
 20
-35.50000000000009
 40
1.0
100
AcDbArc
 50
0.0
 51
90.0
  0
ARC
  5
B2
100
AcDbEntity
  8
0
  6
CONTINUOUS
 62
             7
100
AcDbCircle
 10
-8.80000000001021
 20
-35.50000000000009
 40
1.0
100
AcDbArc
 50
0.0
 51
89.99999999708345
  0
ARC
  5
B1
100
AcDbEntity
  8
0
  6
CONTINUOUS
 62
             7
100
AcDbCircle
 10
3.0
 20
-35.50000000000009
 40
1.0
100
AcDbArc
 50
90.00000000083705
 51
180.0
  0
ARC
  5
B0
100
AcDbEntity
  8
0
  6
CONTINUOUS
 62
             7
100
AcDbCircle
 10
-1.20000000000439
 20
-35.50000000000009
 40
1.0
100
AcDbArc
 50
89.99999999958152
 51
-179.99999990912346
  0
ARC
  5
AF
100
AcDbEntity
  8
0
  6
CONTINUOUS
 62
             7
100
AcDbCircle
 10
3.19999999998978
 20
-35.50000000000009
 40
1.0
100
AcDbArc
 50
0.0
 51
90.00000000083048
  0
ARC
  5
AE
100
AcDbEntity
  8
0
  6
CONTINUOUS
 62
             7
100
AcDbCircle
 10
9.0
 20
-48.50000000000009
 40
1.0
100
AcDbArc
 50
-90.00000000124902
 51
0.0
  0
ARC
  5
AD
100
AcDbEntity
  8
0
  6
CONTINUOUS
 62
             7
100
AcDbCircle
 10
-1.0
 20
-48.50000000000009
 40
1.0
100
AcDbArc
 50
-90.0
 51
0.0
  0
ARC
  5
AC
100
AcDbEntity
  8
0
  6
CONTINUOUS
 62
             7
100
AcDbCircle
 10
-1.20000000000439
 20
-48.50000000000009
 40
1.0
100
AcDbArc
 50
180.0
 51
-89.99999999958152
  0
ARC
  5
AB
100
AcDbEntity
  8
0
  6
CONTINUOUS
 62
             7
100
AcDbCircle
 10
-9.0
 20
-48.50000000000009
 40
1.0
100
AcDbArc
 50
180.0
 51
-89.99999999875098
  0
ARC
  5
AA
100
AcDbEntity
  8
0
  6
CONTINUOUS
 62
             7
100
AcDbCircle
 10
3.0
 20
-48.50000000000009
 40
1.0
100
AcDbArc
 50
180.0
 51
-90.00000000083705
  0
ARC
  5
A9
100
AcDbEntity
  8
0
  6
CONTINUOUS
 62
             7
100
AcDbCircle
 10
-8.80000000001021
 20
-48.50000000000009
 40
1.0
100
AcDbArc
 50
-89.99999999791396
 51
0.0
  0
ARC
  5
A8
100
AcDbEntity
  8
0
  6
CONTINUOUS
 62
             7
100
AcDbCircle
 10
9.0
 20
-48.300000000003
 40
1.0
100
AcDbArc
 50
0.0
 51
90.00000000124902
  0
ARC
  5
A7
100
AcDbEntity
  8
0
  6
CONTINUOUS
 62
             7
100
AcDbCircle
 10
5.19999999998979
 20
-46.300000000003
 40
1.0
100
AcDbArc
 50
180.0
 51
-90.0000000016659
  0
ARC
  5
A6
100
AcDbEntity
  8
0
  6
CONTINUOUS
 62
             7
100
AcDbCircle
 10
-3.20000000000439
 20
-44.0999999999986
 40
1.0
100
AcDbArc
 50
-0.00000009130034
 51
90.0
  0
ARC
  5
A5
100
AcDbEntity
  8
0
  6
CONTINUOUS
 62
             7
100
AcDbCircle
 10
-6.80000000001021
 20
-39.90000000000148
 40
1.0
100
AcDbArc
 50
180.0
 51
-90.0
  0
ARC
  5
A4
100
AcDbEntity
  8
0
  6
CONTINUOUS
 62
             7
100
AcDbCircle
 10
-6.80000000001021
 20
-44.0999999999986
 40
1.0
100
AcDbArc
 50
89.99999999958149
 51
180.0
  0
ARC
  5
A3
100
AcDbEntity
  8
0
  6
CONTINUOUS
 62
             7
100
AcDbCircle
 10
-3.20000000000439
 20
-39.90000000000148
 40
1.0
100
AcDbArc
 50
-89.99999999958152
 51
0.0
  0
LINE
  5
A2
100
AcDbEntity
  8
1
  6
CONTINUOUS
 62
             7
100
AcDbLine
 10
-16.0553568845971
 20
-21.50000000000009
 11
16.05535688459349
 21
-21.50000000000009
  0
LINE
  5
A1
100
AcDbEntity
  8
1
  6
CONTINUOUS
 62
             7
100
AcDbLine
 10
16.14999999999679
 20
-21.85321291527339
 11
-16.1500000000004
 21
-21.85321291527359
  0
LINE
  5
A0
100
AcDbEntity
  8
1
  6
CONTINUOUS
 62
             7
100
AcDbLine
 10
16.0005370960898
 20
-10.53604229932739
 11
-16.0005370960935
 21
-10.53604229932839
  0
LINE
  5
9F
100
AcDbEntity
  8
0
  6
CONTINUOUS
 62
             7
100
AcDbLine
 10
-16.0553568845971
 20
-21.50000000000009
 11
-16.0005370960935
 21
-10.53604229932839
  0
LINE
  5
9E
100
AcDbEntity
  8
1
  6
CONTINUOUS
 62
             7
100
AcDbLine
 10
-16.1500000000004
 20
-21.85321291527359
 11
-16.0553568845971
 21
-21.50000000000009
  0
LINE
  5
9D
100
AcDbEntity
  8
1
  6
CONTINUOUS
 62
             7
100
AcDbLine
 10
16.05535688459349
 20
-21.50000000000009
 11
16.14999999999679
 21
-21.85321291527339
  0
LINE
  5
9C
100
AcDbEntity
  8
0
  6
CONTINUOUS
 62
             7
100
AcDbLine
 10
16.0005370960898
 20
-10.53604229932739
 11
16.05535688459349
 21
-21.50000000000009
  0
LINE
  5
9B
100
AcDbEntity
  8
0
  6
CONTINUOUS
 62
             7
100
AcDbLine
 10
-16.1500000000004
 20
-21.85321291527359
 11
-16.49822143557995
 21
-69.4975000312516
  0
LINE
  5
9A
100
AcDbEntity
  8
0
  6
CONTINUOUS
 62
             7
100
AcDbLine
 10
14.0
 20
-10.00000000000009
 11
16.0005370960898
 21
-10.53604229932739
  0
LINE
  5
99
100
AcDbEntity
  8
1
  6
DOT_CENTER
 62
             2
100
AcDbLine
 10
0.0
 20
-10.53604229932819
 11
0.0
 21
-71.6892432454051
  0
LINE
  5
98
100
AcDbEntity
  8
0
  6
CONTINUOUS
 62
             7
100
AcDbLine
 10
0.0
 20
-10.00000000000009
 11
-14.0
 21
-10.00000000000009
  0
LINE
  5
97
100
AcDbEntity
  8
0
  6
CONTINUOUS
 62
             7
100
AcDbLine
 10
16.14999999999679
 20
-21.85321291527339
 11
16.4982214355763
 21
-69.4975000312516
  0
LINE
  5
96
100
AcDbEntity
  8
0
  6
CONTINUOUS
 62
             7
100
AcDbLine
 10
-14.0
 20
-10.00000000000009
 11
-16.0005370960935
 21
-10.53604229932839
  0
LINE
  5
95
100
AcDbEntity
  8
0
  6
CONTINUOUS
 62
             3
100
AcDbLine
 10
-7.7840046591991
 20
-69.4975000312516
 11
-13.901758804499
 21
-69.4975000312516
  0
LINE
  5
94
100
AcDbEntity
  8
0
  6
CONTINUOUS
 62
             7
100
AcDbLine
 10
-13.86457537626481
 20
-61.50000000245939
 11
-14.0886229442622
 21
-61.50000000000009
  0
LINE
  5
93
100
AcDbEntity
  8
0
  6
CONTINUOUS
 62
             7
100
AcDbLine
 10
-14.0886229442622
 20
-61.50000000000009
 11
-15.4662833007751
 21
-61.50000000000009
  0
LINE
  5
92
100
AcDbEntity
  8
0
  6
CONTINUOUS
 62
             7
100
AcDbLine
 10
-15.4662833007751
 20
-62.62499999677681
 11
-15.4669712836367
 21
-62.62499999677681
  0
LINE
  5
91
100
AcDbEntity
  8
0
  6
CONTINUOUS
 62
             7
100
AcDbLine
 10
-15.4669712836367
 20
-63.31249999677681
 11
-15.4662833007751
 21
-63.31249999677681
  0
LINE
  5
90
100
AcDbEntity
  8
0
  6
CONTINUOUS
 62
             7
100
AcDbLine
 10
-15.4669712836367
 20
-62.62499999677681
 11
-15.4669712836367
 21
-63.31249999677681
  0
LINE
  5
8F
100
AcDbEntity
  8
0
  6
CONTINUOUS
 62
             3
100
AcDbLine
 10
-15.4662833007751
 20
-69.4975000312516
 11
-16.49822143557995
 21
-69.4975000312516
  0
LINE
  5
8E
100
AcDbEntity
  8
0
  6
CONTINUOUS
 62
             7
100
AcDbLine
 10
-7.7840046591991
 20
-69.50000000000009
 11
-7.7840046591991
 21
-61.50000000000009
  0
LINE
  5
8D
100
AcDbEntity
  8
0
  6
CONTINUOUS
 62
             7
100
AcDbLine
 10
-15.4662833007751
 20
-69.50000000000009
 11
-14.0886229442622
 21
-69.50000000000009
  0
LINE
  5
8C
100
AcDbEntity
  8
0
  6
CONTINUOUS
 62
             7
100
AcDbLine
 10
-14.0886229442622
 20
-69.50000000000009
 11
-14.0886229442622
 21
-61.50000000000009
  0
LINE
  5
8B
100
AcDbEntity
  8
0
  6
CONTINUOUS
 62
             7
100
AcDbLine
 10
-15.4662833007751
 20
-61.50000000000009
 11
-15.4662833007751
 21
-69.50000000000009
  0
LINE
  5
8A
100
AcDbEntity
  8
0
  6
CONTINUOUS
 62
             7
100
AcDbLine
 10
-14.0886229442622
 20
-69.50000000000009
 11
-13.90176461602101
 21
-69.50000000000009
  0
LINE
  5
89
100
AcDbEntity
  8
0
  6
CONTINUOUS
 62
             7
100
AcDbLine
 10
14.0
 20
-10.00000000000009
 11
0.0
 21
-10.00000000000009
  0
LINE
  5
88
100
AcDbEntity
  8
0
  6
CONTINUOUS
 62
             7
100
AcDbLine
 10
0.0
 20
-70.00000000000009
 11
-15.99822768546378
 21
-70.00000000000009
  0
LINE
  5
87
100
AcDbEntity
  8
0
  6
CONTINUOUS
 62
             3
100
AcDbLine
 10
13.9017588044953
 20
-69.4975000312516
 11
7.88400465919909
 21
-69.4975000312516
  0
LINE
  5
86
100
AcDbEntity
  8
0
  6
CONTINUOUS
 62
             7
100
AcDbLine
 10
15.4662833007751
 20
-61.50000000000009
 11
14.0886229442585
 21
-61.50000000000009
  0
LINE
  5
85
100
AcDbEntity
  8
0
  6
CONTINUOUS
 62
             7
100
AcDbLine
 10
7.88400465919909
 20
-61.50000000000009
 11
4.3580383421598
 21
-61.50000000000009
  0
LINE
  5
84
100
AcDbEntity
  8
0
  6
CONTINUOUS
 62
             7
100
AcDbLine
 10
14.0886229442585
 20
-61.50000000000009
 11
13.8645753762503
 21
-61.50000000000009
  0
LINE
  5
83
100
AcDbEntity
  8
0
  6
CONTINUOUS
 62
             7
100
AcDbLine
 10
4.3580383421598
 20
-61.50000000000009
 11
4.26523480087269
 21
-61.50000000000009
  0
LINE
  5
82
100
AcDbEntity
  8
0
  6
CONTINUOUS
 62
             7
100
AcDbLine
 10
-4.36523480087999
 20
-61.50000000245939
 11
-4.45803834215991
 21
-61.50000000000009
  0
LINE
  5
81
100
AcDbEntity
  8
0
  6
CONTINUOUS
 62
             7
100
AcDbLine
 10
-4.45803834215991
 20
-61.50000000000009
 11
-7.7840046591991
 21
-61.50000000000009
  0
LINE
  5
80
100
AcDbEntity
  8
0
  6
CONTINUOUS
 62
             7
100
AcDbLine
 10
4.3580383421598
 20
-69.50000000000009
 11
7.88400465919909
 21
-69.50000000000009
  0
LINE
  5
7F
100
AcDbEntity
  8
0
  6
CONTINUOUS
 62
             7
100
AcDbLine
 10
15.4662833007751
 20
-69.50000000000009
 11
14.0886229442585
 21
-69.50000000000009
  0
LINE
  5
7E
100
AcDbEntity
  8
0
  6
CONTINUOUS
 62
             7
100
AcDbLine
 10
-4.45803834215991
 20
-69.50000000000009
 11
-4.3806390883619
 21
-69.50000000000009
  0
LINE
  5
7D
100
AcDbEntity
  8
0
  6
CONTINUOUS
 62
             3
100
AcDbLine
 10
4.28063668114768
 20
-69.4975000312516
 11
-4.38063668114771
 21
-69.4975000312516
  0
LINE
  5
7C
100
AcDbEntity
  8
0
  6
CONTINUOUS
 62
             7
100
AcDbLine
 10
14.0886229442585
 20
-69.50000000000009
 11
14.0886229442585
 21
-61.50000000000009
  0
LINE
  5
7B
100
AcDbEntity
  8
0
  6
CONTINUOUS
 62
             7
100
AcDbLine
 10
15.4662833007751
 20
-69.50000000000009
 11
15.4662833007751
 21
-61.50000000000009
  0
LINE
  5
7A
100
AcDbEntity
  8
0
  6
CONTINUOUS
 62
             7
100
AcDbLine
 10
13.901764616021
 20
-69.50000000000009
 11
14.0886229442585
 21
-69.50000000000009
  0
LINE
  5
79
100
AcDbEntity
  8
0
  6
CONTINUOUS
 62
             7
100
AcDbLine
 10
7.88400465919909
 20
-61.50000000000009
 11
7.88400465919909
 21
-69.50000000000009
  0
LINE
  5
78
100
AcDbEntity
  8
0
  6
CONTINUOUS
 62
             7
100
AcDbLine
 10
4.3580383421598
 20
-61.50000000000009
 11
4.3580383421598
 21
-69.50000000000009
  0
LINE
  5
77
100
AcDbEntity
  8
0
  6
CONTINUOUS
 62
             7
100
AcDbLine
 10
4.3580383421598
 20
-69.50000000000009
 11
4.2806390883583
 21
-69.50000000000009
  0
LINE
  5
76
100
AcDbEntity
  8
0
  6
CONTINUOUS
 62
             7
100
AcDbLine
 10
-4.45803834215991
 20
-61.50000000000009
 11
-4.45803834215991
 21
-69.50000000000009
  0
LINE
  5
75
100
AcDbEntity
  8
0
  6
CONTINUOUS
 62
             7
100
AcDbLine
 10
15.9982276854565
 20
-70.00000000000009
 11
0.0
 21
-70.00000000000009
  0
LINE
  5
74
100
AcDbEntity
  8
0
  6
CONTINUOUS
 62
             7
100
AcDbLine
 10
-4.45803834215991
 20
-69.50000000000009
 11
-7.7840046591991
 21
-69.50000000000009
  0
LINE
  5
73
100
AcDbEntity
  8
0
  6
CONTINUOUS
 62
             3
100
AcDbLine
 10
16.4982214355763
 20
-69.4975000312516
 11
15.4662833007751
 21
-69.4975000312516
  0
LINE
  5
72
100
AcDbEntity
  8
0
  6
CONTINUOUS
 62
             7
100
AcDbLine
 10
2.99999999998539
 20
-34.50000000000009
 11
3.19999999997529
 21
-34.50000000000009
  0
LINE
  5
71
100
AcDbEntity
  8
0
  6
CONTINUOUS
 62
             7
100
AcDbLine
 10
-1.19999999999709
 20
-34.50000000000009
 11
-1.0
 21
-34.50000000000009
  0
LINE
  5
70
100
AcDbEntity
  8
0
  6
CONTINUOUS
 62
             7
100
AcDbLine
 10
-8.9999999999855
 20
-34.50000000000009
 11
-8.79999999995931
 21
-34.50000000000009
  0
LINE
  5
6F
100
AcDbEntity
  8
0
  6
CONTINUOUS
 62
             7
100
AcDbLine
 10
10.5015316630015
 20
-34.7745083346309
 11
11.21729716229309
 21
-36.0999999999986
  0
LINE
  5
6E
100
AcDbEntity
  8
0
  6
CONTINUOUS
 62
             7
100
AcDbLine
 10
10.9899999999689
 20
-36.0999999999986
 11
10.28800000000049
 21
-34.800000000003
  0
LINE
  5
6D
100
AcDbEntity
  8
0
  6
CONTINUOUS
 62
             7
100
AcDbLine
 10
11.0159727068167
 20
-34.50465425594311
 11
10.7417525230921
 21
-34.70778031794191
  0
LINE
  5
6C
100
AcDbEntity
  8
0
  6
CONTINUOUS
 62
             7
100
AcDbLine
 10
10.65249999999649
 20
-34.52500000000148
 11
10.8550000000032
 21
-34.37499999999281
  0
LINE
  5
6B
100
AcDbEntity
  8
0
  6
CONTINUOUS
 62
             7
100
AcDbLine
 10
10.7417525231067
 20
-32.99221968206271
 11
11.0159727068021
 21
-33.19534574405409
  0
LINE
  5
6A
100
AcDbEntity
  8
0
  6
CONTINUOUS
 62
             7
100
AcDbLine
 10
10.4097616676809
 20
-32.89999999999429
 11
10.7417525231067
 21
-32.99221968206271
  0
LINE
  5
69
100
AcDbEntity
  8
0
  6
CONTINUOUS
 62
             7
100
AcDbLine
 10
8.89999999999421
 20
-32.90000000000148
 11
10.4097616676809
 21
-32.89999999999429
  0
LINE
  5
68
100
AcDbEntity
  8
0
  6
CONTINUOUS
 62
             7
100
AcDbLine
 10
8.89999999999421
 20
-32.90000000000148
 11
8.89999999999421
 21
-36.0999999999986
  0
LINE
  5
67
100
AcDbEntity
  8
0
  6
CONTINUOUS
 62
             7
100
AcDbLine
 10
9.0999999999985
 20
-36.0999999999986
 11
9.0999999999985
 21
-34.79999999999569
  0
LINE
  5
66
100
AcDbEntity
  8
0
  6
CONTINUOUS
 62
             7
100
AcDbLine
 10
8.89999999999421
 20
-36.0999999999986
 11
9.0999999999985
 21
-36.0999999999986
  0
LINE
  5
65
100
AcDbEntity
  8
0
  6
CONTINUOUS
 62
             7
100
AcDbLine
 10
9.0999999999985
 20
-34.5999999999986
 11
9.09999999998399
 21
-33.0999999999986
  0
LINE
  5
64
100
AcDbEntity
  8
0
  6
CONTINUOUS
 62
             7
100
AcDbLine
 10
9.0999999999985
 20
-34.79999999999569
 11
10.28800000000049
 21
-34.800000000003
  0
LINE
  5
63
100
AcDbEntity
  8
0
  6
CONTINUOUS
 62
             7
100
AcDbLine
 10
9.09999999998399
 20
-33.0999999999986
 11
10.38249999999241
 21
-33.0999999999986
  0
LINE
  5
62
100
AcDbEntity
  8
0
  6
CONTINUOUS
 62
             7
100
AcDbLine
 10
9.0999999999985
 20
-34.5999999999986
 11
10.382500000007
 21
-34.5999999999986
  0
LINE
  5
61
100
AcDbEntity
  8
0
  6
CONTINUOUS
 62
             7
100
AcDbLine
 10
10.7417525230921
 20
-34.70778031794191
 11
10.5015316630015
 21
-34.7745083346309
  0
LINE
  5
60
100
AcDbEntity
  8
0
  6
CONTINUOUS
 62
             7
100
AcDbLine
 10
10.6524999999892
 20
-33.17499999999569
 11
10.38249999999241
 21
-33.0999999999986
  0
LINE
  5
5F
100
AcDbEntity
  8
0
  6
CONTINUOUS
 62
             7
100
AcDbLine
 10
10.382500000007
 20
-34.5999999999986
 11
10.65249999999649
 21
-34.52500000000148
  0
LINE
  5
5E
100
AcDbEntity
  8
0
  6
CONTINUOUS
 62
             7
100
AcDbLine
 10
10.9225000000006
 20
-34.2249999999986
 11
10.9899999999907
 21
-34.00000000001461
  0
LINE
  5
5D
100
AcDbEntity
  8
0
  6
CONTINUOUS
 62
             7
100
AcDbLine
 10
10.98999999999799
 20
-33.6999999999972
 11
10.9899999999907
 21
-34.00000000001461
  0
LINE
  5
5C
100
AcDbEntity
  8
0
  6
CONTINUOUS
 62
             7
100
AcDbLine
 10
10.98999999999799
 20
-33.6999999999972
 11
10.92249999999329
 21
-33.47499999999141
  0
LINE
  5
5B
100
AcDbEntity
  8
0
  6
CONTINUOUS
 62
             7
100
AcDbLine
 10
10.92249999999329
 20
-33.47499999999141
 11
10.8549999999959
 21
-33.3249999999972
  0
LINE
  5
5A
100
AcDbEntity
  8
0
  6
CONTINUOUS
 62
             7
100
AcDbLine
 10
10.8549999999959
 20
-33.3249999999972
 11
10.6524999999892
 21
-33.17499999999569
  0
LINE
  5
59
100
AcDbEntity
  8
0
  6
CONTINUOUS
 62
             7
100
AcDbLine
 10
10.8550000000032
 20
-34.37499999999281
 11
10.9225000000006
 21
-34.2249999999986
  0
LINE
  5
58
100
AcDbEntity
  8
0
  6
CONTINUOUS
 62
             7
100
AcDbLine
 10
11.1102841465399
 20
-34.29507327877948
 11
11.0159727068167
 21
-34.50465425594311
  0
LINE
  5
57
100
AcDbEntity
  8
0
  6
CONTINUOUS
 62
             7
100
AcDbLine
 10
11.0159727068021
 20
-33.19534574405409
 11
11.1102841465472
 21
-33.4049267212323
  0
LINE
  5
56
100
AcDbEntity
  8
0
  6
CONTINUOUS
 62
             7
100
AcDbLine
 10
11.1102841465472
 20
-33.4049267212323
 11
11.189999999995
 21
-33.67064623274209
  0
LINE
  5
55
100
AcDbEntity
  8
0
  6
CONTINUOUS
 62
             7
100
AcDbLine
 10
11.189999999995
 20
-34.029353767277
 11
11.1102841465399
 21
-34.29507327877948
  0
LINE
  5
54
100
AcDbEntity
  8
0
  6
CONTINUOUS
 62
             7
100
AcDbLine
 10
11.189999999995
 20
-34.029353767277
 11
11.189999999995
 21
-33.67064623274209
  0
LINE
  5
53
100
AcDbEntity
  8
0
  6
CONTINUOUS
 62
             7
100
AcDbLine
 10
10.9899999999689
 20
-36.0999999999986
 11
11.21729716229309
 21
-36.0999999999986
  0
LINE
  5
52
100
AcDbEntity
  8
0
  6
CONTINUOUS
 62
             7
100
AcDbLine
 10
10.0
 20
-48.300000000003
 11
10.0
 21
-48.50000000000009
  0
LINE
  5
51
100
AcDbEntity
  8
0
  6
CONTINUOUS
 62
             7
100
AcDbLine
 10
2.99999999998539
 20
-49.50000000000009
 11
8.9999999999782
 21
-49.50000000000009
  0
LINE
  5
50
100
AcDbEntity
  8
0
  6
CONTINUOUS
 62
             7
100
AcDbLine
 10
-8.9999999999782
 20
-49.50000000000009
 11
-8.79999999997381
 21
-49.50000000000009
  0
LINE
  5
4F
100
AcDbEntity
  8
0
  6
CONTINUOUS
 62
             7
100
AcDbLine
 10
-1.19999999999709
 20
-49.50000000000009
 11
-1.0
 21
-49.50000000000009
  0
LINE
  5
4E
100
AcDbEntity
  8
0
  6
CONTINUOUS
 62
             7
100
AcDbLine
 10
0.0
 20
-48.50000000000009
 11
0.0
 21
-35.50000000000009
  0
LINE
  5
4D
100
AcDbEntity
  8
0
  6
CONTINUOUS
 62
             7
100
AcDbLine
 10
4.19999999998979
 20
-35.50000000000009
 11
4.19999999998979
 21
-46.300000000003
  0
LINE
  5
4C
100
AcDbEntity
  8
0
  6
CONTINUOUS
 62
             7
100
AcDbLine
 10
5.19999999996071
 20
-47.300000000003
 11
8.9999999999782
 21
-47.300000000003
  0
LINE
  5
4B
100
AcDbEntity
  8
0
  6
CONTINUOUS
 62
             7
100
AcDbLine
 10
2.0
 20
-48.50000000000009
 11
2.0
 21
-35.50000000000009
  0
LINE
  5
4A
100
AcDbEntity
  8
0
  6
CONTINUOUS
 62
             7
100
AcDbLine
 10
-10.0
 20
-48.50000000000009
 11
-10.0
 21
-35.50000000000009
  0
LINE
  5
49
100
AcDbEntity
  8
0
  6
CONTINUOUS
 62
             7
100
AcDbLine
 10
-6.80000000000291
 20
-43.0999999999986
 11
-3.20000000000439
 21
-43.0999999999986
  0
LINE
  5
48
100
AcDbEntity
  8
0
  6
CONTINUOUS
 62
             7
100
AcDbLine
 10
-2.20000000000439
 20
-48.50000000000009
 11
-2.20000000000439
 21
-44.10000000159209
  0
LINE
  5
47
100
AcDbEntity
  8
0
  6
CONTINUOUS
 62
             7
100
AcDbLine
 10
-2.20000000000439
 20
-39.90000000000148
 11
-2.20000000000439
 21
-35.50000000158619
  0
LINE
  5
46
100
AcDbEntity
  8
0
  6
CONTINUOUS
 62
             7
100
AcDbLine
 10
-6.80000000001021
 20
-40.90000000000148
 11
-3.19999999999709
 21
-40.90000000000148
  0
LINE
  5
45
100
AcDbEntity
  8
0
  6
CONTINUOUS
 62
             7
100
AcDbLine
 10
-7.80000000001021
 20
-35.50000000000009
 11
-7.80000000001021
 21
-39.90000000000148
  0
LINE
  5
44
100
AcDbEntity
  8
0
  6
CONTINUOUS
 62
             7
100
AcDbLine
 10
-7.80000000001021
 20
-44.0999999999986
 11
-7.80000000001021
 21
-48.50000000000009
  0
ENDBLK
  5
C2
100
AcDbEntity
  8
0
100
AcDbBlockEnd
  0
BLOCK
  5
C5
100
AcDbEntity
  8
0
100
AcDbBlockBegin
  2
*D3
 70
             1
 10
0.0
 20
0.0
 30
0.0
  3
*D3
  1

  0
LINE
  5
C6
100
AcDbEntity
  8
0
  6
CONTINUOUS
 62
             4
100
AcDbLine
 10
-16.49822143557995
 20
-82.39601613191601
 11
16.4982214355763
 21
-82.39601613191601
  0
LINE
  5
C7
100
AcDbEntity
  8
0
  6
CONTINUOUS
 62
             4
100
AcDbLine
 10
16.4982214355763
 20
-69.4975000312516
 11
16.4982214355763
 21
-84.39601613191601
  0
LINE
  5
C8
100
AcDbEntity
  8
0
  6
CONTINUOUS
 62
             4
100
AcDbLine
 10
-16.49822143557995
 20
-69.4975000312516
 11
-16.49822143557995
 21
-84.39601613191601
  0
SOLID
  5
C9
100
AcDbEntity
  8
0
 62
             4
100
AcDbTrace
 10
-9.49822143557995
 20
-81.47444864880424
 11
-9.49822143557995
 21
-83.31758361502779
 12
-16.49822143557995
 22
-82.39601613191601
 13
-16.49822143557995
 23
-82.39601613191601
  0
SOLID
  5
CA
100
AcDbEntity
  8
0
 62
             4
100
AcDbTrace
 10
9.4982214355763
 20
-83.31758361502779
 11
9.4982214355763
 21
-81.47444864880424
 12
16.4982214355763
 22
-82.39601613191601
 13
16.4982214355763
 23
-82.39601613191601
  0
MTEXT
  5
CC
100
AcDbEntity
  8
0
 62
             1
100
AcDbMText
 10
-6.92962034464438
 20
-80.39603004606866
 30
0.0
 40
7.0
 41
0.0
 71
             7
 72
             1
  1
\C1;Ø\C1;33
  7
CONVERTER_1
 11
0.99999999999706
 21
0.00000242406841
 31
0.0
  0
ENDBLK
  5
CD
100
AcDbEntity
  8
0
100
AcDbBlockEnd
  0
BLOCK
  5
D1
100
AcDbEntity
  8
0
100
AcDbBlockBegin
  2
*D4
 70
             1
 10
0.0
 20
0.0
 30
0.0
  3
*D4
  1

  0
LINE
  5
D2
100
AcDbEntity
  8
0
  6
CONTINUOUS
 62
             4
100
AcDbLine
 10
-35.32974502485925
 20
-70.00000000000009
 11
-35.32974502485925
 21
0.0
  0
LINE
  5
D3
100
AcDbEntity
  8
0
  6
CONTINUOUS
 62
             4
100
AcDbLine
 10
-9.7775
 20
0.0
 11
-37.32974502485925
 21
0.0
  0
LINE
  5
D4
100
AcDbEntity
  8
0
  6
CONTINUOUS
 62
             4
100
AcDbLine
 10
-15.99822768546377
 20
-70.00000000000009
 11
-37.32974502485925
 21
-70.00000000000009
  0
SOLID
  5
D5
100
AcDbEntity
  8
0
 62
             4
100
AcDbTrace
 10
-36.25131250797102
 20
-63.00000000000009
 11
-34.40817754174748
 21
-63.00000000000009
 12
-35.32974502485925
 22
-70.00000000000009
 13
-35.32974502485925
 23
-70.00000000000009
  0
SOLID
  5
D6
100
AcDbEntity
  8
0
 62
             4
100
AcDbTrace
 10
-34.40817754174748
 20
-7.0
 11
-36.25131250797102
 21
-7.0
 12
-35.32974502485925
 22
0.0
 13
-35.32974502485925
 23
0.0
  0
MTEXT
  5
D7
100
AcDbEntity
  8
0
 62
             1
100
AcDbMText
 10
-37.32974502485925
 20
-44.31133879769722
 30
0.0
 40
7.0
 41
0.0
 71
             7
 72
             1
  1
70
  7
CONVERTER_1
 11
0.0
 21
1.0
 31
0.0
  0
ENDBLK
  5
D8
100
AcDbEntity
  8
0
100
AcDbBlockEnd
  0
BLOCK
  5
DC
100
AcDbEntity
  8
0
100
AcDbBlockBegin
  2
*D5
 70
             1
 10
0.0
 20
0.0
 30
0.0
  3
*D5
  1

  0
LINE
  5
DD
100
AcDbEntity
  8
0
  6
CONTINUOUS
 62
             4
100
AcDbLine
 10
10.4775
 20
5.7999999999999
 11
-10.47749999999999
 21
5.7999999999999
  0
LINE
  5
DE
100
AcDbEntity
  8
0
  6
CONTINUOUS
 62
             4
100
AcDbLine
 10
-10.47749999999999
 20
-0.7000000000001
 11
-10.47749999999999
 21
7.7999999999999
  0
LINE
  5
DF
100
AcDbEntity
  8
0
  6
CONTINUOUS
 62
             4
100
AcDbLine
 10
10.4775
 20
-0.7000000000001
 11
10.4775
 21
7.7999999999999
  0
SOLID
  5
E0
100
AcDbEntity
  8
0
 62
             4
100
AcDbTrace
 10
3.4775
 20
4.87843251688813
 11
3.4775
 21
6.72156748311167
 12
10.4775
 22
5.7999999999999
 13
10.4775
 23
5.7999999999999
  0
SOLID
  5
E1
100
AcDbEntity
  8
0
 62
             4
100
AcDbTrace
 10
-3.47749999999999
 20
6.72156748311167
 11
-3.47749999999999
 21
4.87843251688813
 12
-10.47749999999999
 22
5.7999999999999
 13
-10.47749999999999
 23
5.7999999999999
  0
MTEXT
  5
E2
100
AcDbEntity
  8
0
 62
             1
100
AcDbMText
 10
-8.8157219766964
 20
7.7999999999999
 30
0.0
 40
7.0
 41
0.0
 71
             7
 72
             1
  1
1/2"
  7
CONVERTER_1
 11
0.99999999999706
 21
0.00000242406841
 31
0.0
  0
ENDBLK
  5
E3
100
AcDbEntity
  8
0
100
AcDbBlockEnd
  0
BLOCK
  5
E7
100
AcDbEntity
  8
0
100
AcDbBlockBegin
  2
*D6
 70
             1
 10
0.0
 20
0.0
 30
0.0
  3
*D6
  1

  0
LINE
  5
E8
100
AcDbEntity
  8
0
  6
CONTINUOUS
 62
             4
100
AcDbLine
 10
-24.0
 20
-10.00000000000009
 11
-24.0
 21
-27.19944747656662
  0
LINE
  5
E9
100
AcDbEntity
  8
0
  6
CONTINUOUS
 62
             4
100
AcDbLine
 10
-24.0
 20
0.0
 11
-24.0
 21
-10.00000000000009
  0
LINE
  5
EA
100
AcDbEntity
  8
0
  6
CONTINUOUS
 62
             4
100
AcDbLine
 10
-24.0
 20
14.0
 11
-24.0
 21
0.0
  0
LINE
  5
EB
100
AcDbEntity
  8
0
  6
CONTINUOUS
 62
             4
100
AcDbLine
 10
-14.0
 20
-10.00000000000009
 11
-26.0
 21
-10.00000000000009
  0
LINE
  5
EC
100
AcDbEntity
  8
0
  6
CONTINUOUS
 62
             4
100
AcDbLine
 10
-9.7775
 20
0.0
 11
-26.0
 21
0.0
  0
SOLID
  5
ED
100
AcDbEntity
  8
0
 62
             4
100
AcDbTrace
 10
-24.92156748311177
 20
7.0
 11
-23.07843251688823
 21
7.0
 12
-24.0
 22
0.0
 13
-24.0
 23
0.0
  0
SOLID
  5
EE
100
AcDbEntity
  8
0
 62
             4
100
AcDbTrace
 10
-23.07843251688823
 20
-17.00000000000009
 11
-24.92156748311177
 21
-17.00000000000009
 12
-24.0
 22
-10.00000000000009
 13
-24.0
 23
-10.00000000000009
  0
MTEXT
  5
EF
100
AcDbEntity
  8
0
 62
             1
100
AcDbMText
 10
-26.0
 20
-27.19944747656662
 30
0.0
 40
7.0
 41
0.0
 71
             7
 72
             1
  1
10
  7
CONVERTER_1
 11
0.0
 21
1.0
 31
0.0
  0
ENDBLK
  5
F0
100
AcDbEntity
  8
0
100
AcDbBlockEnd
  0
ENDSEC
  0
SECTION
  2
ENTITIES
  0
DIMENSION
  5
F2
100
AcDbEntity
  8
1
100
AcDbDimension
  2
*D6
 10
-24.0
 20
0.0
 11
-29.5
 21
-22.99944747656662
 31
0.0
 53
90.0
  1
<>
  3
ME10_DIM_3
100
AcDbAlignedDimension
 13
-14.0
 23
-10.00000000000009
 14
-9.7775
 24
0.0
 50
90.0
100
AcDbRotatedDimension
  0
DIMENSION
  5
E5
100
AcDbEntity
  8
1
100
AcDbDimension
  2
*D5
 10
10.4775
 20
5.7999999999999
 11
-0.4157219766964
 21
11.2999999999999
 31
0.0
 53
180.0
  1
1/2"
  3
ME10_DIM_2
100
AcDbAlignedDimension
 13
-10.47749999999999
 23
-0.7000000000001
 14
10.47749999999999
 24
-0.7000000000001
 50
180.0
100
AcDbRotatedDimension
  0
DIMENSION
  5
DA
100
AcDbEntity
  8
1
100
AcDbDimension
  2
*D4
 10
-35.32974502485925
 20
-70.00000000000009
 11
-40.82974502485925
 21
-39.06133879769722
 31
0.0
 53
90.0
  1
<>
  3
ME10_DIM_1
100
AcDbAlignedDimension
 13
-9.7775
 23
0.0
 14
-15.99822768546378
 24
-70.00000000000009
 50
90.0
100
AcDbRotatedDimension
  0
DIMENSION
  5
CF
100
AcDbEntity
  8
1
100
AcDbDimension
  2
*D3
 10
-16.49822143557995
 20
-82.39601613191601
 11
-0.13962034466124
 21
-76.89601613191601
 31
0.0
 53
180.0
  1
<>
  3
ME10_DIM_0
100
AcDbAlignedDimension
 13
16.4982214355763
 23
-69.4975000312516
 14
-16.49822143557995
 24
-69.4975000312516
 50
180.0
100
AcDbRotatedDimension
  0
INSERT
  5
2D
100
AcDbEntity
  8
1
100
AcDbBlockReference
  2
042_1D_DICHTRING_1_2
 10
-122.7376609657189
 20
-8.89230041189148
  0
INSERT
  5
2E
100
AcDbEntity
  8
0
100
AcDbBlockReference
  2
1_2_MESSINGSTOPFEN
 10
-0.31841389061351
 20
195.89609706681901
  0
INSERT
  5
2F
100
AcDbEntity
  8
0
100
AcDbBlockReference
  2
STOPFEN-PP
 10
-140.7157124556023
 20
-1011.50120836369
  0
ENDSEC
  0
SECTION
  2
OBJECTS
  0
DICTIONARY
  5
19
100
AcDbDictionary
  3
ACAD_GROUP
350
1A
  3
ACAD_MLINESTYLE
350
1B
  0
DICTIONARY
  5
1A
102
{ACAD_REACTORS
330
19
102
}
100
AcDbDictionary
  0
DICTIONARY
  5
1B
102
{ACAD_REACTORS
330
19
102
}
100
AcDbDictionary
  3
STANDARD
350
1C
  0
MLINESTYLE
  5
1C
102
{ACAD_REACTORS
330
1B
102
}
100
AcDbMlineStyle
  2
STANDARD
 70
             0
  3

 62
             0
 51
90.0
 52
90.0
 71
             2
 49
0.5
 62
           256
  6
BYLAYER
 49
-0.5
 62
           256
  6
BYLAYER
  0
ENDSEC
  0
EOF
