  0
SECTION
  2
HEADER
  9
$ACADVER
  1
AC1015
  9
$ACADMAINTVER
 70
     6
  9
$DWGCODEPAGE
  3
ANSI_1252
  9
$INSBASE
 10
0.0
 20
0.0
 30
0.0
  9
$EXTMIN
 10
-363.4293072856268
 20
-160.7500009997352
 30
0.0
  9
$EXTMAX
 10
-44.21542054268327
 20
150.064428318198
 30
0.0
  9
$LIMMIN
 10
0.0
 20
0.0
  9
$LIMMAX
 10
12.0
 20
9.0
  9
$ORTHOMODE
 70
     0
  9
$REGENMODE
 70
     1
  9
$FILLMODE
 70
     1
  9
$QTEXTMODE
 70
     0
  9
$MIRRTEXT
 70
     1
  9
$LTSCALE
 40
1.0
  9
$ATTMODE
 70
     1
  9
$TEXTSIZE
 40
0.2
  9
$TRACEWID
 40
0.05
  9
$TEXTSTYLE
  7
Standard
  9
$CLAYER
  8
0
  9
$CELTYPE
  6
ByLayer
  9
$CECOLOR
 62
   256
  9
$CELTSCALE
 40
1.0
  9
$DISPSILH
 70
     0
  9
$DIMSCALE
 40
1.0
  9
$DIMASZ
 40
0.18
  9
$DIMEXO
 40
0.0625
  9
$DIMDLI
 40
0.38
  9
$DIMRND
 40
0.0
  9
$DIMDLE
 40
0.0
  9
$DIMEXE
 40
0.18
  9
$DIMTP
 40
0.0
  9
$DIMTM
 40
0.0
  9
$DIMTXT
 40
0.18
  9
$DIMCEN
 40
0.09
  9
$DIMTSZ
 40
0.0
  9
$DIMTOL
 70
     0
  9
$DIMLIM
 70
     0
  9
$DIMTIH
 70
     1
  9
$DIMTOH
 70
     1
  9
$DIMSE1
 70
     0
  9
$DIMSE2
 70
     0
  9
$DIMTAD
 70
     0
  9
$DIMZIN
 70
     0
  9
$DIMBLK
  1

  9
$DIMASO
 70
     1
  9
$DIMSHO
 70
     1
  9
$DIMPOST
  1

  9
$DIMAPOST
  1

  9
$DIMALT
 70
     0
  9
$DIMALTD
 70
     2
  9
$DIMALTF
 40
25.4
  9
$DIMLFAC
 40
1.0
  9
$DIMTOFL
 70
     0
  9
$DIMTVP
 40
0.0
  9
$DIMTIX
 70
     0
  9
$DIMSOXD
 70
     0
  9
$DIMSAH
 70
     0
  9
$DIMBLK1
  1

  9
$DIMBLK2
  1

  9
$DIMSTYLE
  2
Standard
  9
$DIMCLRD
 70
     0
  9
$DIMCLRE
 70
     0
  9
$DIMCLRT
 70
     0
  9
$DIMTFAC
 40
1.0
  9
$DIMGAP
 40
0.09
  9
$DIMJUST
 70
     0
  9
$DIMSD1
 70
     0
  9
$DIMSD2
 70
     0
  9
$DIMTOLJ
 70
     1
  9
$DIMTZIN
 70
     0
  9
$DIMALTZ
 70
     0
  9
$DIMALTTZ
 70
     0
  9
$DIMUPT
 70
     0
  9
$DIMDEC
 70
     4
  9
$DIMTDEC
 70
     4
  9
$DIMALTU
 70
     2
  9
$DIMALTTD
 70
     2
  9
$DIMTXSTY
  7
Standard
  9
$DIMAUNIT
 70
     0
  9
$DIMADEC
 70
     0
  9
$DIMALTRND
 40
0.0
  9
$DIMAZIN
 70
     0
  9
$DIMDSEP
 70
    46
  9
$DIMATFIT
 70
     3
  9
$DIMFRAC
 70
     0
  9
$DIMLDRBLK
  1

  9
$DIMLUNIT
 70
     2
  9
$DIMLWD
 70
    -2
  9
$DIMLWE
 70
    -2
  9
$DIMTMOVE
 70
     0
  9
$LUNITS
 70
     2
  9
$LUPREC
 70
     4
  9
$SKETCHINC
 40
0.1
  9
$FILLETRAD
 40
0.5
  9
$AUNITS
 70
     0
  9
$AUPREC
 70
     0
  9
$MENU
  1
.
  9
$ELEVATION
 40
0.0
  9
$PELEVATION
 40
0.0
  9
$THICKNESS
 40
0.0
  9
$LIMCHECK
 70
     0
  9
$CHAMFERA
 40
0.5
  9
$CHAMFERB
 40
0.5
  9
$CHAMFERC
 40
1.0
  9
$CHAMFERD
 40
0.0
  9
$SKPOLY
 70
     0
  9
$TDCREATE
 40
2455741.443344317
  9
$TDUCREATE
 40
2455741.360010984
  9
$TDUPDATE
 40
2455741.443344329
  9
$TDUUPDATE
 40
2455741.360010996
  9
$TDINDWG
 40
0.0000000116
  9
$TDUSRTIMER
 40
0.0000000116
  9
$USRTIMER
 70
     1
  9
$ANGBASE
 50
0.0
  9
$ANGDIR
 70
     0
  9
$PDMODE
 70
     0
  9
$PDSIZE
 40
0.0
  9
$PLINEWID
 40
0.0
  9
$SPLFRAME
 70
     0
  9
$SPLINETYPE
 70
     6
  9
$SPLINESEGS
 70
     8
  9
$HANDSEED
  5
355
  9
$SURFTAB1
 70
     6
  9
$SURFTAB2
 70
     6
  9
$SURFTYPE
 70
     6
  9
$SURFU
 70
     6
  9
$SURFV
 70
     6
  9
$UCSBASE
  2

  9
$UCSNAME
  2

  9
$UCSORG
 10
0.0
 20
0.0
 30
0.0
  9
$UCSXDIR
 10
1.0
 20
0.0
 30
0.0
  9
$UCSYDIR
 10
0.0
 20
1.0
 30
0.0
  9
$UCSORTHOREF
  2

  9
$UCSORTHOVIEW
 70
     0
  9
$UCSORGTOP
 10
0.0
 20
0.0
 30
0.0
  9
$UCSORGBOTTOM
 10
0.0
 20
0.0
 30
0.0
  9
$UCSORGLEFT
 10
0.0
 20
0.0
 30
0.0
  9
$UCSORGRIGHT
 10
0.0
 20
0.0
 30
0.0
  9
$UCSORGFRONT
 10
0.0
 20
0.0
 30
0.0
  9
$UCSORGBACK
 10
0.0
 20
0.0
 30
0.0
  9
$PUCSBASE
  2

  9
$PUCSNAME
  2

  9
$PUCSORG
 10
0.0
 20
0.0
 30
0.0
  9
$PUCSXDIR
 10
1.0
 20
0.0
 30
0.0
  9
$PUCSYDIR
 10
0.0
 20
1.0
 30
0.0
  9
$PUCSORTHOREF
  2

  9
$PUCSORTHOVIEW
 70
     0
  9
$PUCSORGTOP
 10
0.0
 20
0.0
 30
0.0
  9
$PUCSORGBOTTOM
 10
0.0
 20
0.0
 30
0.0
  9
$PUCSORGLEFT
 10
0.0
 20
0.0
 30
0.0
  9
$PUCSORGRIGHT
 10
0.0
 20
0.0
 30
0.0
  9
$PUCSORGFRONT
 10
0.0
 20
0.0
 30
0.0
  9
$PUCSORGBACK
 10
0.0
 20
0.0
 30
0.0
  9
$USERI1
 70
     0
  9
$USERI2
 70
     0
  9
$USERI3
 70
     0
  9
$USERI4
 70
     0
  9
$USERI5
 70
     0
  9
$USERR1
 40
16.5
  9
$USERR2
 40
0.0
  9
$USERR3
 40
0.0
  9
$USERR4
 40
0.0
  9
$USERR5
 40
0.0
  9
$WORLDVIEW
 70
     1
  9
$SHADEDGE
 70
     3
  9
$SHADEDIF
 70
    70
  9
$TILEMODE
 70
     1
  9
$MAXACTVP
 70
    64
  9
$PINSBASE
 10
0.0
 20
0.0
 30
0.0
  9
$PLIMCHECK
 70
     0
  9
$PEXTMIN
 10
1.00000000000000E+20
 20
1.00000000000000E+20
 30
1.00000000000000E+20
  9
$PEXTMAX
 10
-1.00000000000000E+20
 20
-1.00000000000000E+20
 30
-1.00000000000000E+20
  9
$PLIMMIN
 10
0.0
 20
0.0
  9
$PLIMMAX
 10
12.0
 20
9.0
  9
$UNITMODE
 70
     0
  9
$VISRETAIN
 70
     1
  9
$PLINEGEN
 70
     0
  9
$PSLTSCALE
 70
     1
  9
$TREEDEPTH
 70
  3020
  9
$CMLSTYLE
  2
Standard
  9
$CMLJUST
 70
     0
  9
$CMLSCALE
 40
1.0
  9
$PROXYGRAPHICS
 70
     1
  9
$MEASUREMENT
 70
     1
  9
$CELWEIGHT
370
    -1
  9
$ENDCAPS
280
     0
  9
$JOINSTYLE
280
     0
  9
$LWDISPLAY
290
     0
  9
$INSUNITS
 70
     1
  9
$HYPERLINKBASE
  1

  9
$STYLESHEET
  1

  9
$XEDIT
290
     1
  9
$CEPSNTYPE
380
     0
  9
$PSTYLEMODE
290
     1
  9
$FINGERPRINTGUID
  2
{2E4B1826-F0BA-4922-BDB1-8B4E88F8A192}
  9
$VERSIONGUID
  2
{FAEB1C32-E019-11D5-929B-00C0DF256EC4}
  9
$EXTNAMES
290
     1
  9
$PSVPSCALE
 40
0.0
  9
$OLESTARTUP
290
     0
  0
ENDSEC
  0
SECTION
  2
CLASSES
  0
CLASS
  1
ACDBDICTIONARYWDFLT
  2
AcDbDictionaryWithDefault
  3
ObjectDBX Classes
 90
        0
280
     0
281
     0
  0
CLASS
  1
VISUALSTYLE
  2
AcDbVisualStyle
  3
ObjectDBX Classes
 90
     4095
280
     0
281
     0
  0
CLASS
  1
SCALE
  2
AcDbScale
  3
ObjectDBX Classes
 90
     1153
280
     0
281
     0
  0
CLASS
  1

  2
exOdDbSpline
  3

 90
        0
280
     0
281
     1
  0
CLASS
  1

  2
exOdDbCircle
  3

 90
        0
280
     0
281
     1
  0
CLASS
  1

  2
exOdDbPolyline
  3

 90
        0
280
     0
281
     1
  0
CLASS
  1
DICTIONARYVAR
  2
AcDbDictionaryVar
  3
ObjectDBX Classes
 90
        0
280
     0
281
     0
  0
CLASS
  1
ACDBPLACEHOLDER
  2
AcDbPlaceHolder
  3
ObjectDBX Classes
 90
        0
280
     0
281
     0
  0
CLASS
  1
LAYOUT
  2
AcDbLayout
  3
ObjectDBX Classes
 90
        0
280
     0
281
     0
  0
ENDSEC
  0
SECTION
  2
TABLES
  0
TABLE
  2
VPORT
  5
8
330
0
100
AcDbSymbolTable
 70
     1
  0
VPORT
  5
29
330
8
100
AcDbSymbolTableRecord
100
AcDbViewportTableRecord
  2
*Active
 70
     0
 10
0.0
 20
0.0
 11
1.0
 21
1.0
 12
-203.822363914155
 22
-5.3427863407686
 13
0.0
 23
0.0
 14
0.5
 24
0.5
 15
0.5
 25
0.5
 16
0.0
 26
0.0
 36
1.0
 17
0.0
 27
0.0
 37
0.0
 40
341.8958722497266
 41
1.60267857142857
 42
50.0
 43
0.0
 44
0.0
 50
0.0
 51
0.0
 71
     0
 72
   100
 73
     1
 74
     3
 75
     0
 76
     0
 77
     0
 78
     0
281
     0
 65
     1
110
0.0
120
0.0
130
0.0
111
1.0
121
0.0
131
0.0
112
0.0
122
1.0
132
0.0
 79
     0
146
0.0
  0
ENDTAB
  0
TABLE
  2
LTYPE
  5
5
330
0
100
AcDbSymbolTable
 70
     8
  0
LTYPE
  5
14
330
5
100
AcDbSymbolTableRecord
100
AcDbLinetypeTableRecord
  2
ByBlock
 70
     0
  3

 72
    65
 73
     0
 40
0.0
  0
LTYPE
  5
15
330
5
100
AcDbSymbolTableRecord
100
AcDbLinetypeTableRecord
  2
ByLayer
 70
     0
  3

 72
    65
 73
     0
 40
0.0
  0
LTYPE
  5
16
330
5
100
AcDbSymbolTableRecord
100
AcDbLinetypeTableRecord
  2
Continuous
 70
     0
  3
Solid line
 72
    65
 73
     0
 40
0.0
  0
LTYPE
  5
3B
330
5
100
AcDbSymbolTableRecord
100
AcDbLinetypeTableRecord
  2
DASHED
 70
     0
  3
Dashed
 72
    65
 73
     2
 40
15.0
 49
7.0
 74
     0
 49
-8.0
 74
     0
  0
LTYPE
  5
3C
330
5
100
AcDbSymbolTableRecord
100
AcDbLinetypeTableRecord
  2
DOTTED
 70
     0
  3
Dotted
 72
    65
 73
     2
 40
1.0
 49
0.0
 74
     0
 49
-1.0
 74
     0
  0
LTYPE
  5
3D
330
5
100
AcDbSymbolTableRecord
100
AcDbLinetypeTableRecord
  2
DOT_CENTER
 70
     0
  3
Dot_Center
 72
    65
 73
     4
 40
14.0
 49
12.0
 74
     0
 49
-1.0
 74
     0
 49
0.0
 74
     0
 49
-1.0
 74
     0
  0
LTYPE
  5
3E
330
5
100
AcDbSymbolTableRecord
100
AcDbLinetypeTableRecord
  2
LONG_DASHED
 70
     0
  3
Long_Dashed
 72
    65
 73
     2
 40
15.0
 49
10.0
 74
     0
 49
-5.0
 74
     0
  0
LTYPE
  5
3F
330
5
100
AcDbSymbolTableRecord
100
AcDbLinetypeTableRecord
  2
DASH_CENTER
 70
     0
  3
Dash_Center
 72
    65
 73
     4
 40
14.0
 49
11.0
 74
     0
 49
-1.0
 74
     0
 49
1.0
 74
     0
 49
-1.0
 74
     0
  0
LTYPE
  5
40
330
5
100
AcDbSymbolTableRecord
100
AcDbLinetypeTableRecord
  2
PHANTOM
 70
     0
  3
Phantom
 72
    65
 73
     6
 40
13.0
 49
10.0
 74
     0
 49
-1.0
 74
     0
 49
0.0
 74
     0
 49
-1.0
 74
     0
 49
0.0
 74
     0
 49
-1.0
 74
     0
  0
LTYPE
  5
41
330
5
100
AcDbSymbolTableRecord
100
AcDbLinetypeTableRecord
  2
CENTER_DASH_DASH
 70
     0
  3
Center_Dash_Dash
 72
    65
 73
     6
 40
14.0
 49
9.0
 74
     0
 49
-1.0
 74
     0
 49
1.0
 74
     0
 49
-1.0
 74
     0
 49
1.0
 74
     0
 49
-1.0
 74
     0
  0
ENDTAB
  0
TABLE
  2
LAYER
  5
2
330
0
100
AcDbSymbolTable
 70
     2
  0
LAYER
  5
10
330
2
100
AcDbSymbolTableRecord
100
AcDbLayerTableRecord
  2
0
 70
     0
 62
     7
  6
Continuous
370
    -3
390
F
  0
LAYER
  5
42
330
2
100
AcDbSymbolTableRecord
100
AcDbLayerTableRecord
  2
1
 70
     0
 62
     7
  6
Continuous
370
    -3
390
F
  0
ENDTAB
  0
TABLE
  2
STYLE
  5
3
330
0
100
AcDbSymbolTable
 70
     2
  0
STYLE
  5
11
330
3
100
AcDbSymbolTableRecord
100
AcDbTextStyleTableRecord
  2
Standard
 70
     0
 40
0.0
 41
1.0
 50
0.0
 71
     0
 42
0.2
  3
txt
  4

  0
STYLE
  5
1AD
330
3
100
AcDbSymbolTableRecord
100
AcDbTextStyleTableRecord
  2
CONVERTER_11
 70
     0
 40
0.0
 41
0.9
 50
0.0
 71
     0
 42
0.2
  3
txt.shx
  4

  0
ENDTAB
  0
TABLE
  2
VIEW
  5
6
330
0
100
AcDbSymbolTable
 70
     0
  0
ENDTAB
  0
TABLE
  2
UCS
  5
7
330
0
100
AcDbSymbolTable
 70
     0
  0
ENDTAB
  0
TABLE
  2
APPID
  5
9
330
0
100
AcDbSymbolTable
 70
     1
  0
APPID
  5
12
330
9
100
AcDbSymbolTableRecord
100
AcDbRegAppTableRecord
  2
ACAD
 70
     0
  0
ENDTAB
  0
TABLE
  2
DIMSTYLE
  5
A
330
0
100
AcDbSymbolTable
 70
     8
100
AcDbDimStyleTable
  0
DIMSTYLE
105
27
330
A
100
AcDbSymbolTableRecord
100
AcDbDimStyleTableRecord
  2
Standard
 70
     0
340
11
  0
DIMSTYLE
105
307
102
{ACAD_REACTORS
330
308
102
}
330
A
100
AcDbSymbolTableRecord
100
AcDbDimStyleTableRecord
  2
ME10_DIM_10
 70
     0
  3
-25
 41
7.0
 42
0.0
 44
2.0
 73
     0
 74
     0
 77
     1
 78
     8
140
7.0
147
2.0
172
     1
173
     1
176
     4
177
     4
178
     1
271
     2
340
1AD
  0
DIMSTYLE
105
312
102
{ACAD_REACTORS
330
313
102
}
330
A
100
AcDbSymbolTableRecord
100
AcDbDimStyleTableRecord
  2
ME10_DIM_11
 70
     0
 41
7.0
 42
0.0
 44
2.0
 73
     0
 74
     0
 77
     1
 78
     8
140
7.0
147
2.0
172
     1
173
     1
176
     4
177
     4
178
     1
271
     2
340
1AD
  0
DIMSTYLE
105
31F
102
{ACAD_REACTORS
330
320
102
}
330
A
100
AcDbSymbolTableRecord
100
AcDbDimStyleTableRecord
  2
ME10_DIM_12
 70
     0
  3
DN<>
 41
7.0
 42
0.0
 44
2.0
 73
     0
 74
     0
 77
     1
 78
     8
140
7.0
147
2.0
172
     1
173
     1
176
     4
177
     4
178
     1
271
     2
340
1AD
  0
DIMSTYLE
105
32A
102
{ACAD_REACTORS
330
32B
102
}
330
A
100
AcDbSymbolTableRecord
100
AcDbDimStyleTableRecord
  2
ME10_DIM_13
 70
     0
  3
{\Fgdt;n}<>
 41
7.0
 42
0.0
 44
2.0
 73
     0
 74
     0
 77
     1
 78
     8
140
7.0
147
2.0
172
     1
173
     1
176
     4
177
     4
178
     1
271
     2
340
1AD
  0
DIMSTYLE
105
335
102
{ACAD_REACTORS
330
336
102
}
330
A
100
AcDbSymbolTableRecord
100
AcDbDimStyleTableRecord
  2
ME10_DIM_14
 70
     0
 41
7.0
 42
0.0
 44
2.0
 73
     0
 74
     0
 77
     1
 78
     8
140
7.0
147
2.0
172
     1
173
     1
176
     4
177
     4
178
     1
271
     1
340
1AD
  0
DIMSTYLE
105
340
102
{ACAD_REACTORS
330
341
102
}
330
A
100
AcDbSymbolTableRecord
100
AcDbDimStyleTableRecord
  2
ME10_DIM_15
 70
     0
 41
7.0
 42
0.0
 44
2.0
 73
     0
 74
     0
 77
     1
 78
     8
140
7.0
147
2.0
172
     1
173
     1
176
     4
177
     4
178
     1
271
     2
340
1AD
  0
DIMSTYLE
105
34F
102
{ACAD_REACTORS
330
350
102
}
330
A
100
AcDbSymbolTableRecord
100
AcDbDimStyleTableRecord
  2
ME10_DIM_16
 70
     0
 41
7.0
 42
0.0
 44
2.0
 73
     0
 74
     0
 77
     1
 78
     8
140
7.0
147
2.0
172
     1
173
     1
176
     4
177
     4
178
     1
271
     2
340
1AD
  0
ENDTAB
  0
TABLE
  2
BLOCK_RECORD
  5
1
330
0
100
AcDbSymbolTable
 70
    31
  0
BLOCK_RECORD
  5
1F
330
1
100
AcDbSymbolTableRecord
100
AcDbBlockTableRecord
  2
*Model_Space
340
22
  0
BLOCK_RECORD
  5
1B
330
1
100
AcDbSymbolTableRecord
100
AcDbBlockTableRecord
  2
*Paper_Space
340
1E
  0
BLOCK_RECORD
  5
23
330
1
100
AcDbSymbolTableRecord
100
AcDbBlockTableRecord
  2
*Paper_Space0
340
26
  0
BLOCK_RECORD
  5
43
330
1
100
AcDbSymbolTableRecord
100
AcDbBlockTableRecord
  2
Abgangsbogen_306055082__1
340
0
102
{BLKREFS
331
74
102
}
  0
BLOCK_RECORD
  5
46
330
1
100
AcDbSymbolTableRecord
100
AcDbBlockTableRecord
  2
Koerper_101005619__2
340
0
102
{BLKREFS
331
6F
102
}
  0
BLOCK_RECORD
  5
49
330
1
100
AcDbSymbolTableRecord
100
AcDbBlockTableRecord
  2
Koerper-Oberteil_101005614_flach__3
340
0
102
{BLKREFS
331
70
102
}
  0
BLOCK_RECORD
  5
4C
330
1
100
AcDbSymbolTableRecord
100
AcDbBlockTableRecord
  2
188885620__4
340
0
102
{BLKREFS
331
75
102
}
  0
BLOCK_RECORD
  5
73
330
1
100
AcDbSymbolTableRecord
100
AcDbBlockTableRecord
  2
HL521-Koerper__5
340
0
102
{BLKREFS
331
80
102
}
  0
BLOCK_RECORD
  5
78
330
1
100
AcDbSymbolTableRecord
100
AcDbBlockTableRecord
  2
DA-195555623-Edelstahlkappe-verpresst__6
340
0
102
{BLKREFS
331
7C
102
}
  0
BLOCK_RECORD
  5
7B
330
1
100
AcDbSymbolTableRecord
100
AcDbBlockTableRecord
  2
521-1_Abdeckkappe__7
340
0
102
{BLKREFS
331
81
102
}
  0
BLOCK_RECORD
  5
7F
330
1
100
AcDbSymbolTableRecord
100
AcDbBlockTableRecord
  2
HL521__8
340
0
102
{BLKREFS
331
85
102
}
  0
BLOCK_RECORD
  5
84
330
1
100
AcDbSymbolTableRecord
100
AcDbBlockTableRecord
  2
Drfsicht2
340
0
102
{BLKREFS
331
BF
102
}
  0
BLOCK_RECORD
  5
88
330
1
100
AcDbSymbolTableRecord
100
AcDbBlockTableRecord
  2
Ausbruch1
340
0
102
{BLKREFS
331
BB
102
}
  0
BLOCK_RECORD
  5
8B
330
1
100
AcDbSymbolTableRecord
100
AcDbBlockTableRecord
  2
Abgangsbogen_306055082__9
340
0
102
{BLKREFS
331
9A
102
}
  0
BLOCK_RECORD
  5
8E
330
1
100
AcDbSymbolTableRecord
100
AcDbBlockTableRecord
  2
Koerper_101005619__10
340
0
102
{BLKREFS
331
95
102
}
  0
BLOCK_RECORD
  5
91
330
1
100
AcDbSymbolTableRecord
100
AcDbBlockTableRecord
  2
Koerper-Oberteil_101005614_flach__11
340
0
102
{BLKREFS
331
96
102
}
  0
BLOCK_RECORD
  5
94
330
1
100
AcDbSymbolTableRecord
100
AcDbBlockTableRecord
  2
188885620__12
340
0
102
{BLKREFS
331
9B
102
}
  0
BLOCK_RECORD
  5
99
330
1
100
AcDbSymbolTableRecord
100
AcDbBlockTableRecord
  2
HL521-Koerper__13
340
0
102
{BLKREFS
331
B3
102
}
  0
BLOCK_RECORD
  5
9E
330
1
100
AcDbSymbolTableRecord
100
AcDbBlockTableRecord
  2
01104D-Ventildichtung
340
0
102
{BLKREFS
331
B4
102
}
  0
BLOCK_RECORD
  5
A1
330
1
100
AcDbSymbolTableRecord
100
AcDbBlockTableRecord
  2
0521-4E_Zwischenring
340
0
102
{BLKREFS
331
B5
102
}
  0
BLOCK_RECORD
  5
A4
330
1
100
AcDbSymbolTableRecord
100
AcDbBlockTableRecord
  2
0521-1E_Einschraubventil-kurz
340
0
102
{BLKREFS
331
B6
102
}
  0
BLOCK_RECORD
  5
A7
330
1
100
AcDbSymbolTableRecord
100
AcDbBlockTableRecord
  2
101005625
340
0
102
{BLKREFS
331
AE
102
}
  0
BLOCK_RECORD
  5
AA
330
1
100
AcDbSymbolTableRecord
100
AcDbBlockTableRecord
  2
DA-195555623-Edelstahlkappe-verpresst__14
340
0
102
{BLKREFS
331
AF
102
}
  0
BLOCK_RECORD
  5
AD
330
1
100
AcDbSymbolTableRecord
100
AcDbBlockTableRecord
  2
521-1_Abdeckkappe__15
340
0
102
{BLKREFS
331
B7
102
}
  0
BLOCK_RECORD
  5
B2
330
1
100
AcDbSymbolTableRecord
100
AcDbBlockTableRecord
  2
HL521__16
340
0
102
{BLKREFS
331
BC
102
}
  0
BLOCK_RECORD
  5
BA
330
1
100
AcDbSymbolTableRecord
100
AcDbBlockTableRecord
  2
Vordans1
340
0
102
{BLKREFS
331
C0
102
}
  0
BLOCK_RECORD
  5
2FC
330
1
100
AcDbSymbolTableRecord
100
AcDbBlockTableRecord
  2
*D24
340
0
  0
BLOCK_RECORD
  5
309
330
1
100
AcDbSymbolTableRecord
100
AcDbBlockTableRecord
  2
*D25
340
0
  0
BLOCK_RECORD
  5
314
330
1
100
AcDbSymbolTableRecord
100
AcDbBlockTableRecord
  2
*D26
340
0
  0
BLOCK_RECORD
  5
321
330
1
100
AcDbSymbolTableRecord
100
AcDbBlockTableRecord
  2
*D27
340
0
  0
BLOCK_RECORD
  5
32C
330
1
100
AcDbSymbolTableRecord
100
AcDbBlockTableRecord
  2
*D28
340
0
  0
BLOCK_RECORD
  5
337
330
1
100
AcDbSymbolTableRecord
100
AcDbBlockTableRecord
  2
*D29
340
0
  0
BLOCK_RECORD
  5
342
330
1
100
AcDbSymbolTableRecord
100
AcDbBlockTableRecord
  2
*D30
340
0
  0
ENDTAB
  0
ENDSEC
  0
SECTION
  2
BLOCKS
  0
BLOCK
  5
20
330
1F
100
AcDbEntity
  8
0
100
AcDbBlockBegin
  2
*Model_Space
 70
     0
 10
0.0
 20
0.0
 30
0.0
  3
*Model_Space
  1

  0
ENDBLK
  5
21
330
1F
100
AcDbEntity
  8
0
100
AcDbBlockEnd
  0
BLOCK
  5
1C
330
1B
100
AcDbEntity
 67
     1
  8
0
100
AcDbBlockBegin
  2
*Paper_Space
 70
     0
 10
0.0
 20
0.0
 30
0.0
  3
*Paper_Space
  1

  0
ENDBLK
  5
1D
330
1B
100
AcDbEntity
 67
     1
  8
0
100
AcDbBlockEnd
  0
BLOCK
  5
24
330
23
100
AcDbEntity
  8
0
100
AcDbBlockBegin
  2
*Paper_Space0
 70
     0
 10
0.0
 20
0.0
 30
0.0
  3
*Paper_Space0
  1

  0
ENDBLK
  5
25
330
23
100
AcDbEntity
  8
0
100
AcDbBlockEnd
  0
BLOCK
  5
44
330
43
100
AcDbEntity
  8
0
100
AcDbBlockBegin
  2
Abgangsbogen_306055082__1
 70
     0
 10
-188.5000072665829
 20
-121.2500009997352
 30
0.0
  3
Abgangsbogen_306055082__1
  1

  0
LINE
  5
C1
330
43
100
AcDbEntity
  8
0
  6
Continuous
 62
     7
100
AcDbLine
 10
-97.5000072665829
 20
-74.55384857702852
 30
0.0
 11
-100.500007266583
 21
-73.75000099973515
 31
0.0
  0
LINE
  5
C2
330
43
100
AcDbEntity
  8
0
  6
Continuous
 62
     7
100
AcDbLine
 10
-100.500007266583
 20
-73.75000099973515
 30
0.0
 11
-162.525421178406
 21
-73.75000099973515
 31
0.0
  0
LINE
  5
C3
330
43
100
AcDbEntity
  8
0
  6
Continuous
 62
     3
100
AcDbLine
 10
-167.1482620120423
 20
-99.15611050420371
 30
0.0
 11
-167.0482620120423
 21
-99.15611050420371
 31
0.0
  0
LINE
  5
C4
330
43
100
AcDbEntity
  8
0
  6
Continuous
 62
     3
100
AcDbLine
 10
-168.91960578304
 20
-100.0533193717251
 30
0.0
 11
-168.81960578304
 21
-100.0533193717251
 31
0.0
  0
LINE
  5
C5
330
43
100
AcDbEntity
  8
0
  6
Continuous
 62
     3
100
AcDbLine
 10
-169.0717075775159
 20
-100.7338582339046
 30
0.0
 11
-168.9717075775159
 21
-100.7338582339046
 31
0.0
  0
LINE
  5
C6
330
43
100
AcDbEntity
  8
0
  6
Continuous
 62
     7
100
AcDbLine
 10
-169.0929436980668
 20
-101.1540538802721
 30
0.0
 11
-168.9929436980668
 21
-101.1540538802721
 31
0.0
  0
LINE
  5
C7
330
43
100
AcDbEntity
  8
0
  6
Continuous
 62
     7
100
AcDbLine
 10
-169.0891650927293
 20
-98.8277635359788
 30
0.0
 11
-168.9891650927293
 21
-98.8277635359788
 31
0.0
  0
LINE
  5
C8
330
43
100
AcDbEntity
  8
0
  6
Continuous
 62
     7
100
AcDbLine
 10
-169.0920431125762
 20
-98.8727087817053
 30
0.0
 11
-168.9920431125761
 21
-98.8727087817053
 31
0.0
  0
LINE
  5
C9
330
43
100
AcDbEntity
  8
0
  6
Continuous
 62
     7
100
AcDbLine
 10
-169.0998661768919
 20
-97.45396545905572
 30
0.0
 11
-168.9998661768919
 21
-97.45396545905572
 31
0.0
  0
LINE
  5
CA
330
43
100
AcDbEntity
  8
0
  6
Continuous
 62
     7
100
AcDbLine
 10
-169.1149290359688
 20
-97.25043981803009
 30
0.0
 11
-169.0149290359688
 21
-97.25043981803009
 31
0.0
  0
LINE
  5
CB
330
43
100
AcDbEntity
  8
0
  6
Continuous
 62
     7
100
AcDbLine
 10
-97.5000072665829
 20
-112.9461534224418
 30
0.0
 11
-100.500007266583
 21
-113.7500009997352
 31
0.0
  0
LINE
  5
CC
330
43
100
AcDbEntity
  8
0
  6
Continuous
 62
     7
100
AcDbLine
 10
-165.8499394211663
 20
-100.4472262894601
 30
0.0
 11
-165.7499394211663
 21
-100.4472262894601
 31
0.0
  0
LINE
  5
CD
330
43
100
AcDbEntity
  8
0
  6
Continuous
 62
     7
100
AcDbLine
 10
-97.5000072665829
 20
-74.55384857702852
 30
0.0
 11
-97.5000072665829
 21
-112.9461534224418
 31
0.0
  0
LINE
  5
CE
330
43
100
AcDbEntity
  8
0
  6
Continuous
 62
     3
100
AcDbLine
 10
-165.8424487730165
 20
-100.2127477905285
 30
0.0
 11
-165.7424487730165
 21
-100.2127477905285
 31
0.0
  0
LINE
  5
CF
330
43
100
AcDbEntity
  8
0
  6
Continuous
 62
     7
100
AcDbLine
 10
-165.9183764801886
 20
-99.64499605441739
 30
0.0
 11
-165.8183764801886
 21
-99.64499605441739
 31
0.0
  0
LINE
  5
D0
330
43
100
AcDbEntity
  8
0
  6
Continuous
 62
     7
100
AcDbLine
 10
-165.1823057604307
 20
-96.47995114467767
 30
0.0
 11
-165.0823057604307
 21
-96.47995114467767
 31
0.0
  0
LINE
  5
D1
330
43
100
AcDbEntity
  8
0
  6
Continuous
 62
     7
100
AcDbLine
 10
-165.568509050646
 20
-98.27570023469676
 30
0.0
 11
-165.468509050646
 21
-98.27570023469676
 31
0.0
  0
LINE
  5
D2
330
43
100
AcDbEntity
  8
0
  6
Continuous
 62
     7
100
AcDbLine
 10
-165.5940681100663
 20
-96.86713319409847
 30
0.0
 11
-165.4940681100663
 21
-96.86713319409847
 31
0.0
  0
LINE
  5
D3
330
43
100
AcDbEntity
  8
0
  6
Continuous
 62
     7
100
AcDbLine
 10
-100.500007266583
 20
-113.7500009997352
 30
0.0
 11
-162.525421178406
 21
-113.7500009997352
 31
0.0
  0
LINE
  5
D4
330
43
100
AcDbEntity
  8
0
  6
Continuous
 62
     7
100
AcDbLine
 10
-162.525421178406
 20
-113.7500009997352
 30
0.0
 11
-162.525421178406
 21
-73.75000099973515
 31
0.0
  0
LINE
  5
D5
330
43
100
AcDbEntity
  8
0
  6
Continuous
 62
     7
100
AcDbLine
 10
-100.500007266583
 20
-113.7500009997352
 30
0.0
 11
-100.500007266583
 21
-73.75000099973515
 31
0.0
  0
LINE
  5
D6
330
43
100
AcDbEntity
  8
0
  6
Continuous
 62
     7
100
AcDbLine
 10
-167.1955563348868
 20
-92.97124472229713
 30
0.0
 11
-167.0955563348868
 21
-92.97124472229713
 31
0.0
  0
LINE
  5
D7
330
43
100
AcDbEntity
  8
0
  6
Continuous
 62
     3
100
AcDbLine
 10
-168.9486064671701
 20
-91.236407914957
 30
0.0
 11
-168.8486064671701
 21
-91.236407914957
 31
0.0
  0
LINE
  5
D8
330
43
100
AcDbEntity
  8
0
  6
Continuous
 62
     7
100
AcDbLine
 10
-169.1635579187025
 20
-88.09333184632322
 30
0.0
 11
-169.0635579187025
 21
-88.09333184632322
 31
0.0
  0
LINE
  5
D9
330
43
100
AcDbEntity
  8
0
  6
Continuous
 62
     7
100
AcDbLine
 10
-169.1633316748275
 20
-88.13530900978478
 30
0.0
 11
-169.0633316748275
 21
-88.13530900978476
 31
0.0
  0
LINE
  5
DA
330
43
100
AcDbEntity
  8
0
  6
Continuous
 62
     3
100
AcDbLine
 10
-169.0957953080687
 20
-91.91525073012794
 30
0.0
 11
-168.9957953080686
 21
-91.91525073012794
 31
0.0
  0
LINE
  5
DB
330
43
100
AcDbEntity
  8
0
  6
Continuous
 62
     7
100
AcDbLine
 10
-169.1128649164656
 20
-92.3519828348288
 30
0.0
 11
-169.0128649164657
 21
-92.3519828348288
 31
0.0
  0
LINE
  5
DC
330
43
100
AcDbEntity
  8
0
  6
Continuous
 62
     3
100
AcDbLine
 10
-169.1654213483342
 20
-86.85264710966115
 30
0.0
 11
-169.0654213483342
 21
-86.85264710966115
 31
0.0
  0
LINE
  5
DD
330
43
100
AcDbEntity
  8
0
  6
Continuous
 62
     3
100
AcDbLine
 10
-167.187385814742
 20
-87.84144251564405
 30
0.0
 11
-167.087385814742
 21
-87.84144251564405
 31
0.0
  0
LINE
  5
DE
330
43
100
AcDbEntity
  8
0
  6
Continuous
 62
     7
100
AcDbLine
 10
-165.7571373910709
 20
-87.42039884577225
 30
0.0
 11
-165.6571373910709
 21
-87.42039884577225
 31
0.0
  0
LINE
  5
DF
330
43
100
AcDbEntity
  8
0
  6
Continuous
 62
     3
100
AcDbLine
 10
-166.3046814885345
 20
-86.88953613209705
 30
0.0
 11
-166.2046814885345
 21
-86.88953613209705
 31
0.0
  0
LINE
  5
E0
330
43
100
AcDbEntity
  8
0
  6
Continuous
 62
     3
100
AcDbLine
 10
-167.1600865483484
 20
-86.6605697859432
 30
0.0
 11
-167.0600865483484
 21
-86.6605697859432
 31
0.0
  0
LINE
  5
E1
330
43
100
AcDbEntity
  8
0
  6
Continuous
 62
     7
100
AcDbLine
 10
-166.5794222503817
 20
-88.61995444247708
 30
0.0
 11
-166.4794222503817
 21
-88.61995444247707
 31
0.0
  0
LINE
  5
E2
330
43
100
AcDbEntity
  8
0
  6
Continuous
 62
     7
100
AcDbLine
 10
-166.5881757129847
 20
-88.16753390294716
 30
0.0
 11
-166.4881757129847
 21
-88.16753390294716
 31
0.0
  0
LINE
  5
E3
330
43
100
AcDbEntity
  8
0
  6
Continuous
 62
     7
100
AcDbLine
 10
-166.3004214495509
 20
-89.64182276512665
 30
0.0
 11
-166.2004214495509
 21
-89.64182276512665
 31
0.0
  0
LINE
  5
E4
330
43
100
AcDbEntity
  8
0
  6
Continuous
 62
     7
100
AcDbLine
 10
-165.9302255518618
 20
-91.4602861200852
 30
0.0
 11
-165.8302255518618
 21
-91.4602861200852
 31
0.0
  0
LINE
  5
E5
330
43
100
AcDbEntity
  8
0
  6
Continuous
 62
     7
100
AcDbLine
 10
-165.5749444876285
 20
-92.53218782948692
 30
0.0
 11
-165.4749444876285
 21
-92.53218782948692
 31
0.0
  0
LINE
  5
E6
330
43
100
AcDbEntity
  8
0
  6
Continuous
 62
     3
100
AcDbLine
 10
-165.8484903586108
 20
-92.07001501965786
 30
0.0
 11
-165.7484903586108
 21
-92.07001501965786
 31
0.0
  0
LINE
  5
E7
330
43
100
AcDbEntity
  8
0
  6
Continuous
 62
     3
100
AcDbLine
 10
-167.1536752771785
 20
-90.8844781606835
 30
0.0
 11
-167.0536752771785
 21
-90.8844781606835
 31
0.0
  0
LINE
  5
E8
330
43
100
AcDbEntity
  8
0
  6
Continuous
 62
     7
100
AcDbLine
 10
-165.5541524386218
 20
-88.77132663798989
 30
0.0
 11
-165.4541524386218
 21
-88.77132663798989
 31
0.0
  0
LINE
  5
E9
330
43
100
AcDbEntity
  8
0
  6
Continuous
 62
     7
100
AcDbLine
 10
-188.5000072665829
 20
-121.2500009997352
 30
0.0
 11
-188.5000072665829
 21
-66.25000099973515
 31
0.0
  0
LINE
  5
EA
330
43
100
AcDbEntity
  8
0
  6
Continuous
 62
     3
100
AcDbLine
 10
-181.4000072665829
 20
-121.2500009997352
 30
0.0
 11
-181.4000072665829
 21
-66.25000099973515
 31
0.0
  0
LINE
  5
EB
330
43
100
AcDbEntity
  8
0
  6
Continuous
 62
     7
100
AcDbLine
 10
-181.4000072665829
 20
-66.25000099973515
 30
0.0
 11
-188.5000072665829
 21
-66.25000099973515
 31
0.0
  0
LINE
  5
EC
330
43
100
AcDbEntity
  8
0
  6
Continuous
 62
     7
100
AcDbLine
 10
-181.4000072665829
 20
-121.2500009997352
 30
0.0
 11
-188.5000072665829
 21
-121.2500009997352
 31
0.0
  0
LINE
  5
ED
330
43
100
AcDbEntity
  8
0
  6
Continuous
 62
     7
100
AcDbLine
 10
-165.7578971053224
 20
-94.06901114857918
 30
0.0
 11
-165.6578971053224
 21
-94.06901114857918
 31
0.0
  0
LINE
  5
EE
330
43
100
AcDbEntity
  8
0
  6
Continuous
 62
     3
100
AcDbLine
 10
-169.1570940287446
 20
-94.11056430028857
 30
0.0
 11
-169.0570940287446
 21
-94.11056430028857
 31
0.0
  0
LINE
  5
EF
330
43
100
AcDbEntity
  8
0
  6
Continuous
 62
     7
100
AcDbLine
 10
-167.1725744450964
 20
-95.18755415071594
 30
0.0
 11
-167.0725744450964
 21
-95.18755415071594
 31
0.0
  0
LINE
  5
F0
330
43
100
AcDbEntity
  8
0
  6
Continuous
 62
     7
100
AcDbLine
 10
-169.2012964023642
 20
-95.81637275258366
 30
0.0
 11
-169.1012964023641
 21
-95.81637275258365
 31
0.0
  0
LINE
  5
F1
330
43
100
AcDbEntity
  8
0
  6
Continuous
 62
     7
100
AcDbLine
 10
-169.2043702333643
 20
-95.59588664147255
 30
0.0
 11
-169.1043702333643
 21
-95.59588664147255
 31
0.0
  0
LINE
  5
F2
330
43
100
AcDbEntity
  8
1
  6
DOT_CENTER
 62
     2
100
AcDbLine
 10
-181.4000072665829
 20
-93.75000099973515
 30
0.0
 11
-188.5000072665829
 21
-93.75000099973515
 31
0.0
  0
LINE
  5
F3
330
43
100
AcDbEntity
  8
1
  6
DOT_CENTER
 62
     2
100
AcDbLine
 10
-97.50000726658286
 20
-93.75000099973514
 30
0.0
 11
-162.5254211784061
 21
-93.75000099973522
 31
0.0
  0
ARC
  5
F4
330
43
100
AcDbEntity
  8
0
  6
Continuous
 62
     7
100
AcDbCircle
 10
-181.4000072665829
 20
-93.75000099973515
 30
0.0
 40
27.50000000000006
100
AcDbArc
 50
270.0
 51
313.3417582272223
  0
ARC
  5
F5
330
43
100
AcDbEntity
  8
0
  6
Continuous
 62
     7
100
AcDbCircle
 10
-181.4000072665829
 20
-93.75000099973515
 30
0.0
 40
27.50000000000002
100
AcDbArc
 50
46.65824177277758
 51
90.0
  0
ARC
  5
F6
330
43
100
AcDbEntity
  8
0
  6
Continuous
 62
     7
100
AcDbCircle
 10
-179.0771412927496
 20
-110.5039514837939
 30
0.0
 40
24.7249277054948
100
AcDbArc
 50
59.4005279047205
 51
63.23794762017302
  0
ARC
  5
F7
330
43
100
AcDbEntity
  8
0
  6
Continuous
 62
     7
100
AcDbCircle
 10
-180.5692984517158
 20
-88.69860074941245
 30
0.0
 40
14.39980187621592
100
AcDbArc
 50
356.2442982533566
 51
0.13746846354643
  0
ARC
  5
F8
330
43
100
AcDbEntity
  8
0
  6
Continuous
 62
     7
100
AcDbCircle
 10
-166.2714247713997
 20
-94.09118595399812
 30
0.0
 40
0.9063812692592121
100
AcDbArc
 50
2.07232886026566
 51
22.11191506998
  0
SPLINE
  5
F9
330
43
100
AcDbEntity
  8
0
  6
Continuous
 62
     7
100
AcDbSpline
210
0.0
220
0.0
230
1.0
 70
     8
 71
     3
 72
    17
 73
    13
 74
    11
 42
0.0000000001
 43
0.0000000001
 44
0.00000001
 40
0.0
 40
0.0
 40
0.0
 40
0.0
 40
0.2704376903086246
 40
0.5400370726425203
 40
0.8185126122345785
 40
1.079913442540467
 40
1.360491034563392
 40
1.643134775453022
 40
1.8275393093635
 40
2.018101286351116
 40
2.121369192569996
 40
2.255909811065578
 40
2.255909811065578
 40
2.255909811065578
 40
2.255909811065578
 10
-167.0725744450964
 20
-95.18755415071594
 30
0.0
 10
-166.9824681301285
 20
-95.18369706744889
 30
0.0
 10
-166.8025348134879
 20
-95.17599485717594
 30
0.0
 10
-166.5320236827501
 20
-95.13652737023399
 30
0.0
 10
-166.2701347014987
 20
-95.06861655202884
 30
0.0
 10
-166.0168138286026
 20
-94.96305745678231
 30
0.0
 10
-165.7806501944435
 20
-94.82042663222094
 30
0.0
 10
-165.5926700606094
 20
-94.65299137614969
 30
0.0
 10
-165.4676215915773
 20
-94.47089551694869
 30
0.0
 10
-165.4085012235932
 20
-94.32158235785917
 30
0.0
 10
-165.3750014957592
 20
-94.1824029173896
 30
0.0
 10
-165.3690202178658
 20
-94.10321240981386
 30
0.0
 10
-165.3656362986891
 20
-94.05841023175482
 30
0.0
 11
-167.0725744450964
 21
-95.18755415071594
 31
0.0
 11
-166.8026205991411
 21
-95.17138425914602
 31
0.0
 11
-166.53588044671
 21
-95.13222410036346
 31
0.0
 11
-166.2667324305824
 21
-95.06075402574707
 31
0.0
 11
-166.0255547070281
 21
-94.95993884957913
 31
0.0
 11
-165.7861275862731
 21
-94.81365679670742
 31
0.0
 11
-165.5784510086069
 21
-94.62193323698425
 31
0.0
 11
-165.4748262904521
 21
-94.46939815933298
 31
0.0
 11
-165.4033230455414
 21
-94.2927596781329
 31
0.0
 11
-165.3798261214334
 21
-94.19220046665879
 31
0.0
 11
-165.3656362986891
 21
-94.05841023175482
 31
0.0
  0
SPLINE
  5
FA
330
43
100
AcDbEntity
  8
0
  6
Continuous
 62
     7
100
AcDbSpline
210
0.0
220
0.0
230
1.0
 70
     8
 71
     3
 72
    17
 73
    13
 74
    11
 42
0.0000000001
 43
0.0000000001
 44
0.00000001
 40
0.0
 40
0.0
 40
0.0
 40
0.0
 40
0.1534627261392322
 40
0.2555176477135053
 40
0.3965209122164469
 40
0.4978087579827639
 40
0.7263215556691279
 40
0.954737195262034
 40
1.17358427383119
 40
1.392900966265485
 40
1.611927385797181
 40
1.831739373553482
 40
1.831739373553482
 40
1.831739373553482
 40
1.831739373553482
 10
-165.6578971053224
 20
-94.06901114857918
 30
0.0
 10
-165.661219046947
 20
-94.12031321861105
 30
0.0
 10
-165.6667501275626
 20
-94.20573190357231
 30
0.0
 10
-165.709139222632
 20
-94.33191151559477
 30
0.0
 10
-165.7651621785762
 20
-94.43298961125166
 30
0.0
 10
-165.8637387506154
 20
-94.55562023633308
 30
0.0
 10
-166.0061990004045
 20
-94.67780717799218
 30
0.0
 10
-166.2008390306757
 20
-94.79281700065897
 30
0.0
 10
-166.4074967217499
 20
-94.87653212251877
 30
0.0
 10
-166.6204049755454
 20
-94.9304496125292
 30
0.0
 10
-166.8382579071641
 20
-94.9598462574755
 30
0.0
 10
-166.9844801837399
 20
-94.96550542555828
 30
0.0
 10
-167.0577221988749
 20
-94.96834007486123
 30
0.0
 11
-165.6578971053224
 21
-94.06901114857918
 31
0.0
 11
-165.6757208890103
 21
-94.22143529708961
 31
0.0
 11
-165.707366237371
 21
-94.31845992769784
 31
0.0
 11
-165.7754545465329
 21
-94.4419342276795
 31
0.0
 11
-165.8385260397415
 21
-94.52118834078675
 31
0.0
 11
-166.0099743163576
 21
-94.67226311416681
 31
0.0
 11
-166.2061616207975
 21
-94.7892427961087
 31
0.0
 11
-166.4088748986331
 21
-94.8717132198218
 31
0.0
 11
-166.6212712982123
 21
-94.92637198879895
 31
0.0
 11
-166.8382381093163
 21
-94.95633822533658
 31
0.0
 11
-167.0577221988749
 21
-94.96834007486123
 31
0.0
  0
SPLINE
  5
FB
330
43
100
AcDbEntity
  8
0
  6
Continuous
 62
     7
100
AcDbSpline
210
0.0
220
0.0
230
1.0
 70
     8
 71
     3
 72
    17
 73
    13
 74
    11
 42
0.0000000001
 43
0.0000000001
 44
0.00000001
 40
0.0
 40
0.0
 40
0.0
 40
0.0
 40
0.1059876369548411
 40
0.2105713941851646
 40
0.3134711671789143
 40
0.4140562230090101
 40
0.5654876265488681
 40
0.7133797880640036
 40
0.9780408526280351
 40
1.238365290770966
 40
1.520064020832896
 40
1.802322302826062
 40
1.802322302826062
 40
1.802322302826062
 40
1.802322302826062
 10
-165.7578971053224
 20
-94.06901114857918
 30
0.0
 10
-165.7599029495297
 20
-94.10432615433183
 30
0.0
 10
-165.7638880691473
 20
-94.17448839410477
 30
0.0
 10
-165.7879719615892
 20
-94.27688409247692
 30
0.0
 10
-165.8297052057511
 20
-94.37120774780708
 30
0.0
 10
-165.8926736102296
 20
-94.47178069926393
 30
0.0
 10
-165.9821460210661
 20
-94.57168706910623
 30
0.0
 10
-166.1275496551694
 20
-94.69151626302121
 30
0.0
 10
-166.32240843037
 20
-94.80556095701115
 30
0.0
 10
-166.5754737243889
 20
-94.89961761142774
 30
0.0
 10
-166.8463050302591
 20
-94.95310847092189
 30
0.0
 10
-167.0341921728589
 20
-94.96272027176641
 30
0.0
 10
-167.1282289539347
 20
-94.96753094055008
 30
0.0
 11
-165.7578971053224
 21
-94.06901114857918
 31
0.0
 11
-165.7670036726629
 21
-94.17460683797295
 31
0.0
 11
-165.7911925031561
 21
-94.27635487360892
 31
0.0
 11
-165.8322016630432
 21
-94.37072972241685
 31
0.0
 11
-165.8855118937482
 21
-94.45602551808419
 31
0.0
 11
-165.9855489759217
 21
-94.56970951945756
 31
0.0
 11
-166.0991295063468
 21
-94.66442780990864
 31
0.0
 11
-166.326882490324
 21
-94.79923900152725
 31
0.0
 11
-166.5706258297457
 21
-94.89066108628806
 31
0.0
 11
-166.8467673304023
 21
-94.9463391442069
 31
0.0
 11
-167.1282289539347
 21
-94.96753094055008
 31
0.0
  0
SPLINE
  5
FC
330
43
100
AcDbEntity
  8
0
  6
Continuous
 62
     7
100
AcDbSpline
210
0.0
220
0.0
230
1.0
 70
     8
 71
     3
 72
     9
 73
     5
 74
     3
 42
0.0000000001
 43
0.0000000001
 44
0.00000001
 40
0.0
 40
0.0
 40
0.0
 40
0.0
 40
0.1643739288598657
 40
0.3333031892586221
 40
0.3333031892586221
 40
0.3333031892586221
 40
0.3333031892586221
 10
-165.8463904850451
 20
-93.75000496246442
 30
0.0
 10
-165.822617320337
 20
-93.79987085629568
 30
0.0
 10
-165.7744121598778
 20
-93.90098458865255
 30
0.0
 10
-165.7634520549346
 20
-94.01249428569004
 30
0.0
 10
-165.7578971053224
 20
-94.06901114857918
 30
0.0
 11
-165.8463904850451
 21
-93.75000496246442
 31
0.0
 11
-165.7841294756996
 21
-93.902131078579
 31
0.0
 11
-165.7578971053224
 21
-94.06901114857918
 31
0.0
  0
SPLINE
  5
FD
330
43
100
AcDbEntity
  8
0
  6
Continuous
 62
     7
100
AcDbSpline
210
0.0
220
0.0
230
1.0
 70
     8
 71
     3
 72
     9
 73
     5
 74
     3
 42
0.0000000001
 43
0.0000000001
 44
0.00000001
 40
0.0
 40
0.0
 40
0.0
 40
0.0
 40
0.164761077085555
 40
0.3332328406105889
 40
0.3332328406105889
 40
0.3332328406105889
 40
0.3332328406105889
 10
-165.7463904849691
 20
-93.75000496260364
 30
0.0
 10
-165.72270963729
 20
-93.80004475915231
 30
0.0
 10
-165.674814610869
 20
-93.90125132955384
 30
0.0
 10
-165.6635779820184
 20
-94.01267761620403
 30
0.0
 10
-165.6578971053224
 20
-94.06901114857918
 30
0.0
 11
-165.7463904849691
 21
-93.75000496260364
 31
0.0
 11
-165.684309574451
 21
-93.90262269771866
 31
0.0
 11
-165.6578971053224
 21
-94.06901114857918
 31
0.0
  0
SPLINE
  5
FE
330
43
100
AcDbEntity
  8
0
  6
Continuous
 62
     7
100
AcDbSpline
210
0.0
220
0.0
230
1.0
 70
     8
 71
     3
 72
    15
 73
    11
 74
     9
 42
0.0000000001
 43
0.0000000001
 44
0.00000001
 40
0.0
 40
0.0
 40
0.0
 40
0.0
 40
0.2498529778040186
 40
0.4139750667102085
 40
0.5465700303141614
 40
0.7084120421954794
 40
0.8498171029082408
 40
0.9902311719000272
 40
1.456596393349053
 40
1.938411181010615
 40
1.938411181010615
 40
1.938411181010615
 40
1.938411181010615
 10
-165.4317075070551
 20
-93.75000869621914
 30
0.0
 10
-165.4691676504287
 20
-93.67484639515166
 30
0.0
 10
-165.5312344126036
 20
-93.55031188340809
 30
0.0
 10
-165.6616773949027
 20
-93.42065413868966
 30
0.0
 10
-165.7798514197649
 20
-93.32376433169411
 30
0.0
 10
-165.9022644236355
 20
-93.2447863663759
 30
0.0
 10
-166.0332293823334
 20
-93.17581530264542
 30
0.0
 10
-166.2625788346651
 20
-93.07741470666053
 30
0.0
 10
-166.6184967693912
 20
-92.98839480995485
 30
0.0
 10
-166.9348184400566
 20
-92.97702318097532
 30
0.0
 10
-167.0955563348868
 20
-92.97124472229713
 30
0.0
 11
-165.4317075070551
 21
-93.75000869621914
 31
0.0
 11
-165.5574680191171
 21
-93.53411334165251
 31
0.0
 11
-165.6709309333929
 21
-93.41552907983431
 31
0.0
 11
-165.7736970650968
 21
-93.3317403780437
 31
0.0
 11
-165.9092418507842
 21
-93.24330708181012
 31
0.0
 11
-166.0343272068175
 21
-93.1773597930015
 31
0.0
 11
-166.1633245249781
 21
-93.12189987343608
 31
0.0
 11
-166.6149725928164
 21
-93.00566501379794
 31
0.0
 11
-167.0955563348868
 21
-92.97124472229713
 31
0.0
  0
SPLINE
  5
FF
330
43
100
AcDbEntity
  8
0
  6
Continuous
 62
     7
100
AcDbSpline
210
0.0
220
0.0
230
1.0
 70
     8
 71
     3
 72
    14
 73
    10
 74
     8
 42
0.0000000001
 43
0.0000000001
 44
0.00000001
 40
0.0
 40
0.0
 40
0.0
 40
0.0
 40
0.3848123649920739
 40
0.7446996506233559
 40
0.9763422929153982
 40
1.145298094267749
 40
1.254355318987341
 40
1.346186040564862
 40
1.512492019204245
 40
1.512492019204245
 40
1.512492019204245
 40
1.512492019204245
 10
-167.0796855106137
 20
-93.18876275114329
 30
0.0
 10
-166.9512362525685
 20
-93.19244522830786
 30
0.0
 10
-166.7026576561112
 20
-93.19957166110308
 30
0.0
 10
-166.3832047628642
 20
-93.27473389168755
 30
0.0
 10
-166.1492143049516
 20
-93.3743292758071
 30
0.0
 10
-166.0040641074261
 20
-93.46405407036411
 30
0.0
 10
-165.9092755628042
 20
-93.54309558853605
 30
0.0
 10
-165.8223766038569
 20
-93.62995220788973
 30
0.0
 10
-165.7761635179231
 20
-93.70296565233718
 30
0.0
 10
-165.7463904849691
 20
-93.75000496260364
 30
0.0
 11
-167.0796855106137
 21
-93.18876275114329
 31
0.0
 11
-166.6956508310042
 21
-93.21321517654492
 31
0.0
 11
-166.3455153335718
 21
-93.29642570350404
 31
0.0
 11
-166.1329918133922
 21
-93.38857811583541
 31
0.0
 11
-165.9899320311303
 21
-93.47846672195317
 31
0.0
 11
-165.9060231001737
 21
-93.54812854484972
 31
0.0
 11
-165.8418843966184
 21
-93.61384846672807
 31
0.0
 11
-165.7463904849691
 21
-93.75000496260364
 31
0.0
  0
SPLINE
  5
100
330
43
100
AcDbEntity
  8
0
  6
Continuous
 62
     7
100
AcDbSpline
210
0.0
220
0.0
230
1.0
 70
     8
 71
     3
 72
    13
 73
     9
 74
     7
 42
0.0000000001
 43
0.0000000001
 44
0.00000001
 40
0.0
 40
0.0
 40
0.0
 40
0.0
 40
0.4038125492616194
 40
0.8091840710610497
 40
1.036463848472188
 40
1.26962522971214
 40
1.353913812250478
 40
1.439868780629814
 40
1.439868780629814
 40
1.439868780629814
 40
1.439868780629814
 10
-167.1077134325552
 20
-93.18947805325425
 30
0.0
 10
-166.9730060304918
 20
-93.19691775897633
 30
0.0
 10
-166.7030711703619
 20
-93.21182589240284
 30
0.0
 10
-166.3683144423085
 20
-93.31354161295397
 30
0.0
 10
-166.1134648206236
 20
-93.45146461982824
 30
0.0
 10
-165.9745089746191
 20
-93.57144546850209
 30
0.0
 10
-165.8897604428721
 20
-93.67630912942477
 30
0.0
 10
-165.8609411677105
 20
-93.72527990544225
 30
0.0
 10
-165.8463904850451
 20
-93.75000496246442
 30
0.0
 11
-167.1077134325552
 21
-93.18947805325425
 31
0.0
 11
-166.7057291831266
 21
-93.22786083783969
 31
0.0
 11
-166.3182314556423
 21
-93.3469052912195
 31
0.0
 11
-166.1196001113468
 21
-93.45736653457382
 31
0.0
 11
-165.9442406166353
 21
-93.61103265743846
 31
0.0
 11
-165.891813195625
 21
-93.67703213222832
 31
0.0
 11
-165.8463904850451
 21
-93.75000496246442
 31
0.0
  0
SPLINE
  5
101
330
43
100
AcDbEntity
  8
0
  6
Continuous
 62
     7
100
AcDbSpline
210
0.0
220
0.0
230
1.0
 70
     8
 71
     3
 72
     9
 73
     5
 74
     3
 42
0.0000000001
 43
0.0000000001
 44
0.00000001
 40
0.0
 40
0.0
 40
0.0
 40
0.0
 40
0.3124958340917032
 40
0.6223047237561143
 40
0.6223047237561143
 40
0.6223047237561143
 40
0.6223047237561143
 10
-166.1695112772198
 20
-88.67861800252011
 30
0.0
 10
-166.0664588386987
 20
-88.6938055846899
 30
0.0
 10
-165.8612400412301
 20
-88.72405016108297
 30
0.0
 10
-165.6562198988799
 20
-88.75561323931521
 30
0.0
 10
-165.5541524386218
 20
-88.77132663798989
 30
0.0
 11
-166.1695112772198
 21
-88.67861800252011
 31
0.0
 11
-165.8604040552317
 21
-88.7245132271026
 31
0.0
 11
-165.5541524386218
 21
-88.77132663798989
 31
0.0
  0
SPLINE
  5
102
330
43
100
AcDbEntity
  8
0
  6
Continuous
 62
     7
100
AcDbSpline
210
0.0
220
0.0
230
1.0
 70
     8
 71
     3
 72
    13
 73
     9
 74
     7
 42
0.0000000001
 43
0.0000000001
 44
0.00000001
 40
0.0
 40
0.0
 40
0.0
 40
0.0
 40
0.1446245581566216
 40
0.2798963886259355
 40
0.5715883707863616
 40
0.861175687754222
 40
1.278803956195684
 40
1.658764537167528
 40
1.658764537167528
 40
1.658764537167528
 40
1.658764537167528
 10
-168.4534643312282
 20
-100.118193169802
 30
0.0
 10
-168.4274371004444
 20
-100.0775128000379
 30
0.0
 10
-168.3770657942488
 20
-99.99878281994259
 30
0.0
 10
-168.2476341823557
 20
-99.8579278754058
 30
0.0
 10
-168.0562328360967
 20
-99.71197339644284
 30
0.0
 10
-167.7596740636642
 20
-99.55872315578405
 30
0.0
 10
-167.4166081228431
 20
-99.43654208646643
 30
0.0
 10
-167.1554404507918
 20
-99.38560021391794
 30
0.0
 10
-167.0310236908576
 20
-99.3613321922379
 30
0.0
 11
-168.4534643312282
 21
-100.118193169802
 31
0.0
 11
-168.3719094123494
 21
-99.99875675145034
 31
0.0
 11
-168.2813111557619
 21
-99.89830564880918
 31
0.0
 11
-168.0513133291163
 21
-99.71890327369957
 31
0.0
 11
-167.7954729397458
 21
-99.58323268250383
 31
0.0
 11
-167.4021218579058
 21
-99.44291769037277
 31
0.0
 11
-167.0310236908576
 21
-99.3613321922379
 31
0.0
  0
SPLINE
  5
103
330
43
100
AcDbEntity
  8
0
  6
Continuous
 62
     7
100
AcDbSpline
210
0.0
220
0.0
230
1.0
 70
     8
 71
     3
 72
     9
 73
     5
 74
     3
 42
0.0000000001
 43
0.0000000001
 44
0.00000001
 40
0.0
 40
0.0
 40
0.0
 40
0.0
 40
1.608911419974488
 40
3.245312294042127
 40
3.245312294042127
 40
3.245312294042127
 40
3.245312294042127
 10
-166.2072190402312
 20
-97.1605493265771
 30
0.0
 10
-166.652246294753
 20
-97.46058168248241
 30
0.0
 10
-167.5499044270486
 20
-98.0657726713346
 30
0.0
 10
-168.5067099934177
 20
-98.57233629681183
 30
0.0
 10
-168.9891650927293
 20
-98.8277635359788
 30
0.0
 11
-166.2072190402312
 21
-97.1605493265771
 31
0.0
 11
-167.5568382187645
 21
-98.03640549642424
 31
0.0
 11
-168.9891650927293
 21
-98.8277635359788
 31
0.0
  0
SPLINE
  5
104
330
43
100
AcDbEntity
  8
0
  6
Continuous
 62
     7
100
AcDbSpline
210
0.0
220
0.0
230
1.0
 70
     8
 71
     3
 72
     9
 73
     5
 74
     3
 42
0.0000000001
 43
0.0000000001
 44
0.00000001
 40
0.0
 40
0.0
 40
0.0
 40
0.0
 40
1.518319805780957
 40
3.012061022176083
 40
3.012061022176083
 40
3.012061022176083
 40
3.012061022176083
 10
-168.0078954501214
 20
-98.56530026140615
 30
0.0
 10
-167.5710360623679
 20
-98.30904886578412
 30
0.0
 10
-166.7043891747927
 20
-97.80069427692042
 30
0.0
 10
-165.8934542482468
 20
-97.20751829242883
 30
0.0
 10
-165.4912954225531
 20
-96.91335047508137
 30
0.0
 11
-168.0078954501214
 21
-98.56530026140615
 31
0.0
 11
-166.7114735109214
 21
-97.7749932399343
 31
0.0
 11
-165.4912954225531
 21
-96.91335047508137
 31
0.0
  0
SPLINE
  5
105
330
43
100
AcDbEntity
  8
0
  6
Continuous
 62
     7
100
AcDbSpline
210
0.0
220
0.0
230
1.0
 70
     8
 71
     3
 72
     9
 73
     5
 74
     3
 42
0.0000000001
 43
0.0000000001
 44
0.00000001
 40
0.0
 40
0.0
 40
0.0
 40
0.0
 40
1.426727720665854
 40
2.80808883519825
 40
2.80808883519825
 40
2.80808883519825
 40
2.80808883519825
 10
-168.9998661768919
 20
-97.45396545905572
 30
0.0
 10
-168.5263821946602
 20
-97.40924759137673
 30
0.0
 10
-167.5944699139276
 20
-97.32123377967014
 30
0.0
 10
-166.6646285894606
 20
-97.21353080573928
 30
0.0
 10
-166.2072190402312
 20
-97.1605493265771
 30
0.0
 11
-168.9998661768919
 21
-97.45396545905572
 31
0.0
 11
-167.5799488332575
 21
-97.31472923473653
 31
0.0
 11
-166.2072190402312
 21
-97.1605493265771
 31
0.0
  0
SPLINE
  5
106
330
43
100
AcDbEntity
  8
0
  6
Continuous
 62
     7
100
AcDbSpline
210
0.0
220
0.0
230
1.0
 70
     8
 71
     3
 72
     9
 73
     5
 74
     3
 42
0.0000000001
 43
0.0000000001
 44
0.00000001
 40
0.0
 40
0.0
 40
0.0
 40
0.0
 40
1.733188904246293
 40
3.541811983006963
 40
3.541811983006963
 40
3.541811983006963
 40
3.541811983006963
 10
-165.5940681100663
 20
-96.86713319409847
 30
0.0
 10
-166.1675158128842
 20
-96.93758315736237
 30
0.0
 10
-167.3393695793677
 20
-97.08154930177929
 30
0.0
 10
-168.5147315242061
 20
-97.19334926708447
 30
0.0
 10
-169.1149290359688
 20
-97.25043981803009
 30
0.0
 11
-165.5940681100663
 21
-96.86713319409847
 31
0.0
 11
-167.3152513020278
 21
-97.07078043201636
 31
0.0
 11
-169.1149290359688
 21
-97.25043981803009
 31
0.0
  0
SPLINE
  5
107
330
43
100
AcDbEntity
  8
0
  6
Continuous
 62
     7
100
AcDbSpline
210
0.0
220
0.0
230
1.0
 70
     8
 71
     3
 72
    11
 73
     7
 74
     5
 42
0.0000000001
 43
0.0000000001
 44
0.00000001
 40
0.0
 40
0.0
 40
0.0
 40
0.0
 40
0.219284234245775
 40
0.3548013799222521
 40
0.5655671370211921
 40
0.7041638987523896
 40
0.7041638987523896
 40
0.7041638987523896
 40
0.7041638987523896
 10
-168.81960578304
 20
-100.0533193717251
 30
0.0
 10
-168.8521054008611
 20
-100.1191789027476
 30
0.0
 10
-168.9046897067486
 20
-100.2257394704427
 30
0.0
 10
-168.9456817493947
 20
-100.4106522397941
 30
0.0
 10
-168.9645669666746
 20
-100.5713282848586
 30
0.0
 10
-168.9696794051277
 20
-100.6876942904784
 30
0.0
 10
-168.9717075775159
 20
-100.7338582339046
 30
0.0
 11
-168.81960578304
 21
-100.0533193717251
 31
0.0
 11
-168.9068413345331
 21
-100.2545046941133
 31
0.0
 11
-168.938449454759
 21
-100.3862841443629
 31
0.0
 11
-168.9642861643562
 21
-100.5954603112718
 31
0.0
 11
-168.9717075775159
 21
-100.7338582339046
 31
0.0
  0
SPLINE
  5
108
330
43
100
AcDbEntity
  8
0
  6
Continuous
 62
     7
100
AcDbSpline
210
0.0
220
0.0
230
1.0
 70
     8
 71
     3
 72
     9
 73
     5
 74
     3
 42
0.0000000001
 43
0.0000000001
 44
0.00000001
 40
0.0
 40
0.0
 40
0.0
 40
0.0
 40
1.596627936104417
 40
3.220322941962172
 40
3.220322941962172
 40
3.220322941962172
 40
3.220322941962172
 10
-166.3276939503759
 20
-97.17490385733551
 30
0.0
 10
-166.7696120095252
 20
-97.47220541386105
 30
0.0
 10
-167.6609398086732
 20
-98.07184857524544
 30
0.0
 10
-168.6104298184297
 20
-98.5743839325551
 30
0.0
 10
-169.0891650927293
 20
-98.8277635359788
 30
0.0
 11
-166.3276939503759
 21
-97.17490385733551
 31
0.0
 11
-167.667745278702
 21
-98.04293796023734
 31
0.0
 11
-169.0891650927293
 21
-98.8277635359788
 31
0.0
  0
SPLINE
  5
109
330
43
100
AcDbEntity
  8
0
  6
Continuous
 62
     7
100
AcDbSpline
210
0.0
220
0.0
230
1.0
 70
     8
 71
     3
 72
    13
 73
     9
 74
     7
 42
0.0000000001
 43
0.0000000001
 44
0.00000001
 40
0.0
 40
0.0
 40
0.0
 40
0.0
 40
0.1625272389349956
 40
0.3261621601066243
 40
0.3610541168340953
 40
0.4358325084798881
 40
0.5387322559066386
 40
0.6592093027625977
 40
0.6592093027625977
 40
0.6592093027625977
 40
0.6592093027625977
 10
-168.5749914055707
 20
-100.7614189977934
 30
0.0
 10
-168.5720808146238
 20
-100.7073098131529
 30
0.0
 10
-168.5662397959942
 20
-100.5987226701016
 30
0.0
 10
-168.5523441398705
 20
-100.479113407646
 30
0.0
 10
-168.5400115977176
 20
-100.3888370714769
 30
0.0
 10
-168.5260434659365
 20
-100.3193336540346
 30
0.0
 10
-168.4999208575378
 20
-100.2231567219341
 30
0.0
 10
-168.4697414362867
 20
-100.1549695476563
 30
0.0
 10
-168.4534643312282
 20
-100.118193169802
 30
0.0
 11
-168.5749914055707
 21
-100.7614189977934
 31
0.0
 11
-168.5645930669998
 21
-100.599224737874
 31
0.0
 11
-168.5464940794178
 21
-100.4365938242218
 31
0.0
 11
-168.541582884676
 21
-100.4020492325976
 31
0.0
 11
-168.5272020052751
 21
-100.3286666858662
 31
0.0
 11
-168.4992097258982
 21
-100.2296475447077
 31
0.0
 11
-168.4534643312282
 21
-100.118193169802
 31
0.0
  0
SPLINE
  5
10A
330
43
100
AcDbEntity
  8
0
  6
Continuous
 62
     7
100
AcDbSpline
210
0.0
220
0.0
230
1.0
 70
     8
 71
     3
 72
     9
 73
     5
 74
     3
 42
0.0000000001
 43
0.0000000001
 44
0.00000001
 40
0.0
 40
0.0
 40
0.0
 40
0.0
 40
0.2676716808084197
 40
0.5404052322547559
 40
0.5404052322547559
 40
0.5404052322547559
 40
0.5404052322547559
 10
-166.6102036910337
 20
-99.11002599345647
 30
0.0
 10
-166.6994662148211
 20
-99.11263910374495
 30
0.0
 10
-166.8796792831341
 20
-99.1179147401817
 30
0.0
 10
-167.0581771175808
 20
-99.14329932537333
 30
0.0
 10
-167.1482620120423
 20
-99.15611050420371
 30
0.0
 11
-166.6102036910337
 21
-99.11002599345647
 31
0.0
 11
-166.8775704494378
 21
-99.12279882428086
 31
0.0
 11
-167.1482620120423
 21
-99.15611050420371
 31
0.0
  0
SPLINE
  5
10B
330
43
100
AcDbEntity
  8
0
  6
Continuous
 62
     7
100
AcDbSpline
210
0.0
220
0.0
230
1.0
 70
     8
 71
     3
 72
    11
 73
     7
 74
     5
 42
0.0000000001
 43
0.0000000001
 44
0.00000001
 40
0.0
 40
0.0
 40
0.0
 40
0.0
 40
0.2182970063630273
 40
0.3548051855871391
 40
0.5634881271993036
 40
0.7041691603817621
 40
0.7041691603817621
 40
0.7041691603817621
 40
0.7041691603817621
 10
-168.91960578304
 20
-100.0533193717251
 30
0.0
 10
-168.9519738903963
 20
-100.1188717730588
 30
0.0
 10
-169.0045828222776
 20
-100.2254162113376
 30
0.0
 10
-169.0454978087324
 20
-100.4096433982015
 30
0.0
 10
-169.0645073852154
 20
-100.5706330085326
 30
0.0
 10
-169.0696405622919
 20
-100.6869998985007
 30
0.0
 10
-169.0717075775159
 20
-100.7338582339046
 30
0.0
 11
-168.91960578304
 21
-100.0533193717251
 31
0.0
 11
-169.0065475572616
 21
-100.2535560089378
 31
0.0
 11
-169.0384495310212
 21
-100.3862841034217
 31
0.0
 11
-169.0641224966398
 21
-100.5933818314543
 31
0.0
 11
-169.0717075775159
 21
-100.7338582339046
 31
0.0
  0
SPLINE
  5
10C
330
43
100
AcDbEntity
  8
0
  6
Continuous
 62
     7
100
AcDbSpline
210
0.0
220
0.0
230
1.0
 70
     8
 71
     3
 72
    11
 73
     7
 74
     5
 42
0.0000000001
 43
0.0000000001
 44
0.00000001
 40
0.0
 40
0.0
 40
0.0
 40
0.0
 40
0.4844189963090157
 40
0.9809334379830864
 40
1.498696456292606
 40
2.032770849870134
 40
2.032770849870134
 40
2.032770849870134
 40
2.032770849870134
 10
-167.1482620120423
 20
-99.15611050420371
 30
0.0
 10
-167.3071261937305
 20
-99.18679892659543
 30
0.0
 10
-167.6288212327425
 20
-99.24894202980231
 30
0.0
 10
-168.0986284533009
 20
-99.41844369893032
 30
0.0
 10
-168.5700284982652
 20
-99.64959198185431
 30
0.0
 10
-168.8018815339794
 20
-99.9173594399225
 30
0.0
 10
-168.91960578304
 20
-100.0533193717251
 30
0.0
 11
-167.1482620120423
 21
-99.15611050420371
 31
0.0
 11
-167.6213928475952
 21
-99.26007673157613
 31
0.0
 11
-168.0897740600939
 21
-99.42483604260028
 31
0.0
 11
-168.5436469813239
 21
-99.6739904415241
 31
0.0
 11
-168.91960578304
 21
-100.0533193717251
 31
0.0
  0
SPLINE
  5
10D
330
43
100
AcDbEntity
  8
0
  6
Continuous
 62
     7
100
AcDbSpline
210
0.0
220
0.0
230
1.0
 70
     8
 71
     3
 72
    13
 73
     9
 74
     7
 42
0.0000000001
 43
0.0000000001
 44
0.00000001
 40
0.0
 40
0.0
 40
0.0
 40
0.0
 40
0.4853020121709443
 40
0.9809336415214274
 40
1.349600156512203
 40
1.747076123808088
 40
1.875255954424511
 40
2.035496076375014
 40
2.035496076375014
 40
2.035496076375014
 40
2.035496076375014
 10
-167.0482620120423
 20
-99.15611050420371
 30
0.0
 10
-167.2072160626496
 20
-99.18699543730753
 30
0.0
 10
-167.5285074889912
 20
-99.24942268701574
 30
0.0
 10
-167.9543612983204
 20
-99.40024696226905
 30
0.0
 10
-168.3318595007131
 20
-99.58742686222516
 30
0.0
 10
-168.574325684968
 20
-99.76570575309589
 30
0.0
 10
-168.7324717759277
 20
-99.93152764553471
 30
0.0
 10
-168.7884856439442
 20
-100.0098211373919
 30
0.0
 10
-168.81960578304
 20
-100.0533193717251
 30
0.0
 11
-167.0482620120423
 21
-99.15611050420371
 31
0.0
 11
-167.5222440638475
 21
-99.26031730620677
 31
0.0
 11
-167.9897740600913
 21
-99.42483604260141
 31
0.0
 11
-168.3182618022083
 21
-99.59220032360048
 31
0.0
 11
-168.6351495298228
 21
-99.8321363831353
 31
0.0
 11
-168.7230084457237
 21
-99.92546847768789
 31
0.0
 11
-168.81960578304
 21
-100.0533193717251
 31
0.0
  0
SPLINE
  5
10E
330
43
100
AcDbEntity
  8
0
  6
Continuous
 62
     7
100
AcDbSpline
210
0.0
220
0.0
230
1.0
 70
     8
 71
     3
 72
    11
 73
     7
 74
     5
 42
0.0000000001
 43
0.0000000001
 44
0.00000001
 40
0.0
 40
0.0
 40
0.0
 40
0.0
 40
0.0887148741494938
 40
0.1765200022860048
 40
0.4983921708598087
 40
0.8204350880712763
 40
0.8204350880712763
 40
0.8204350880712763
 40
0.8204350880712763
 10
-166.6410657418965
 20
-99.32271297127554
 30
0.0
 10
-166.6114819494624
 20
-99.32390545746179
 30
0.0
 10
-166.5526177380418
 20
-99.3262782012248
 30
0.0
 10
-166.3881981860406
 20
-99.34512480786276
 30
0.0
 10
-166.1380599238462
 20
-99.3991580054016
 30
0.0
 10
-165.991617238937
 20
-99.56303555280033
 30
0.0
 10
-165.9183764801886
 20
-99.64499605441739
 30
0.0
 11
-166.6410657418965
 21
-99.32271297127554
 31
0.0
 11
-166.5524735608163
 21
-99.32737712680556
 31
0.0
 11
-166.4651920097108
 21
-99.33695164317447
 31
0.0
 11
-166.1565283839577
 21
-99.42821203457916
 31
0.0
 11
-165.9183764801886
 21
-99.64499605441739
 31
0.0
  0
SPLINE
  5
10F
330
43
100
AcDbEntity
  8
0
  6
Continuous
 62
     7
100
AcDbSpline
210
0.0
220
0.0
230
1.0
 70
     8
 71
     3
 72
    11
 73
     7
 74
     5
 42
0.0000000001
 43
0.0000000001
 44
0.00000001
 40
0.0
 40
0.0
 40
0.0
 40
0.0
 40
0.1170570734542656
 40
0.2290200849522566
 40
0.3284614597839665
 40
0.4427040754344417
 40
0.4427040754344417
 40
0.4427040754344417
 40
0.4427040754344417
 10
-167.0310236908576
 20
-99.3613321922379
 30
0.0
 10
-166.9924273828244
 20
-99.35557947026071
 30
0.0
 10
-166.9169143917356
 20
-99.34432437189676
 30
0.0
 10
-166.8080593605518
 20
-99.33240219273888
 30
0.0
 10
-166.699799203464
 20
-99.32387250853239
 30
0.0
 10
-166.6285626867039
 20
-99.3227099291368
 30
0.0
 10
-166.5904772597792
 20
-99.3220883752677
 30
0.0
 11
-167.0310236908576
 21
-99.3613321922379
 31
0.0
 11
-166.9151338505199
 21
-99.3448427000636
 31
0.0
 11
-166.8038480578882
 21
-99.3325468348219
 31
0.0
 11
-166.7046769301519
 21
-99.32522054981945
 31
0.0
 11
-166.5904772597792
 21
-99.3220883752677
 31
0.0
  0
SPLINE
  5
110
330
43
100
AcDbEntity
  8
0
  6
Continuous
 62
     7
100
AcDbSpline
210
0.0
220
0.0
230
1.0
 70
     8
 71
     3
 72
     9
 73
     5
 74
     3
 42
0.0000000001
 43
0.0000000001
 44
0.00000001
 40
0.0
 40
0.0
 40
0.0
 40
0.0
 40
0.2103677856587171
 40
0.4207497013666367
 40
0.4207497013666367
 40
0.4207497013666367
 40
0.4207497013666367
 10
-169.0717075775159
 20
-100.7338582339046
 30
0.0
 10
-169.0742812039567
 20
-100.8039372899572
 30
0.0
 10
-169.0794286297046
 20
-100.9441001091543
 30
0.0
 10
-169.088438574419
 20
-101.084067723054
 30
0.0
 10
-169.0929436980668
 20
-101.1540538802721
 30
0.0
 11
-169.0717075775159
 21
-100.7338582339046
 31
0.0
 11
-169.0803940217236
 21
-100.9440466040157
 31
0.0
 11
-169.0929436980668
 21
-101.1540538802721
 31
0.0
  0
SPLINE
  5
111
330
43
100
AcDbEntity
  8
0
  6
Continuous
 62
     7
100
AcDbSpline
210
0.0
220
0.0
230
1.0
 70
     8
 71
     3
 72
     9
 73
     5
 74
     3
 42
0.0000000001
 43
0.0000000001
 44
0.00000001
 40
0.0
 40
0.0
 40
0.0
 40
0.0
 40
0.2103677856587159
 40
0.4207497013666373
 40
0.4207497013666373
 40
0.4207497013666373
 40
0.4207497013666373
 10
-168.9717075775159
 20
-100.7338582339046
 30
0.0
 10
-168.9742812039568
 20
-100.8039372899572
 30
0.0
 10
-168.9794286297046
 20
-100.9441001091543
 30
0.0
 10
-168.988438574419
 20
-101.0840677230541
 30
0.0
 10
-168.9929436980668
 20
-101.1540538802721
 30
0.0
 11
-168.9717075775159
 21
-100.7338582339046
 31
0.0
 11
-168.9803940217236
 21
-100.9440466040157
 31
0.0
 11
-168.9929436980668
 21
-101.1540538802721
 31
0.0
  0
SPLINE
  5
112
330
43
100
AcDbEntity
  8
0
  6
Continuous
 62
     7
100
AcDbSpline
210
0.0
220
0.0
230
1.0
 70
     8
 71
     3
 72
     9
 73
     5
 74
     3
 42
0.0000000001
 43
0.0000000001
 44
0.00000001
 40
0.0
 40
0.0
 40
0.0
 40
0.0
 40
0.022518616322583
 40
0.0450373168790495
 40
0.0450373168790495
 40
0.0450373168790495
 40
0.0450373168790495
 10
-169.0891650927293
 20
-98.8277635359788
 30
0.0
 10
-169.0896341768681
 20
-98.83525507405128
 30
0.0
 10
-169.0905723469003
 20
-98.85023817821926
 30
0.0
 10
-169.0915528567396
 20
-98.86521857120394
 30
0.0
 10
-169.0920431125762
 20
-98.8727087817053
 30
0.0
 11
-169.0891650927293
 21
-98.8277635359788
 31
0.0
 11
-169.0905829300578
 21
-98.85023747240288
 31
0.0
 11
-169.0920431125762
 21
-98.8727087817053
 31
0.0
  0
SPLINE
  5
113
330
43
100
AcDbEntity
  8
0
  6
Continuous
 62
     7
100
AcDbSpline
210
0.0
220
0.0
230
1.0
 70
     8
 71
     3
 72
     9
 73
     5
 74
     3
 42
0.0000000001
 43
0.0000000001
 44
0.00000001
 40
0.0
 40
0.0
 40
0.0
 40
0.0
 40
0.0225186163225812
 40
0.045037316879044
 40
0.045037316879044
 40
0.045037316879044
 40
0.045037316879044
 10
-168.9891650927293
 20
-98.8277635359788
 30
0.0
 10
-168.9896341768681
 20
-98.83525507405125
 30
0.0
 10
-168.9905723469003
 20
-98.85023817821929
 30
0.0
 10
-168.9915528567396
 20
-98.86521857120394
 30
0.0
 10
-168.9920431125761
 20
-98.8727087817053
 30
0.0
 11
-168.9891650927293
 21
-98.8277635359788
 31
0.0
 11
-168.9905829300578
 21
-98.85023747240288
 31
0.0
 11
-168.9920431125761
 21
-98.8727087817053
 31
0.0
  0
SPLINE
  5
114
330
43
100
AcDbEntity
  8
0
  6
Continuous
 62
     7
100
AcDbSpline
210
0.0
220
0.0
230
1.0
 70
     8
 71
     3
 72
    11
 73
     7
 74
     5
 42
0.0000000001
 43
0.0000000001
 44
0.00000001
 40
0.0
 40
0.0
 40
0.0
 40
0.0
 40
0.1454410243447889
 40
0.2679922507090802
 40
0.4302304384602152
 40
0.5405706928216377
 40
0.5405706928216377
 40
0.5405706928216377
 40
0.5405706928216377
 10
-166.5101324997324
 20
-99.11003220111819
 30
0.0
 10
-166.558617610654
 20
-99.110836270194
 30
0.0
 10
-166.6479571492079
 20
-99.11231786235359
 30
0.0
 10
-166.7910066318132
 20
-99.12323833313192
 30
0.0
 10
-166.9219536637822
 20
-99.13768403646196
 30
0.0
 10
-167.0118655252598
 20
-99.15080081011897
 30
0.0
 10
-167.0482620120423
 20
-99.15611050420371
 30
0.0
 11
-166.5101324997324
 21
-99.11003220111819
 31
0.0
 11
-166.6555190753555
 21
-99.114011546675
 31
0.0
 11
-166.777753307762
 21
-99.12282037811731
 31
0.0
 11
-166.9390035048587
 21
-99.14069783601954
 31
0.0
 11
-167.0482620120423
 21
-99.15611050420371
 31
0.0
  0
SPLINE
  5
115
330
43
100
AcDbEntity
  8
0
  6
Continuous
 62
     7
100
AcDbSpline
210
0.0
220
0.0
230
1.0
 70
     8
 71
     3
 72
    11
 73
     7
 74
     5
 42
0.0000000001
 43
0.0000000001
 44
0.00000001
 40
0.0
 40
0.0
 40
0.0
 40
0.0
 40
0.0250202420920971
 40
0.0500404841842794
 40
0.075059504155103
 40
0.1000711919031077
 40
0.1000711919031077
 40
0.1000711919031077
 40
0.1000711919031077
 10
-166.6102036910337
 20
-99.11002599345647
 30
0.0
 10
-166.6018636103332
 20
-99.11002598420457
 30
0.0
 10
-166.5851834489321
 20
-99.11002596570077
 30
0.0
 10
-166.560163614261
 20
-99.11002610447707
 30
0.0
 10
-166.535146630811
 20
-99.11002557720337
 30
0.0
 10
-166.5184697287339
 20
-99.1100299933623
 30
0.0
 10
-166.5101324997324
 20
-99.11003220111819
 30
0.0
 11
-166.6102036910337
 21
-99.11002599345647
 31
0.0
 11
-166.5851834489416
 21
-99.11002599345647
 31
0.0
 11
-166.5601632068494
 21
-99.11002599345647
 31
0.0
 11
-166.5351441868906
 21
-99.11002676941419
 31
0.0
 11
-166.5101324997324
 21
-99.11003220111819
 31
0.0
  0
SPLINE
  5
116
330
43
100
AcDbEntity
  8
0
  6
Continuous
 62
     7
100
AcDbSpline
210
0.0
220
0.0
230
1.0
 70
     8
 71
     3
 72
     9
 73
     5
 74
     3
 42
0.0000000001
 43
0.0000000001
 44
0.00000001
 40
0.0
 40
0.0
 40
0.0
 40
0.0
 40
0.102043142783131
 40
0.2040841479873135
 40
0.2040841479873135
 40
0.2040841479873135
 40
0.2040841479873135
 10
-169.0149290359688
 20
-97.25043981803009
 30
0.0
 10
-169.0122007267177
 20
-97.2843449937229
 30
0.0
 10
-169.0067441653674
 20
-97.35215463486989
 30
0.0
 10
-169.0021588237081
 20
-97.42002875463182
 30
0.0
 10
-168.9998661768919
 20
-97.45396545905572
 30
0.0
 11
-169.0149290359688
 21
-97.25043981803009
 31
0.0
 11
-169.0069619177007
 21
-97.35217146510001
 31
0.0
 11
-168.9998661768919
 21
-97.45396545905572
 31
0.0
  0
SPLINE
  5
117
330
43
100
AcDbEntity
  8
0
  6
Continuous
 62
     7
100
AcDbSpline
210
0.0
220
0.0
230
1.0
 70
     8
 71
     3
 72
     9
 73
     5
 74
     3
 42
0.0000000001
 43
0.0000000001
 44
0.00000001
 40
0.0
 40
0.0
 40
0.0
 40
0.0
 40
0.1020431427831266
 40
0.204084147987313
 40
0.204084147987313
 40
0.204084147987313
 40
0.204084147987313
 10
-169.1149290359688
 20
-97.25043981803009
 30
0.0
 10
-169.1122007267176
 20
-97.28434499372293
 30
0.0
 10
-169.1067441653674
 20
-97.3521546348699
 30
0.0
 10
-169.1021588237082
 20
-97.4200287546318
 30
0.0
 10
-169.0998661768919
 20
-97.45396545905572
 30
0.0
 11
-169.1149290359688
 21
-97.25043981803009
 31
0.0
 11
-169.1069619177007
 21
-97.35217146510001
 31
0.0
 11
-169.0998661768919
 21
-97.45396545905572
 31
0.0
  0
SPLINE
  5
118
330
43
100
AcDbEntity
  8
0
  6
Continuous
 62
     7
100
AcDbSpline
210
0.0
220
0.0
230
1.0
 70
     8
 71
     3
 72
    14
 73
    10
 74
     8
 42
0.0000000001
 43
0.0000000001
 44
0.00000001
 40
0.0
 40
0.0
 40
0.0
 40
0.0
 40
0.1145321067145161
 40
0.2683219343770709
 40
0.4417654456077093
 40
0.644575573970048
 40
0.7947224019580733
 40
0.834397171794155
 40
0.8742649098532058
 40
0.8742649098532058
 40
0.8742649098532058
 40
0.8742649098532058
 10
-166.5904772597792
 20
-99.3220883752677
 30
0.0
 10
-166.5522941590337
 20
-99.32275025218145
 30
0.0
 10
-166.4628400858795
 20
-99.32430087496235
 30
0.0
 10
-166.3162280018658
 20
-99.34139100184476
 30
0.0
 10
-166.1439840318358
 20
-99.38313523918065
 30
0.0
 10
-165.9836781257459
 20
-99.46056890393173
 30
0.0
 10
-165.8862007892275
 20
-99.55045699021278
 30
0.0
 10
-165.8396241123444
 20
-99.61131503409285
 30
0.0
 10
-165.8254704697068
 20
-99.63375090468062
 30
0.0
 10
-165.8183764801886
 20
-99.64499605441739
 30
0.0
 11
-166.5904772597792
 21
-99.3220883752677
 31
0.0
 11
-166.4760015682828
 21
-99.32568274932875
 31
0.0
 11
-166.3232504631412
 21
-99.34352682314896
 31
0.0
 11
-166.155160487481
 21
-99.38628675381493
 31
0.0
 11
-165.9741973879241
 21
-99.47785260315365
 31
0.0
 11
-165.8641763194385
 21
-99.58002615376313
 31
0.0
 11
-165.8401548690584
 21
-99.61160236764609
 31
0.0
 11
-165.8183764801886
 21
-99.64499605441739
 31
0.0
  0
SPLINE
  5
119
330
43
100
AcDbEntity
  8
0
  6
Continuous
 62
     7
100
AcDbSpline
210
0.0
220
0.0
230
1.0
 70
     8
 71
     3
 72
     9
 73
     5
 74
     3
 42
0.0000000001
 43
0.0000000001
 44
0.00000001
 40
0.0
 40
0.0
 40
0.0
 40
0.0
 40
1.197787261848804
 40
2.433497965755806
 40
2.433497965755806
 40
2.433497965755806
 40
2.433497965755806
 10
-165.568509050646
 20
-98.27570023469676
 30
0.0
 10
-165.9647147211081
 20
-98.32509537560873
 30
0.0
 10
-166.7696704288538
 20
-98.42544956934256
 30
0.0
 10
-167.5764377318044
 20
-98.51002193704485
 30
0.0
 10
-167.9861076825696
 20
-98.55296710547938
 30
0.0
 11
-165.568509050646
 21
-98.27570023469676
 31
0.0
 11
-166.7575649549447
 21
-98.42006221410821
 31
0.0
 11
-167.9861076825696
 21
-98.55296710547938
 31
0.0
  0
SPLINE
  5
11A
330
43
100
AcDbEntity
  8
0
  6
Continuous
 62
     7
100
AcDbSpline
210
0.0
220
0.0
230
1.0
 70
     8
 71
     3
 72
     9
 73
     5
 74
     3
 42
0.0000000001
 43
0.0000000001
 44
0.00000001
 40
0.0
 40
0.0
 40
0.0
 40
0.0
 40
1.806058217096626
 40
3.536792416556243
 40
3.536792416556243
 40
3.536792416556243
 40
3.536792416556243
 10
-168.9920431125761
 20
-98.8727087817053
 30
0.0
 10
-168.392706182071
 20
-98.81560070077123
 30
0.0
 10
-167.2190284508072
 20
-98.70376630603259
 30
0.0
 10
-166.0488563463942
 20
-98.55983509330014
 30
0.0
 10
-165.4762310289227
 20
-98.48940215777368
 30
0.0
 11
-168.9920431125761
 21
-98.8727087817053
 31
0.0
 11
-167.1949464554267
 21
-98.69301490756192
 31
0.0
 11
-165.4762310289227
 21
-98.48940215777368
 31
0.0
  0
SPLINE
  5
11B
330
43
100
AcDbEntity
  8
0
  6
Continuous
 62
     7
100
AcDbSpline
210
0.0
220
0.0
230
1.0
 70
     8
 71
     3
 72
     9
 73
     5
 74
     3
 42
0.0000000001
 43
0.0000000001
 44
0.00000001
 40
0.0
 40
0.0
 40
0.0
 40
0.0
 40
1.733188904246264
 40
3.541811983006963
 40
3.541811983006963
 40
3.541811983006963
 40
3.541811983006963
 10
-165.4940681100663
 20
-96.86713319409847
 30
0.0
 10
-166.0675158128842
 20
-96.93758315736238
 30
0.0
 10
-167.2393695793676
 20
-97.08154930177932
 30
0.0
 10
-168.4147315242061
 20
-97.1933492670845
 30
0.0
 10
-169.0149290359688
 20
-97.25043981803009
 30
0.0
 11
-165.4940681100663
 21
-96.86713319409847
 31
0.0
 11
-167.2152513020278
 21
-97.07078043201636
 31
0.0
 11
-169.0149290359688
 21
-97.25043981803009
 31
0.0
  0
SPLINE
  5
11C
330
43
100
AcDbEntity
  8
0
  6
Continuous
 62
     7
100
AcDbSpline
210
0.0
220
0.0
230
1.0
 70
     8
 71
     3
 72
     9
 73
     5
 74
     3
 42
0.0000000001
 43
0.0000000001
 44
0.00000001
 40
0.0
 40
0.0
 40
0.0
 40
0.0
 40
1.257158403554717
 40
2.555906049418674
 40
2.555906049418674
 40
2.555906049418674
 40
2.555906049418674
 10
-165.468509050646
 20
-98.27570023469676
 30
0.0
 10
-165.8843641178436
 20
-98.32746741355275
 30
0.0
 10
-166.729831545756
 20
-98.43271433011097
 30
0.0
 10
-167.5772776519286
 20
-98.52062811190669
 30
0.0
 10
-168.0078954501214
 20
-98.56530026140615
 30
0.0
 11
-165.468509050646
 21
-98.27570023469676
 31
0.0
 11
-166.7165529544308
 21
-98.42680836106295
 31
0.0
 11
-168.0078954501214
 21
-98.56530026140615
 31
0.0
  0
SPLINE
  5
11D
330
43
100
AcDbEntity
  8
0
  6
Continuous
 62
     7
100
AcDbSpline
210
0.0
220
0.0
230
1.0
 70
     8
 71
     3
 72
     9
 73
     5
 74
     3
 42
0.0000000001
 43
0.0000000001
 44
0.00000001
 40
0.0
 40
0.0
 40
0.0
 40
0.0
 40
1.818790591540539
 40
3.565579868838335
 40
3.565579868838335
 40
3.565579868838335
 40
3.565579868838335
 10
-168.9929436980668
 20
-101.1540538802721
 30
0.0
 10
-168.3925128410203
 20
-101.0696650388248
 30
0.0
 10
-167.2154206642344
 20
-100.9042280964858
 30
0.0
 10
-166.0458691400191
 20
-100.6919794832394
 30
0.0
 10
-165.4729020107167
 20
-100.5879981911695
 30
0.0
 11
-168.9929436980668
 21
-101.1540538802721
 31
0.0
 11
-167.1936131946405
 21
-100.8887070217714
 31
0.0
 11
-165.4729020107167
 21
-100.5879981911695
 31
0.0
  0
SPLINE
  5
11E
330
43
100
AcDbEntity
  8
0
  6
Continuous
 62
     7
100
AcDbSpline
210
0.0
220
0.0
230
1.0
 70
     8
 71
     3
 72
    21
 73
    17
 74
    15
 42
0.0000000001
 43
0.0000000001
 44
0.00000001
 40
0.0
 40
0.0
 40
0.0
 40
0.0
 40
0.1122456228875509
 40
0.1955074638061907
 40
0.2507267663862543
 40
0.3591558013106497
 40
0.4856882777135381
 40
0.6320573968031746
 40
0.8045518930241943
 40
0.9080625331524688
 40
0.9871899661206026
 40
1.074013354668292
 40
1.138996026527777
 40
1.172212820604295
 40
1.343013851895874
 40
1.549506713427329
 40
1.549506713427329
 40
1.549506713427329
 40
1.549506713427329
 10
-165.4523787309489
 20
-99.94307631616952
 30
0.0
 10
-165.453348471248
 20
-99.90565813268731
 30
0.0
 10
-165.4550375479493
 20
-99.84048379479646
 30
0.0
 10
-165.4642204936897
 20
-99.75732138034408
 30
0.0
 10
-165.4780526028525
 20
-99.67616229411165
 30
0.0
 10
-165.5022112744884
 20
-99.58229397230029
 30
0.0
 10
-165.5529937807463
 20
-99.46463946061317
 30
0.0
 10
-165.6480969732219
 20
-99.34789437155088
 30
0.0
 10
-165.765125360989
 20
-99.26657430563432
 30
0.0
 10
-165.8729573622852
 20
-99.2172886389649
 30
0.0
 10
-165.9577088325775
 20
-99.18732428925337
 30
0.0
 10
-166.031751805003
 20
-99.16613201263725
 30
0.0
 10
-166.091774456698
 20
-99.15186413972351
 30
0.0
 10
-166.1796783930167
 20
-99.1341831075018
 30
0.0
 10
-166.3154371257744
 20
-99.11453547091668
 30
0.0
 10
-166.4412662491783
 20
-99.11162506539611
 30
0.0
 10
-166.5101324997324
 20
-99.11003220111819
 30
0.0
 11
-165.4523787309489
 21
-99.94307631616952
 31
0.0
 11
-165.4570914436649
 21
-99.8309296702265
 31
0.0
 11
-165.4662185228042
 21
-99.74816959180976
 31
0.0
 11
-165.4755791689466
 21
-99.69374946978466
 31
0.0
 11
-165.5032018583269
 21
-99.58889794310987
 31
0.0
 11
-165.5550662194575
 21
-99.47348323161621
 31
0.0
 11
-165.6467882205976
 21
-99.3594174894763
 31
0.0
 11
-165.7871028168476
 21
-99.2590872083756
 31
0.0
 11
-165.8809994958227
 21
-99.21552270106507
 31
0.0
 11
-165.9555185469033
 21
-99.18891327277028
 31
0.0
 11
-166.0389422833218
 21
-99.16485540501594
 31
0.0
 11
-166.1021815690441
 21
-99.14990413806879
 31
0.0
 11
-166.1347398779265
 21
-99.14332295797394
 31
0.0
 11
-166.303849883939
 21
-99.11934800945005
 31
0.0
 11
-166.5101324997324
 21
-99.11003220111819
 31
0.0
  0
SPLINE
  5
11F
330
43
100
AcDbEntity
  8
0
  6
Continuous
 62
     7
100
AcDbSpline
210
0.0
220
0.0
230
1.0
 70
     8
 71
     3
 72
     9
 73
     5
 74
     3
 42
0.0000000001
 43
0.0000000001
 44
0.00000001
 40
0.0
 40
0.0
 40
0.0
 40
0.0
 40
1.361227841320773
 40
2.766218647107686
 40
2.766218647107686
 40
2.766218647107686
 40
2.766218647107686
 10
-165.8499394211663
 20
-100.4472262894601
 30
0.0
 10
-166.2966533538391
 20
-100.5269522248415
 30
0.0
 10
-167.2044429045459
 20
-100.6889672545194
 30
0.0
 10
-168.1168388676074
 20
-100.8226410833051
 30
0.0
 10
-168.580254129694
 20
-100.8905353911591
 30
0.0
 11
-165.8499394211663
 21
-100.4472262894601
 31
0.0
 11
-167.1911966726307
 21
-100.6795412080102
 31
0.0
 11
-168.580254129694
 21
-100.8905353911591
 31
0.0
  0
SPLINE
  5
120
330
43
100
AcDbEntity
  8
0
  6
Continuous
 62
     7
100
AcDbSpline
210
0.0
220
0.0
230
1.0
 70
     8
 71
     3
 72
     9
 73
     5
 74
     3
 42
0.0000000001
 43
0.0000000001
 44
0.00000001
 40
0.0
 40
0.0
 40
0.0
 40
0.0
 40
0.0717202488319451
 40
0.1434391799582692
 40
0.1434391799582692
 40
0.1434391799582692
 40
0.1434391799582692
 10
-168.5809193491688
 20
-100.9047349700157
 30
0.0
 10
-168.5798224872824
 20
-100.8808532580544
 30
0.0
 10
-168.5776287836621
 20
-100.8330902729069
 30
0.0
 10
-168.5758705262171
 20
-100.7853092765177
 30
0.0
 10
-168.5749914055707
 20
-100.7614189977934
 30
0.0
 11
-168.5809193491688
 21
-100.9047349700157
 31
0.0
 11
-168.5777376270536
 21
-100.8330853312385
 31
0.0
 11
-168.5749914055707
 21
-100.7614189977934
 31
0.0
  0
SPLINE
  5
121
330
43
100
AcDbEntity
  8
0
  6
Continuous
 62
     7
100
AcDbSpline
210
0.0
220
0.0
230
1.0
 70
     8
 71
     3
 72
     9
 73
     5
 74
     3
 42
0.0000000001
 43
0.0000000001
 44
0.00000001
 40
0.0
 40
0.0
 40
0.0
 40
0.0
 40
1.410525400050626
 40
2.867875083501357
 40
2.867875083501357
 40
2.867875083501357
 40
2.867875083501357
 10
-165.7499394211663
 20
-100.4472262894601
 30
0.0
 10
-166.2128510466644
 20
-100.5297408456254
 30
0.0
 10
-167.1540412702375
 20
-100.697509139372
 30
0.0
 10
-168.1001442614689
 20
-100.834911893768
 30
0.0
 10
-168.5809193491688
 20
-100.9047349700157
 30
0.0
 11
-165.7499394211663
 21
-100.4472262894601
 31
0.0
 11
-167.1398627111865
 21
-100.6874244410921
 31
0.0
 11
-168.5809193491688
 21
-100.9047349700157
 31
0.0
  0
SPLINE
  5
122
330
43
100
AcDbEntity
  8
0
  6
Continuous
 62
     7
100
AcDbSpline
210
0.0
220
0.0
230
1.0
 70
     8
 71
     3
 72
    17
 73
    13
 74
    11
 42
0.0000000001
 43
0.0000000001
 44
0.00000001
 40
0.0
 40
0.0
 40
0.0
 40
0.0
 40
0.0577913338957662
 40
0.1189473072929447
 40
0.1913108239984849
 40
0.2826644109939459
 40
0.355130771543628
 40
0.4230095529661255
 40
0.4827991696222423
 40
0.5309441761982108
 40
0.5638545536311648
 40
0.5779172455886518
 40
0.5779172455886518
 40
0.5779172455886518
 40
0.5779172455886518
 10
-165.9183764801886
 20
-99.64499605441739
 30
0.0
 10
-165.9102475576576
 20
-99.66248106108762
 30
0.0
 10
-165.8935164427814
 20
-99.69846906000066
 30
0.0
 10
-165.8748426911297
 20
-99.75965377279257
 30
0.0
 10
-165.8604749104451
 20
-99.83329628898738
 30
0.0
 10
-165.851001351777
 20
-99.9115033770529
 30
0.0
 10
-165.8448128721062
 20
-99.98850020791733
 30
0.0
 10
-165.8419178084266
 20
-100.0551619355432
 30
0.0
 10
-165.8409065929381
 20
-100.1137625475095
 30
0.0
 10
-165.8411094827293
 20
-100.1607132954879
 30
0.0
 10
-165.8417639255882
 20
-100.1924139958353
 30
0.0
 10
-165.8422909835795
 20
-100.2080628667267
 30
0.0
 10
-165.8424487730165
 20
-100.2127477905285
 30
0.0
 11
-165.9183764801886
 21
-99.64499605441739
 31
0.0
 11
-165.8951984946549
 21
-99.69793582453448
 31
0.0
 11
-165.8768811003513
 21
-99.7562841419745
 31
0.0
 11
-165.8624488999849
 21
-99.82719387432894
 31
0.0
 11
-165.8509264962631
 21
-99.9178178891893
 31
0.0
 11
-165.8451484671577
 21
-99.99005352991445
 31
0.0
 11
-165.8421152782046
 21
-100.0578645078766
 31
0.0
 11
-165.8410778218589
 21
-100.1176451229973
 31
0.0
 11
-165.8412869905756
 21
-100.1657896751985
 31
0.0
 11
-165.8419936768097
 21
-100.1986924644016
 31
0.0
 11
-165.8424487730165
 21
-100.2127477905285
 31
0.0
  0
SPLINE
  5
123
330
43
100
AcDbEntity
  8
0
  6
Continuous
 62
     7
100
AcDbSpline
210
0.0
220
0.0
230
1.0
 70
     8
 71
     3
 72
    17
 73
    13
 74
    11
 42
0.0000000001
 43
0.0000000001
 44
0.00000001
 40
0.0
 40
0.0
 40
0.0
 40
0.0
 40
0.0566762976177438
 40
0.1172515290215973
 40
0.1897687156429491
 40
0.2822508969635892
 40
0.3547156344607069
 40
0.4226016700898062
 40
0.4824221592698533
 40
0.5306362900303347
 40
0.5636685817914798
 40
0.5779204488935267
 40
0.5779204488935267
 40
0.5779204488935267
 40
0.5779204488935267
 10
-165.8183764801886
 20
-99.64499605441739
 30
0.0
 10
-165.8103866117997
 20
-99.66213475823446
 30
0.0
 10
-165.7938572278303
 20
-99.69759118909647
 30
0.0
 10
-165.7751827956044
 20
-99.7582347067632
 30
0.0
 10
-165.7606527598501
 20
-99.83208711820456
 30
0.0
 10
-165.7510725169823
 20
-99.91071290018587
 30
0.0
 10
-165.7448380827801
 20
-99.98808540512556
 30
0.0
 10
-165.7419294667384
 20
-100.0547587509769
 30
0.0
 10
-165.7409097562692
 20
-100.1133949864122
 30
0.0
 10
-165.7411073456383
 20
-100.1604197578678
 30
0.0
 10
-165.7417627546395
 20
-100.192247188265
 30
0.0
 10
-165.7422898897837
 20
-100.2079998099043
 30
0.0
 10
-165.7424487730165
 20
-100.2127477905285
 30
0.0
 11
-165.8183764801886
 21
-99.64499605441739
 31
0.0
 11
-165.7955730453884
 21
-99.69688252734598
 31
0.0
 11
-165.7772951415523
 21
-99.75463438351517
 31
0.0
 11
-165.7627058990596
 21
-99.8256688565474
 31
0.0
 11
-165.7509684482901
 21
-99.91740318006514
 31
0.0
 11
-165.745173650159
 21
-99.98963584923322
 31
0.0
 11
-165.7421274586612
 21
-100.0574535058633
 31
0.0
 11
-165.7410808744974
 21
-100.1172648391316
 31
0.0
 11
-165.7412848983682
 21
-100.1654785382144
 31
0.0
 11
-165.7419905309744
 21
-100.1985032922879
 31
0.0
 11
-165.7424487730165
 21
-100.2127477905285
 31
0.0
  0
SPLINE
  5
124
330
43
100
AcDbEntity
  8
0
  6
Continuous
 62
     7
100
AcDbSpline
210
0.0
220
0.0
230
1.0
 70
     8
 71
     3
 72
     9
 73
     5
 74
     3
 42
0.0000000001
 43
0.0000000001
 44
0.00000001
 40
0.0
 40
0.0
 40
0.0
 40
0.0
 40
0.1172989188250577
 40
0.2346000543502562
 40
0.2346000543502562
 40
0.2346000543502562
 40
0.2346000543502562
 10
-165.7424487730165
 20
-100.2127477905285
 30
0.0
 10
-165.7434589417166
 20
-100.2518347825622
 30
0.0
 10
-165.745479298207
 20
-100.3300095052905
 30
0.0
 10
-165.7484527041481
 20
-100.4081537819458
 30
0.0
 10
-165.7499394211663
 20
-100.4472262894601
 30
0.0
 11
-165.7424487730165
 21
-100.2127477905285
 31
0.0
 11
-165.7457175369771
 21
-100.330001155255
 31
0.0
 11
-165.7499394211663
 21
-100.4472262894601
 31
0.0
  0
SPLINE
  5
125
330
43
100
AcDbEntity
  8
0
  6
Continuous
 62
     7
100
AcDbSpline
210
0.0
220
0.0
230
1.0
 70
     8
 71
     3
 72
     9
 73
     5
 74
     3
 42
0.0000000001
 43
0.0000000001
 44
0.00000001
 40
0.0
 40
0.0
 40
0.0
 40
0.0
 40
0.3226517478087616
 40
0.6452871938055513
 40
0.6452871938055513
 40
0.6452871938055513
 40
0.6452871938055513
 10
-165.4729020107167
 20
-100.5879981911695
 30
0.0
 10
-165.4677121335998
 20
-100.4805647985462
 30
0.0
 10
-165.4573326415817
 20
-100.2657034413158
 30
0.0
 10
-165.4540300066818
 20
-100.0506168799831
 30
0.0
 10
-165.4523787309489
 20
-99.94307631616952
 30
0.0
 11
-165.4729020107167
 21
-100.5879981911695
 31
0.0
 11
-165.4591016830374
 21
-100.2656417094292
 31
0.0
 11
-165.4523787309489
 21
-99.94307631616952
 31
0.0
  0
SPLINE
  5
126
330
43
100
AcDbEntity
  8
0
  6
Continuous
 62
     7
100
AcDbSpline
210
0.0
220
0.0
230
1.0
 70
     8
 71
     3
 72
     9
 73
     5
 74
     3
 42
0.0000000001
 43
0.0000000001
 44
0.00000001
 40
0.0
 40
0.0
 40
0.0
 40
0.0
 40
0.1069217906063563
 40
0.2138426943127303
 40
0.2138426943127303
 40
0.2138426943127303
 40
0.2138426943127303
 10
-165.4762310289227
 20
-98.48940215777368
 30
0.0
 10
-165.4747575613316
 20
-98.45379176069372
 30
0.0
 10
-165.4718106383713
 20
-98.38257126191658
 30
0.0
 10
-165.4696095768448
 20
-98.31132381193851
 30
0.0
 10
-165.468509050646
 20
-98.27570023469676
 30
0.0
 11
-165.4762310289227
 21
-98.48940215777368
 31
0.0
 11
-165.4719970930543
 21
-98.38256422867764
 31
0.0
 11
-165.468509050646
 21
-98.27570023469676
 31
0.0
  0
SPLINE
  5
127
330
43
100
AcDbEntity
  8
0
  6
Continuous
 62
     7
100
AcDbSpline
210
0.0
220
0.0
230
1.0
 70
     8
 71
     3
 72
     9
 73
     5
 74
     3
 42
0.0000000001
 43
0.0000000001
 44
0.00000001
 40
0.0
 40
0.0
 40
0.0
 40
0.0
 40
0.023150160765755
 40
0.0463003896418684
 40
0.0463003896418684
 40
0.0463003896418684
 40
0.0463003896418684
 10
-165.4912954225531
 20
-96.91335047508137
 30
0.0
 10
-165.4917488075542
 20
-96.9056470825806
 30
0.0
 10
-165.4926555788905
 20
-96.89024027491485
 30
0.0
 10
-165.4935972658793
 20
-96.87483556192433
 30
0.0
 10
-165.4940681100663
 20
-96.86713319409847
 30
0.0
 11
-165.4912954225531
 21
-96.91335047508137
 31
0.0
 11
-165.4926643064441
 21
-96.89024082124638
 31
0.0
 11
-165.4940681100663
 21
-96.86713319409847
 31
0.0
  0
SPLINE
  5
128
330
43
100
AcDbEntity
  8
0
  6
Continuous
 62
     7
100
AcDbSpline
210
0.0
220
0.0
230
1.0
 70
     8
 71
     3
 72
     9
 73
     5
 74
     3
 42
0.0000000001
 43
0.0000000001
 44
0.00000001
 40
0.0
 40
0.0
 40
0.0
 40
0.0
 40
0.1095096416072218
 40
0.2190190386881073
 40
0.2190190386881073
 40
0.2190190386881073
 40
0.2190190386881073
 10
-165.0823057604307
 20
-96.47995114467767
 30
0.0
 10
-165.0804558866079
 20
-96.4434945705162
 30
0.0
 10
-165.0767561430931
 20
-96.37058150359789
 30
0.0
 10
-165.0737994309568
 20
-96.29763452776855
 30
0.0
 10
-165.0723210765391
 20
-96.2611610805751
 30
0.0
 11
-165.0823057604307
 21
-96.47995114467767
 31
0.0
 11
-165.0769418972218
 21
-96.37057294494656
 31
0.0
 11
-165.0723210765391
 21
-96.2611610805751
 31
0.0
  0
SPLINE
  5
129
330
43
100
AcDbEntity
  8
0
  6
Continuous
 62
     7
100
AcDbSpline
210
0.0
220
0.0
230
1.0
 70
     8
 71
     3
 72
     9
 73
     5
 74
     3
 42
0.0000000001
 43
0.0000000001
 44
0.00000001
 40
0.0
 40
0.0
 40
0.0
 40
0.0
 40
0.1172989188250561
 40
0.2346000543502566
 40
0.2346000543502566
 40
0.2346000543502566
 40
0.2346000543502566
 10
-165.8424487730165
 20
-100.2127477905285
 30
0.0
 10
-165.8434589417166
 20
-100.2518347825622
 30
0.0
 10
-165.8454792982069
 20
-100.3300095052905
 30
0.0
 10
-165.8484527041481
 20
-100.4081537819458
 30
0.0
 10
-165.8499394211663
 20
-100.4472262894601
 30
0.0
 11
-165.8424487730165
 21
-100.2127477905285
 31
0.0
 11
-165.845717536977
 21
-100.330001155255
 31
0.0
 11
-165.8499394211663
 21
-100.4472262894601
 31
0.0
  0
SPLINE
  5
12A
330
43
100
AcDbEntity
  8
0
  6
Continuous
 62
     7
100
AcDbSpline
210
0.0
220
0.0
230
1.0
 70
     8
 71
     3
 72
    17
 73
    13
 74
    11
 42
0.0000000001
 43
0.0000000001
 44
0.00000001
 40
0.0
 40
0.0
 40
0.0
 40
0.0
 40
0.0768631329564274
 40
0.1516766977358533
 40
0.2283540567084422
 40
0.3067126407832199
 40
0.4894873863538399
 40
0.6232828493690661
 40
0.9307836924843401
 40
1.212377736884971
 40
1.781548859026593
 40
2.329248542749036
 40
2.329248542749036
 40
2.329248542749036
 40
2.329248542749036
 10
-169.0654213483342
 20
-86.85264710966115
 30
0.0
 10
-169.0629144915423
 20
-86.87823960540601
 30
0.0
 10
-169.0579676237103
 20
-86.92874216875583
 30
0.0
 10
-169.0314503757072
 20
-87.00082921357782
 30
0.0
 10
-168.994332710517
 20
-87.06806385518183
 30
0.0
 10
-168.9264631228823
 20
-87.15830623460474
 30
0.0
 10
-168.8293750345454
 20
-87.248710015606
 30
0.0
 10
-168.6594187215421
 20
-87.36893817610814
 30
0.0
 10
-168.4450432895966
 20
-87.48144608048734
 30
0.0
 10
-168.0845524979911
 20
-87.62053911856268
 30
0.0
 10
-167.63348919202
 20
-87.74295948859597
 30
0.0
 10
-167.2670721956349
 20
-87.80903828698345
 30
0.0
 10
-167.087385814742
 20
-87.84144251564405
 30
0.0
 11
-169.0654213483342
 21
-86.85264710966115
 31
0.0
 11
-169.0546480349689
 21
-86.92875149144703
 31
0.0
 11
-169.0299907831129
 21
-86.99938497788168
 31
0.0
 11
-168.9931091587834
 21
-87.06660969927067
 31
0.0
 11
-168.9463850157454
 21
-87.12951377032786
 31
0.0
 11
-168.814537878267
 21
-87.25609552239808
 31
0.0
 11
-168.705742337122
 21
-87.33397206668721
 31
0.0
 11
-168.4350042336186
 21
-87.47977209353212
 31
0.0
 11
-168.1730020083513
 21
-87.58297112355129
 31
0.0
 11
-167.6249589041804
 21
-87.73660875647585
 31
0.0
 11
-167.087385814742
 21
-87.84144251564405
 31
0.0
  0
SPLINE
  5
12B
330
43
100
AcDbEntity
  8
0
  6
Continuous
 62
     7
100
AcDbSpline
210
0.0
220
0.0
230
1.0
 70
     8
 71
     3
 72
    13
 73
     9
 74
     7
 42
0.0000000001
 43
0.0000000001
 44
0.00000001
 40
0.0
 40
0.0
 40
0.0
 40
0.0
 40
0.583637955377065
 40
1.178069914282812
 40
1.486989758732522
 40
1.802844371832427
 40
1.944908963903659
 40
2.089065397706741
 40
2.089065397706741
 40
2.089065397706741
 40
2.089065397706741
 10
-167.1955563348868
 20
-92.97124472229713
 30
0.0
 10
-167.3902525415241
 20
-92.98236145582007
 30
0.0
 10
-167.783245734224
 20
-93.00480051960585
 30
0.0
 10
-168.2630235701014
 20
-93.15066305804328
 30
0.0
 10
-168.6268525184965
 20
-93.33318371341437
 30
0.0
 10
-168.8364039393703
 20
-93.48264372720334
 30
0.0
 10
-168.9765912646414
 20
-93.62785035681942
 30
0.0
 10
-169.0271049415027
 20
-93.70908185378241
 30
0.0
 10
-169.0525463691279
 20
-93.74999444180384
 30
0.0
 11
-167.1955563348868
 21
-92.97124472229713
 31
0.0
 11
-167.7764816124388
 21
-93.02745045917341
 31
0.0
 11
-168.3456642317869
 21
-93.19885786741649
 31
0.0
 11
-168.6209418295045
 21
-93.33904957362496
 31
0.0
 11
-168.8750874610312
 21
-93.52659725980746
 31
0.0
 11
-168.9721304171006
 21
-93.63035184041802
 31
0.0
 11
-169.0525463691279
 21
-93.74999444180384
 31
0.0
  0
SPLINE
  5
12C
330
43
100
AcDbEntity
  8
0
  6
Continuous
 62
     7
100
AcDbSpline
210
0.0
220
0.0
230
1.0
 70
     8
 71
     3
 72
    15
 73
    11
 74
     9
 42
0.0000000001
 43
0.0000000001
 44
0.00000001
 40
0.0
 40
0.0
 40
0.0
 40
0.0
 40
0.5132465515031368
 40
1.010248500193634
 40
1.184165809226934
 40
1.359653718947158
 40
1.497913574293725
 40
1.718279885065562
 40
1.863892460319619
 40
2.090030697063715
 40
2.090030697063715
 40
2.090030697063715
 40
2.090030697063715
 10
-167.0955563348868
 20
-92.97124472229713
 30
0.0
 10
-167.2666501485263
 20
-92.98042092765706
 30
0.0
 10
-167.6034225401099
 20
-92.9984829052294
 30
0.0
 10
-167.989342162242
 20
-93.09549695568394
 30
0.0
 10
-168.2518401652467
 20
-93.19920777135619
 30
0.0
 10
-168.398705624151
 20
-93.26919766664363
 30
0.0
 10
-168.5543400449447
 20
-93.35600074285526
 30
0.0
 10
-168.6922136204631
 20
-93.45250619611971
 30
0.0
 10
-168.8422390512965
 20
-93.58256586955825
 30
0.0
 10
-168.9108352710356
 20
-93.68667231104735
 30
0.0
 10
-168.952562760737
 20
-93.75000088048748
 30
0.0
 11
-167.0955563348868
 21
-92.97124472229713
 31
0.0
 11
-167.6068936244243
 21
-93.01547366031639
 31
0.0
 11
-168.088830199444
 21
-93.136915311575
 31
0.0
 11
-168.2505764234487
 21
-93.2008323625207
 31
0.0
 11
-168.4089580186473
 21
-93.2764053521422
 31
0.0
 11
-168.5294579551417
 21
-93.3441958596289
 31
0.0
 11
-168.7099920053823
 21
-93.47056344893448
 31
0.0
 11
-168.817909315344
 21
-93.56832272615537
 31
0.0
 11
-168.952562760737
 21
-93.75000088048748
 31
0.0
  0
SPLINE
  5
12D
330
43
100
AcDbEntity
  8
0
  6
Continuous
 62
     7
100
AcDbSpline
210
0.0
220
0.0
230
1.0
 70
     8
 71
     3
 72
    15
 73
    11
 74
     9
 42
0.0000000001
 43
0.0000000001
 44
0.00000001
 40
0.0
 40
0.0
 40
0.0
 40
0.0
 40
0.0908786975687395
 40
0.1551934205240827
 40
0.2171759097211473
 40
0.3510555749310903
 40
0.5502854988394913
 40
0.8121261696414431
 40
1.19465125368856
 40
1.593873908254799
 40
1.593873908254799
 40
1.593873908254799
 40
1.593873908254799
 10
-168.5201431403119
 20
-93.74999142364977
 30
0.0
 10
-168.5010998496262
 20
-93.72639575826443
 30
0.0
 10
-168.4685796496385
 20
-93.68610147458008
 30
0.0
 10
-168.4170896323029
 20
-93.63510601297574
 30
0.0
 10
-168.3532624348042
 20
-93.57634797408362
 30
0.0
 10
-168.247071206626
 20
-93.4978540878538
 30
0.0
 10
-168.0748340557812
 20
-93.3985386294041
 30
0.0
 10
-167.81373638541
 20
-93.29201437490491
 30
0.0
 10
-167.4733849162508
 20
-93.20982154435521
 30
0.0
 10
-167.2127741322483
 20
-93.19588159796331
 30
0.0
 10
-167.0796855106137
 20
-93.18876275114329
 30
0.0
 11
-168.5201431403119
 21
-93.74999142364977
 31
0.0
 11
-168.4615475247665
 21
-93.68052566582156
 31
0.0
 11
-168.4162670337687
 21
-93.63485225206892
 31
0.0
 11
-168.3704403765729
 21
-93.5931180160351
 31
0.0
 11
-168.2635207566817
 21
-93.5125453181838
 31
0.0
 11
-168.09123738268
 21
-93.4124903251892
 31
0.0
 11
-167.849319463153
 21
-93.31230920372546
 31
0.0
 11
-167.4774766097215
 21
-93.22254098954475
 31
0.0
 11
-167.0796855106137
 21
-93.18876275114329
 31
0.0
  0
SPLINE
  5
12E
330
43
100
AcDbEntity
  8
0
  6
Continuous
 62
     7
100
AcDbSpline
210
0.0
220
0.0
230
1.0
 70
     8
 71
     3
 72
     9
 73
     5
 74
     3
 42
0.0000000001
 43
0.0000000001
 44
0.00000001
 40
0.0
 40
0.0
 40
0.0
 40
0.0
 40
0.0209889003852647
 40
0.0419777902980701
 40
0.0419777902980701
 40
0.0419777902980701
 40
0.0419777902980701
 10
-169.1635579187025
 20
-88.09333184632322
 30
0.0
 10
-169.1635107255409
 20
-88.10032799085315
 30
0.0
 10
-169.1634163392411
 20
-88.11432027642225
 30
0.0
 10
-169.163359896294
 20
-88.12831276649419
 30
0.0
 10
-169.1633316748275
 20
-88.13530900978478
 30
0.0
 11
-169.1635579187025
 21
-88.09333184632322
 31
0.0
 11
-169.1634258250604
 21
-88.11432033103871
 31
0.0
 11
-169.1633316748275
 21
-88.13530900978478
 31
0.0
  0
SPLINE
  5
12F
330
43
100
AcDbEntity
  8
0
  6
Continuous
 62
     7
100
AcDbSpline
210
0.0
220
0.0
230
1.0
 70
     8
 71
     3
 72
     9
 73
     5
 74
     3
 42
0.0000000001
 43
0.0000000001
 44
0.00000001
 40
0.0
 40
0.0
 40
0.0
 40
0.0
 40
0.0744556798927057
 40
0.1489112538080518
 40
0.1489112538080518
 40
0.1489112538080518
 40
0.1489112538080518
 10
-168.6000264323047
 20
-92.16753772264931
 30
0.0
 10
-168.5990907249447
 20
-92.14273667281242
 30
0.0
 10
-168.5972193115565
 20
-92.09313460843951
 30
0.0
 10
-168.5957870109181
 20
-92.04351792280893
 30
0.0
 10
-168.5950708611086
 20
-92.0187095976493
 30
0.0
 11
-168.6000264323047
 21
-92.16753772264931
 31
0.0
 11
-168.5973290885683
 21
-92.09313091781902
 31
0.0
 11
-168.5950708611086
 21
-92.0187095976493
 31
0.0
  0
SPLINE
  5
130
330
43
100
AcDbEntity
  8
0
  6
Continuous
 62
     7
100
AcDbSpline
210
0.0
220
0.0
230
1.0
 70
     8
 71
     3
 72
     9
 73
     5
 74
     3
 42
0.0000000001
 43
0.0000000001
 44
0.00000001
 40
0.0
 40
0.0
 40
0.0
 40
0.0
 40
0.2185409669596491
 40
0.4370830393557942
 40
0.4370830393557942
 40
0.4370830393557942
 40
0.4370830393557942
 10
-168.9957953080686
 20
-91.91525073012794
 30
0.0
 10
-168.9976637263083
 20
-91.98807739684966
 30
0.0
 10
-169.0014005722385
 20
-92.13373109866916
 30
0.0
 10
-169.0090434619467
 20
-92.27923213344559
 30
0.0
 10
-169.0128649164657
 20
-92.3519828348288
 30
0.0
 11
-168.9957953080686
 21
-91.91525073012794
 31
0.0
 11
-169.0023770687927
 21
-92.13369256372542
 31
0.0
 11
-169.0128649164657
 21
-92.3519828348288
 31
0.0
  0
SPLINE
  5
131
330
43
100
AcDbEntity
  8
0
  6
Continuous
 62
     7
100
AcDbSpline
210
0.0
220
0.0
230
1.0
 70
     8
 71
     3
 72
     9
 73
     5
 74
     3
 42
0.0000000001
 43
0.0000000001
 44
0.00000001
 40
0.0
 40
0.0
 40
0.0
 40
0.0
 40
0.0549092962910553
 40
0.1098280401760541
 40
0.1098280401760541
 40
0.1098280401760541
 40
0.1098280401760541
 10
-167.2634538650738
 20
-90.88127310312832
 30
0.0
 10
-167.2451534152193
 20
-90.88161567944776
 30
0.0
 10
-167.2085493667679
 20
-90.88230089102967
 30
0.0
 10
-167.1719676893142
 20
-90.88375236251287
 30
0.0
 10
-167.1536752771785
 20
-90.8844781606835
 30
0.0
 11
-167.2634538650738
 21
-90.88127310312832
 31
0.0
 11
-167.2085581072974
 21
-90.88249236410587
 31
0.0
 11
-167.1536752771785
 21
-90.8844781606835
 31
0.0
  0
SPLINE
  5
132
330
43
100
AcDbEntity
  8
0
  6
Continuous
 62
     7
100
AcDbSpline
210
0.0
220
0.0
230
1.0
 70
     8
 71
     3
 72
    13
 73
     9
 74
     7
 42
0.0000000001
 43
0.0000000001
 44
0.00000001
 40
0.0
 40
0.0
 40
0.0
 40
0.0
 40
0.1124824249327264
 40
0.2189211684289242
 40
0.4586030532525823
 40
0.720094424745902
 40
1.05621856586566
 40
1.411546624922861
 40
1.411546624922861
 40
1.411546624922861
 40
1.411546624922861
 10
-168.4789675122158
 20
-91.3725156873929
 30
0.0
 10
-168.4580473884379
 20
-91.34131077300214
 30
0.0
 10
-168.4173311792711
 20
-91.28057758447747
 30
0.0
 10
-168.3098291162285
 20
-91.17091139260351
 30
0.0
 10
-168.1395021813699
 20
-91.05693073877335
 30
0.0
 10
-167.8769852670351
 20
-90.95834649503469
 30
0.0
 10
-167.5647108331831
 20
-90.89131623927275
 30
0.0
 10
-167.3339359711025
 20
-90.88444998776944
 30
0.0
 10
-167.2153438488975
 20
-90.88092151274392
 30
0.0
 11
-168.4789675122158
 21
-91.3725156873929
 31
0.0
 11
-168.4134083989575
 21
-91.28111383518227
 31
0.0
 11
-168.3395601888434
 21
-91.20446105975967
 31
0.0
 11
-168.1418094767753
 21
-91.06902819155849
 31
0.0
 11
-167.8987639911506
 21
-90.97255731884093
 31
0.0
 11
-167.5700137935325
 21
-90.90253770866248
 31
0.0
 11
-167.2153438488975
 21
-90.88092151274392
 31
0.0
  0
SPLINE
  5
133
330
43
100
AcDbEntity
  8
0
  6
Continuous
 62
     7
100
AcDbSpline
210
0.0
220
0.0
230
1.0
 70
     8
 71
     3
 72
    13
 73
     9
 74
     7
 42
0.0000000001
 43
0.0000000001
 44
0.00000001
 40
0.0
 40
0.0
 40
0.0
 40
0.0
 40
0.45550427231428
 40
0.7796512900404478
 40
1.141804726497852
 40
1.450087067035923
 40
1.555572186450467
 40
1.662454946318554
 40
1.662454946318554
 40
1.662454946318554
 40
1.662454946318554
 10
-167.3439400528949
 20
-90.66745629785636
 30
0.0
 10
-167.4959158588949
 20
-90.67497022633746
 30
0.0
 10
-167.7560410441118
 20
-90.68783123421301
 30
0.0
 10
-168.1285153690291
 20
-90.77122119661017
 30
0.0
 10
-168.4423602011374
 20
-90.88390978312223
 30
0.0
 10
-168.6600780074793
 20
-91.02952690641162
 30
0.0
 10
-168.7836445551086
 20
-91.15198163777515
 30
0.0
 10
-168.826857698034
 20
-91.20814261990674
 30
0.0
 10
-168.8486064671701
 20
-91.236407914957
 30
0.0
 11
-167.3439400528949
 21
-90.66745629785636
 31
0.0
 11
-167.7978908187883
 21
-90.70504411824207
 31
0.0
 11
-168.1144848823024
 21
-90.77461054727509
 31
0.0
 11
-168.452520059459
 21
-90.90456180945685
 31
0.0
 11
-168.7070447195358
 21
-91.07850202591186
 31
0.0
 11
-168.7815393319406
 21
-91.15318578010621
 31
0.0
 11
-168.8486064671701
 21
-91.236407914957
 31
0.0
  0
SPLINE
  5
134
330
43
100
AcDbEntity
  8
0
  6
Continuous
 62
     7
100
AcDbSpline
210
0.0
220
0.0
230
1.0
 70
     8
 71
     3
 72
    11
 73
     7
 74
     5
 42
0.0000000001
 43
0.0000000001
 44
0.00000001
 40
0.0
 40
0.0
 40
0.0
 40
0.0
 40
0.3762717758641228
 40
0.7523867823988926
 40
1.235806008720116
 40
1.730779367936392
 40
1.730779367936392
 40
1.730779367936392
 40
1.730779367936392
 10
-167.371644745116
 20
-90.66683633213047
 30
0.0
 10
-167.4973393848646
 20
-90.66981713828395
 30
0.0
 10
-167.7486762951286
 20
-90.67577750867218
 30
0.0
 10
-168.1531408383711
 20
-90.74909949739803
 30
0.0
 10
-168.5974457396513
 20
-90.88207960757809
 30
0.0
 10
-168.8306349574147
 20
-91.11737226519651
 30
0.0
 10
-168.9486064671701
 20
-91.236407914957
 30
0.0
 11
-167.371644745116
 21
-90.66683633213047
 31
0.0
 11
-167.747455707883
 21
-90.68545271137263
 31
0.0
 11
-168.1181418306584
 21
-90.74912606939898
 31
0.0
 11
-168.572235132291
 21
-90.91493747367952
 31
0.0
 11
-168.9486064671701
 21
-91.236407914957
 31
0.0
  0
SPLINE
  5
135
330
43
100
AcDbEntity
  8
0
  6
Continuous
 62
     7
100
AcDbSpline
210
0.0
220
0.0
230
1.0
 70
     8
 71
     3
 72
     9
 73
     5
 74
     3
 42
0.0000000001
 43
0.0000000001
 44
0.00000001
 40
0.0
 40
0.0
 40
0.0
 40
0.0
 40
0.013852562880295
 40
0.0277155267220457
 40
0.0277155267220457
 40
0.0277155267220457
 40
0.0277155267220457
 10
-167.371644745116
 20
-90.66683633213047
 30
0.0
 10
-167.3670264306545
 20
-90.66682346462281
 30
0.0
 10
-167.3577863341487
 20
-90.66679771994616
 30
0.0
 10
-167.3485566345399
 20
-90.66723671697133
 30
0.0
 10
-167.3439400528949
 20
-90.66745629785636
 30
0.0
 11
-167.371644745116
 21
-90.66683633213047
 31
0.0
 11
-167.3577923990054
 21
-90.66691382784622
 31
0.0
 11
-167.3439400528949
 21
-90.66745629785636
 31
0.0
  0
SPLINE
  5
136
330
43
100
AcDbEntity
  8
0
  6
Continuous
 62
     7
100
AcDbSpline
210
0.0
220
0.0
230
1.0
 70
     8
 71
     3
 72
     9
 73
     5
 74
     3
 42
0.0000000001
 43
0.0000000001
 44
0.00000001
 40
0.0
 40
0.0
 40
0.0
 40
0.0
 40
0.0366002421517113
 40
0.0724561791710728
 40
0.0724561791710728
 40
0.0724561791710728
 40
0.0724561791710728
 10
-167.2714872694035
 20
-90.66683341338768
 30
0.0
 10
-167.2836874801955
 20
-90.66685708980812
 30
0.0
 10
-167.3078397974235
 20
-90.66690396116357
 30
0.0
 10
-167.3319893263087
 20
-90.66727345081793
 30
0.0
 10
-167.3439400528949
 20
-90.66745629785636
 30
0.0
 11
-167.2714872694035
 21
-90.66683341338768
 31
0.0
 11
-167.3080871902986
 21
-90.66698676278075
 31
0.0
 11
-167.3439400528949
 21
-90.66745629785636
 31
0.0
  0
SPLINE
  5
137
330
43
100
AcDbEntity
  8
0
  6
Continuous
 62
     7
100
AcDbSpline
210
0.0
220
0.0
230
1.0
 70
     8
 71
     3
 72
     9
 73
     5
 74
     3
 42
0.0000000001
 43
0.0000000001
 44
0.00000001
 40
0.0
 40
0.0
 40
0.0
 40
0.0
 40
0.0209889003852647
 40
0.0419777902980557
 40
0.0419777902980557
 40
0.0419777902980557
 40
0.0419777902980557
 10
-169.0635579187025
 20
-88.09333184632322
 30
0.0
 10
-169.0635107255408
 20
-88.10032799085315
 30
0.0
 10
-169.063416339241
 20
-88.11432027642223
 30
0.0
 10
-169.063359896294
 20
-88.12831276649419
 30
0.0
 10
-169.0633316748275
 20
-88.13530900978476
 30
0.0
 11
-169.0635579187025
 21
-88.09333184632322
 31
0.0
 11
-169.0634258250604
 21
-88.11432033103871
 31
0.0
 11
-169.0633316748275
 21
-88.13530900978476
 31
0.0
  0
SPLINE
  5
138
330
43
100
AcDbEntity
  8
0
  6
Continuous
 62
     7
100
AcDbSpline
210
0.0
220
0.0
230
1.0
 70
     8
 71
     3
 72
    11
 73
     7
 74
     5
 42
0.0000000001
 43
0.0000000001
 44
0.00000001
 40
0.0
 40
0.0
 40
0.0
 40
0.0
 40
0.1726943740955971
 40
0.334303833356731
 40
0.4817903695290457
 40
0.6615816910908733
 40
0.6615816910908733
 40
0.6615816910908733
 40
0.6615816910908733
 10
-168.5950708611086
 20
-92.0187095976493
 30
0.0
 10
-168.5930567092388
 20
-91.96114641423647
 30
0.0
 10
-168.5891576899767
 20
-91.84971491581094
 30
0.0
 10
-168.5722193396895
 20
-91.6901327760119
 30
0.0
 10
-168.5467405053897
 20
-91.52821136717986
 30
0.0
 10
-168.5029977560296
 20
-91.42772064398136
 30
0.0
 10
-168.4789675122158
 20
-91.3725156873929
 30
0.0
 11
-168.5950708611086
 21
-92.0187095976493
 31
0.0
 11
-168.5869324990138
 21
-91.84620709359014
 31
0.0
 11
-168.5702898488513
 21
-91.68545685403123
 31
0.0
 11
-168.543004582625
 21
-91.54051620204199
 31
0.0
 11
-168.4789675122158
 21
-91.3725156873929
 31
0.0
  0
SPLINE
  5
139
330
43
100
AcDbEntity
  8
0
  6
Continuous
 62
     7
100
AcDbSpline
210
0.0
220
0.0
230
1.0
 70
     8
 71
     3
 72
    11
 73
     7
 74
     5
 42
0.0000000001
 43
0.0000000001
 44
0.00000001
 40
0.0
 40
0.0
 40
0.0
 40
0.0
 40
0.206108809048226
 40
0.3452178080244604
 40
0.5291364337804916
 40
0.7024330542710552
 40
0.7024330542710552
 40
0.7024330542710552
 40
0.7024330542710552
 10
-168.8486064671701
 20
-91.236407914957
 30
0.0
 10
-168.8803074370392
 20
-91.29778355519467
 30
0.0
 10
-168.9334043395006
 20
-91.4005834504868
 30
0.0
 10
-168.9708342063998
 20
-91.57402835581394
 30
0.0
 10
-168.9899795633528
 20
-91.73842383675603
 30
0.0
 10
-168.9938955411301
 20
-91.85748858576412
 30
0.0
 10
-168.9957953080686
 20
-91.91525073012794
 30
0.0
 11
-168.8486064671701
 21
-91.236407914957
 31
0.0
 11
-168.9334872669502
 21
-91.42422721906594
 31
0.0
 11
-168.9657376987782
 21
-91.55954618759245
 31
0.0
 11
-168.987774636204
 21
-91.74213981915959
 31
0.0
 11
-168.9957953080686
 21
-91.91525073012794
 31
0.0
  0
SPLINE
  5
13A
330
43
100
AcDbEntity
  8
0
  6
Continuous
 62
     7
100
AcDbSpline
210
0.0
220
0.0
230
1.0
 70
     8
 71
     3
 72
    11
 73
     7
 74
     5
 42
0.0000000001
 43
0.0000000001
 44
0.00000001
 40
0.0
 40
0.0
 40
0.0
 40
0.0
 40
0.2092091489655507
 40
0.3452033082884092
 40
0.5319238198833571
 40
0.7024158776886815
 40
0.7024158776886815
 40
0.7024158776886815
 40
0.7024158776886815
 10
-168.9486064671701
 20
-91.236407914957
 30
0.0
 10
-168.9807277501363
 20
-91.29874682966243
 30
0.0
 10
-169.0337291279499
 20
-91.40160848603755
 30
0.0
 10
-169.0711440391775
 20
-91.57597537188067
 30
0.0
 10
-169.0900157149578
 20
-91.73936449617263
 30
0.0
 10
-169.0939280234705
 20
-91.8584249900819
 30
0.0
 10
-169.0957953080687
 20
-91.91525073012794
 30
0.0
 11
-168.9486064671701
 21
-91.236407914957
 31
0.0
 11
-169.0344216267594
 21
-91.42720683108482
 31
0.0
 11
-169.0657377874564
 21
-91.55954620334089
 31
0.0
 11
-169.0879710788181
 21
-91.74493830189286
 31
0.0
 11
-169.0957953080687
 21
-91.91525073012794
 31
0.0
  0
SPLINE
  5
13B
330
43
100
AcDbEntity
  8
0
  6
Continuous
 62
     7
100
AcDbSpline
210
0.0
220
0.0
230
1.0
 70
     8
 71
     3
 72
     9
 73
     5
 74
     3
 42
0.0000000001
 43
0.0000000001
 44
0.00000001
 40
0.0
 40
0.0
 40
0.0
 40
0.0
 40
0.2185409669596465
 40
0.4370830393557876
 40
0.4370830393557876
 40
0.4370830393557876
 40
0.4370830393557876
 10
-169.0957953080687
 20
-91.91525073012794
 30
0.0
 10
-169.0976637263083
 20
-91.98807739684966
 30
0.0
 10
-169.1014005722386
 20
-92.13373109866914
 30
0.0
 10
-169.1090434619467
 20
-92.27923213344562
 30
0.0
 10
-169.1128649164656
 20
-92.3519828348288
 30
0.0
 11
-169.0957953080687
 21
-91.91525073012794
 31
0.0
 11
-169.1023770687927
 21
-92.13369256372542
 31
0.0
 11
-169.1128649164656
 21
-92.3519828348288
 31
0.0
  0
SPLINE
  5
13C
330
43
100
AcDbEntity
  8
0
  6
Continuous
 62
     7
100
AcDbSpline
210
0.0
220
0.0
230
1.0
 70
     8
 71
     3
 72
    13
 73
     9
 74
     7
 42
0.0000000001
 43
0.0000000001
 44
0.00000001
 40
0.0
 40
0.0
 40
0.0
 40
0.0
 40
0.3013740437037579
 40
0.6171569940963477
 40
0.914961304058308
 40
1.206263890318516
 40
1.771440455492475
 40
2.323138208759531
 40
2.323138208759531
 40
2.323138208759531
 40
2.323138208759531
 10
-169.1654213483342
 20
-86.85264710966115
 30
0.0
 10
-169.1346767480778
 20
-86.95103594648434
 30
0.0
 10
-169.0717176264302
 20
-87.15251766017208
 30
0.0
 10
-168.8119052263434
 20
-87.33753725483173
 30
0.0
 10
-168.5490636458346
 20
-87.48042687032188
 30
0.0
 10
-168.1883553084027
 20
-87.61906220016424
 30
0.0
 10
-167.7349792734696
 20
-87.74274660995897
 30
0.0
 10
-167.3684424715123
 20
-87.80880963730073
 30
0.0
 10
-167.187385814742
 20
-87.84144251564405
 30
0.0
 11
-169.1654213483342
 21
-86.85264710966115
 31
0.0
 11
-169.0464108689086
 21
-87.12952762541703
 31
0.0
 11
-168.805742337122
 21
-87.3339720666873
 31
0.0
 11
-168.5438589739356
 21
-87.47576244406935
 31
0.0
 11
-168.2730020083512
 21
-87.58297112355135
 31
0.0
 11
-167.7288603541712
 21
-87.73572717092115
 31
0.0
 11
-167.187385814742
 21
-87.84144251564405
 31
0.0
  0
SPLINE
  5
13D
330
43
100
AcDbEntity
  8
0
  6
Continuous
 62
     7
100
AcDbSpline
210
0.0
220
0.0
230
1.0
 70
     8
 71
     3
 72
    15
 73
    11
 74
     9
 42
0.0000000001
 43
0.0000000001
 44
0.00000001
 40
0.0
 40
0.0
 40
0.0
 40
0.0
 40
0.050806105657493
 40
0.1008831656668618
 40
0.1543745329415301
 40
0.2070880350873799
 40
0.3395328655990705
 40
0.4699905468018372
 40
0.6998794715648514
 40
0.932043141984281
 40
0.932043141984281
 40
0.932043141984281
 40
0.932043141984281
 10
-168.6713127473715
 20
-86.90310450816541
 30
0.0
 10
-168.6683618572051
 20
-86.88636697848564
 30
0.0
 10
-168.6625024208702
 20
-86.8531320954398
 30
0.0
 10
-168.6405937906516
 20
-86.80596198074059
 30
0.0
 10
-168.6095714076044
 20
-86.76374070886918
 30
0.0
 10
-168.5509144320756
 20
-86.70942235368643
 30
0.0
 10
-168.4568571833596
 20
-86.65884131825493
 30
0.0
 10
-168.2995756780183
 20
-86.61041601478856
 30
0.0
 10
-168.1030924031327
 20
-86.58152918900228
 30
0.0
 10
-167.9490297960054
 20
-86.57953984424006
 30
0.0
 10
-167.8716192572097
 20
-86.57854027495604
 30
0.0
 11
-168.6713127473715
 21
-86.90310450816541
 31
0.0
 11
-168.6603149634593
 21
-86.85350300495128
 31
0.0
 11
-168.6397082708505
 21
-86.80786227578416
 31
0.0
 11
-168.6081430875411
 21
-86.76467702858608
 31
0.0
 11
-168.5697276016166
 21
-86.7285804394167
 31
0.0
 11
-168.4548536126001
 21
-86.66265927607199
 31
0.0
 11
-168.3307227157715
 21
-86.62252541210009
 31
0.0
 11
-168.1036386464478
 21
-86.58672397095471
 31
0.0
 11
-167.8716192572097
 21
-86.57854027495604
 31
0.0
  0
SPLINE
  5
13E
330
43
100
AcDbEntity
  8
0
  6
Continuous
 62
     7
100
AcDbSpline
210
0.0
220
0.0
230
1.0
 70
     8
 71
     3
 72
    14
 73
    10
 74
     8
 42
0.0000000001
 43
0.0000000001
 44
0.00000001
 40
0.0
 40
0.0
 40
0.0
 40
0.0
 40
0.0879070543091285
 40
0.175790473077778
 40
0.4490550345721127
 40
0.7202553434166905
 40
0.9051104318077994
 40
1.086601250395177
 40
1.272184773448531
 40
1.272184773448531
 40
1.272184773448531
 40
1.272184773448531
 10
-168.092578082394
 20
-86.37846797089011
 30
0.0
 10
-168.1218814667456
 20
-86.37868130484512
 30
0.0
 10
-168.1804803566576
 20
-86.37910791539605
 30
0.0
 10
-168.3300615433223
 20
-86.38545344992058
 30
0.0
 10
-168.5400417306498
 20
-86.40495045432849
 30
0.0
 10
-168.7789855503193
 20
-86.46009446916298
 30
0.0
 10
-168.9724786002004
 20
-86.546478771801
 30
0.0
 10
-169.1235497257662
 20
-86.66795142826268
 30
0.0
 10
-169.1513607807959
 20
-86.79062596161208
 30
0.0
 10
-169.1654213483342
 20
-86.85264710966115
 30
0.0
 11
-168.092578082394
 21
-86.37846797089011
 31
0.0
 11
-168.1804775551735
 21
-86.37962247615188
 31
0.0
 11
-168.2682884921377
 21
-86.3831910394387
 31
0.0
 11
-168.5401184355273
 21
-86.41115534607225
 31
0.0
 11
-168.8033830811639
 21
-86.4762808700643
 31
0.0
 11
-168.9707216941661
 21
-86.55482507610516
 31
0.0
 11
-169.1046666761567
 21
-86.67729000590572
 31
0.0
 11
-169.1654213483342
 21
-86.85264710966115
 31
0.0
  0
SPLINE
  5
13F
330
43
100
AcDbEntity
  8
0
  6
Continuous
 62
     7
100
AcDbSpline
210
0.0
220
0.0
230
1.0
 70
     8
 71
     3
 72
    17
 73
    13
 74
    11
 42
0.0000000001
 43
0.0000000001
 44
0.00000001
 40
0.0
 40
0.0
 40
0.0
 40
0.0
 40
0.1175617835201888
 40
0.2349085387379538
 40
0.3894280327529851
 40
0.5521349522763415
 40
0.6997202671413676
 40
0.8733660319585507
 40
0.9642377238135746
 40
1.03035776575873
 40
1.127275699970325
 40
1.194230020448219
 40
1.194230020448219
 40
1.194230020448219
 40
1.194230020448219
 10
-168.0738077962307
 20
-86.37846797089011
 30
0.0
 10
-168.1129608431283
 20
-86.3801704245219
 30
0.0
 10
-168.1911953234029
 20
-86.38357221788485
 30
0.0
 10
-168.32060687135
 20
-86.39412423806115
 30
0.0
 10
-168.4643521886681
 20
-86.41290982095983
 30
0.0
 10
-168.6159216360923
 20
-86.44635526438614
 30
0.0
 10
-168.769329877813
 20
-86.49694190006667
 30
0.0
 10
-168.8920400927043
 20
-86.5621279504914
 30
0.0
 10
-168.9747138164562
 20
-86.63624373315616
 30
0.0
 10
-169.0255927658654
 20
-86.70422684482624
 30
0.0
 10
-169.0571120343665
 20
-86.77591571797859
 30
0.0
 10
-169.0630111212191
 20
-86.83039014819255
 30
0.0
 10
-169.0654213483342
 20
-86.85264710966115
 30
0.0
 11
-168.0738077962307
 21
-86.37846797089011
 31
0.0
 11
-168.1912239607462
 21
-86.38431752257458
 31
0.0
 11
-168.3081760148683
 21
-86.39393407064378
 31
0.0
 11
-168.4612913292602
 21
-86.41471806759674
 31
0.0
 11
-168.6200772327457
 21
-86.450222694268
 31
0.0
 11
-168.7597645563799
 21
-86.49785542229941
 31
0.0
 11
-168.9112474049258
 21
-86.58274239559552
 31
0.0
 11
-168.9782906500774
 21
-86.64408461319599
 31
0.0
 11
-169.0177230342067
 21
-86.69715953221339
 31
0.0
 11
-169.0554264357266
 21
-86.78644301044801
 31
0.0
 11
-169.0654213483342
 21
-86.85264710966115
 31
0.0
  0
SPLINE
  5
140
330
43
100
AcDbEntity
  8
0
  6
Continuous
 62
     7
100
AcDbSpline
210
0.0
220
0.0
230
1.0
 70
     8
 71
     3
 72
     9
 73
     5
 74
     3
 42
0.0000000001
 43
0.0000000001
 44
0.00000001
 40
0.0
 40
0.0
 40
0.0
 40
0.0
 40
0.0406702914865518
 40
0.0813242463980849
 40
0.0813242463980849
 40
0.0813242463980849
 40
0.0813242463980849
 10
-167.9924839136088
 20
-86.37847178773153
 30
0.0
 10
-168.0060406196867
 20
-86.37853196305282
 30
0.0
 10
-168.0331485863409
 20
-86.37865228952403
 30
0.0
 10
-168.0602565414339
 20
-86.37852940220614
 30
0.0
 10
-168.0738077962307
 20
-86.37846797089011
 30
0.0
 11
-167.9924839136088
 21
-86.37847178773153
 31
0.0
 11
-168.0331540289513
 21
-86.37859148581708
 31
0.0
 11
-168.0738077962307
 21
-86.37846797089011
 31
0.0
  0
SPLINE
  5
141
330
43
100
AcDbEntity
  8
0
  6
Continuous
 62
     7
100
AcDbSpline
210
0.0
220
0.0
230
1.0
 70
     8
 71
     3
 72
     9
 73
     5
 74
     3
 42
0.0000000001
 43
0.0000000001
 44
0.00000001
 40
0.0
 40
0.0
 40
0.0
 40
0.0
 40
0.3848401689423186
 40
0.7710913808042319
 40
0.7710913808042319
 40
0.7710913808042319
 40
0.7710913808042319
 10
-167.9262579536611
 20
-86.57885986037095
 30
0.0
 10
-167.7980083970596
 20
-86.5850594840544
 30
0.0
 10
-167.541039048046
 20
-86.59748146276746
 30
0.0
 10
-167.2872255351984
 20
-86.63951470559329
 30
0.0
 10
-167.1600865483484
 20
-86.6605697859432
 30
0.0
 11
-167.9262579536611
 21
-86.57885986037095
 31
0.0
 11
-167.542295358061
 21
-86.60483447897494
 31
0.0
 11
-167.1600865483484
 21
-86.6605697859432
 31
0.0
  0
SPLINE
  5
142
330
43
100
AcDbEntity
  8
0
  6
Continuous
 62
     7
100
AcDbSpline
210
0.0
220
0.0
230
1.0
 70
     8
 71
     3
 72
    17
 73
    13
 74
    11
 42
0.0000000001
 43
0.0000000001
 44
0.00000001
 40
0.0
 40
0.0
 40
0.0
 40
0.0
 40
0.0776614151212489
 40
0.1403825257520179
 40
0.223912290720938
 40
0.2836148175851672
 40
0.4199354801492794
 40
0.5691179096155747
 40
0.8491570803313164
 40
1.096705947033193
 40
1.602879107998354
 40
2.098686258740105
 40
2.098686258740105
 40
2.098686258740105
 40
2.098686258740105
 10
-165.3871153201019
 20
-87.48103252632781
 30
0.0
 10
-165.388928338074
 20
-87.45514378993411
 30
0.0
 10
-165.3922055902558
 20
-87.40834672606653
 30
0.0
 10
-165.4116650711983
 20
-87.33597552857596
 30
0.0
 10
-165.4369703291185
 20
-87.27197451874268
 30
0.0
 10
-165.4811700030575
 20
-87.18979908607909
 30
0.0
 10
-165.5494438367251
 20
-87.09638712256942
 30
0.0
 10
-165.6839297644246
 20
-86.96336703007441
 30
0.0
 10
-165.8727236127242
 20
-86.83669661873189
 30
0.0
 10
-166.184335490603
 20
-86.6885967742327
 30
0.0
 10
-166.5831462219157
 20
-86.56149964473265
 30
0.0
 10
-166.9117277128437
 20
-86.50098220856307
 30
0.0
 10
-167.0743187846443
 20
-86.47103653273807
 30
0.0
 11
-165.3871153201019
 21
-87.48103252632781
 31
0.0
 11
-165.3952851876164
 21
-87.40380203582419
 31
0.0
 11
-165.4108239891691
 21
-87.3430362282918
 31
0.0
 11
-165.4416145662266
 21
-87.26538854963862
 31
0.0
 11
-165.469777351168
 21
-87.2127458933766
 31
0.0
 11
-165.5495051362543
 21
-87.10217101681258
 31
0.0
 11
-165.6549463593365
 21
-86.99663644552714
 31
0.0
 11
-165.8851275192572
 21
-86.83714170971211
 31
0.0
 11
-166.107818878061
 21
-86.72902603037046
 31
0.0
 11
-166.5886955427883
 21
-86.57101051783386
 31
0.0
 11
-167.0743187846443
 21
-86.47103653273807
 31
0.0
  0
SPLINE
  5
143
330
43
100
AcDbEntity
  8
0
  6
Continuous
 62
     7
100
AcDbSpline
210
0.0
220
0.0
230
1.0
 70
     8
 71
     3
 72
     9
 73
     5
 74
     3
 42
0.0000000001
 43
0.0000000001
 44
0.00000001
 40
0.0
 40
0.0
 40
0.0
 40
0.0
 40
0.4415494848218425
 40
0.8866343923521011
 40
0.8866343923521011
 40
0.8866343923521011
 40
0.8866343923521011
 10
-167.0600865483484
 20
-86.6605697859432
 30
0.0
 10
-166.9152229941138
 20
-86.6878683846694
 30
0.0
 10
-166.6243359841683
 20
-86.742684158044
 30
0.0
 10
-166.3449376839657
 20
-86.84045552081672
 30
0.0
 10
-166.2046814885345
 20
-86.88953613209705
 30
0.0
 11
-167.0600865483484
 21
-86.6605697859432
 31
0.0
 11
-166.6283452033393
 21
-86.75311900828551
 31
0.0
 11
-166.2046814885345
 21
-86.88953613209705
 31
0.0
  0
SPLINE
  5
144
330
43
100
AcDbEntity
  8
0
  6
Continuous
 62
     7
100
AcDbSpline
210
0.0
220
0.0
230
1.0
 70
     8
 71
     3
 72
    15
 73
    11
 74
     9
 42
0.0000000001
 43
0.0000000001
 44
0.00000001
 40
0.0
 40
0.0
 40
0.0
 40
0.0
 40
0.1909884029271121
 40
0.385619630717966
 40
0.4865928981462339
 40
0.5906824211707427
 40
0.6439490421910246
 40
0.6974470749945035
 40
0.7505452762154899
 40
0.8032987890914592
 40
0.8032987890914592
 40
0.8032987890914592
 40
0.8032987890914592
 10
-166.3046814885345
 20
-86.88953613209705
 30
0.0
 10
-166.2461345082655
 20
-86.91462918100552
 30
0.0
 10
-166.1279238495817
 20
-86.96529389208412
 30
0.0
 10
-165.9895105257744
 20
-87.05211151226476
 30
0.0
 10
-165.8899687178785
 20
-87.1411544677178
 30
0.0
 10
-165.8346799314181
 20
-87.20774606041306
 30
0.0
 10
-165.7973451867987
 20
-87.26739572913644
 30
0.0
 10
-165.7745285950928
 20
-87.31580734521683
 30
0.0
 10
-165.7614275466514
 20
-87.36765386616844
 30
0.0
 10
-165.758564335075
 20
-87.40285539519513
 30
0.0
 10
-165.7571373910709
 20
-87.42039884577225
 30
0.0
 11
-166.3046814885345
 21
-86.88953613209705
 31
0.0
 11
-166.1311303944833
 21
-86.96926434420709
 31
0.0
 11
-165.9674067579933
 21
-87.07450637804278
 31
0.0
 11
-165.892486012841
 21
-87.14220041530585
 31
0.0
 11
-165.8263474479098
 21
-87.22257652514146
 31
0.0
 11
-165.7982987205995
 21
-87.26786009623729
 31
0.0
 11
-165.7760961923047
 21
-87.31653336663453
 31
0.0
 11
-165.7628685958292
 21
-87.36795757945676
 31
0.0
 11
-165.7571373910709
 21
-87.42039884577225
 31
0.0
  0
SPLINE
  5
145
330
43
100
AcDbEntity
  8
0
  6
Continuous
 62
     7
100
AcDbSpline
210
0.0
220
0.0
230
1.0
 70
     8
 71
     3
 72
    16
 73
    12
 74
    10
 42
0.0000000001
 43
0.0000000001
 44
0.00000001
 40
0.0
 40
0.0
 40
0.0
 40
0.0
 40
0.1955518402599839
 40
0.3874044966814028
 40
0.4268995187187568
 40
0.4994407089134817
 40
0.5926894400979247
 40
0.6526599522842574
 40
0.7341372245671117
 40
0.7686809593728008
 40
0.8033600515578357
 40
0.8033600515578357
 40
0.8033600515578357
 40
0.8033600515578357
 10
-166.2046814885345
 20
-86.88953613209705
 30
0.0
 10
-166.1447248849391
 20
-86.91522497597884
 30
0.0
 10
-166.0259458552573
 20
-86.96611671712085
 30
0.0
 10
-165.9049025822116
 20
-87.04292876975512
 30
0.0
 10
-165.8269628733661
 20
-87.10767399864628
 30
0.0
 10
-165.7779116280163
 20
-87.15554681961657
 30
0.0
 10
-165.7302652299381
 20
-87.21416234035799
 30
0.0
 10
-165.6890157013704
 20
-87.28076401854054
 30
0.0
 10
-165.6673467789221
 20
-87.33611522860187
 30
0.0
 10
-165.6593807166984
 20
-87.38582758569149
 30
0.0
 10
-165.6578861404382
 20
-87.40886007993612
 30
0.0
 10
-165.6571373910709
 20
-87.42039884577225
 30
0.0
 11
-166.2046814885345
 21
-86.88953613209705
 31
0.0
 11
-166.0270880841024
 21
-86.97139640897966
 31
0.0
 11
-165.8660092448295
 21
-87.07561276716991
 31
0.0
 11
-165.8356824650485
 21
-87.10091381840981
 31
0.0
 11
-165.783744891011
 21
-87.15155681079742
 31
0.0
 11
-165.7252447414041
 21
-87.22417263802177
 31
0.0
 11
-165.6941338897502
 21
-87.27544229026614
 31
0.0
 11
-165.6655885209304
 21
-87.3517555120406
 31
0.0
 11
-165.6599268994316
 21
-87.38583212654865
 31
0.0
 11
-165.6571373910709
 21
-87.42039884577225
 31
0.0
  0
SPLINE
  5
146
330
43
100
AcDbEntity
  8
0
  6
Continuous
 62
     7
100
AcDbSpline
210
0.0
220
0.0
230
1.0
 70
     8
 71
     3
 72
    11
 73
     7
 74
     5
 42
0.0000000001
 43
0.0000000001
 44
0.00000001
 40
0.0
 40
0.0
 40
0.0
 40
0.0
 40
0.2570548570217368
 40
0.4625820860626959
 40
0.6940172766631371
 40
0.9238492827292288
 40
0.9238492827292288
 40
0.9238492827292288
 40
0.9238492827292288
 10
-167.0743187846443
 20
-86.47103653273807
 30
0.0
 10
-167.1588831840452
 20
-86.45716758988203
 30
0.0
 10
-167.3110607259706
 20
-86.43220978674167
 30
0.0
 10
-167.5406104885759
 20
-86.40331356801475
 30
0.0
 10
-167.7620914425649
 20
-86.38292113285718
 30
0.0
 10
-167.9158645750346
 20
-86.37995146230193
 30
0.0
 10
-167.9924839136088
 20
-86.37847178773153
 30
0.0
 11
-167.0743187846443
 21
-86.47103653273807
 31
0.0
 11
-167.3282663852214
 21
-86.43118912780845
 31
0.0
 11
-167.5321768942695
 21
-86.40546081311467
 31
0.0
 11
-167.7627648385058
 21
-86.38567578288631
 31
0.0
 11
-167.9924839136088
 21
-86.37847178773153
 31
0.0
  0
SPLINE
  5
147
330
43
100
AcDbEntity
  8
0
  6
Continuous
 62
     7
100
AcDbSpline
210
0.0
220
0.0
230
1.0
 70
     8
 71
     3
 72
    11
 73
     7
 74
     5
 42
0.0000000001
 43
0.0000000001
 44
0.00000001
 40
0.0
 40
0.0
 40
0.0
 40
0.0
 40
0.1684921027617334
 40
0.405094721141849
 40
0.5968062643762505
 40
0.8165894521572645
 40
0.8165894521572645
 40
0.8165894521572645
 40
0.8165894521572645
 10
-167.8716192572097
 20
-86.57854027495604
 30
0.0
 10
-167.8154516257046
 20
-86.57947136882333
 30
0.0
 10
-167.6804114033513
 20
-86.58170993789781
 30
0.0
 10
-167.4820531835763
 20
-86.59902264181613
 30
0.0
 10
-167.2677404920151
 20
-86.62640667529777
 30
0.0
 10
-167.1323825123533
 20
-86.64867569438923
 30
0.0
 10
-167.0600865483484
 20
-86.6605697859432
 30
0.0
 11
-167.8716192572097
 21
-86.57854027495604
 31
0.0
 11
-167.7031856381546
 21
-86.58297926865666
 31
0.0
 11
-167.4673533211179
 21
-86.60205588432707
 31
0.0
 11
-167.2771784130292
 21
-86.62628025517077
 31
0.0
 11
-167.0600865483484
 21
-86.6605697859432
 31
0.0
  0
SPLINE
  5
148
330
43
100
AcDbEntity
  8
0
  6
Continuous
 62
     7
100
AcDbSpline
210
0.0
220
0.0
230
1.0
 70
     8
 71
     3
 72
     9
 73
     5
 74
     3
 42
0.0000000001
 43
0.0000000001
 44
0.00000001
 40
0.0
 40
0.0
 40
0.0
 40
0.0
 40
0.4415494848218147
 40
0.8866343923521003
 40
0.8866343923521003
 40
0.8866343923521003
 40
0.8866343923521003
 10
-167.1600865483484
 20
-86.6605697859432
 30
0.0
 10
-167.0152229941138
 20
-86.6878683846694
 30
0.0
 10
-166.7243359841683
 20
-86.742684158044
 30
0.0
 10
-166.4449376839657
 20
-86.8404555208167
 30
0.0
 10
-166.3046814885345
 20
-86.88953613209705
 30
0.0
 11
-167.1600865483484
 21
-86.6605697859432
 31
0.0
 11
-166.7283452033393
 21
-86.75311900828551
 31
0.0
 11
-166.3046814885345
 21
-86.88953613209705
 31
0.0
  0
SPLINE
  5
149
330
43
100
AcDbEntity
  8
0
  6
Continuous
 62
     7
100
AcDbSpline
210
0.0
220
0.0
230
1.0
 70
     8
 71
     3
 72
    13
 73
     9
 74
     7
 42
0.0000000001
 43
0.0000000001
 44
0.00000001
 40
0.0
 40
0.0
 40
0.0
 40
0.0
 40
0.3360302811311497
 40
0.6842746297444287
 40
0.8618132872263387
 40
1.145034447039389
 40
1.252941241819383
 40
1.412844096709767
 40
1.412844096709767
 40
1.412844096709767
 40
1.412844096709767
 10
-167.1536752771785
 20
-90.8844781606835
 30
0.0
 10
-167.0418910668358
 20
-90.89332004624673
 30
0.0
 10
-166.8142595007579
 20
-90.9113252032512
 30
0.0
 10
-166.5343279072452
 20
-90.98531997394298
 30
0.0
 10
-166.2868073448151
 20
-91.09319483595198
 30
0.0
 10
-166.1282840873431
 20
-91.201869738611
 30
0.0
 10
-166.0017680806881
 20
-91.33628557376935
 30
0.0
 10
-165.9569721502975
 20
-91.41392778089136
 30
0.0
 10
-165.9302255518618
 20
-91.4602861200852
 30
0.0
 11
-167.1536752771785
 21
-90.8844781606835
 31
0.0
 11
-166.8196170552778
 21
-90.92082997243477
 31
0.0
 11
-166.4832299151668
 21
-91.01092890866067
 31
0.0
 11
-166.3210019625495
 21
-91.08305425989096
 31
0.0
 11
-166.0894957420492
 21
-91.24620785389213
 31
0.0
 11
-166.0164163512318
 21
-91.32560104627949
 31
0.0
 11
-165.9302255518618
 21
-91.4602861200852
 31
0.0
  0
SPLINE
  5
14A
330
43
100
AcDbEntity
  8
0
  6
Continuous
 62
     7
100
AcDbSpline
210
0.0
220
0.0
230
1.0
 70
     8
 71
     3
 72
     9
 73
     5
 74
     3
 42
0.0000000001
 43
0.0000000001
 44
0.00000001
 40
0.0
 40
0.0
 40
0.0
 40
0.0
 40
1.63345505845534
 40
3.236794508474642
 40
3.236794508474642
 40
3.236794508474642
 40
3.236794508474642
 10
-169.0633316748275
 20
-88.13530900978476
 30
0.0
 10
-168.5694473116724
 20
-88.36538648230844
 30
0.0
 10
-167.5907842096747
 20
-88.82129954568504
 30
0.0
 10
-166.6609920623192
 20
-89.37001680713682
 30
0.0
 10
-166.2004214495509
 20
-89.64182276512665
 30
0.0
 11
-169.0633316748275
 21
-88.13530900978476
 31
0.0
 11
-167.5941247329242
 21
-88.84917621722356
 31
0.0
 11
-166.2004214495509
 21
-89.64182276512665
 31
0.0
  0
SPLINE
  5
14B
330
43
100
AcDbEntity
  8
0
  6
Continuous
 62
     7
100
AcDbSpline
210
0.0
220
0.0
230
1.0
 70
     8
 71
     3
 72
    11
 73
     7
 74
     5
 42
0.0000000001
 43
0.0000000001
 44
0.00000001
 40
0.0
 40
0.0
 40
0.0
 40
0.0
 40
0.2363241536919212
 40
0.4569045424588277
 40
0.659021220095732
 40
0.8515736507294491
 40
0.8515736507294491
 40
0.8515736507294491
 40
0.8515736507294491
 10
-167.087385814742
 20
-87.84144251564405
 30
0.0
 10
-167.0096839401047
 20
-87.85441996581389
 30
0.0
 10
-166.8594566403355
 20
-87.87951031667096
 30
0.0
 10
-166.6419800391575
 20
-87.91054085456265
 30
0.0
 10
-166.4379809938085
 20
-87.9328635162718
 30
0.0
 10
-166.3064845417882
 20
-87.93790727526739
 30
0.0
 10
-166.2423296309385
 20
-87.94036804058643
 30
0.0
 11
-167.087385814742
 21
-87.84144251564405
 31
0.0
 11
-166.8541328054083
 21
-87.87941802426454
 31
0.0
 11
-166.6357060924577
 21
-87.91016666615566
 31
0.0
 11
-166.4346430901466
 21
-87.93077783983993
 31
0.0
 11
-166.2423296309385
 21
-87.94036804058643
 31
0.0
  0
SPLINE
  5
14C
330
43
100
AcDbEntity
  8
0
  6
Continuous
 62
     7
100
AcDbSpline
210
0.0
220
0.0
230
1.0
 70
     8
 71
     3
 72
     9
 73
     5
 74
     3
 42
0.0000000001
 43
0.0000000001
 44
0.00000001
 40
0.0
 40
0.0
 40
0.0
 40
0.0
 40
0.0252947718596374
 40
0.0504561830830123
 40
0.0504561830830123
 40
0.0504561830830123
 40
0.0504561830830123
 10
-166.2423296309385
 20
-87.94036804058643
 30
0.0
 10
-166.2338991388283
 20
-87.94051181240411
 30
0.0
 10
-166.2170826023616
 20
-87.9407985980369
 30
0.0
 10
-166.2002636679036
 20
-87.94083776959687
 30
0.0
 10
-166.1918764277206
 20
-87.94085730360972
 30
0.0
 11
-166.2423296309385
 21
-87.94036804058643
 31
0.0
 11
-166.2170375519367
 21
-87.94073712485465
 31
0.0
 11
-166.1918764277206
 21
-87.94085730360972
 31
0.0
  0
SPLINE
  5
14D
330
43
100
AcDbEntity
  8
0
  6
Continuous
 62
     7
100
AcDbSpline
210
0.0
220
0.0
230
1.0
 70
     8
 71
     3
 72
     9
 73
     5
 74
     3
 42
0.0000000001
 43
0.0000000001
 44
0.00000001
 40
0.0
 40
0.0
 40
0.0
 40
0.0
 40
0.4831115093550025
 40
0.9512322773587842
 40
0.9512322773587842
 40
0.9512322773587842
 40
0.9512322773587842
 10
-167.187385814742
 20
-87.84144251564405
 30
0.0
 10
-167.0285402861457
 20
-87.86921608558482
 30
0.0
 10
-166.715778137058
 20
-87.92390142359392
 30
0.0
 10
-166.3984789970311
 20
-87.93493713992494
 30
0.0
 10
-166.2423296309385
 20
-87.94036804058643
 30
0.0
 11
-167.187385814742
 21
-87.84144251564405
 31
0.0
 11
-166.7096789496537
 21
-87.91350416646321
 31
0.0
 11
-166.2423296309385
 21
-87.94036804058643
 31
0.0
  0
SPLINE
  5
14E
330
43
100
AcDbEntity
  8
0
  6
Continuous
 62
     7
100
AcDbSpline
210
0.0
220
0.0
230
1.0
 70
     8
 71
     3
 72
     9
 73
     5
 74
     3
 42
0.0000000001
 43
0.0000000001
 44
0.00000001
 40
0.0
 40
0.0
 40
0.0
 40
0.0
 40
0.1238603051151104
 40
0.2477191766855681
 40
0.2477191766855681
 40
0.2477191766855681
 40
0.2477191766855681
 10
-166.4881757129847
 20
-88.16753390294716
 30
0.0
 10
-166.4867671941775
 20
-88.20879713540958
 30
0.0
 10
-166.4839501728651
 20
-88.29132312275863
 30
0.0
 10
-166.48221985113
 20
-88.37387904429923
 30
0.0
 10
-166.4813546952692
 20
-88.41515676619503
 30
0.0
 11
-166.4881757129847
 21
-88.16753390294716
 31
0.0
 11
-166.4842218346017
 21
-88.29133108396894
 31
0.0
 11
-166.4813546952692
 21
-88.41515676619503
 31
0.0
  0
SPLINE
  5
14F
330
43
100
AcDbEntity
  8
0
  6
Continuous
 62
     7
100
AcDbSpline
210
0.0
220
0.0
230
1.0
 70
     8
 71
     3
 72
     9
 73
     5
 74
     3
 42
0.0000000001
 43
0.0000000001
 44
0.00000001
 40
0.0
 40
0.0
 40
0.0
 40
0.0
 40
0.11683181872579
 40
0.233662224267819
 40
0.233662224267819
 40
0.233662224267819
 40
0.233662224267819
 10
-166.5881757129847
 20
-88.16753390294716
 30
0.0
 10
-166.5868422763479
 20
-88.20645542477028
 30
0.0
 10
-166.5841754192035
 20
-88.28429799762642
 30
0.0
 10
-166.5824754150025
 20
-88.36216768530866
 30
0.0
 10
-166.5816254180428
 20
-88.40110229367272
 30
0.0
 11
-166.5881757129847
 21
-88.16753390294716
 31
0.0
 11
-166.584417119234
 21
-88.28430524720504
 31
0.0
 11
-166.5816254180428
 21
-88.40110229367272
 31
0.0
  0
SPLINE
  5
150
330
43
100
AcDbEntity
  8
0
  6
Continuous
 62
     7
100
AcDbSpline
210
0.0
220
0.0
230
1.0
 70
     8
 71
     3
 72
     9
 73
     5
 74
     3
 42
0.0000000001
 43
0.0000000001
 44
0.00000001
 40
0.0
 40
0.0
 40
0.0
 40
0.0
 40
0.3011212436141203
 40
0.6022486651954595
 40
0.6022486651954595
 40
0.6022486651954595
 40
0.6022486651954595
 10
-166.4794222503817
 20
-88.61995444247707
 30
0.0
 10
-166.4797987100054
 20
-88.72033463661549
 30
0.0
 10
-166.4805516369767
 20
-88.92109708434702
 30
0.0
 10
-166.4877339699055
 20
-89.12173242907289
 30
0.0
 10
-166.4913251732088
 20
-89.22205113051126
 30
0.0
 11
-166.4794222503817
 21
-88.61995444247707
 31
0.0
 11
-166.4821589477656
 21
-88.92106324979287
 31
0.0
 11
-166.4913251732088
 21
-89.22205113051126
 31
0.0
  0
SPLINE
  5
151
330
43
100
AcDbEntity
  8
0
  6
Continuous
 62
     7
100
AcDbSpline
210
0.0
220
0.0
230
1.0
 70
     8
 71
     3
 72
     9
 73
     5
 74
     3
 42
0.0000000001
 43
0.0000000001
 44
0.00000001
 40
0.0
 40
0.0
 40
0.0
 40
0.0
 40
0.2724806649082093
 40
0.5449633248846317
 40
0.5449633248846317
 40
0.5449633248846317
 40
0.5449633248846317
 10
-166.5794222503817
 20
-88.61995444247708
 30
0.0
 10
-166.5797167506059
 20
-88.71078615277503
 30
0.0
 10
-166.5803057532108
 20
-88.89245023842898
 30
0.0
 10
-166.5861594493976
 20
-89.07402094425822
 30
0.0
 10
-166.589086308206
 20
-89.16480662953094
 30
0.0
 11
-166.5794222503817
 21
-88.61995444247708
 31
0.0
 11
-166.5816219148132
 21
-88.89242622858568
 31
0.0
 11
-166.589086308206
 21
-89.16480662953094
 31
0.0
  0
SPLINE
  5
152
330
43
100
AcDbEntity
  8
0
  6
Continuous
 62
     7
100
AcDbSpline
210
0.0
220
0.0
230
1.0
 70
     8
 71
     3
 72
     9
 73
     5
 74
     3
 42
0.0000000001
 43
0.0000000001
 44
0.00000001
 40
0.0
 40
0.0
 40
0.0
 40
0.0
 40
0.6768462592717936
 40
1.343051304058192
 40
1.343051304058192
 40
1.343051304058192
 40
1.343051304058192
 10
-167.9108635405123
 20
-88.44383037345966
 30
0.0
 10
-167.6870142891946
 20
-88.47202508463094
 30
0.0
 10
-167.2428350907776
 20
-88.52797123648944
 30
0.0
 10
-166.7993886978198
 20
-88.58945575777722
 30
0.0
 10
-166.5794222503817
 20
-88.61995444247708
 30
0.0
 11
-167.9108635405123
 21
-88.44383037345966
 31
0.0
 11
-167.239501902493
 21
-88.52982112695265
 31
0.0
 11
-166.5794222503817
 21
-88.61995444247708
 31
0.0
  0
SPLINE
  5
153
330
43
100
AcDbEntity
  8
0
  6
Continuous
 62
     7
100
AcDbSpline
210
0.0
220
0.0
230
1.0
 70
     8
 71
     3
 72
     9
 73
     5
 74
     3
 42
0.0000000001
 43
0.0000000001
 44
0.00000001
 40
0.0
 40
0.0
 40
0.0
 40
0.0
 40
0.7449128868599764
 40
1.4770369690957
 40
1.4770369690957
 40
1.4770369690957
 40
1.4770369690957
 10
-167.9438457581081
 20
-88.42745310700698
 30
0.0
 10
-167.6974414356306
 20
-88.45813775747284
 30
0.0
 10
-167.2088631064537
 20
-88.51898025855087
 30
0.0
 10
-166.7211616278595
 20
-88.58649122724796
 30
0.0
 10
-166.4794222503817
 20
-88.61995444247707
 30
0.0
 11
-167.9438457581081
 21
-88.42745310700698
 31
0.0
 11
-167.2048558158248
 21
-88.52120316948266
 31
0.0
 11
-166.4794222503817
 21
-88.61995444247707
 31
0.0
  0
SPLINE
  5
154
330
43
100
AcDbEntity
  8
0
  6
Continuous
 62
     7
100
AcDbSpline
210
0.0
220
0.0
230
1.0
 70
     8
 71
     3
 72
    11
 73
     7
 74
     5
 42
0.0000000001
 43
0.0000000001
 44
0.00000001
 40
0.0
 40
0.0
 40
0.0
 40
0.0
 40
0.0509887361424621
 40
0.1008390396127557
 40
0.1463671182621596
 40
0.198372492624347
 40
0.198372492624347
 40
0.198372492624347
 40
0.198372492624347
 10
-167.0731767990499
 20
-90.6712002493587
 30
0.0
 10
-167.0901597733621
 20
-90.67052442557309
 30
0.0
 10
-167.1237465407342
 20
-90.66918786721438
 30
0.0
 10
-167.1725194487201
 20
-90.66789083404063
 30
0.0
 10
-167.2216406683887
 20
-90.66701340264831
 30
0.0
 10
-167.2541520315126
 20
-90.66689600856142
 30
0.0
 10
-167.2714872694035
 20
-90.66683341338768
 30
0.0
 11
-167.0731767990499
 21
-90.6712002493587
 31
0.0
 11
-167.1241295909229
 21
-90.66928603574637
 31
0.0
 11
-167.1739614012219
 21
-90.66792830292938
 31
0.0
 11
-167.219482876453
 21
-90.66715290735632
 31
0.0
 11
-167.2714872694035
 21
-90.66683341338768
 31
0.0
  0
SPLINE
  5
155
330
43
100
AcDbEntity
  8
0
  6
Continuous
 62
     7
100
AcDbSpline
210
0.0
220
0.0
230
1.0
 70
     8
 71
     3
 72
    11
 73
     7
 74
     5
 42
0.0000000001
 43
0.0000000001
 44
0.00000001
 40
0.0
 40
0.0
 40
0.0
 40
0.0
 40
0.1230663578848142
 40
0.308913474072374
 40
0.4476090004960301
 40
0.6193513724867055
 40
0.6193513724867055
 40
0.6193513724867055
 40
0.6193513724867055
 10
-165.9302255518618
 20
-91.4602861200852
 30
0.0
 10
-165.9154304118555
 20
-91.49867136187953
 30
0.0
 10
-165.8782925768105
 20
-91.59502359493166
 30
0.0
 10
-165.8602769486901
 20
-91.74438618354233
 30
0.0
 10
-165.8473166153841
 20
-91.90914921375335
 30
0.0
 10
-165.8480722962009
 20
-92.01271803599026
 30
0.0
 10
-165.8484903586108
 20
-92.07001501965786
 30
0.0
 11
-165.9302255518618
 21
-91.4602861200852
 31
0.0
 11
-165.8897609902189
 21
-91.57650981686896
 31
0.0
 11
-165.8598833496646
 21
-91.75993957778616
 31
0.0
 11
-165.8499486739617
 21
-91.89827883927259
 31
0.0
 11
-165.8484903586108
 21
-92.07001501965786
 31
0.0
  0
SPLINE
  5
156
330
43
100
AcDbEntity
  8
0
  6
Continuous
 62
     7
100
AcDbSpline
210
0.0
220
0.0
230
1.0
 70
     8
 71
     3
 72
     9
 73
     5
 74
     3
 42
0.0000000001
 43
0.0000000001
 44
0.00000001
 40
0.0
 40
0.0
 40
0.0
 40
0.0
 40
0.1188178154221596
 40
0.237635745599854
 40
0.237635745599854
 40
0.237635745599854
 40
0.237635745599854
 10
-165.8484903586108
 20
-92.07001501965786
 30
0.0
 10
-165.8492052582787
 20
-92.109614872009
 30
0.0
 10
-165.850635058305
 20
-92.18881461495725
 30
0.0
 10
-165.8529788918544
 20
-92.26799257941465
 30
0.0
 10
-165.8541508091951
 20
-92.30758158076105
 30
0.0
 11
-165.8484903586108
 21
-92.07001501965786
 31
0.0
 11
-165.8508635657747
 21
-92.18880913209384
 31
0.0
 11
-165.8541508091951
 21
-92.30758158076105
 31
0.0
  0
SPLINE
  5
157
330
43
100
AcDbEntity
  8
0
  6
Continuous
 62
     7
100
AcDbSpline
210
0.0
220
0.0
230
1.0
 70
     8
 71
     3
 72
     9
 73
     5
 74
     3
 42
0.0000000001
 43
0.0000000001
 44
0.00000001
 40
0.0
 40
0.0
 40
0.0
 40
0.0
 40
1.810576205356205
 40
3.542540091880788
 40
3.542540091880788
 40
3.542540091880788
 40
3.542540091880788
 10
-169.0128649164657
 20
-92.3519828348288
 30
0.0
 10
-168.4099281054036
 20
-92.37879494473702
 30
0.0
 10
-167.23023303389
 20
-92.43125502568626
 30
0.0
 10
-166.051320272916
 20
-92.49904500281278
 30
0.0
 10
-165.4749444876285
 20
-92.53218782948692
 30
0.0
 11
-169.0128649164657
 21
-92.3519828348288
 31
0.0
 11
-167.2042588373298
 21
-92.43642361830959
 31
0.0
 11
-165.4749444876285
 21
-92.53218782948692
 31
0.0
  0
SPLINE
  5
158
330
43
100
AcDbEntity
  8
0
  6
Continuous
 62
     7
100
AcDbSpline
210
0.0
220
0.0
230
1.0
 70
     8
 71
     3
 72
    11
 73
     7
 74
     5
 42
0.0000000001
 43
0.0000000001
 44
0.00000001
 40
0.0
 40
0.0
 40
0.0
 40
0.0
 40
0.1229379158997532
 40
0.3084949582843923
 40
0.4476261404311962
 40
0.6193518972360083
 40
0.6193518972360083
 40
0.6193518972360083
 40
0.6193518972360083
 10
-165.8302255518618
 20
-91.4602861200852
 30
0.0
 10
-165.8154427267591
 20
-91.49863000171057
 30
0.0
 10
-165.778347360533
 20
-91.59484843908938
 30
0.0
 10
-165.7602947490684
 20
-91.74420993534052
 30
0.0
 10
-165.7473168016502
 20
-91.9090150504242
 30
0.0
 10
-165.7480727515168
 20
-92.0127236128061
 30
0.0
 10
-165.7484903586108
 20
-92.07001501965786
 30
0.0
 11
-165.8302255518618
 21
-91.4602861200852
 31
0.0
 11
-165.7897923367219
 21
-91.57638472593052
 31
0.0
 11
-165.7599267860238
 21
-91.75952255615692
 31
0.0
 11
-165.749948352596
 21
-91.89829545232867
 31
0.0
 11
-165.7484903586108
 21
-92.07001501965786
 31
0.0
  0
SPLINE
  5
159
330
43
100
AcDbEntity
  8
0
  6
Continuous
 62
     7
100
AcDbSpline
210
0.0
220
0.0
230
1.0
 70
     8
 71
     3
 72
     9
 73
     5
 74
     3
 42
0.0000000001
 43
0.0000000001
 44
0.00000001
 40
0.0
 40
0.0
 40
0.0
 40
0.0
 40
0.1217273220365172
 40
0.2434548107018895
 40
0.2434548107018895
 40
0.2434548107018895
 40
0.2434548107018895
 10
-165.7484903586108
 20
-92.07001501965786
 30
0.0
 10
-165.7492246756786
 20
-92.1105845425737
 30
0.0
 10
-165.7506933108194
 20
-92.1917236439397
 30
0.0
 10
-165.753121287624
 20
-92.27283970639657
 30
0.0
 10
-165.7543352768572
 20
-92.31339776538435
 30
0.0
 11
-165.7484903586108
 21
-92.07001501965786
 31
0.0
 11
-165.7509331449019
 21
-92.19171782868591
 31
0.0
 11
-165.7543352768572
 21
-92.31339776538435
 31
0.0
  0
SPLINE
  5
15A
330
43
100
AcDbEntity
  8
0
  6
Continuous
 62
     7
100
AcDbSpline
210
0.0
220
0.0
230
1.0
 70
     8
 71
     3
 72
     9
 73
     5
 74
     3
 42
0.0000000001
 43
0.0000000001
 44
0.00000001
 40
0.0
 40
0.0
 40
0.0
 40
0.0
 40
1.399153147472882
 40
2.849444291457858
 40
2.849444291457858
 40
2.849444291457858
 40
2.849444291457858
 10
-165.7543352768572
 20
-92.31339776538435
 30
0.0
 10
-166.2199790976615
 20
-92.28706366705782
 30
0.0
 10
-167.1682856711339
 20
-92.23343297889278
 30
0.0
 10
-168.1171034763265
 20
-92.18976404517439
 30
0.0
 10
-168.6000264323047
 20
-92.16753772264931
 30
0.0
 11
-165.7543352768572
 21
-92.31339776538435
 31
0.0
 11
-167.1513900009147
 21
-92.23679732105285
 31
0.0
 11
-168.6000264323047
 21
-92.16753772264931
 31
0.0
  0
SPLINE
  5
15B
330
43
100
AcDbEntity
  8
0
  6
Continuous
 62
     7
100
AcDbSpline
210
0.0
220
0.0
230
1.0
 70
     8
 71
     3
 72
    13
 73
     9
 74
     7
 42
0.0000000001
 43
0.0000000001
 44
0.00000001
 40
0.0
 40
0.0
 40
0.0
 40
0.0
 40
0.3377318692626246
 40
0.683978536563997
 40
0.8649791825716235
 40
1.147205789027551
 40
1.275295819274354
 40
1.412830015268248
 40
1.412830015268248
 40
1.412830015268248
 40
1.412830015268248
 10
-167.0536752771785
 20
-90.8844781606835
 30
0.0
 10
-166.9413348521712
 20
-90.893403230362
 30
0.0
 10
-166.7138217079091
 20
-90.91147838598992
 30
0.0
 10
-166.432757899151
 20
-90.98552471718133
 30
0.0
 10
-166.1855654918999
 20
-91.09452209158289
 30
0.0
 10
-166.0205482478889
 20
-91.20717436242512
 30
0.0
 10
-165.8967795453772
 20
-91.34309002608963
 30
0.0
 10
-165.8529299020217
 20
-91.42030563183948
 30
0.0
 10
-165.8302255518618
 20
-91.4602861200852
 30
0.0
 11
-167.0536752771785
 21
-90.8844781606835
 31
0.0
 11
-166.7179372349158
 21
-90.92112215737073
 31
0.0
 11
-166.3835116060526
 21
-91.01082306805044
 31
0.0
 11
-166.2183378144975
 21
-91.08484233877428
 31
0.0
 11
-165.9878514958038
 21
-91.24771626021862
 31
0.0
 11
-165.902670810963
 21
-91.34337872296491
 31
0.0
 11
-165.8302255518618
 21
-91.4602861200852
 31
0.0
  0
SPLINE
  5
15C
330
43
100
AcDbEntity
  8
0
  6
Continuous
 62
     7
100
AcDbSpline
210
0.0
220
0.0
230
1.0
 70
     8
 71
     3
 72
     9
 73
     5
 74
     3
 42
0.0000000001
 43
0.0000000001
 44
0.00000001
 40
0.0
 40
0.0
 40
0.0
 40
0.0
 40
0.0796049230255644
 40
0.1617169730278117
 40
0.1617169730278117
 40
0.1617169730278117
 40
0.1617169730278117
 10
-167.2153438488975
 20
-90.88092151274392
 30
0.0
 10
-167.1888074578557
 20
-90.88107646421345
 30
0.0
 10
-167.1348989221615
 20
-90.88139124729054
 30
0.0
 10
-167.0810282145579
 20
-90.88343860934657
 30
0.0
 10
-167.0536752771785
 20
-90.8844781606835
 30
0.0
 11
-167.2153438488975
 21
-90.88092151274392
 31
0.0
 11
-167.13574384184
 21
-90.88180618576305
 31
0.0
 11
-167.0536752771785
 21
-90.8844781606835
 31
0.0
  0
SPLINE
  5
15D
330
43
100
AcDbEntity
  8
0
  6
Continuous
 62
     7
100
AcDbSpline
210
0.0
220
0.0
230
1.0
 70
     8
 71
     3
 72
     9
 73
     5
 74
     3
 42
0.0000000001
 43
0.0000000001
 44
0.00000001
 40
0.0
 40
0.0
 40
0.0
 40
0.0
 40
1.282498778104324
 40
2.602258488106057
 40
2.602258488106057
 40
2.602258488106057
 40
2.602258488106057
 10
-166.4813546952692
 20
-88.41515676619503
 30
0.0
 10
-166.9049431498174
 20
-88.35734555037642
 30
0.0
 10
-167.7644267377401
 20
-88.24004350717756
 30
0.0
 10
-168.6264000820896
 20
-88.14270034213399
 30
0.0
 10
-169.0635579187025
 20
-88.09333184632322
 30
0.0
 11
-166.4813546952692
 21
-88.41515676619503
 31
0.0
 11
-167.752724800611
 21
-88.24657096880281
 31
0.0
 11
-169.0635579187025
 21
-88.09333184632322
 31
0.0
  0
SPLINE
  5
15E
330
43
100
AcDbEntity
  8
0
  6
Continuous
 62
     7
100
AcDbSpline
210
0.0
220
0.0
230
1.0
 70
     8
 71
     3
 72
    19
 73
    15
 74
    13
 42
0.0000000001
 43
0.0000000001
 44
0.00000001
 40
0.0
 40
0.0
 40
0.0
 40
0.0
 40
0.4423619838717607
 40
0.8934592748851109
 40
1.124315896062298
 40
1.359040226344008
 40
1.479563673578354
 40
1.603448542832729
 40
1.666855279136199
 40
1.730609840786972
 40
1.762671665786077
 40
1.794319404851417
 40
1.825420201311691
 40
1.856487562524917
 40
1.856487562524917
 40
1.856487562524917
 40
1.856487562524917
 10
-167.0693201683506
 20
-87.6527572859432
 30
0.0
 10
-167.2145213126609
 20
-87.62703304676015
 30
0.0
 10
-167.5077908833697
 20
-87.57507659271246
 30
0.0
 10
-167.8718261963361
 20
-87.4830655480792
 30
0.0
 10
-168.1599366197192
 20
-87.38036191837662
 30
0.0
 10
-168.3360532237052
 20
-87.29422243051027
 30
0.0
 10
-168.4701339229012
 20
-87.20697685824697
 30
0.0
 10
-168.5481710023963
 20
-87.13963275730379
 30
0.0
 10
-168.6039904415757
 20
-87.07713554983084
 30
0.0
 10
-168.6341764160002
 20
-87.0331769577763
 30
0.0
 10
-168.6530691609399
 20
-86.99502999797123
 30
0.0
 10
-168.6632367878246
 20
-86.96496614514865
 30
0.0
 10
-168.6684816513081
 20
-86.93405253328211
 30
0.0
 10
-168.6703693871041
 20
-86.9134168171075
 30
0.0
 10
-168.6713127473715
 20
-86.90310450816541
 30
0.0
 11
-167.0693201683506
 21
-87.6527572859432
 31
0.0
 11
-167.5039474965542
 21
-87.57039703853269
 31
0.0
 11
-167.9403061720349
 21
-87.45602976920976
 31
0.0
 11
-168.1571400035765
 21
-87.37679676446855
 31
0.0
 11
-168.367167034816
 21
-87.27199143361696
 31
0.0
 11
-168.4676289220081
 21
-87.20540832348344
 31
0.0
 11
-168.5609490106916
 21
-87.12392935761937
 31
0.0
 11
-168.6028772013884
 21
-87.07636423348887
 31
0.0
 11
-168.6384301584593
 21
-87.02344324167277
 31
0.0
 11
-168.6524693464509
 21
-86.99461856781842
 31
0.0
 11
-168.6624760310578
 21
-86.96459448330074
 31
0.0
 11
-168.6680861354631
 21
-86.93400385942633
 31
0.0
 11
-168.6713127473715
 21
-86.90310450816541
 31
0.0
  0
SPLINE
  5
15F
330
43
100
AcDbEntity
  8
0
  6
Continuous
 62
     7
100
AcDbSpline
210
0.0
220
0.0
230
1.0
 70
     8
 71
     3
 72
     9
 73
     5
 74
     3
 42
0.0000000001
 43
0.0000000001
 44
0.00000001
 40
0.0
 40
0.0
 40
0.0
 40
0.0
 40
0.3350772130152092
 40
0.6701532383880355
 40
0.6701532383880355
 40
0.6701532383880355
 40
0.6701532383880355
 10
-165.4749444876285
 20
-92.53218782948692
 30
0.0
 10
-165.4705958483044
 20
-92.42057218327072
 30
0.0
 10
-165.4618985850692
 20
-92.19734128644706
 30
0.0
 10
-165.4603390814901
 20
-91.97394647092318
 30
0.0
 10
-165.4595593310824
 20
-91.86224926111085
 30
0.0
 11
-165.4749444876285
 21
-92.53218782948692
 31
0.0
 11
-165.4636830158947
 21
-92.19729991101802
 31
0.0
 11
-165.4595593310824
 21
-91.86224926111085
 31
0.0
  0
SPLINE
  5
160
330
43
100
AcDbEntity
  8
0
  6
Continuous
 62
     7
100
AcDbSpline
210
0.0
220
0.0
230
1.0
 70
     8
 71
     3
 72
     9
 73
     5
 74
     3
 42
0.0000000001
 43
0.0000000001
 44
0.00000001
 40
0.0
 40
0.0
 40
0.0
 40
0.0
 40
0.3599283539241849
 40
0.7234697892324085
 40
0.7234697892324085
 40
0.7234697892324085
 40
0.7234697892324085
 10
-165.4559636242974
 20
-88.56652896170785
 30
0.0
 10
-165.574546803276
 20
-88.54829688573591
 30
0.0
 10
-165.8129035389063
 20
-88.51164971410611
 30
0.0
 10
-166.0515263950653
 20
-88.4767772824651
 30
0.0
 10
-166.1714336764978
 20
-88.45925398841725
 30
0.0
 11
-165.4559636242974
 21
-88.56652896170785
 31
0.0
 11
-165.8117790285083
 21
-88.51227199823958
 31
0.0
 11
-166.1714336764978
 21
-88.45925398841725
 31
0.0
  0
SPLINE
  5
161
330
43
100
AcDbEntity
  8
0
  6
Continuous
 62
     7
100
AcDbSpline
210
0.0
220
0.0
230
1.0
 70
     8
 71
     3
 72
    11
 73
     7
 74
     5
 42
0.0000000001
 43
0.0000000001
 44
0.00000001
 40
0.0
 40
0.0
 40
0.0
 40
0.0
 40
0.1957427353979065
 40
0.3861034932349572
 40
0.5404704150092502
 40
0.697485777641314
 40
0.697485777641314
 40
0.697485777641314
 40
0.697485777641314
 10
-165.7571373910709
 20
-87.42039884577225
 30
0.0
 10
-165.7778555634749
 20
-87.48511069932945
 30
0.0
 10
-165.8187222588462
 20
-87.61275514376499
 30
0.0
 10
-165.9921258071404
 20
-87.69834831300827
 30
0.0
 10
-166.1535821969974
 20
-87.7371286458776
 30
0.0
 10
-166.2576793364725
 20
-87.74253257820854
 30
0.0
 10
-166.3101706017827
 20
-87.74525752576363
 30
0.0
 11
-165.7571373910709
 21
-87.42039884577225
 31
0.0
 11
-165.8406270001595
 21
-87.59744320076636
 31
0.0
 11
-166.0037741612437
 21
-87.69552593092051
 31
0.0
 11
-166.153687731249
 21
-87.73233718010243
 31
0.0
 11
-166.3101706017827
 21
-87.74525752576363
 31
0.0
  0
SPLINE
  5
162
330
43
100
AcDbEntity
  8
0
  6
Continuous
 62
     7
100
AcDbSpline
210
0.0
220
0.0
230
1.0
 70
     8
 71
     3
 72
    23
 73
    19
 74
    17
 42
0.0000000001
 43
0.0000000001
 44
0.00000001
 40
0.0
 40
0.0
 40
0.0
 40
0.0
 40
0.0141801077244146
 40
0.0360490429676079
 40
0.0633428747187573
 40
0.1039039653122303
 40
0.1487966545343306
 40
0.1997833982645391
 40
0.2445039632914883
 40
0.2863023216242149
 40
0.323369049118017
 40
0.3535417532097216
 40
0.3744347888473581
 40
0.3835183993327154
 40
0.4825742536675968
 40
0.5790714311075948
 40
0.6700482111401468
 40
0.7516944892524606
 40
0.7516944892524606
 40
0.7516944892524606
 40
0.7516944892524606
 10
-165.6571373910709
 20
-87.42039884577225
 30
0.0
 10
-165.6575832519409
 20
-87.42510527783743
 30
0.0
 10
-165.658716731176
 20
-87.43707009327034
 30
0.0
 10
-165.6622891033874
 20
-87.45790876531167
 30
0.0
 10
-165.6698637318451
 20
-87.48688562135689
 30
0.0
 10
-165.6839501394016
 20
-87.52189378254494
 30
0.0
 10
-165.7074978437037
 20
-87.56103928439134
 30
0.0
 10
-165.738225840527
 20
-87.59673306226287
 30
0.0
 10
-165.7729606873359
 20
-87.62681961678014
 30
0.0
 10
-165.8070326801522
 20
-87.65009851242304
 30
0.0
 10
-165.8387351498967
 20
-87.6679478989536
 30
0.0
 10
-165.8652796391166
 20
-87.6805731606228
 30
0.0
 10
-165.8838117183966
 20
-87.68825117710735
 30
0.0
 10
-165.924217317381
 20
-87.702993323647
 30
0.0
 10
-165.9897983470246
 20
-87.72252428533156
 30
0.0
 10
-166.0842657300475
 20
-87.73774489585064
 30
0.0
 10
-166.1737644589446
 20
-87.7449512762773
 30
0.0
 10
-166.2313145868603
 20
-87.74555826590002
 30
0.0
 10
-166.2585343210007
 20
-87.7458453564201
 30
0.0
 11
-165.6571373910709
 21
-87.42039884577225
 31
0.0
 11
-165.6586141666629
 21
-87.4345018450606
 31
0.0
 11
-165.6622557698095
 21
-87.45606544993532
 31
0.0
 11
-165.6691884983326
 21
-87.48246413412384
 31
0.0
 11
-165.6843263114136
 21
-87.52009455646078
 31
0.0
 11
-165.7074122271967
 21
-87.55859642703935
 31
0.0
 11
-165.7405203969229
 21
-87.59737138201793
 31
0.0
 11
-165.7742325637613
 21
-87.62675536989207
 31
0.0
 11
-165.808670620412
 21
-87.65044340513003
 31
0.0
 11
-165.8409529171992
 21
-87.66865866250518
 31
0.0
 11
-165.8681978044471
 21
-87.68162431679085
 31
0.0
 11
-165.8875236324801
 21
-87.68956354276045
 31
0.0
 11
-165.8960487516222
 21
-87.69269951518729
 31
0.0
 11
-165.9910809266594
 21
-87.72064496178787
 31
0.0
 11
-166.0862281089171
 21
-87.73672970494161
 31
0.0
 11
-166.1769070048719
 21
-87.74408581352637
 31
0.0
 11
-166.2585343210007
 21
-87.7458453564201
 31
0.0
  0
SPLINE
  5
163
330
43
100
AcDbEntity
  8
0
  6
Continuous
 62
     7
100
AcDbSpline
210
0.0
220
0.0
230
1.0
 70
     8
 71
     3
 72
    21
 73
    17
 74
    15
 42
0.0000000001
 43
0.0000000001
 44
0.00000001
 40
0.0
 40
0.0
 40
0.0
 40
0.0
 40
0.1269044126526349
 40
0.2552779433445552
 40
0.2831569030428072
 40
0.3407974340615021
 40
0.4178706956109403
 40
0.5044569109270259
 40
0.5364337017272285
 40
0.5937713582780619
 40
0.6686264834587345
 40
0.7548025440860124
 40
0.8013890303354329
 40
0.8873507653733856
 40
0.9514432037558039
 40
1.031436523916798
 40
1.031436523916798
 40
1.031436523916798
 40
1.031436523916798
 10
-166.1918764277206
 20
-87.94085730360972
 30
0.0
 10
-166.1495669749139
 20
-87.94026852960296
 30
0.0
 10
-166.064458270884
 20
-87.93908416560491
 30
0.0
 10
-165.970381078637
 20
-87.92991299867109
 30
0.0
 10
-165.8998088388099
 20
-87.91976069199673
 30
0.0
 10
-165.8464745831866
 20
-87.91001374811425
 30
0.0
 10
-165.7745954860425
 20
-87.8932209570677
 30
0.0
 10
-165.7124073228135
 20
-87.87326115493764
 30
0.0
 10
-165.6578188811181
 20
-87.85181951271356
 30
0.0
 10
-165.6085002023398
 20
-87.8279030589838
 30
0.0
 10
-165.5466800848549
 20
-87.78908875414669
 30
0.0
 10
-165.4943684921234
 20
-87.74313152711451
 30
0.0
 10
-165.4471089499887
 20
-87.68745096357286
 30
0.0
 10
-165.4145088298175
 20
-87.62972486859564
 30
0.0
 10
-165.3921494477508
 20
-87.55578788974998
 30
0.0
 10
-165.3889124382759
 20
-87.50771921994755
 30
0.0
 10
-165.3871153201019
 20
-87.48103252632781
 30
0.0
 11
-166.1918764277206
 21
-87.94085730360972
 31
0.0
 11
-166.065020757848
 21
-87.93734034869371
 31
0.0
 11
-165.9372351751243
 21
-87.92506809420318
 31
0.0
 11
-165.9096458572819
 21
-87.92105986082058
 31
0.0
 11
-165.8529283842822
 21
-87.91078566631973
 31
0.0
 11
-165.7779367716859
 21
-87.89299393548549
 31
0.0
 11
-165.695525035054
 21
-87.86643309310284
 31
0.0
 11
-165.6658029016921
 21
-87.8546386054795
 31
0.0
 11
-165.6141932612151
 21
-87.82965757530502
 31
0.0
 11
-165.5509685361191
 21
-87.78958359493934
 31
0.0
 11
-165.4864011489001
 21
-87.73251025674239
 31
0.0
 11
-165.4564400515022
 21
-87.69683626980816
 31
0.0
 11
-165.4142609687268
 21
-87.62193403441455
 31
0.0
 11
-165.39582542272
 21
-87.56055023116618
 31
0.0
 11
-165.3871153201019
 21
-87.48103252632781
 31
0.0
  0
SPLINE
  5
164
330
43
100
AcDbEntity
  8
0
  6
Continuous
 62
     7
100
AcDbSpline
210
0.0
220
0.0
230
1.0
 70
     8
 71
     3
 72
     9
 73
     5
 74
     3
 42
0.0000000001
 43
0.0000000001
 44
0.00000001
 40
0.0
 40
0.0
 40
0.0
 40
0.0
 40
0.1024032838976914
 40
0.2048068658333765
 40
0.2048068658333765
 40
0.2048068658333765
 40
0.2048068658333765
 10
-165.4541524386218
 20
-88.77132663798989
 30
0.0
 10
-165.454280440151
 20
-88.73719220401442
 30
0.0
 10
-165.454536443582
 20
-88.66892323671743
 30
0.0
 10
-165.4554878969308
 20
-88.60066041982341
 30
0.0
 10
-165.4559636242974
 20
-88.56652896170785
 30
0.0
 11
-165.4541524386218
 21
-88.77132663798989
 31
0.0
 11
-165.4547103051829
 21
-88.66892487365972
 31
0.0
 11
-165.4559636242974
 21
-88.56652896170785
 31
0.0
  0
SPLINE
  5
165
330
43
100
AcDbEntity
  8
0
  6
Continuous
 62
     7
100
AcDbSpline
210
0.0
220
0.0
230
1.0
 70
     8
 71
     3
 72
     9
 73
     5
 74
     3
 42
0.0000000001
 43
0.0000000001
 44
0.00000001
 40
0.0
 40
0.0
 40
0.0
 40
0.0
 40
0.3634994467121627
 40
0.7233862537308878
 40
0.7233862537308878
 40
0.7233862537308878
 40
0.7233862537308878
 10
-166.1695380219373
 20
-88.6640516646993
 30
0.0
 10
-166.0496448963349
 20
-88.6815750329339
 30
0.0
 10
-165.8110502031047
 20
-88.7164476133866
 30
0.0
 10
-165.5727216171104
 20
-88.75309463568836
 30
0.0
 10
-165.4541524386218
 20
-88.77132663798989
 30
0.0
 11
-166.1695380219373
 21
-88.6640516646993
 31
0.0
 11
-165.8099258380769
 21
-88.71706982177042
 31
0.0
 11
-165.4541524386218
 21
-88.77132663798989
 31
0.0
  0
SPLINE
  5
166
330
43
100
AcDbEntity
  8
0
  6
Continuous
 62
     7
100
AcDbSpline
210
0.0
220
0.0
230
1.0
 70
     8
 71
     3
 72
    17
 73
    13
 74
    11
 42
0.0000000001
 43
0.0000000001
 44
0.00000001
 40
0.0
 40
0.0
 40
0.0
 40
0.0
 40
0.1648204685032028
 40
0.3286604962359664
 40
0.5339467807034342
 40
0.6441181699615881
 40
0.915798136793732
 40
1.178710732022653
 40
1.468638063107702
 40
1.713817818993809
 40
1.983352141288171
 40
2.246400242256424
 40
2.246400242256424
 40
2.246400242256424
 40
2.246400242256424
 10
-165.4595593310824
 20
-91.86224926111085
 30
0.0
 10
-165.4616188925305
 20
-91.8072926821691
 30
0.0
 10
-165.4657257640479
 20
-91.69770643556728
 30
0.0
 10
-165.4960349737495
 20
-91.52188752617991
 30
0.0
 10
-165.5492083670146
 20
-91.3693170635623
 30
0.0
 10
-165.6541848699067
 20
-91.20329381833145
 30
0.0
 10
-165.8104530387169
 20
-91.05083709999165
 30
0.0
 10
-166.047165394765
 20
-90.90893342397271
 30
0.0
 10
-166.2933200285833
 20
-90.80560779976909
 30
0.0
 10
-166.5526496780163
 20
-90.73527523787894
 30
0.0
 10
-166.8086632460247
 20
-90.69165123774191
 30
0.0
 10
-166.9857244129428
 20
-90.67796167126662
 30
0.0
 10
-167.0731767990499
 20
-90.6712002493587
 30
0.0
 11
-165.4595593310824
 21
-91.86224926111085
 31
0.0
 11
-165.469397091618
 21
-91.69772265139297
 31
0.0
 11
-165.4976220599902
 21
-91.53633211310816
 31
0.0
 11
-165.568825079515
 21
-91.3437896798603
 31
0.0
 11
-165.6273288661216
 21
-91.25043529076282
 31
0.0
 11
-165.81875319054
 21
-91.05764853707143
 31
0.0
 11
-166.0420811139141
 21
-90.91891255986499
 31
0.0
 11
-166.3092960655165
 21
-90.80642244052024
 31
0.0
 11
-166.5456032833249
 21
-90.74106181393172
 31
0.0
 11
-166.8112471980369
 21
-90.69543220215188
 31
0.0
 11
-167.0731767990499
 21
-90.6712002493587
 31
0.0
  0
SPLINE
  5
167
330
43
100
AcDbEntity
  8
0
  6
Continuous
 62
     7
100
AcDbSpline
210
0.0
220
0.0
230
1.0
 70
     8
 71
     3
 72
    11
 73
     7
 74
     5
 42
0.0000000001
 43
0.0000000001
 44
0.00000001
 40
0.0
 40
0.0
 40
0.0
 40
0.0
 40
0.1905179783076899
 40
0.4041947273864357
 40
0.614864070224046
 40
0.8170505614937547
 40
0.8170505614937547
 40
0.8170505614937547
 40
0.8170505614937547
 10
-166.2585343210007
 20
-87.7458453564201
 30
0.0
 10
-166.3220450009968
 20
-87.7442539749815
 30
0.0
 10
-166.4567865210105
 20
-87.74087776874387
 30
0.0
 10
-166.660693246376
 20
-87.71821650894847
 30
0.0
 10
-166.8672374882272
 20
-87.68735539486858
 30
0.0
 10
-167.0028883369877
 20
-87.66413092635713
 30
0.0
 10
-167.0693201683506
 20
-87.6527572859432
 30
0.0
 11
-166.2585343210007
 21
-87.7458453564201
 31
0.0
 11
-166.4489110961953
 21
-87.73851163124525
 31
0.0
 11
-166.661478998588
 21
-87.71677134676587
 31
0.0
 11
-166.8699162219559
 21
-87.68618546887608
 31
0.0
 11
-167.0693201683506
 21
-87.6527572859432
 31
0.0
  0
SPLINE
  5
168
330
43
100
AcDbEntity
  8
0
  6
Continuous
 62
     7
100
AcDbSpline
210
0.0
220
0.0
230
1.0
 70
     8
 71
     3
 72
     9
 73
     5
 74
     3
 42
0.0000000001
 43
0.0000000001
 44
0.00000001
 40
0.0
 40
0.0
 40
0.0
 40
0.0
 40
0.1238569340559723
 40
0.2477152433175334
 40
0.2477152433175334
 40
0.2477152433175334
 40
0.2477152433175334
 10
-166.1714336764978
 20
-88.45925398841725
 30
0.0
 10
-166.1722809362025
 20
-88.41797656145431
 30
0.0
 10
-166.1739754650192
 20
-88.33542124921786
 30
0.0
 10
-166.1767344238937
 20
-88.25289465256927
 30
0.0
 10
-166.1781139109891
 20
-88.21163112516938
 30
0.0
 11
-166.1714336764978
 21
-88.45925398841725
 31
0.0
 11
-166.1742415601717
 21
-88.33542888634574
 31
0.0
 11
-166.1781139109891
 21
-88.21163112516938
 31
0.0
  0
SPLINE
  5
169
330
43
100
AcDbEntity
  8
0
  6
Continuous
 62
     7
100
AcDbSpline
210
0.0
220
0.0
230
1.0
 70
     8
 71
     3
 72
     9
 73
     5
 74
     3
 42
0.0000000001
 43
0.0000000001
 44
0.00000001
 40
0.0
 40
0.0
 40
0.0
 40
0.0
 40
0.156272347586364
 40
0.3131820386204612
 40
0.3131820386204612
 40
0.3131820386204612
 40
0.3131820386204612
 10
-166.1781139109891
 20
-88.21163112516938
 30
0.0
 10
-166.2296744165982
 20
-88.20421712168984
 30
0.0
 10
-166.3330057129429
 20
-88.18935887734958
 30
0.0
 10
-166.4363822539034
 20
-88.17481875774098
 30
0.0
 10
-166.4881757129847
 20
-88.16753390294716
 30
0.0
 11
-166.1781139109891
 21
-88.21163112516938
 31
0.0
 11
-166.3328066929793
 21
-88.18946832254197
 31
0.0
 11
-166.4881757129847
 21
-88.16753390294716
 31
0.0
  0
SPLINE
  5
16A
330
43
100
AcDbEntity
  8
0
  6
Continuous
 62
     7
100
AcDbSpline
210
0.0
220
0.0
230
1.0
 70
    24
 71
     3
 72
     9
 73
     5
 74
     3
 42
0.0000000001
 43
0.0000000001
 44
0.00000001
 40
0.0
 40
0.0
 40
0.0
 40
0.0
 40
0.0093851430816585
 40
0.0187702861632886
 40
0.0187702861632886
 40
0.0187702861632886
 40
0.0187702861632886
 10
-168.092578082394
 20
-86.37846797089011
 30
0.0
 10
-168.0894497013668
 20
-86.3784679708901
 30
0.0
 10
-168.0831929393124
 20
-86.37846797089011
 30
0.0
 10
-168.0769361772579
 20
-86.37846797089011
 30
0.0
 10
-168.0738077962307
 20
-86.37846797089011
 30
0.0
 11
-168.092578082394
 21
-86.37846797089011
 31
0.0
 11
-168.0831929393123
 21
-86.37846797089011
 31
0.0
 11
-168.0738077962307
 21
-86.37846797089011
 31
0.0
  0
SPLINE
  5
16B
330
43
100
AcDbEntity
  8
0
  6
Continuous
 62
     7
100
AcDbSpline
210
0.0
220
0.0
230
1.0
 70
     8
 71
     3
 72
     9
 73
     5
 74
     3
 42
0.0000000001
 43
0.0000000001
 44
0.00000001
 40
0.0
 40
0.0
 40
0.0
 40
0.0
 40
1.633455058455334
 40
3.236794508474635
 40
3.236794508474635
 40
3.236794508474635
 40
3.236794508474635
 10
-169.1633316748275
 20
-88.13530900978478
 30
0.0
 10
-168.6694473116724
 20
-88.36538648230844
 30
0.0
 10
-167.6907842096747
 20
-88.82129954568502
 30
0.0
 10
-166.7609920623192
 20
-89.3700168071368
 30
0.0
 10
-166.3004214495509
 20
-89.64182276512665
 30
0.0
 11
-169.1633316748275
 21
-88.13530900978478
 31
0.0
 11
-167.6941247329242
 21
-88.84917621722356
 31
0.0
 11
-166.3004214495509
 21
-89.64182276512665
 31
0.0
  0
SPLINE
  5
16C
330
43
100
AcDbEntity
  8
0
  6
Continuous
 62
     7
100
AcDbSpline
210
0.0
220
0.0
230
1.0
 70
     8
 71
     3
 72
    22
 73
    18
 74
    16
 42
0.0000000001
 43
0.0000000001
 44
0.00000001
 40
0.0
 40
0.0
 40
0.0
 40
0.0
 40
0.0176867097394865
 40
0.0353757539684383
 40
0.1502222402023408
 40
0.2505824825444387
 40
0.3333038479160316
 40
0.4856524330495647
 40
0.6567763099529886
 40
0.8802037818915197
 40
1.087210752524424
 40
1.271289831204207
 40
1.543727427080018
 40
1.80026168344412
 40
2.0390957238865
 40
2.257388820841453
 40
2.4514665091537
 40
2.4514665091537
 40
2.4514665091537
 40
2.4514665091537
 10
-169.0570940287446
 20
-94.11056430028857
 30
0.0
 10
-169.0568364829609
 20
-94.116454768802
 30
0.0
 10
-169.0563213573997
 20
-94.12823648331866
 30
0.0
 10
-169.0523732909854
 20
-94.17815823355657
 30
0.0
 10
-169.0381548410158
 20
-94.25496405237894
 30
0.0
 10
-169.0044665432271
 20
-94.34873291853711
 30
0.0
 10
-168.9538778585512
 20
-94.44864949595544
 30
0.0
 10
-168.8757766213208
 20
-94.56016651996214
 30
0.0
 10
-168.7468401791176
 20
-94.69010086785998
 30
0.0
 10
-168.5843385802455
 20
-94.80894563225898
 30
0.0
 10
-168.4049203621249
 20
-94.90858216423483
 30
0.0
 10
-168.2018163365618
 20
-94.99670598765512
 30
0.0
 10
-167.976094228948
 20
-95.07239859496602
 30
0.0
 10
-167.7266704740933
 20
-95.13121321661315
 30
0.0
 10
-167.4912549811631
 20
-95.1667337085086
 30
0.0
 10
-167.2747547892608
 20
-95.18503250134461
 30
0.0
 10
-167.1372768815392
 20
-95.18674716396927
 30
0.0
 10
-167.0725744450964
 20
-95.18755415071594
 30
0.0
 11
-169.0570940287446
 21
-94.11056430028857
 31
0.0
 11
-169.0562177544581
 21
-94.12822928952671
 31
0.0
 11
-169.0548446483186
 21
-94.14586495977946
 31
0.0
 11
-169.0340819339088
 21
-94.25881904377208
 31
0.0
 11
-169.0003956546443
 21
-94.35335693475912
 31
0.0
 11
-168.9631720048056
 21
-94.4272299621888
 31
0.0
 11
-168.8762666262716
 21
-94.55236008076166
 31
0.0
 11
-168.7566198667218
 21
-94.67470399836968
 31
0.0
 11
-168.5773706889511
 21
-94.80808153577897
 31
0.0
 11
-168.3966777704863
 21
-94.90908626392226
 31
0.0
 11
-168.2280864786255
 21
-94.98299217380975
 31
0.0
 11
-167.9698960699709
 21
-95.0699401842837
 31
0.0
 11
-167.7202539503351
 21
-95.12900486740345
 31
0.0
 11
-167.4841558316738
 21
-95.16505174297687
 31
0.0
 11
-167.2665974259424
 21
-95.18294633081173
 31
0.0
 11
-167.0725744450964
 21
-95.18755415071594
 31
0.0
  0
SPLINE
  5
16D
330
43
100
AcDbEntity
  8
0
  6
Continuous
 62
     7
100
AcDbSpline
210
0.0
220
0.0
230
1.0
 70
     8
 71
     3
 72
    21
 73
    17
 74
    15
 42
0.0000000001
 43
0.0000000001
 44
0.00000001
 40
0.0
 40
0.0
 40
0.0
 40
0.0
 40
0.2349424816883629
 40
0.470032792381153
 40
0.7068688708576993
 40
0.9481023194220569
 40
1.109862313210288
 40
1.27406274612451
 40
1.441569492988581
 40
1.554111712047247
 40
1.641346348415628
 40
1.70089128361705
 40
1.82208682374811
 40
1.947544863348669
 40
1.959968612893274
 40
1.972404645781351
 40
1.972404645781351
 40
1.972404645781351
 40
1.972404645781351
 10
-167.0577221988749
 20
-94.96834007486123
 30
0.0
 10
-167.1360554366562
 20
-94.96676471533537
 30
0.0
 10
-167.2927712005574
 20
-94.96361300504604
 30
0.0
 10
-167.5271709291108
 20
-94.93587324665529
 30
0.0
 10
-167.7600305176495
 20
-94.88623871323058
 30
0.0
 10
-167.9628784596051
 20
-94.8187162933898
 30
0.0
 10
-168.1355842240598
 20
-94.74116748643026
 30
0.0
 10
-168.2779212381588
 20
-94.65802819370086
 30
0.0
 10
-168.3960405426599
 20
-94.56788276719514
 30
0.0
 10
-168.4829624681928
 20
-94.48124380814176
 30
0.0
 10
-168.5364435399037
 20
-94.41307751336704
 30
0.0
 10
-168.5844553841115
 20
-94.33767243497893
 30
0.0
 10
-168.6278780222303
 20
-94.24457900022463
 30
0.0
 10
-168.6466382693895
 20
-94.15933567245435
 30
0.0
 10
-168.6508840815887
 20
-94.10940980145764
 30
0.0
 10
-168.6513416096133
 20
-94.10113524613249
 30
0.0
 10
-168.6515704866591
 20
-94.09699592422021
 30
0.0
 11
-167.0577221988749
 21
-94.96834007486123
 31
0.0
 11
-167.292509157921
 21
-94.95979293710779
 31
0.0
 11
-167.5259965503076
 21
-94.93238688343112
 31
0.0
 11
-167.7574819818203
 21
-94.88232868664441
 31
0.0
 11
-167.9862630582443
 21
-94.80582511956077
 31
0.0
 11
-168.1335528166986
 21
-94.7389519362595
 31
0.0
 11
-168.2751340318069
 21
-94.65578618791508
 31
0.0
 11
-168.4077268462432
 21
-94.55342576682943
 31
0.0
 11
-168.4870227316005
 21
-94.47356392590363
 31
0.0
 11
-168.5407506945901
 21
-94.4048384737385
 31
0.0
 11
-168.5726769725575
 21
-94.35457604161178
 31
0.0
 11
-168.6231407228803
 21
-94.24438634676233
 31
0.0
 11
-168.6497815459251
 21
-94.12178950239873
 31
0.0
 11
-168.6508226324054
 21
-94.10940945023052
 31
0.0
 11
-168.6515704866591
 21
-94.09699592422021
 31
0.0
  0
SPLINE
  5
16E
330
43
100
AcDbEntity
  8
0
  6
Continuous
 62
     7
100
AcDbSpline
210
0.0
220
0.0
230
1.0
 70
     8
 71
     3
 72
    11
 73
     7
 74
     5
 42
0.0000000001
 43
0.0000000001
 44
0.00000001
 40
0.0
 40
0.0
 40
0.0
 40
0.0
 40
0.0926495881704675
 40
0.1914250083309862
 40
0.2921477015763038
 40
0.3767922702807934
 40
0.3767922702807934
 40
0.3767922702807934
 40
0.3767922702807934
 10
-168.6515704866591
 20
-94.09699592422021
 30
0.0
 10
-168.6491602806006
 20
-94.06611599161597
 30
0.0
 10
-168.6441805097896
 20
-94.0023143981847
 30
0.0
 10
-168.6140954849092
 20
-93.90890353741636
 30
0.0
 10
-168.5722311764908
 20
-93.82353011452642
 30
0.0
 10
-168.5364719409661
 20
-93.77304467563974
 30
0.0
 10
-168.5201431403119
 20
-93.74999142364977
 30
0.0
 11
-168.6515704866591
 21
-94.09699592422021
 31
0.0
 11
-168.6408885951309
 21
-94.00496417219115
 31
0.0
 11
-168.6121267199544
 21
-93.91046899684227
 31
0.0
 11
-168.567368017197
 21
-93.82023751972886
 31
0.0
 11
-168.5201431403119
 21
-93.74999142364977
 31
0.0
  0
SPLINE
  5
16F
330
43
100
AcDbEntity
  8
0
  6
Continuous
 62
     7
100
AcDbSpline
210
0.0
220
0.0
230
1.0
 70
     8
 71
     3
 72
     9
 73
     5
 74
     3
 42
0.0000000001
 43
0.0000000001
 44
0.00000001
 40
0.0
 40
0.0
 40
0.0
 40
0.0
 40
1.988582728982971
 40
4.087095774135646
 40
4.087095774135646
 40
4.087095774135646
 40
4.087095774135646
 10
-165.0723210765391
 20
-96.2611610805751
 30
0.0
 10
-165.7236135517151
 20
-96.1373024782929
 30
0.0
 10
-167.0622024292216
 20
-95.88273827907707
 30
0.0
 10
-168.411549865542
 20
-95.69320315810376
 30
0.0
 10
-169.1043702333643
 20
-95.59588664147255
 30
0.0
 11
-165.0723210765391
 21
-96.2611610805751
 31
0.0
 11
-167.0287454014912
 21
-95.90497976334306
 31
0.0
 11
-169.1043702333643
 21
-95.59588664147255
 31
0.0
  0
SPLINE
  5
170
330
43
100
AcDbEntity
  8
0
  6
Continuous
 62
     7
100
AcDbSpline
210
0.0
220
0.0
230
1.0
 70
     8
 71
     3
 72
    13
 73
     9
 74
     7
 42
0.0000000001
 43
0.0000000001
 44
0.00000001
 40
0.0
 40
0.0
 40
0.0
 40
0.0
 40
0.3302966589989255
 40
0.6526510245219941
 40
0.9627643263671691
 40
1.266759110045213
 40
1.859798603202346
 40
2.44547620657994
 40
2.44547620657994
 40
2.44547620657994
 40
2.44547620657994
 10
-169.1570940287446
 20
-94.11056430028857
 30
0.0
 10
-169.1351585470163
 20
-94.22052729631525
 30
0.0
 10
-169.0918150428261
 20
-94.43780912482016
 30
0.0
 10
-168.8660092571062
 20
-94.68216964007073
 30
0.0
 10
-168.6092186363494
 20
-94.8595926753004
 30
0.0
 10
-168.2423222219419
 20
-95.02854525544456
 30
0.0
 10
-167.761634324579
 20
-95.16268853093601
 30
0.0
 10
-167.3681084593838
 20
-95.17930019450085
 30
0.0
 10
-167.1725744450964
 20
-95.18755415071594
 30
0.0
 11
-169.1570940287446
 21
-94.11056430028857
 31
0.0
 11
-169.0631837077433
 21
-94.42722931975756
 31
0.0
 11
-168.8566198667218
 21
-94.67470399836971
 31
0.0
 11
-168.6028861584532
 21
-94.85300000300691
 31
0.0
 11
-168.3280864786254
 21
-94.98299217380975
 31
0.0
 11
-167.7563640556522
 21
-95.14056536795682
 31
0.0
 11
-167.1725744450964
 21
-95.18755415071594
 31
0.0
  0
SPLINE
  5
171
330
43
100
AcDbEntity
  8
0
  6
Continuous
 62
     7
100
AcDbSpline
210
0.0
220
0.0
230
1.0
 70
     8
 71
     3
 72
     9
 73
     5
 74
     3
 42
0.0000000001
 43
0.0000000001
 44
0.00000001
 40
0.0
 40
0.0
 40
0.0
 40
0.0
 40
2.091925548127569
 40
4.073933012764628
 40
4.073933012764628
 40
4.073933012764628
 40
4.073933012764628
 10
-169.2012964023642
 20
-95.81637275258366
 30
0.0
 10
-168.5106632963743
 20
-95.91347114561242
 30
0.0
 10
-167.1656856929797
 20
-96.10256599614397
 30
0.0
 10
-165.8314326542952
 20
-96.35643933272576
 30
0.0
 10
-165.1823057604307
 20
-96.47995114467767
 30
0.0
 11
-169.2012964023642
 21
-95.81637275258366
 31
0.0
 11
-167.1322248561638
 21
-96.12474823087689
 31
0.0
 11
-165.1823057604307
 21
-96.47995114467767
 31
0.0
  0
SPLINE
  5
172
330
43
100
AcDbEntity
  8
0
  6
Continuous
 62
     7
100
AcDbSpline
210
0.0
220
0.0
230
1.0
 70
     8
 71
     3
 72
     9
 73
     5
 74
     3
 42
0.0000000001
 43
0.0000000001
 44
0.00000001
 40
0.0
 40
0.0
 40
0.0
 40
0.0
 40
1.810576205356148
 40
3.542540091880702
 40
3.542540091880702
 40
3.542540091880702
 40
3.542540091880702
 10
-169.1128649164656
 20
-92.3519828348288
 30
0.0
 10
-168.5099281054035
 20
-92.37879494473701
 30
0.0
 10
-167.33023303389
 20
-92.43125502568624
 30
0.0
 10
-166.1513202729159
 20
-92.49904500281275
 30
0.0
 10
-165.5749444876285
 20
-92.53218782948692
 30
0.0
 11
-169.1128649164656
 21
-92.3519828348288
 31
0.0
 11
-167.3042588373298
 21
-92.43642361830959
 31
0.0
 11
-165.5749444876285
 21
-92.53218782948692
 31
0.0
  0
SPLINE
  5
173
330
43
100
AcDbEntity
  8
0
  6
Continuous
 62
     7
100
AcDbSpline
210
0.0
220
0.0
230
1.0
 70
     8
 71
     3
 72
     9
 73
     5
 74
     3
 42
0.0000000001
 43
0.0000000001
 44
0.00000001
 40
0.0
 40
0.0
 40
0.0
 40
0.0
 40
0.1875077961775117
 40
0.3779591654146904
 40
0.3779591654146904
 40
0.3779591654146904
 40
0.3779591654146904
 10
-168.952562760737
 20
-93.75000088048748
 30
0.0
 10
-168.9803138903479
 20
-93.8065825531129
 30
0.0
 10
-169.0362517980022
 20
-93.92063414029613
 30
0.0
 10
-169.0501106406107
 20
-94.04692638926332
 30
0.0
 10
-169.0570940287446
 20
-94.11056430028857
 30
0.0
 11
-168.952562760737
 21
-93.75000088048748
 31
0.0
 11
-169.0254596026284
 21
-93.92275858384572
 31
0.0
 11
-169.0570940287446
 21
-94.11056430028857
 31
0.0
  0
SPLINE
  5
174
330
43
100
AcDbEntity
  8
0
  6
Continuous
 62
     7
100
AcDbSpline
210
0.0
220
0.0
230
1.0
 70
     8
 71
     3
 72
     9
 73
     5
 74
     3
 42
0.0000000001
 43
0.0000000001
 44
0.00000001
 40
0.0
 40
0.0
 40
0.0
 40
0.0
 40
0.1874305897774696
 40
0.3780136421476472
 40
0.3780136421476472
 40
0.3780136421476472
 40
0.3780136421476472
 10
-169.0525463691279
 20
-93.74999444180384
 30
0.0
 10
-169.0803762147841
 20
-93.80651787594903
 30
0.0
 10
-169.1365039862937
 20
-93.92051543223526
 30
0.0
 10
-169.1501926289008
 20
-94.04686344918915
 30
0.0
 10
-169.1570940287446
 20
-94.11056430028857
 30
0.0
 11
-169.0525463691279
 21
-93.74999444180384
 31
0.0
 11
-169.1256023475397
 21
-93.92260107551941
 31
0.0
 11
-169.1570940287446
 21
-94.11056430028857
 31
0.0
  0
SPLINE
  5
175
330
43
100
AcDbEntity
  8
0
  6
Continuous
 62
     7
100
AcDbSpline
210
0.0
220
0.0
230
1.0
 70
     8
 71
     3
 72
     9
 73
     5
 74
     3
 42
0.0000000001
 43
0.0000000001
 44
0.00000001
 40
0.0
 40
0.0
 40
0.0
 40
0.0
 40
0.1102549629700501
 40
0.2205098219229837
 40
0.2205098219229837
 40
0.2205098219229837
 40
0.2205098219229837
 10
-169.1043702333643
 20
-95.59588664147255
 30
0.0
 10
-169.1036069623998
 20
-95.63263084524294
 30
0.0
 10
-169.1020804211909
 20
-95.70611921811837
 30
0.0
 10
-169.1015577418909
 20
-95.77962158598586
 30
0.0
 10
-169.1012964023641
 20
-95.81637275258365
 30
0.0
 11
-169.1043702333643
 21
-95.59588664147255
 31
0.0
 11
-169.1023313861848
 21
-95.70612275153502
 31
0.0
 11
-169.1012964023641
 21
-95.81637275258365
 31
0.0
  0
SPLINE
  5
176
330
43
100
AcDbEntity
  8
0
  6
Continuous
 62
     7
100
AcDbSpline
210
0.0
220
0.0
230
1.0
 70
     8
 71
     3
 72
     9
 73
     5
 74
     3
 42
0.0000000001
 43
0.0000000001
 44
0.00000001
 40
0.0
 40
0.0
 40
0.0
 40
0.0
 40
0.1102549629700491
 40
0.2205098219229966
 40
0.2205098219229966
 40
0.2205098219229966
 40
0.2205098219229966
 10
-169.2043702333643
 20
-95.59588664147255
 30
0.0
 10
-169.2036069623998
 20
-95.63263084524294
 30
0.0
 10
-169.202080421191
 20
-95.70611921811837
 30
0.0
 10
-169.201557741891
 20
-95.77962158598586
 30
0.0
 10
-169.2012964023642
 20
-95.81637275258366
 30
0.0
 11
-169.2043702333643
 21
-95.59588664147255
 31
0.0
 11
-169.2023313861849
 21
-95.70612275153502
 31
0.0
 11
-169.2012964023642
 21
-95.81637275258366
 31
0.0
  0
SPLINE
  5
177
330
43
100
AcDbEntity
  8
0
  6
Continuous
 62
     7
100
AcDbSpline
210
0.0
220
0.0
230
1.0
 70
     8
 71
     3
 72
     9
 73
     5
 74
     3
 42
0.0000000001
 43
0.0000000001
 44
0.00000001
 40
0.0
 40
0.0
 40
0.0
 40
0.0
 40
2.091925548127487
 40
4.073933012764545
 40
4.073933012764545
 40
4.073933012764545
 40
4.073933012764545
 10
-169.1012964023641
 20
-95.81637275258365
 30
0.0
 10
-168.4106632963743
 20
-95.91347114561242
 30
0.0
 10
-167.0656856929797
 20
-96.10256599614397
 30
0.0
 10
-165.7314326542951
 20
-96.35643933272573
 30
0.0
 10
-165.0823057604307
 20
-96.47995114467767
 30
0.0
 11
-169.1012964023641
 21
-95.81637275258365
 31
0.0
 11
-167.0322248561638
 21
-96.12474823087689
 31
0.0
 11
-165.0823057604307
 21
-96.47995114467767
 31
0.0
  0
ENDBLK
  5
45
330
43
100
AcDbEntity
  8
0
100
AcDbBlockEnd
  0
BLOCK
  5
47
330
46
100
AcDbEntity
  8
0
100
AcDbBlockBegin
  2
Koerper_101005619__2
 70
     0
 10
-218.4803680827499
 20
-117.7500009997351
 30
0.0
  3
Koerper_101005619__2
  1

  0
LINE
  5
178
330
46
100
AcDbEntity
  8
0
  6
Continuous
 62
     7
100
AcDbLine
 10
-186.800007266583
 20
-95.25000099973515
 30
0.0
 11
-186.800007266583
 21
-92.25000099973515
 31
0.0
  0
LINE
  5
179
330
46
100
AcDbEntity
  8
0
  6
Continuous
 62
     7
100
AcDbLine
 10
-218.4803680827499
 20
-72.25000099973515
 30
0.0
 11
-196.0000072665829
 21
-72.25000099973515
 31
0.0
  0
LINE
  5
17A
330
46
100
AcDbEntity
  8
0
  6
Continuous
 62
     7
100
AcDbLine
 10
-196.0000072665829
 20
-117.7500009997351
 30
0.0
 11
-193.0000072665829
 21
-117.7500009997351
 31
0.0
  0
LINE
  5
17B
330
46
100
AcDbEntity
  8
0
  6
Continuous
 62
     7
100
AcDbLine
 10
-218.4803680827499
 20
-115.2500009997352
 30
0.0
 11
-196.0000072665829
 21
-115.2500009997352
 31
0.0
  0
LINE
  5
17C
330
46
100
AcDbEntity
  8
0
  6
Continuous
 62
     7
100
AcDbLine
 10
-193.0000072665829
 20
-115.5148809672424
 30
0.0
 11
-193.0000072665829
 21
-117.7500009997351
 31
0.0
  0
LINE
  5
17D
330
46
100
AcDbEntity
  8
0
  6
Continuous
 62
     7
100
AcDbLine
 10
-196.0000072665829
 20
-115.2500009997352
 30
0.0
 11
-196.0000072665829
 21
-117.7500009997351
 31
0.0
  0
LINE
  5
17E
330
46
100
AcDbEntity
  8
0
  6
Continuous
 62
     7
100
AcDbLine
 10
-193.0000072665829
 20
-95.25000099973515
 30
0.0
 11
-193.0000072665829
 21
-115.5148809672424
 31
0.0
  0
LINE
  5
17F
330
46
100
AcDbEntity
  8
0
  6
Continuous
 62
     7
100
AcDbLine
 10
-196.0000072665829
 20
-72.25000099973515
 30
0.0
 11
-196.0000072665829
 21
-92.25000099973515
 31
0.0
  0
LINE
  5
180
330
46
100
AcDbEntity
  8
0
  6
Continuous
 62
     7
100
AcDbLine
 10
-193.0000072665829
 20
-71.98512103222787
 30
0.0
 11
-193.0000072665829
 21
-92.25000099973515
 31
0.0
  0
LINE
  5
181
330
46
100
AcDbEntity
  8
0
  6
Continuous
 62
     7
100
AcDbLine
 10
-193.0000072665829
 20
-69.75000099973516
 30
0.0
 11
-193.0000072665829
 21
-71.98512103222787
 31
0.0
  0
LINE
  5
182
330
46
100
AcDbEntity
  8
0
  6
Continuous
 62
     7
100
AcDbLine
 10
-196.0000072665829
 20
-69.75000099973516
 30
0.0
 11
-193.0000072665829
 21
-69.75000099973516
 31
0.0
  0
LINE
  5
183
330
46
100
AcDbEntity
  8
0
  6
Continuous
 62
     7
100
AcDbLine
 10
-196.0000072665829
 20
-69.75000099973516
 30
0.0
 11
-196.0000072665829
 21
-72.25000099973515
 31
0.0
  0
LINE
  5
184
330
46
100
AcDbEntity
  8
0
  6
Continuous
 62
     7
100
AcDbLine
 10
-196.0000072665829
 20
-95.25000099973515
 30
0.0
 11
-196.0000072665829
 21
-115.2500009997352
 31
0.0
  0
LINE
  5
185
330
46
100
AcDbEntity
  8
0
  6
Continuous
 62
     7
100
AcDbLine
 10
-215.4814292948576
 20
-81.9920249834303
 30
0.0
 11
-203.0000072665993
 21
-81.9920249834303
 31
0.0
  0
LINE
  5
186
330
46
100
AcDbEntity
  8
0
  6
Continuous
 62
     7
100
AcDbLine
 10
-203.0000072665993
 20
-105.50797701604
 30
0.0
 11
-203.0000072665993
 21
-81.9920249834303
 31
0.0
  0
LINE
  5
187
330
46
100
AcDbEntity
  8
0
  6
Continuous
 62
     7
100
AcDbLine
 10
-215.4814292948576
 20
-105.50797701604
 30
0.0
 11
-203.0000072665993
 21
-105.50797701604
 31
0.0
  0
LINE
  5
188
330
46
100
AcDbEntity
  8
0
  6
Continuous
 62
     7
100
AcDbLine
 10
-186.800007266583
 20
-95.25000099973515
 30
0.0
 11
-193.0000072665829
 21
-95.25000099973515
 31
0.0
  0
LINE
  5
189
330
46
100
AcDbEntity
  8
0
  6
Continuous
 62
     7
100
AcDbLine
 10
-186.800007266583
 20
-92.25000099973515
 30
0.0
 11
-193.0000072665829
 21
-92.25000099973515
 31
0.0
  0
LINE
  5
18A
330
46
100
AcDbEntity
  8
0
  6
Continuous
 62
     7
100
AcDbLine
 10
-193.0000072665829
 20
-92.25000099973515
 30
0.0
 11
-196.0000072665829
 21
-92.25000099973515
 31
0.0
  0
LINE
  5
18B
330
46
100
AcDbEntity
  8
0
  6
Continuous
 62
     7
100
AcDbLine
 10
-196.0000072665829
 20
-95.25000099973515
 30
0.0
 11
-196.0000072665829
 21
-92.25000099973515
 31
0.0
  0
LINE
  5
18C
330
46
100
AcDbEntity
  8
0
  6
Continuous
 62
     7
100
AcDbLine
 10
-193.0000072665829
 20
-95.25000099973515
 30
0.0
 11
-196.0000072665829
 21
-95.25000099973515
 31
0.0
  0
LINE
  5
18D
330
46
100
AcDbEntity
  8
1
  6
DOT_CENTER
 62
     2
100
AcDbLine
 10
-218.4803680827499
 20
-93.75000099973515
 30
0.0
 11
-193.0000072665829
 21
-93.75000099973515
 31
0.0
  0
ARC
  5
18E
330
46
100
AcDbEntity
  8
0
  6
Continuous
 62
     7
100
AcDbCircle
 10
-180.7000072665829
 20
-93.75000099973515
 30
0.0
 40
25.00000000000001
100
AcDbArc
 50
108.1798011893501
 51
119.4721207463178
  0
ARC
  5
18F
330
46
100
AcDbEntity
  8
0
  6
Continuous
 62
     7
100
AcDbCircle
 10
-180.7000072665829
 20
-93.75000099973515
 30
0.0
 40
24.99999999999998
100
AcDbArc
 50
240.5278792536822
 51
251.8201988106499
  0
ARC
  5
190
330
46
100
AcDbEntity
  8
0
  6
Continuous
 62
     7
100
AcDbCircle
 10
-221.0000072665773
 20
-93.75000099973514
 30
0.0
 40
21.49999999998159
100
AcDbArc
 50
326.8465915843285
 51
33.15340841567149
  0
ENDBLK
  5
48
330
46
100
AcDbEntity
  8
0
100
AcDbBlockEnd
  0
BLOCK
  5
4A
330
49
100
AcDbEntity
  8
0
100
AcDbBlockBegin
  2
Koerper-Oberteil_101005614_flach__3
 70
     0
 10
-329.500007266583
 20
-152.2500009997351
 30
0.0
  3
Koerper-Oberteil_101005614_flach__3
  1

  0
LINE
  5
191
330
49
100
AcDbEntity
  8
0
  6
Continuous
 62
     7
100
AcDbLine
 10
-230.7085211820925
 20
-51.33719457168432
 30
0.0
 11
-231.9463775904797
 21
-52.57505098007154
 31
0.0
  0
LINE
  5
192
330
49
100
AcDbEntity
  8
0
  6
Continuous
 62
     7
100
AcDbLine
 10
-212.5192411977292
 20
-92.25000099973475
 30
0.0
 11
-214.2698345187408
 21
-92.25000099973475
 31
0.0
  0
LINE
  5
193
330
49
100
AcDbEntity
  8
0
  6
Continuous
 62
     7
100
AcDbLine
 10
-269.5000072665836
 20
-37.0198282518931
 30
0.0
 11
-269.5000072665836
 21
-35.26923493088135
 31
0.0
  0
LINE
  5
194
330
49
100
AcDbEntity
  8
0
  6
Continuous
 62
     7
100
AcDbLine
 10
-272.5000072665836
 20
-35.26923493088138
 30
0.0
 11
-272.5000072665836
 21
-37.01982825189314
 31
0.0
  0
LINE
  5
195
330
49
100
AcDbEntity
  8
0
  6
Continuous
 62
     7
100
AcDbLine
 10
-327.7301800144249
 20
-92.25000099973515
 30
0.0
 11
-329.4807733354368
 21
-92.25000099973515
 31
0.0
  0
LINE
  5
196
330
49
100
AcDbEntity
  8
0
  6
Continuous
 62
     7
100
AcDbLine
 10
-329.4807733354368
 20
-95.25000099973514
 30
0.0
 11
-327.7301800144249
 21
-95.25000099973515
 31
0.0
  0
LINE
  5
197
330
49
100
AcDbEntity
  8
0
  6
Continuous
 62
     7
100
AcDbLine
 10
-313.4128136946339
 20
-53.45851491524483
 30
0.0
 11
-312.1749572862466
 21
-54.69637132363216
 31
0.0
  0
LINE
  5
198
330
49
100
AcDbEntity
  8
0
  6
Continuous
 62
     7
100
AcDbLine
 10
-229.8250572469201
 20
-54.69637132363115
 30
0.0
 11
-228.5872008385329
 21
-53.45851491524393
 31
0.0
  0
LINE
  5
199
330
49
100
AcDbEntity
  8
0
  6
Continuous
 62
     7
100
AcDbLine
 10
-310.053636942687
 20
-52.57505098007249
 30
0.0
 11
-311.2914933510743
 21
-51.33719457168516
 31
0.0
  0
LINE
  5
19A
330
49
100
AcDbEntity
  8
0
  6
Continuous
 62
     7
100
AcDbLine
 10
-231.9463775904791
 20
-134.9249510193982
 30
0.0
 11
-230.7085211820919
 21
-136.1628074277854
 31
0.0
  0
LINE
  5
19B
330
49
100
AcDbEntity
  8
0
  6
Continuous
 62
     7
100
AcDbLine
 10
-312.174957286246
 20
-132.8036306758388
 30
0.0
 11
-313.4128136946334
 21
-134.0414870842261
 31
0.0
  0
LINE
  5
19C
330
49
100
AcDbEntity
  8
0
  6
Continuous
 62
     7
100
AcDbLine
 10
-311.2914933510738
 20
-136.1628074277857
 30
0.0
 11
-310.0536369426864
 21
-134.9249510193984
 31
0.0
  0
LINE
  5
19D
330
49
100
AcDbEntity
  8
0
  6
Continuous
 62
     7
100
AcDbLine
 10
-214.2698345187408
 20
-95.25000099973475
 30
0.0
 11
-212.5192411977292
 21
-95.25000099973474
 31
0.0
  0
LINE
  5
19E
330
49
100
AcDbEntity
  8
0
  6
Continuous
 62
     7
100
AcDbLine
 10
-228.5872008385323
 20
-134.0414870842258
 30
0.0
 11
-229.8250572469195
 21
-132.8036306758386
 31
0.0
  0
LINE
  5
19F
330
49
100
AcDbEntity
  8
0
  6
Continuous
 62
     7
100
AcDbLine
 10
-272.5000072665828
 20
-150.4801737475772
 30
0.0
 11
-272.5000072665828
 21
-152.2307670685889
 31
0.0
  0
LINE
  5
1A0
330
49
100
AcDbEntity
  8
0
  6
Continuous
 62
     7
100
AcDbLine
 10
-269.5000072665828
 20
-152.2307670685889
 30
0.0
 11
-269.5000072665828
 21
-150.4801737475772
 31
0.0
  0
ARC
  5
1A1
330
49
100
AcDbEntity
  8
0
  6
Continuous
 62
     7
100
AcDbCircle
 10
-271.000007266583
 20
-93.75000099973515
 30
0.0
 40
58.49999999999999
100
AcDbArc
 50
88.53071641864683
 51
91.4692835813544
  0
ARC
  5
1A2
330
49
100
AcDbEntity
  8
0
  6
Continuous
 62
     7
100
AcDbCircle
 10
-271.000007266583
 20
-93.75000099973515
 30
0.0
 40
58.50000000000004
100
AcDbArc
 50
178.5307164186462
 51
181.4692835813537
  0
ARC
  5
1A3
330
49
100
AcDbEntity
  8
0
  6
Continuous
 62
     7
100
AcDbCircle
 10
-271.000007266583
 20
-93.75000099973515
 30
0.0
 40
58.49999999999997
100
AcDbArc
 50
43.53071641864675
 51
46.46928358135428
  0
ARC
  5
1A4
330
49
100
AcDbEntity
  8
0
  6
Continuous
 62
     7
100
AcDbCircle
 10
-271.000007266583
 20
-93.75000099973515
 30
0.0
 40
58.49999999999994
100
AcDbArc
 50
133.5307164186469
 51
136.4692835813544
  0
ARC
  5
1A5
330
49
100
AcDbEntity
  8
0
  6
Continuous
 62
     7
100
AcDbCircle
 10
-271.000007266583
 20
-93.75000099973515
 30
0.0
 40
58.49999999999999
100
AcDbArc
 50
313.5307164186466
 51
316.469283581354
  0
ARC
  5
1A6
330
49
100
AcDbEntity
  8
0
  6
Continuous
 62
     7
100
AcDbCircle
 10
-271.000007266583
 20
-93.75000099973515
 30
0.0
 40
58.50000000000004
100
AcDbArc
 50
223.5307164186463
 51
226.4692835813538
  0
ARC
  5
1A7
330
49
100
AcDbEntity
  8
0
  6
Continuous
 62
     7
100
AcDbCircle
 10
-271.000007266583
 20
-93.75000099973515
 30
0.0
 40
58.5
100
AcDbArc
 50
358.5307164186466
 51
1.46928358135418
  0
ARC
  5
1A8
330
49
100
AcDbEntity
  8
0
  6
Continuous
 62
     7
100
AcDbCircle
 10
-271.000007266583
 20
-93.75000099973515
 30
0.0
 40
58.49999999999996
100
AcDbArc
 50
268.5307164186464
 51
271.469283581354
  0
ENDBLK
  5
4B
330
49
100
AcDbEntity
  8
0
100
AcDbBlockEnd
  0
BLOCK
  5
71
330
4C
100
AcDbEntity
  8
0
100
AcDbBlockBegin
  2
188885620__4
 70
     0
 10
-329.500007266583
 20
-152.2500009997351
 30
0.0
  3
188885620__4
  1

  0
INSERT
  5
6F
330
4C
100
AcDbEntity
  8
0
100
AcDbBlockReference
  2
Koerper_101005619__2
 10
-218.4803680827499
 20
-117.7500009997351
 30
0.0
  0
INSERT
  5
70
330
4C
100
AcDbEntity
  8
0
100
AcDbBlockReference
  2
Koerper-Oberteil_101005614_flach__3
 10
-329.500007266583
 20
-152.2500009997351
 30
0.0
  0
ENDBLK
  5
72
330
4C
100
AcDbEntity
  8
0
100
AcDbBlockEnd
  0
BLOCK
  5
76
330
73
100
AcDbEntity
  8
0
100
AcDbBlockBegin
  2
HL521-Koerper__5
 70
     0
 10
-329.500007266583
 20
-152.2500009997351
 30
0.0
  3
HL521-Koerper__5
  1

  0
INSERT
  5
74
330
73
100
AcDbEntity
  8
0
100
AcDbBlockReference
  2
Abgangsbogen_306055082__1
 10
-188.5000072665829
 20
-121.2500009997352
 30
0.0
  0
INSERT
  5
75
330
73
100
AcDbEntity
  8
0
100
AcDbBlockReference
  2
188885620__4
 10
-329.500007266583
 20
-152.2500009997351
 30
0.0
  0
ENDBLK
  5
77
330
73
100
AcDbEntity
  8
0
100
AcDbBlockEnd
  0
BLOCK
  5
79
330
78
100
AcDbEntity
  8
0
100
AcDbBlockBegin
  2
DA-195555623-Edelstahlkappe-verpresst__6
 70
     0
 10
-327.7500072665829
 20
-150.5000009997352
 30
0.0
  3
DA-195555623-Edelstahlkappe-verpresst__6
  1

  0
LINE
  5
1A9
330
78
100
AcDbEntity
  8
1
  6
DOT_CENTER
 62
     2
100
AcDbLine
 10
-208.5750072665828
 20
-93.75000099973516
 30
0.0
 11
-333.425007266583
 21
-93.75000099973516
 31
0.0
  0
LINE
  5
1AA
330
78
100
AcDbEntity
  8
1
  6
DOT_CENTER
 62
     2
100
AcDbLine
 10
-271.0000072665829
 20
-31.32500099973512
 30
0.0
 11
-271.0000072665829
 21
-156.1750009997352
 31
0.0
  0
CIRCLE
  5
1AB
330
78
100
AcDbEntity
  8
0
  6
Continuous
 62
     7
100
AcDbCircle
 10
-271.0000072665829
 20
-93.75000099973516
 30
0.0
 40
56.75000000000004
  0
CIRCLE
  5
1AC
330
78
100
AcDbEntity
  8
0
  6
Continuous
 62
     3
100
AcDbCircle
 10
-271.0000072665829
 20
-93.75000099973516
 30
0.0
 40
54.57402859362126
  0
ENDBLK
  5
7A
330
78
100
AcDbEntity
  8
0
100
AcDbBlockEnd
  0
BLOCK
  5
7D
330
7B
100
AcDbEntity
  8
0
100
AcDbBlockBegin
  2
521-1_Abdeckkappe__7
 70
     0
 10
-327.7500072665829
 20
-150.5000009997352
 30
0.0
  3
521-1_Abdeckkappe__7
  1

  0
INSERT
  5
7C
330
7B
100
AcDbEntity
  8
0
100
AcDbBlockReference
  2
DA-195555623-Edelstahlkappe-verpresst__6
 10
-327.7500072665829
 20
-150.5000009997352
 30
0.0
  0
ENDBLK
  5
7E
330
7B
100
AcDbEntity
  8
0
100
AcDbBlockEnd
  0
BLOCK
  5
82
330
7F
100
AcDbEntity
  8
0
100
AcDbBlockBegin
  2
HL521__8
 70
     0
 10
-329.500007266583
 20
-152.2500009997351
 30
0.0
  3
HL521__8
  1

  0
INSERT
  5
80
330
7F
100
AcDbEntity
  8
0
100
AcDbBlockReference
  2
HL521-Koerper__5
 10
-329.500007266583
 20
-152.2500009997351
 30
0.0
  0
INSERT
  5
81
330
7F
100
AcDbEntity
  8
0
100
AcDbBlockReference
  2
521-1_Abdeckkappe__7
 10
-327.7500072665829
 20
-150.5000009997352
 30
0.0
  0
ENDBLK
  5
83
330
7F
100
AcDbEntity
  8
0
100
AcDbBlockEnd
  0
BLOCK
  5
86
330
84
100
AcDbEntity
  8
0
100
AcDbBlockBegin
  2
Drfsicht2
 70
     0
 10
-271.0
 20
-23.00000099999997
 30
0.0
  3
Drfsicht2
  1

  0
INSERT
  5
85
330
84
100
AcDbEntity
  8
0
100
AcDbBlockReference
  2
HL521__8
 10
-329.500007266583
 20
-152.2500009997351
 30
0.0
  0
MTEXT
  5
1AE
330
84
100
AcDbEntity
  8
1
 62
     1
100
AcDbMText
 10
-213.5000072665829
 20
-157.2500009997352
 30
0.0
 40
3.5
 41
0.0
 71
     2
 72
     1
  1
 
  7
CONVERTER_11
 73
     1
 44
1.32052821128451
  0
ENDBLK
  5
87
330
84
100
AcDbEntity
  8
0
100
AcDbBlockEnd
  0
BLOCK
  5
89
330
88
100
AcDbEntity
  8
0
100
AcDbBlockBegin
  2
Ausbruch1
 70
     0
 10
-329.940181220406
 20
94.18916884850401
 30
0.0
  3
Ausbruch1
  1

  0
LWPOLYLINE
  5
1AF
330
88
100
AcDbEntity
  8
1
  6
DOT_CENTER
 62
     2
100
AcDbPolyline
 90
        2
 70
     1
 43
0.35
 10
-329.940181220406
 20
100.689168848504
 42
1.0
 10
-316.940181220406
 20
100.689168848504
 42
1.0
  0
MTEXT
  5
1B0
330
88
100
AcDbEntity
  8
1
 62
     1
100
AcDbMText
 10
-358.440181220406
 20
107.189168848504
 30
0.0
 40
3.5
 41
0.0
 71
     2
 72
     1
  1
 
  7
CONVERTER_11
 73
     1
 44
1.32052821128451
  0
ENDBLK
  5
8A
330
88
100
AcDbEntity
  8
0
100
AcDbBlockEnd
  0
BLOCK
  5
8C
330
8B
100
AcDbEntity
  8
0
100
AcDbBlockBegin
  2
Abgangsbogen_306055082__9
 70
     0
 10
-188.5000072665827
 20
41.58431352478968
 30
0.0
  3
Abgangsbogen_306055082__9
  1

  0
LINE
  5
1B1
330
8B
100
AcDbEntity
  8
0
  6
Continuous
 62
     7
100
AcDbLine
 10
-181.4000072665826
 20
96.58431352478968
 30
0.0
 11
-186.8000072665827
 21
96.58431352478968
 31
0.0
  0
LINE
  5
1B2
330
8B
100
AcDbEntity
  8
0
  6
Continuous
 62
     7
100
AcDbLine
 10
-188.1833220401306
 20
96.58431352478968
 30
0.0
 11
-188.5000072665827
 21
96.58431352478968
 31
0.0
  0
LINE
  5
1B3
330
8B
100
AcDbEntity
  8
0
  6
Continuous
 62
     7
100
AcDbLine
 10
-97.50000726658266
 20
49.88816110208299
 30
0.0
 11
-100.5000072665828
 21
49.08431352478968
 31
0.0
  0
LINE
  5
1B4
330
8B
100
AcDbEntity
  8
0
  6
Continuous
 62
     7
100
AcDbLine
 10
-100.5000072665828
 20
49.08431352478968
 30
0.0
 11
-162.5254211784059
 21
49.08431352478968
 31
0.0
  0
LINE
  5
1B5
330
8B
100
AcDbEntity
  8
0
  6
Continuous
 62
     7
100
AcDbLine
 10
-97.50000726658266
 20
69.08431352478968
 30
0.0
 11
-97.50000726658266
 21
49.88816110208299
 31
0.0
  0
LINE
  5
1B6
330
8B
100
AcDbEntity
  8
0
  6
Continuous
 62
     7
100
AcDbLine
 10
-188.5000072665827
 20
41.58431352478968
 30
0.0
 11
-188.5000072665827
 21
96.58431352478968
 31
0.0
  0
LINE
  5
1B7
330
8B
100
AcDbEntity
  8
0
  6
Continuous
 62
     7
100
AcDbLine
 10
-97.50000726658266
 20
88.28046594749628
 30
0.0
 11
-97.50000726658266
 21
69.08431352478968
 31
0.0
  0
LINE
  5
1B8
330
8B
100
AcDbEntity
  8
0
  6
Continuous
 62
     7
100
AcDbLine
 10
-165.5731049367003
 20
90.50817206681577
 30
0.0
 11
-165.4729020107164
 21
90.50847123587988
 31
0.0
  0
LINE
  5
1B9
330
8B
100
AcDbEntity
  8
0
  6
Continuous
 62
     7
100
AcDbLine
 10
-165.5763256985782
 20
91.07044931275257
 30
0.0
 11
-165.4763256985782
 21
91.07044931275257
 31
0.0
  0
LINE
  5
1BA
330
8B
100
AcDbEntity
  8
0
  6
Continuous
 62
     7
100
AcDbLine
 10
-165.8423723119615
 20
90.82104470664356
 30
0.0
 11
-165.8429900453202
 21
90.81537083181877
 31
0.0
  0
LINE
  5
1BB
330
8B
100
AcDbEntity
  8
0
  6
Continuous
 62
     7
100
AcDbLine
 10
-169.0998310950329
 20
93.39975397669517
 30
0.0
 11
-168.9998310950329
 21
93.39975397669517
 31
0.0
  0
LINE
  5
1BC
330
8B
100
AcDbEntity
  8
0
  6
Continuous
 62
     3
100
AcDbLine
 10
-167.1601748454597
 20
92.57396222902096
 30
0.0
 11
-167.0725744450962
 21
92.57396222902096
 31
0.0
  0
LINE
  5
1BD
330
8B
100
AcDbEntity
  8
0
  6
Continuous
 62
     3
100
AcDbLine
 10
-167.1207820935275
 20
92.61551538073027
 30
0.0
 11
-167.0796855106134
 21
92.61551538073027
 31
0.0
  0
LINE
  5
1BE
330
8B
100
AcDbEntity
  8
0
  6
Continuous
 62
     7
100
AcDbLine
 10
-169.0929436980666
 20
92.53567142284567
 30
0.0
 11
-168.9929436980666
 21
92.53567142284567
 31
0.0
  0
LINE
  5
1BF
330
8B
100
AcDbEntity
  8
0
  6
Continuous
 62
     7
100
AcDbLine
 10
-168.8196057830398
 20
92.76463776899956
 30
0.0
 11
-168.8439759500774
 21
92.76555645116997
 31
0.0
  0
LINE
  5
1C0
330
8B
100
AcDbEntity
  8
0
  6
Continuous
 62
     3
100
AcDbLine
 10
-169.0717075775158
 20
92.65312267818757
 30
0.0
 11
-168.9717479492306
 21
92.65312731767656
 31
0.0
  0
LINE
  5
1C1
330
8B
100
AcDbEntity
  8
0
  6
Continuous
 62
     7
100
AcDbLine
 10
-169.0891650927291
 20
93.14485160264627
 30
0.0
 11
-168.9891650927291
 21
93.14485160264627
 31
0.0
  0
LINE
  5
1C2
330
8B
100
AcDbEntity
  8
0
  6
Continuous
 62
     7
100
AcDbLine
 10
-169.0919696386786
 20
93.13694463666198
 30
0.0
 11
-168.9919696386786
 21
93.13694463666198
 31
0.0
  0
LINE
  5
1C3
330
8B
100
AcDbEntity
  8
0
  6
Continuous
 62
     7
100
AcDbLine
 10
-169.0148554333355
 20
93.43756950703079
 30
0.0
 11
-168.9998310950329
 21
93.39975397669517
 31
0.0
  0
LINE
  5
1C4
330
8B
100
AcDbEntity
  8
0
  6
Continuous
 62
     7
100
AcDbLine
 10
-169.1043702333641
 20
93.66294537344257
 30
0.0
 11
-169.1012964023639
 21
93.64386484459638
 31
0.0
  0
LINE
  5
1C5
330
8B
100
AcDbEntity
  8
0
  6
Continuous
 62
     3
100
AcDbLine
 10
-165.8423723119615
 20
90.82104470664356
 30
0.0
 11
-165.7424487730162
 21
90.82011987370038
 31
0.0
  0
LINE
  5
1C6
330
8B
100
AcDbEntity
  8
0
  6
Continuous
 62
     7
100
AcDbLine
 10
-165.7424487730162
 20
90.82011987370038
 30
0.0
 11
-165.7500435996141
 21
90.75424034307409
 31
0.0
  0
LINE
  5
1C7
330
8B
100
AcDbEntity
  8
0
  6
Continuous
 62
     7
100
AcDbLine
 10
-165.9183764801884
 20
91.03466982028166
 30
0.0
 11
-165.8183764801884
 21
91.03466982028166
 31
0.0
  0
LINE
  5
1C8
330
8B
100
AcDbEntity
  8
0
  6
Continuous
 62
     7
100
AcDbLine
 10
-165.4656535164694
 20
91.49527633158499
 30
0.0
 11
-165.3656535164695
 21
91.49527633158499
 31
0.0
  0
LINE
  5
1C9
330
8B
100
AcDbEntity
  8
0
  6
Continuous
 62
     3
100
AcDbLine
 10
-167.1310236908574
 20
91.91322217070896
 30
0.0
 11
-167.0310236908574
 21
91.91322217070896
 31
0.0
  0
LINE
  5
1CA
330
8B
100
AcDbEntity
  8
0
  6
Continuous
 62
     7
100
AcDbLine
 10
-165.4763256985782
 20
91.07044931275257
 30
0.0
 11
-165.4685467941686
 21
91.10996469279158
 31
0.0
  0
LINE
  5
1CB
330
8B
100
AcDbEntity
  8
0
  6
Continuous
 62
     7
100
AcDbLine
 10
-165.5912954225529
 20
91.36273020841548
 30
0.0
 11
-165.4912954225529
 21
91.36273020841548
 31
0.0
  0
LINE
  5
1CC
330
8B
100
AcDbEntity
  8
0
  6
Continuous
 62
     7
100
AcDbLine
 10
-165.0823057604305
 20
91.12481102515198
 30
0.0
 11
-165.072321076539
 21
91.14346754224599
 31
0.0
  0
LINE
  5
1CD
330
8B
100
AcDbEntity
  8
0
  6
Continuous
 62
     7
100
AcDbLine
 10
-169.1570940287444
 20
93.70607360722607
 30
0.0
 11
-169.0570940287445
 21
93.70607360722607
 31
0.0
  0
LINE
  5
1CE
330
8B
100
AcDbEntity
  8
0
  6
Continuous
 62
     7
100
AcDbLine
 10
-169.1149290359685
 20
93.43741971162066
 30
0.0
 11
-169.0148554333355
 21
93.43756950703079
 31
0.0
  0
LINE
  5
1CF
330
8B
100
AcDbEntity
  8
0
  6
Continuous
 62
     7
100
AcDbLine
 10
-169.1149290359685
 20
93.43741971162066
 30
0.0
 11
-169.0998310950329
 21
93.39975397669517
 31
0.0
  0
LINE
  5
1D0
330
8B
100
AcDbEntity
  8
0
  6
Continuous
 62
     7
100
AcDbLine
 10
-165.1823057604305
 20
91.12481102515198
 30
0.0
 11
-165.0823057604305
 21
91.12481102515198
 31
0.0
  0
LINE
  5
1D1
330
8B
100
AcDbEntity
  8
0
  6
Continuous
 62
     7
100
AcDbLine
 10
-169.2012964023639
 20
93.64386484459638
 30
0.0
 11
-169.1012964023639
 21
93.64386484459638
 31
0.0
  0
LINE
  5
1D2
330
8B
100
AcDbEntity
  8
0
  6
Continuous
 62
     7
100
AcDbLine
 10
-169.2043702333641
 20
93.66294537344257
 30
0.0
 11
-169.2012964023639
 21
93.64386484459638
 31
0.0
  0
LINE
  5
1D3
330
8B
100
AcDbEntity
  8
0
  6
Continuous
 62
     7
100
AcDbLine
 10
-169.2043702333641
 20
93.66294537344257
 30
0.0
 11
-169.1043702333641
 21
93.66294537344257
 31
0.0
  0
LINE
  5
1D4
330
8B
100
AcDbEntity
  8
0
  6
Continuous
 62
     3
100
AcDbLine
 10
-181.4000072665826
 20
69.08431352478968
 30
0.0
 11
-181.4000072665826
 21
96.58431352478968
 31
0.0
  0
LINE
  5
1D5
330
8B
100
AcDbEntity
  8
0
  6
Continuous
 62
     7
100
AcDbLine
 10
-162.5254211784059
 20
49.08431352478968
 30
0.0
 11
-162.5254211784059
 21
89.08431352478968
 31
0.0
  0
LINE
  5
1D6
330
8B
100
AcDbEntity
  8
0
  6
Continuous
 62
     7
100
AcDbLine
 10
-100.5000072665828
 20
49.08431352478968
 30
0.0
 11
-100.5000072665828
 21
89.08431352478968
 31
0.0
  0
LINE
  5
1D7
330
8B
100
AcDbEntity
  8
0
  6
Continuous
 62
     7
100
AcDbLine
 10
-181.4000072665826
 20
41.58431352478968
 30
0.0
 11
-188.5000072665827
 21
41.58431352478968
 31
0.0
  0
LINE
  5
1D8
330
8B
100
AcDbEntity
  8
0
  6
Continuous
 62
     3
100
AcDbLine
 10
-181.4000072665826
 20
41.58431352478968
 30
0.0
 11
-181.4000072665826
 21
69.08431352478968
 31
0.0
  0
LINE
  5
1D9
330
8B
100
AcDbEntity
  8
0
  6
Continuous
 62
     7
100
AcDbLine
 10
-97.50000726658266
 20
88.28046594749628
 30
0.0
 11
-100.5000072665828
 21
89.08431352478968
 31
0.0
  0
LINE
  5
1DA
330
8B
100
AcDbEntity
  8
0
  6
Continuous
 62
     7
100
AcDbLine
 10
-100.5000072665828
 20
89.08431352478968
 30
0.0
 11
-162.5254211784059
 21
89.08431352478968
 31
0.0
  0
LINE
  5
1DB
330
8B
100
AcDbEntity
  8
1
  6
DOT_CENTER
 62
     2
100
AcDbLine
 10
-181.4000072665826
 20
69.08431352478968
 30
0.0
 11
-188.5000072665827
 21
69.08431352478968
 31
0.0
  0
LINE
  5
1DC
330
8B
100
AcDbEntity
  8
1
  6
DOT_CENTER
 62
     2
100
AcDbLine
 10
-97.50000726658266
 20
69.08431352478968
 30
0.0
 11
-164.554374262229
 21
69.0843135247892
 31
0.0
  0
LINE
  5
1DD
330
8B
100
AcDbEntity
  8
1
  6
DOT_CENTER
 62
     2
100
AcDbLine
 10
-94.55632955995416
 20
69.0843135247893
 30
0.0
 11
-221.4646663471951
 21
69.0843135247882
 31
0.0
  0
ARC
  5
1DE
330
8B
100
AcDbEntity
  8
0
  6
Continuous
 62
     7
100
AcDbCircle
 10
-181.4000072665826
 20
69.08431352478968
 30
0.0
 40
27.49999999999996
100
AcDbArc
 50
63.55171454314105
 51
90.0
  0
ARC
  5
1DF
330
8B
100
AcDbEntity
  8
0
  6
Continuous
 62
     7
100
AcDbCircle
 10
-181.1782203831425
 20
68.68024944437693
 30
0.0
 40
27.58391458054636
100
AcDbArc
 50
55.34749834920957
 51
63.8349390336751
  0
ARC
  5
1E0
330
8B
100
AcDbEntity
  8
0
  6
Continuous
 62
     7
100
AcDbCircle
 10
-181.2787504837378
 20
68.38031477449937
 30
0.0
 40
27.59362878451521
100
AcDbArc
 50
55.31531149238432
 51
63.79066832199663
  0
ARC
  5
1E1
330
8B
100
AcDbEntity
  8
0
  6
Continuous
 62
     7
100
AcDbCircle
 10
-181.0301129737551
 20
67.61982541285354
 30
0.0
 40
27.7251090934224
100
AcDbArc
 50
56.55560309086324
 51
63.31902380716602
  0
ARC
  5
1E2
330
8B
100
AcDbEntity
  8
0
  6
Continuous
 62
     7
100
AcDbCircle
 10
-181.0319601105276
 20
67.5613462370871
 30
0.0
 40
27.72462505902507
100
AcDbArc
 50
55.86117727960531
 51
64.26334249828561
  0
ARC
  5
1E3
330
8B
100
AcDbEntity
  8
0
  6
Continuous
 62
     7
100
AcDbCircle
 10
-181.187061202113
 20
68.6251833613575
 30
0.0
 40
27.60992442686641
100
AcDbArc
 50
57.14241045041043
 51
63.80627476696995
  0
ARC
  5
1E4
330
8B
100
AcDbEntity
  8
0
  6
Continuous
 62
     7
100
AcDbCircle
 10
-181.2876561047908
 20
68.62552030257487
 30
0.0
 40
27.60988469024099
100
AcDbArc
 50
58.57533328585907
 51
63.80485836917252
  0
ARC
  5
1E5
330
8B
100
AcDbEntity
  8
0
  6
Continuous
 62
     7
100
AcDbCircle
 10
-169.9019081865984
 20
92.76034091718995
 30
0.0
 40
0.9363187614807296
100
AcDbArc
 50
346.1164227902852
 51
353.4248991061393
  0
ARC
  5
1E6
330
8B
100
AcDbEntity
  8
0
  6
Continuous
 62
     7
100
AcDbCircle
 10
-170.0018515182808
 20
92.76065463874625
 30
0.0
 40
0.9363390801859731
100
AcDbArc
 50
346.0969545525537
 51
353.4054321358202
  0
ARC
  5
1E7
330
8B
100
AcDbEntity
  8
0
  6
Continuous
 62
     7
100
AcDbCircle
 10
-181.3004111878682
 20
69.08452099019479
 30
0.0
 40
27.49999598652466
100
AcDbArc
 50
62.30679185215773
 51
63.31963118195607
  0
ARC
  5
1E8
330
8B
100
AcDbEntity
  8
0
  6
Continuous
 62
     7
100
AcDbCircle
 10
-181.1787504837384
 20
68.38031477449786
 30
0.0
 40
27.59362878451678
100
AcDbArc
 50
55.31531149238508
 51
63.7906683219969
  0
ARC
  5
1E9
330
8B
100
AcDbEntity
  8
0
  6
Continuous
 62
     7
100
AcDbCircle
 10
-181.1649275025279
 20
68.44035550139799
 30
0.0
 40
27.57331224630568
100
AcDbArc
 50
55.30136822532643
 51
61.49948879354834
  0
ARC
  5
1EA
330
8B
100
AcDbEntity
  8
0
  6
Continuous
 62
     7
100
AcDbCircle
 10
-181.2997401181265
 20
69.08412756039468
 30
0.0
 40
27.49999773071217
100
AcDbArc
 50
54.75877186757585
 51
55.55767307864311
  0
ARC
  5
1EB
330
8B
100
AcDbEntity
  8
0
  6
Continuous
 62
     7
100
AcDbCircle
 10
-166.6233634313425
 20
90.73039289183856
 30
0.0
 40
1.171670048150276
100
AcDbArc
 50
349.0818630463733
 51
357.9596836242068
  0
ARC
  5
1EC
330
8B
100
AcDbEntity
  8
0
  6
Continuous
 62
     7
100
AcDbCircle
 10
-181.13409816441
 20
67.56257767363687
 30
0.0
 40
27.72444430983443
100
AcDbArc
 50
55.85609207554982
 51
64.25825719476975
  0
ARC
  5
1ED
330
8B
100
AcDbEntity
  8
0
  6
Continuous
 62
     7
100
AcDbCircle
 10
-181.4000072665826
 20
69.08431352478968
 30
0.0
 40
27.5
100
AcDbArc
 50
270.0
 51
313.3417582272222
  0
ARC
  5
1EE
330
8B
100
AcDbEntity
  8
0
  6
Continuous
 62
     7
100
AcDbCircle
 10
-181.4000072665826
 20
69.08431352478968
 30
0.0
 40
27.49999999999988
100
AcDbArc
 50
46.65824177277788
 51
54.58183520336348
  0
SPLINE
  5
1EF
330
8B
100
AcDbEntity
  8
0
  6
Continuous
 62
     7
100
AcDbSpline
210
0.0
220
0.0
230
1.0
 70
     8
 71
     3
 72
     9
 73
     5
 74
     3
 42
0.0000000001
 43
0.0000000001
 44
0.00000001
 40
0.0
 40
0.0
 40
0.0
 40
0.0
 40
2.376370434073273
 40
4.75932301704581
 40
4.75932301704581
 40
4.75932301704581
 40
4.75932301704581
 10
-165.072321076539
 20
91.14346754224599
 30
0.0
 10
-165.7150199908654
 20
91.60821126105873
 30
0.0
 10
-167.0021979880857
 20
92.53898596110483
 30
0.0
 10
-168.4030003811945
 20
93.28794696470297
 30
0.0
 10
-169.1043702333641
 20
93.66294537344257
 30
0.0
 11
-165.072321076539
 21
91.14346754224599
 31
0.0
 11
-167.028745401491
 21
92.49237091190362
 31
0.0
 11
-169.1043702333641
 21
93.66294537344257
 31
0.0
  0
SPLINE
  5
1F0
330
8B
100
AcDbEntity
  8
0
  6
Continuous
 62
     7
100
AcDbSpline
210
0.0
220
0.0
230
1.0
 70
     8
 71
     3
 72
     9
 73
     5
 74
     3
 42
0.0000000001
 43
0.0000000001
 44
0.00000001
 40
0.0
 40
0.0
 40
0.0
 40
0.0
 40
2.377281161209635
 40
4.748017765112033
 40
4.748017765112033
 40
4.748017765112033
 40
4.748017765112033
 10
-169.1012964023639
 20
93.64386484459638
 30
0.0
 10
-168.4021120201388
 20
93.26879476592742
 30
0.0
 10
-167.0056680815496
 20
92.51968716109698
 30
0.0
 10
-165.7228371260148
 20
91.58934228188261
 30
0.0
 10
-165.0823057604305
 20
91.12481102515198
 30
0.0
 11
-169.1012964023639
 21
93.64386484459638
 31
0.0
 11
-167.0322248561636
 21
92.47322029728646
 31
0.0
 11
-165.0823057604305
 21
91.12481102515198
 31
0.0
  0
SPLINE
  5
1F1
330
8B
100
AcDbEntity
  8
0
  6
Continuous
 62
     7
100
AcDbSpline
210
0.0
220
0.0
230
1.0
 70
     8
 71
     3
 72
     9
 73
     5
 74
     3
 42
0.0000000001
 43
0.0000000001
 44
0.00000001
 40
0.0
 40
0.0
 40
0.0
 40
0.0
 40
0.020388009748194
 40
0.0407172578631311
 40
0.0407172578631311
 40
0.0407172578631311
 40
0.0407172578631311
 10
-168.5809193491687
 20
92.39277946237559
 30
0.0
 10
-168.5798230934862
 20
92.39948694922867
 30
0.0
 10
-168.5776337417121
 20
92.41288259084268
 30
0.0
 10
-168.5758713364718
 20
92.42634105708606
 30
0.0
 10
-168.5749914055705
 20
92.43306057882859
 30
0.0
 11
-168.5809193491687
 21
92.39277946237559
 31
0.0
 11
-168.5777376270534
 21
92.41291767445793
 31
0.0
 11
-168.5749914055705
 21
92.43306057882859
 31
0.0
  0
SPLINE
  5
1F2
330
8B
100
AcDbEntity
  8
0
  6
Continuous
 62
     7
100
AcDbSpline
210
0.0
220
0.0
230
1.0
 70
     8
 71
     3
 72
    13
 73
     9
 74
     7
 42
0.0000000001
 43
0.0000000001
 44
0.00000001
 40
0.0
 40
0.0
 40
0.0
 40
0.0
 40
0.0422512587023929
 40
0.0850187776818346
 40
0.0949501178137368
 40
0.1144356215289237
 40
0.1445679045578903
 40
0.1896360936089652
 40
0.1896360936089652
 40
0.1896360936089652
 40
0.1896360936089652
 10
-168.5749914055705
 20
92.43306057882859
 30
0.0
 10
-168.572247925612
 20
92.44691357266419
 30
0.0
 10
-168.5667274436235
 20
92.47478882749229
 30
0.0
 10
-168.55280226092
 20
92.503681141064
 30
0.0
 10
-168.5391117980061
 20
92.52353778418839
 30
0.0
 10
-168.5235887601245
 20
92.53645971164167
 30
0.0
 10
-168.493765392938
 20
92.54850694828153
 30
0.0
 10
-168.4685663191526
 20
92.5497605447205
 30
0.0
 10
-168.453464331228
 20
92.55051183417046
 30
0.0
 11
-168.5749914055705
 21
92.43306057882859
 31
0.0
 11
-168.5650449495637
 21
92.47412439349358
 31
0.0
 11
-168.5464940794177
 21
92.51265912972576
 31
0.0
 11
-168.5406857269348
 21
92.52071484560022
 31
0.0
 11
-168.5259486446721
 21
92.53346252230685
 31
0.0
 11
-168.4982268427348
 21
92.5452716788341
 31
0.0
 11
-168.453464331228
 21
92.55051183417046
 31
0.0
  0
SPLINE
  5
1F3
330
8B
100
AcDbEntity
  8
0
  6
Continuous
 62
     7
100
AcDbSpline
210
0.0
220
0.0
230
1.0
 70
     8
 71
     3
 72
     9
 73
     5
 74
     3
 42
0.0000000001
 43
0.0000000001
 44
0.00000001
 40
0.0
 40
0.0
 40
0.0
 40
0.0
 40
1.439820580422028
 40
2.838122563452925
 40
2.838122563452925
 40
2.838122563452925
 40
2.838122563452925
 10
-168.0078638126411
 20
92.67213676676377
 30
0.0
 10
-167.5723510986724
 20
92.46981018720511
 30
0.0
 10
-166.7138840945247
 20
92.0709913076588
 30
0.0
 10
-165.894831032757
 20
91.59650349735497
 30
0.0
 10
-165.4912954225529
 20
91.36273020841548
 30
0.0
 11
-168.0078638126411
 21
92.67213676676377
 31
0.0
 11
-166.7114695562362
 21
92.04568227059724
 31
0.0
 11
-165.4912954225529
 21
91.36273020841548
 31
0.0
  0
SPLINE
  5
1F4
330
8B
100
AcDbEntity
  8
0
  6
Continuous
 62
     7
100
AcDbSpline
210
0.0
220
0.0
230
1.0
 70
     8
 71
     3
 72
     9
 73
     5
 74
     3
 42
0.0000000001
 43
0.0000000001
 44
0.00000001
 40
0.0
 40
0.0
 40
0.0
 40
0.0
 40
1.518967802517795
 40
3.083621012841752
 40
3.083621012841752
 40
3.083621012841752
 40
3.083621012841752
 10
-166.2072190402309
 20
91.81811883021038
 30
0.0
 10
-166.6537354113113
 20
92.05747797991447
 30
0.0
 10
-167.5601978538718
 20
92.5433953920018
 30
0.0
 10
-168.5081611608649
 20
92.94239573501176
 30
0.0
 10
-168.9891650927291
 20
93.14485160264627
 30
0.0
 11
-166.2072190402309
 21
91.81811883021038
 31
0.0
 11
-167.5568382187643
 21
92.51510610270572
 31
0.0
 11
-168.9891650927291
 21
93.14485160264627
 31
0.0
  0
SPLINE
  5
1F5
330
8B
100
AcDbEntity
  8
0
  6
Continuous
 62
     7
100
AcDbSpline
210
0.0
220
0.0
230
1.0
 70
     8
 71
     3
 72
    13
 73
     9
 74
     7
 42
0.0000000001
 43
0.0000000001
 44
0.00000001
 40
0.0
 40
0.0
 40
0.0
 40
0.0
 40
0.4796451357347122
 40
1.064648557735123
 40
1.399390842992805
 40
1.758879955660373
 40
1.848894792150527
 40
1.947779830723358
 40
1.947779830723358
 40
1.947779830723358
 40
1.947779830723358
 10
-167.0482620120421
 20
91.97343183951239
 30
0.0
 10
-167.1871523909971
 20
92.0526467637763
 30
0.0
 10
-167.4954416461591
 20
92.22847686938024
 30
0.0
 10
-167.9126435870531
 20
92.43796983882493
 30
0.0
 10
-168.3026864085944
 20
92.61032098079428
 30
0.0
 10
-168.5481548389081
 20
92.70166882589344
 30
0.0
 10
-168.7248538334713
 20
92.74924775610238
 30
0.0
 10
-168.7870483078422
 20
92.75934964600607
 30
0.0
 10
-168.8196057830398
 20
92.76463776899956
 30
0.0
 11
-167.0482620120421
 21
91.97343183951239
 31
0.0
 11
-167.4667833234467
 21
92.2077379814169
 31
0.0
 11
-167.9897740600911
 21
92.46986332001717
 31
0.0
 11
-168.2964477489795
 21
92.6040409861287
 31
0.0
 11
-168.6351495298226
 21
92.72451308157076
 31
0.0
 11
-168.7222973121638
 21
92.74705049094632
 31
0.0
 11
-168.8196057830398
 21
92.76463776899956
 31
0.0
  0
SPLINE
  5
1F6
330
8B
100
AcDbEntity
  8
0
  6
Continuous
 62
     7
100
AcDbSpline
210
0.0
220
0.0
230
1.0
 70
     8
 71
     3
 72
    13
 73
     9
 74
     7
 42
0.0000000001
 43
0.0000000001
 44
0.00000001
 40
0.0
 40
0.0
 40
0.0
 40
0.0
 40
0.0703922440864325
 40
0.1761571038539137
 40
0.4371834507542904
 40
0.7000641909519287
 40
1.11645518739505
 40
1.56575050927924
 40
1.56575050927924
 40
1.56575050927924
 40
1.56575050927924
 10
-168.453464331228
 20
92.55051183417046
 30
0.0
 10
-168.4301664754617
 20
92.54754764523011
 30
0.0
 10
-168.3718634216089
 20
92.54012974080351
 30
0.0
 10
-168.2309718513526
 20
92.50134677182585
 30
0.0
 10
-168.034303207323
 20
92.42751332258
 30
0.0
 10
-167.74809965796
 20
92.29949024605096
 30
0.0
 10
-167.4117860601741
 20
92.13047736278924
 30
0.0
 10
-167.1611203751396
 20
91.98745266828533
 30
0.0
 10
-167.0310236908574
 20
91.91322217070896
 30
0.0
 11
-168.453464331228
 21
92.55051183417046
 31
0.0
 11
-168.3838155077782
 21
92.54030843181718
 31
0.0
 11
-168.2813111557617
 21
92.51424958726656
 31
0.0
 11
-168.0359175744859
 21
92.42527350033993
 31
0.0
 11
-167.7954729397457
 21
92.31900656667037
 31
0.0
 11
-167.423282622637
 21
92.13230940608832
 31
0.0
 11
-167.0310236908574
 21
91.91322217070896
 31
0.0
  0
SPLINE
  5
1F7
330
8B
100
AcDbEntity
  8
0
  6
Continuous
 62
     7
100
AcDbSpline
210
0.0
220
0.0
230
1.0
 70
     8
 71
     3
 72
    11
 73
     7
 74
     5
 42
0.0000000001
 43
0.0000000001
 44
0.00000001
 40
0.0
 40
0.0
 40
0.0
 40
0.0
 40
0.2898890366342416
 40
0.6500722661777889
 40
1.07539349800212
 40
1.514500141158615
 40
1.514500141158615
 40
1.514500141158615
 40
1.514500141158615
 10
-168.5029375575736
 20
92.54391714133229
 30
0.0
 10
-168.4095874585376
 20
92.51840488822336
 30
0.0
 10
-168.2002511168367
 20
92.46119400371946
 30
0.0
 10
-167.8736717384259
 20
92.31075733666262
 30
0.0
 10
-167.5083020753791
 20
92.12909449613792
 30
0.0
 10
-167.2581131101691
 20
91.98594059193263
 30
0.0
 10
-167.1310236908574
 20
91.91322217070896
 30
0.0
 11
-168.5029375575736
 21
92.54391714133229
 31
0.0
 11
-168.2252576426736
 21
92.46067341230818
 31
0.0
 11
-167.8943330316088
 21
92.31847333974832
 31
0.0
 11
-167.5142834781201
 21
92.127527045902
 31
0.0
 11
-167.1310236908574
 21
91.91322217070896
 31
0.0
  0
SPLINE
  5
1F8
330
8B
100
AcDbEntity
  8
0
  6
Continuous
 62
     7
100
AcDbSpline
210
0.0
220
0.0
230
1.0
 70
     8
 71
     3
 72
    11
 73
     7
 74
     5
 42
0.0000000001
 43
0.0000000001
 44
0.00000001
 40
0.0
 40
0.0
 40
0.0
 40
0.0
 40
0.0552100360517073
 40
0.1020001595392133
 40
0.146577027925462
 40
0.1864096071857993
 40
0.1864096071857993
 40
0.1864096071857993
 40
0.1864096071857993
 10
-168.8489571512381
 20
92.76558635661678
 30
0.0
 10
-168.8675343240632
 20
92.76446509351408
 30
0.0
 10
-168.9018555222991
 20
92.76239356769123
 30
0.0
 10
-168.9454799139338
 20
92.7348080253335
 30
0.0
 10
-168.9651014764716
 20
92.6940075470698
 30
0.0
 10
-168.9696170587455
 20
92.66623371184949
 30
0.0
 10
-168.9717479492306
 20
92.65312731767656
 30
0.0
 11
-168.8489571512381
 21
92.76558635661678
 31
0.0
 11
-168.9035273606546
 21
92.75720540648716
 31
0.0
 11
-168.9425907038118
 21
92.73144941927339
 31
0.0
 11
-168.9635496698428
 21
92.69210708916911
 31
0.0
 11
-168.9717479492306
 21
92.65312731767656
 31
0.0
  0
SPLINE
  5
1F9
330
8B
100
AcDbEntity
  8
0
  6
Continuous
 62
     7
100
AcDbSpline
210
0.0
220
0.0
230
1.0
 70
     8
 71
     3
 72
     9
 73
     5
 74
     3
 42
0.0000000001
 43
0.0000000001
 44
0.00000001
 40
0.0
 40
0.0
 40
0.0
 40
0.0
 40
0.0025005360927569
 40
0.004981434370765
 40
0.004981434370765
 40
0.004981434370765
 40
0.004981434370765
 10
-168.8439759500774
 20
92.76555645116997
 30
0.0
 10
-168.8448094802573
 20
92.76555197967156
 30
0.0
 10
-168.8464699945362
 20
92.7655430717914
 30
0.0
 10
-168.8481302807314
 20
92.76557196631099
 30
0.0
 10
-168.8489571512381
 20
92.76558635661678
 30
0.0
 11
-168.8439759500774
 21
92.76555645116997
 31
0.0
 11
-168.8464764831456
 21
92.76555256193387
 31
0.0
 11
-168.8489571512381
 21
92.76558635661678
 31
0.0
  0
SPLINE
  5
1FA
330
8B
100
AcDbEntity
  8
0
  6
Continuous
 62
     7
100
AcDbSpline
210
0.0
220
0.0
230
1.0
 70
    24
 71
     3
 72
     9
 73
     5
 74
     3
 42
0.0000000001
 43
0.0000000001
 44
0.00000001
 40
0.0
 40
0.0
 40
0.0
 40
0.0
 40
0.0225189334157392
 40
0.0450378668313931
 40
0.0450378668313931
 40
0.0450378668313931
 40
0.0450378668313931
 10
-168.8939950180695
 20
92.76558635661678
 30
0.0
 10
-168.8864887069309
 20
92.76558635661677
 30
0.0
 10
-168.8714760846538
 20
92.76558635661675
 30
0.0
 10
-168.8564634623767
 20
92.76558635661678
 30
0.0
 10
-168.8489571512381
 20
92.76558635661678
 30
0.0
 11
-168.8939950180695
 21
92.76558635661678
 31
0.0
 11
-168.8714760846538
 21
92.76558635661675
 31
0.0
 11
-168.8489571512381
 21
92.76558635661678
 31
0.0
  0
SPLINE
  5
1FB
330
8B
100
AcDbEntity
  8
0
  6
Continuous
 62
     7
100
AcDbSpline
210
0.0
220
0.0
230
1.0
 70
    24
 71
     3
 72
     9
 73
     5
 74
     3
 42
0.0000000001
 43
0.0000000001
 44
0.00000001
 40
0.0
 40
0.0
 40
0.0
 40
0.0
 40
0.0225189334156823
 40
0.0450378668314215
 40
0.0450378668314215
 40
0.0450378668314215
 40
0.0450378668314215
 10
-168.9390328849009
 20
92.76558635661678
 30
0.0
 10
-168.9315265737624
 20
92.76558635661678
 30
0.0
 10
-168.9165139514852
 20
92.76558635661675
 30
0.0
 10
-168.9015013292081
 20
92.76558635661675
 30
0.0
 10
-168.8939950180695
 20
92.76558635661678
 30
0.0
 11
-168.9390328849009
 21
92.76558635661678
 31
0.0
 11
-168.9165139514852
 21
92.76558635661675
 31
0.0
 11
-168.8939950180695
 21
92.76558635661678
 31
0.0
  0
SPLINE
  5
1FC
330
8B
100
AcDbEntity
  8
0
  6
Continuous
 62
     7
100
AcDbSpline
210
0.0
220
0.0
230
1.0
 70
     8
 71
     3
 72
    12
 73
     8
 74
     6
 42
0.0000000001
 43
0.0000000001
 44
0.00000001
 40
0.0
 40
0.0
 40
0.0
 40
0.0
 40
0.054273680774935
 40
0.0879227646480451
 40
0.1076382279271254
 40
0.1523947798979605
 40
0.1917771198219814
 40
0.1917771198219814
 40
0.1917771198219814
 40
0.1917771198219814
 10
-168.9440370923267
 20
92.76558635661678
 30
0.0
 10
-168.9622274191083
 20
92.76472917874129
 30
0.0
 10
-168.9916955479998
 20
92.76334056003083
 30
0.0
 10
-169.0255207894189
 20
92.74868617308886
 30
0.0
 10
-169.04940940616
 20
92.72588842786527
 30
0.0
 10
-169.0652466794052
 20
92.69383668671509
 30
0.0
 10
-169.0696476459408
 20
92.6661035471434
 30
0.0
 10
-169.0717075775158
 20
92.65312267818757
 30
0.0
 11
-168.9440370923267
 21
92.76558635661678
 31
0.0
 11
-168.99790753781
 21
92.75898275696998
 31
0.0
 11
-169.0283974612856
 21
92.7447481016545
 31
0.0
 11
-169.0427644610616
 21
92.73124666433307
 31
0.0
 11
-169.0636809543783
 21
92.69167837840037
 31
0.0
 11
-169.0717075775158
 21
92.65312267818757
 31
0.0
  0
SPLINE
  5
1FD
330
8B
100
AcDbEntity
  8
0
  6
Continuous
 62
     7
100
AcDbSpline
210
0.0
220
0.0
230
1.0
 70
    24
 71
     3
 72
     9
 73
     5
 74
     3
 42
0.0000000001
 43
0.0000000001
 44
0.00000001
 40
0.0
 40
0.0
 40
0.0
 40
0.0
 40
0.0012510518564568
 40
0.0025021037129989
 40
0.0025021037129989
 40
0.0025021037129989
 40
0.0025021037129989
 10
-168.9440370923267
 20
92.76558635661678
 30
0.0
 10
-168.9436200750412
 20
92.76558635661678
 30
0.0
 10
-168.9427860404703
 20
92.76558635661678
 30
0.0
 10
-168.9419520058992
 20
92.76558635661678
 30
0.0
 10
-168.9415349886137
 20
92.76558635661678
 30
0.0
 11
-168.9440370923267
 21
92.76558635661678
 31
0.0
 11
-168.9427860404703
 21
92.76558635661678
 31
0.0
 11
-168.9415349886137
 21
92.76558635661678
 31
0.0
  0
SPLINE
  5
1FE
330
8B
100
AcDbEntity
  8
0
  6
Continuous
 62
     7
100
AcDbSpline
210
0.0
220
0.0
230
1.0
 70
    24
 71
     3
 72
     9
 73
     5
 74
     3
 42
0.0000000001
 43
0.0000000001
 44
0.00000001
 40
0.0
 40
0.0
 40
0.0
 40
0.0
 40
0.0009382888922573
 40
0.0025021037127999
 40
0.0025021037127999
 40
0.0025021037127999
 40
0.0025021037127999
 10
-168.9415349886137
 20
92.76558635661678
 30
0.0
 10
-168.9412222256496
 20
92.76558635661678
 30
0.0
 10
-168.9403881910787
 20
92.76558635661681
 30
0.0
 10
-168.9395541565078
 20
92.7655863566168
 30
0.0
 10
-168.9390328849009
 20
92.76558635661678
 30
0.0
 11
-168.9415349886137
 21
92.76558635661678
 31
0.0
 11
-168.9405966997215
 21
92.76558635661678
 31
0.0
 11
-168.9390328849009
 21
92.76558635661678
 31
0.0
  0
SPLINE
  5
1FF
330
8B
100
AcDbEntity
  8
0
  6
Continuous
 62
     7
100
AcDbSpline
210
0.0
220
0.0
230
1.0
 70
     8
 71
     3
 72
     9
 73
     5
 74
     3
 42
0.0000000001
 43
0.0000000001
 44
0.00000001
 40
0.0
 40
0.0
 40
0.0
 40
0.0
 40
0.0042499313969946
 40
0.0083896508926187
 40
0.0083896508926187
 40
0.0083896508926187
 40
0.0083896508926187
 10
-169.0891650927291
 20
93.14485160264627
 30
0.0
 10
-169.0896325834894
 20
93.1435143084794
 30
0.0
 10
-169.0905554417447
 20
93.14087439970137
 30
0.0
 10
-169.0915023862599
 20
93.13824303523776
 30
0.0
 10
-169.0919696386786
 20
93.13694463666198
 30
0.0
 11
-169.0891650927291
 21
93.14485160264627
 31
0.0
 11
-169.0905737458204
 21
93.14084191271469
 31
0.0
 11
-169.0919696386786
 21
93.13694463666198
 31
0.0
  0
SPLINE
  5
200
330
8B
100
AcDbEntity
  8
0
  6
Continuous
 62
     7
100
AcDbSpline
210
0.0
220
0.0
230
1.0
 70
     8
 71
     3
 72
    37
 73
    33
 74
    31
 42
0.0000000001
 43
0.0000000001
 44
0.00000001
 40
0.0
 40
0.0
 40
0.0
 40
0.0
 40
0.034148032956276
 40
0.0777535098760574
 40
0.1304512229664028
 40
0.1918760680813552
 40
0.2616630577880463
 40
0.3394473325801753
 40
0.4248641720678911
 40
0.5175490068153702
 40
0.6171374311693565
 40
0.7232652173198197
 40
0.8355683308080044
 40
0.9536829477023162
 40
1.077245473682462
 40
1.127939816824468
 40
1.184263678894792
 40
1.246533951472699
 40
1.315067561315207
 40
1.390181467860208
 40
1.472192660420381
 40
1.561418155350648
 40
1.616203273371523
 40
1.666739371096456
 40
1.71190902737265
 40
1.750594876686915
 40
1.784440692043876
 40
1.810583244713802
 40
1.829022434333013
 40
1.839762016028992
 40
1.841692357851116
 40
1.841968120968527
 40
1.841968120968527
 40
1.841968120968527
 40
1.841968120968527
 10
-167.0577221988747
 20
92.57735432303798
 30
0.0
 10
-167.0674564470554
 20
92.58325430413763
 30
0.0
 10
-167.0896208851368
 20
92.59668829136871
 30
0.0
 10
-167.1268349073166
 20
92.61918170153282
 30
0.0
 10
-167.1718667259041
 20
92.64631791801509
 30
0.0
 10
-167.2244244101519
 20
92.67787380018714
 30
0.0
 10
-167.284214156549
 20
92.71362929419703
 30
0.0
 10
-167.3509428871954
 20
92.75336315128769
 30
0.0
 10
-167.4243173262755
 20
92.79685445026506
 30
0.0
 10
-167.5040442809641
 20
92.8438821347634
 30
0.0
 10
-167.5898305492718
 20
92.89422516501186
 30
0.0
 10
-167.6813829190084
 20
92.94766252104593
 30
0.0
 10
-167.7784082665259
 20
93.00397303493612
 30
0.0
 10
-167.8806131152566
 20
93.06293614011344
 30
0.0
 10
-167.9651626307222
 20
93.11140577139369
 30
0.0
 10
-168.0319169272206
 20
93.14950252433725
 30
0.0
 10
-168.0809579203388
 20
93.17741793505918
 30
0.0
 10
-168.1352036302027
 20
93.20821013522362
 30
0.0
 10
-168.1949376196656
 20
93.24202139563289
 30
0.0
 10
-168.2604440117757
 20
93.27899299383206
 30
0.0
 10
-168.3320053397057
 20
93.31926902810055
 30
0.0
 10
-168.3977095593281
 20
93.35613590013998
 30
0.0
 10
-168.4542834320994
 20
93.3878340559144
 30
0.0
 10
-168.4980384996636
 20
93.41236755255981
 30
0.0
 10
-168.5370964172871
 20
93.43430481568181
 30
0.0
 10
-168.5712836322443
 20
93.45355555838414
 30
0.0
 10
-168.599884587982
 20
93.46979365143328
 30
0.0
 10
-168.6225996493922
 20
93.48274671430738
 30
0.0
 10
-168.6384434011806
 20
93.4921599013743
 30
0.0
 10
-168.6474188076086
 20
93.49739142856572
 30
0.0
 10
-168.6508994791154
 20
93.49994402418179
 30
0.0
 10
-168.6514959302652
 20
93.50037414263323
 30
0.0
 10
-168.6515704866589
 20
93.50042790743967
 30
0.0
 11
-167.0577221988747
 21
92.57735432303798
 31
0.0
 11
-167.0869281116873
 21
92.59504903443899
 31
0.0
 11
-167.1242457198337
 21
92.61760637780282
 31
0.0
 11
-167.1693818476383
 21
92.64480525520175
 31
0.0
 11
-167.2220433194254
 21
92.67642456870813
 31
0.0
 11
-167.2819369595193
 21
92.7122432203943
 31
0.0
 11
-167.3487695922446
 21
92.75204011233258
 31
0.0
 11
-167.4222480419255
 21
92.7955941465953
 31
0.0
 11
-167.5020791328864
 21
92.84268422525481
 31
0.0
 11
-167.5879696894517
 21
92.89308925038341
 31
0.0
 11
-167.6796265359458
 21
92.94658812405345
 31
0.0
 11
-167.7767564966929
 21
93.00295974833725
 31
0.0
 11
-167.8790663960176
 21
93.06198302530716
 31
0.0
 11
-167.9862630582441
 21
93.12343685703547
 31
0.0
 11
-168.0302915666973
 21
93.14856466772373
 31
0.0
 11
-168.0792405830826
 21
93.17642810673318
 31
0.0
 11
-168.1333939234642
 21
93.20716900087182
 31
0.0
 11
-168.1930354039066
 21
93.24092917694774
 31
0.0
 11
-168.2584488404743
 21
93.27785046176899
 31
0.0
 11
-168.3299180492317
 21
93.31807468214359
 31
0.0
 11
-168.407726846243
 21
93.36174366487958
 31
0.0
 11
-168.4555176319803
 21
93.38852892118169
 31
0.0
 11
-168.4995955497122
 21
93.41324803001851
 31
0.0
 11
-168.5389766472881
 21
93.43537102714438
 31
0.0
 11
-168.5726769725573
 21
93.45436794831369
 31
0.0
 11
-168.6021131719478
 21
93.47107271956686
 31
0.0
 11
-168.6247811740365
 21
93.48409557414672
 31
0.0
 11
-168.6406732187274
 21
93.49344686439743
 31
0.0
 11
-168.6497815459248
 21
93.49913694266317
 31
0.0
 11
-168.6513468690672
 21
93.50026653684262
 31
0.0
 11
-168.6515704866589
 21
93.50042790743967
 31
0.0
  0
SPLINE
  5
201
330
8B
100
AcDbEntity
  8
0
  6
Continuous
 62
     7
100
AcDbSpline
210
0.0
220
0.0
230
1.0
 70
     8
 71
     3
 72
    37
 73
    33
 74
    31
 42
0.0000000001
 43
0.0000000001
 44
0.00000001
 40
0.0
 40
0.0
 40
0.0
 40
0.0
 40
0.0009103142476217
 40
0.0027964707031058
 40
0.0111254808518743
 40
0.0238851300306143
 40
0.0405248301185153
 40
0.0604904582059889
 40
0.083226878274114
 40
0.1081785576302903
 40
0.1445991050278728
 40
0.1863903765260209
 40
0.233511517620297
 40
0.2859216301001235
 40
0.3435797977302632
 40
0.6428276287705008
 40
0.94748462233519
 40
1.065834666524392
 40
1.180741406355762
 40
1.292037802346516
 40
1.399556641473947
 40
1.503130547650051
 40
1.602591991442413
 40
1.697773299112022
 40
1.788506661033791
 40
1.874624139562441
 40
1.955957676407662
 40
2.032339099583599
 40
2.103600130009073
 40
2.16957238785428
 40
2.23008739877012
 40
2.284976600218297
 40
2.284976600218297
 40
2.284976600218297
 40
2.284976600218297
 10
-169.0570940287445
 20
93.70607360722607
 30
0.0
 10
-169.0568551713539
 20
93.70588644120073
 30
0.0
 10
-169.0561214052981
 20
93.70531147018607
 30
0.0
 10
-169.0531005184893
 20
93.70315722176358
 30
0.0
 10
-169.0465132501013
 20
93.69923614848018
 30
0.0
 10
-169.0356743486279
 20
93.69286590525084
 30
0.0
 10
-169.021355293317
 20
93.68475406789192
 30
0.0
 10
-169.0040995907675
 20
93.67508525178332
 30
0.0
 10
-168.9843780472613
 20
93.66414760505002
 30
0.0
 10
-168.9598276474938
 20
93.6506086431647
 30
0.0
 10
-168.9296819816868
 20
93.6340627805779
 30
0.0
 10
-168.8930319483038
 20
93.61400918216697
 30
0.0
 10
-168.8516891605665
 20
93.59142839870758
 30
0.0
 10
-168.8056970304123
 20
93.56632631727886
 30
0.0
 10
-168.6859220839353
 20
93.50098507668645
 30
0.0
 10
-168.4925688067071
 20
93.39494543946822
 30
0.0
 10
-168.2821757180273
 20
93.27791080445793
 30
0.0
 10
-168.1259275248525
 20
93.18995221653935
 30
0.0
 10
-168.0260068462524
 20
93.13332483408266
 30
0.0
 10
-167.9293781585598
 20
93.07821212854421
 30
0.0
 10
-167.8361725259053
 20
93.02472341168502
 30
0.0
 10
-167.7465206065479
 20
92.97296874774628
 30
0.0
 10
-167.66055316286
 20
92.9230580092561
 30
0.0
 10
-167.5784009329981
 20
92.87510111482857
 30
0.0
 10
-167.5001946593665
 20
92.82920797551022
 30
0.0
 10
-167.4260650973978
 20
92.78548848188662
 30
0.0
 10
-167.3561429609454
 20
92.74405259378243
 30
0.0
 10
-167.2905591189447
 20
92.7050100155825
 30
0.0
 10
-167.2294439317722
 20
92.66847129200839
 30
0.0
 10
-167.1729294870057
 20
92.63454411623317
 30
0.0
 10
-167.1211421940805
 20
92.60334555800401
 30
0.0
 10
-167.0882288670624
 20
92.58343310301228
 30
0.0
 10
-167.0725744450962
 20
92.57396222902096
 30
0.0
 11
-169.0570940287445
 21
93.70607360722607
 31
0.0
 11
-169.0563747485477
 21
93.70551565738248
 31
0.0
 11
-169.0548446483183
 21
93.70441276143887
 31
0.0
 11
-169.0477817109658
 21
93.69999831628539
 31
0.0
 11
-169.0367736609208
 21
93.69354607005864
 31
0.0
 11
-169.0223145817327
 21
93.68531110508923
 31
0.0
 11
-169.004898556951
 21
93.67554850370777
 31
0.0
 11
-168.9850196701255
 21
93.66451334824484
 31
0.0
 11
-168.9631720048054
 21
93.65246072103108
 31
0.0
 11
-168.9312478327961
 21
93.63493064646596
 31
0.0
 11
-168.8945881441465
 21
93.61486630990706
 31
0.0
 11
-168.8532353276933
 21
93.59227545978115
 31
0.0
 11
-168.8072317722727
 21
93.56716584451496
 31
0.0
 11
-168.7566198667216
 21
93.53954521253539
 31
0.0
 11
-168.4942931235936
 21
93.39555235082987
 31
0.0
 11
-168.2280864786253
 21
93.24739734449327
 31
0.0
 11
-168.1249555661704
 21
93.18933920246468
 31
0.0
 11
-168.0249862431803
 21
93.13268504710459
 31
0.0
 11
-167.92830924539
 21
93.07754480899492
 31
0.0
 11
-167.8350553085348
 21
93.02402841871753
 31
0.0
 11
-167.7453551683499
 21
92.97224580685433
 31
0.0
 11
-167.6593395605703
 21
92.92230690398723
 31
0.0
 11
-167.5771392209313
 21
92.87432164069813
 31
0.0
 11
-167.4988848851679
 21
92.8283999475689
 31
0.0
 11
-167.4247072890153
 21
92.78465175518151
 31
0.0
 11
-167.3547371682088
 21
92.7431869941178
 31
0.0
 11
-167.2891052584833
 21
92.70411559495966
 31
0.0
 11
-167.2279422955742
 21
92.66754748828899
 31
0.0
 11
-167.1713790152166
 21
92.63359260468773
 31
0.0
 11
-167.1195461531455
 21
92.60236087473777
 31
0.0
 11
-167.0725744450962
 21
92.57396222902096
 31
0.0
  0
SPLINE
  5
202
330
8B
100
AcDbEntity
  8
0
  6
Continuous
 62
     7
100
AcDbSpline
210
0.0
220
0.0
230
1.0
 70
     8
 71
     3
 72
    11
 73
     7
 74
     5
 42
0.0000000001
 43
0.0000000001
 44
0.00000001
 40
0.0
 40
0.0
 40
0.0
 40
0.0
 40
0.0458578605135828
 40
0.0812554523613907
 40
0.1049579842522333
 40
0.1157573178937607
 40
0.1157573178937607
 40
0.1157573178937607
 40
0.1157573178937607
 10
-168.9525588582793
 20
93.65646275525557
 30
0.0
 10
-168.9662203953489
 20
93.66332467599548
 30
0.0
 10
-168.9904272458672
 20
93.67548329978526
 30
0.0
 10
-169.0219640069779
 20
93.69059517607369
 30
0.0
 10
-169.0429043723704
 20
93.70089013685323
 30
0.0
 10
-169.0537113625847
 20
93.7048379219242
 30
0.0
 10
-169.0570940287445
 20
93.70607360722607
 30
0.0
 11
-168.9525588582793
 21
93.65646275525557
 31
0.0
 11
-168.9936097203806
 21
93.67690218018937
 31
0.0
 11
-169.025459114821
 21
93.6923490433791
 31
0.0
 11
-169.0469921736069
 21
93.70225547549971
 31
0.0
 11
-169.0570940287445
 21
93.70607360722607
 31
0.0
  0
SPLINE
  5
203
330
8B
100
AcDbEntity
  8
0
  6
Continuous
 62
     7
100
AcDbSpline
210
0.0
220
0.0
230
1.0
 70
     8
 71
     3
 72
    19
 73
    15
 74
    13
 42
0.0000000001
 43
0.0000000001
 44
0.00000001
 40
0.0
 40
0.0
 40
0.0
 40
0.0
 40
0.0729661973505871
 40
0.1175714399672012
 40
0.2748231222514922
 40
0.4225804073381493
 40
0.5531712134228338
 40
0.658919512435314
 40
0.7321467427835358
 40
0.7651726465690897
 40
1.044574001551801
 40
1.290402953980826
 40
1.496614107778439
 40
1.657150499141604
 40
1.657150499141604
 40
1.657150499141604
 40
1.657150499141604
 10
-168.5201431403118
 20
93.43435729131767
 30
0.0
 10
-168.4986265235328
 20
93.42301707279387
 30
0.0
 10
-168.4639565022109
 20
93.40474442230918
 30
0.0
 10
-168.3831292865944
 20
93.36162871389173
 30
0.0
 10
-168.2805792958654
 20
93.30626733745896
 30
0.0
 10
-168.1532578272004
 20
93.23646421439136
 30
0.0
 10
-168.041293772003
 20
93.17436440997426
 30
0.0
 10
-167.9512552718191
 20
93.12395574794138
 30
0.0
 10
-167.8896994575485
 20
93.08924631371735
 30
0.0
 10
-167.7778837560316
 20
93.02582130054482
 30
0.0
 10
-167.616379782852
 20
92.93338081878683
 30
0.0
 10
-167.4058551206589
 20
92.81039460368825
 30
0.0
 10
-167.2302140000472
 20
92.70625319205838
 30
0.0
 10
-167.1255152786324
 20
92.64314133286308
 30
0.0
 10
-167.0796855106134
 20
92.61551538073027
 30
0.0
 11
-168.5201431403118
 21
93.43435729131767
 31
0.0
 11
-168.4556285390963
 21
93.4002701649236
 31
0.0
 11
-168.4162670337685
 21
93.37928684852179
 31
0.0
 11
-168.277878138362
 21
93.3046101774028
 31
0.0
 11
-168.1483022108717
 21
93.23360106312012
 31
0.0
 11
-168.0340988154517
 21
93.17026431937386
 31
0.0
 11
-167.9418275162558
 21
93.11860475986406
 31
0.0
 11
-167.8780478774382
 21
93.08262719829077
 31
0.0
 11
-167.8493194631528
 21
93.06633644835406
 31
0.0
 11
-167.6068871126415
 21
92.92744198269128
 31
0.0
 11
-167.3945988378213
 21
92.80348407763384
 31
0.0
 11
-167.2172623875321
 21
92.69824709103057
 31
0.0
 11
-167.0796855106134
 21
92.61551538073027
 31
0.0
  0
SPLINE
  5
204
330
8B
100
AcDbEntity
  8
0
  6
Continuous
 62
     7
100
AcDbSpline
210
0.0
220
0.0
230
1.0
 70
     8
 71
     3
 72
    14
 73
    10
 74
     8
 42
0.0000000001
 43
0.0000000001
 44
0.00000001
 40
0.0
 40
0.0
 40
0.0
 40
0.0
 40
0.0052079548334965
 40
0.0161477493945079
 40
0.0299215480014928
 40
0.0436091267703823
 40
0.0728978208336717
 40
0.1077222735110591
 40
0.1471511327886719
 40
0.1471511327886719
 40
0.1471511327886719
 40
0.1471511327886719
 10
-168.6515704866589
 20
93.50042790743967
 30
0.0
 10
-168.6499284508286
 20
93.4998608881424
 30
0.0
 10
-168.6448371656828
 20
93.49810279195935
 30
0.0
 10
-168.635908672794
 20
93.49360600102004
 30
0.0
 10
-168.6243787323034
 20
93.4880656289185
 30
0.0
 10
-168.6074769868682
 20
93.4795620129808
 30
0.0
 10
-168.5843644564217
 20
93.46780328742366
 30
0.0
 10
-168.5537041025062
 20
93.45195307621704
 30
0.0
 10
-168.5317832281219
 20
93.44046011042425
 30
0.0
 10
-168.5201431403118
 20
93.43435729131767
 30
0.0
 11
-168.6515704866589
 21
93.50042790743967
 31
0.0
 11
-168.6466727605104
 21
93.49865729395219
 31
0.0
 11
-168.6367453572524
 21
93.49406101615484
 31
0.0
 11
-168.6243695770215
 21
93.48801472872017
 31
0.0
 11
-168.6121267199542
 21
93.48189408632058
 31
0.0
 11
-168.5860218057671
 21
93.46861398635049
 31
0.0
 11
-168.55508219798
 21
93.45263014531457
 31
0.0
 11
-168.5201431403118
 21
93.43435729131767
 31
0.0
  0
SPLINE
  5
205
330
8B
100
AcDbEntity
  8
0
  6
Continuous
 62
     7
100
AcDbSpline
210
0.0
220
0.0
230
1.0
 70
     8
 71
     3
 72
     9
 73
     5
 74
     3
 42
0.0000000001
 43
0.0000000001
 44
0.00000001
 40
0.0
 40
0.0
 40
0.0
 40
0.0
 40
0.004249931397004
 40
0.0083896508926185
 40
0.0083896508926185
 40
0.0083896508926185
 40
0.0083896508926185
 10
-168.9891650927291
 20
93.14485160264627
 30
0.0
 10
-168.9896325834894
 20
93.14351430847941
 30
0.0
 10
-168.9905554417447
 20
93.1408743997014
 30
0.0
 10
-168.99150238626
 20
93.13824303523776
 30
0.0
 10
-168.9919696386786
 20
93.13694463666198
 30
0.0
 11
-168.9891650927291
 21
93.14485160264627
 31
0.0
 11
-168.9905737458205
 21
93.14084191271469
 31
0.0
 11
-168.9919696386786
 21
93.13694463666198
 31
0.0
  0
SPLINE
  5
206
330
8B
100
AcDbEntity
  8
0
  6
Continuous
 62
     7
100
AcDbSpline
210
0.0
220
0.0
230
1.0
 70
     8
 71
     3
 72
    16
 73
    12
 74
    10
 42
0.0000000001
 43
0.0000000001
 44
0.00000001
 40
0.0
 40
0.0
 40
0.0
 40
0.0
 40
0.3520409120082463
 40
0.69153121117513
 40
0.8820548260397696
 40
1.061782464757798
 40
1.224378471195956
 40
1.326802126760666
 40
1.404572664016716
 40
1.45525745646064
 40
1.476446209899356
 40
1.476446209899356
 40
1.476446209899356
 40
1.476446209899356
 10
-166.7099154703378
 20
92.28996105485368
 30
0.0
 10
-166.6104505371239
 20
92.22769432135735
 30
0.0
 10
-166.4150666956764
 20
92.10538072608514
 30
0.0
 10
-166.1672309814219
 20
91.94718323905113
 30
0.0
 10
-165.9683975781306
 20
91.81898230959737
 30
0.0
 10
-165.8194336664126
 20
91.72224731015933
 30
0.0
 10
-165.6952440038658
 20
91.64129303368279
 30
0.0
 10
-165.5995565044097
 20
91.57882724814098
 30
0.0
 10
-165.5346433383694
 20
91.53751463916677
 30
0.0
 10
-165.4927876744193
 20
91.51032132207905
 30
0.0
 10
-165.4718315175156
 20
91.49870182822963
 30
0.0
 10
-165.4656535164694
 20
91.49527633158499
 30
0.0
 11
-166.7099154703378
 21
92.28996105485368
 31
0.0
 11
-166.4118007097723
 21
92.10271684730482
 31
0.0
 11
-166.1255547070278
 21
91.92018770130016
 31
0.0
 11
-165.9654306353433
 21
91.81694270389943
 31
0.0
 11
-165.8146750407499
 21
91.71909192557881
 31
0.0
 11
-165.6784510086067
 21
91.63031988957498
 31
0.0
 11
-165.5925575281127
 21
91.57452638432689
 31
0.0
 11
-165.5270965197935
 21
91.53253694690585
 31
0.0
 11
-165.4841133828466
 21
91.50567809132184
 31
0.0
 11
-165.4656535164694
 21
91.49527633158499
 31
0.0
  0
SPLINE
  5
207
330
8B
100
AcDbEntity
  8
0
  6
Continuous
 62
     7
100
AcDbSpline
210
0.0
220
0.0
230
1.0
 70
     8
 71
     3
 72
    17
 73
    13
 74
    11
 42
0.0000000001
 43
0.0000000001
 44
0.00000001
 40
0.0
 40
0.0
 40
0.0
 40
0.0
 40
0.0519077147950182
 40
0.1209854532541282
 40
0.2385476940734227
 40
0.3292935726205717
 40
0.583171976527893
 40
0.8568207460544999
 40
1.174629035062758
 40
1.465935845298529
 40
1.793155252781419
 40
2.080392740711959
 40
2.080392740711959
 40
2.080392740711959
 40
2.080392740711959
 10
-165.4524361956932
 20
90.68867825954999
 30
0.0
 10
-165.4546098062033
 20
90.70594466808706
 30
0.0
 10
-165.4596760136794
 20
90.74618886437231
 30
0.0
 10
-165.4960923368533
 20
90.81830205367427
 30
0.0
 10
-165.5521659665206
 20
90.89203059203103
 30
0.0
 10
-165.6590877173636
 20
91.00319695350525
 30
0.0
 10
-165.8146656301512
 20
91.1387895768734
 30
0.0
 10
-166.037051031893
 20
91.31188760509983
 30
0.0
 10
-166.2757061137232
 20
91.48415562969714
 30
0.0
 10
-166.5348011062013
 20
91.65823871219744
 30
0.0
 10
-166.7898649208186
 20
91.81988698166461
 30
0.0
 10
-166.965948832829
 20
91.92451965810422
 30
0.0
 10
-167.0482620120421
 20
91.97343183951239
 30
0.0
 11
-165.4524361956932
 21
90.68867825954999
 31
0.0
 11
-165.4614242449289
 21
90.73980189230606
 31
0.0
 11
-165.4899561009935
 21
90.80271188467717
 31
0.0
 11
-165.5595235197363
 21
90.89748136666327
 31
0.0
 11
-165.6218337355936
 21
90.96345296262027
 31
0.0
 11
-165.8110885790879
 21
91.13267721674623
 31
0.0
 11
-166.0263550739023
 21
91.30162686981998
 31
0.0
 11
-166.2839257414308
 21
91.48779738249932
 31
0.0
 11
-166.5255343909475
 21
91.65053925839007
 31
0.0
 11
-166.8019894839038
 21
91.82559674098363
 31
0.0
 11
-167.0482620120421
 21
91.97343183951239
 31
0.0
  0
SPLINE
  5
208
330
8B
100
AcDbEntity
  8
0
  6
Continuous
 62
     7
100
AcDbSpline
210
0.0
220
0.0
230
1.0
 70
     8
 71
     3
 72
    13
 73
     9
 74
     7
 42
0.0000000001
 43
0.0000000001
 44
0.00000001
 40
0.0
 40
0.0
 40
0.0
 40
0.0
 40
0.3866062915365349
 40
0.7884460452357097
 40
1.089366072816108
 40
1.279813416086188
 40
1.394971892499768
 40
1.501990459102552
 40
1.501990459102552
 40
1.501990459102552
 40
1.501990459102552
 10
-167.0310236908574
 20
91.91322217070896
 30
0.0
 10
-166.9203818420385
 20
91.84712385558078
 30
0.0
 10
-166.6947385194943
 20
91.71232275094165
 30
0.0
 10
-166.3920935908991
 20
91.51139137549976
 30
0.0
 10
-166.1515369055462
 20
91.33568869047605
 30
0.0
 10
-165.995143440901
 20
91.20748796324135
 30
0.0
 10
-165.892909705554
 20
91.115275214847
 30
0.0
 10
-165.8426065692595
 20
91.06087391758663
 30
0.0
 10
-165.8183764801884
 20
91.03466982028166
 30
0.0
 11
-167.0310236908574
 21
91.91322217070896
 31
0.0
 11
-166.7006848176221
 21
91.71237234251564
 31
0.0
 11
-166.3660092947514
 21
91.48995947857966
 31
0.0
 11
-166.1238977908475
 21
91.3112561415196
 31
0.0
 11
-165.9769272211702
 21
91.19013701748318
 31
0.0
 11
-165.8921675477113
 21
91.1121801547639
 31
0.0
 11
-165.8183764801884
 21
91.03466982028166
 31
0.0
  0
SPLINE
  5
209
330
8B
100
AcDbEntity
  8
0
  6
Continuous
 62
     7
100
AcDbSpline
210
0.0
220
0.0
230
1.0
 70
     8
 71
     3
 72
    20
 73
    16
 74
    14
 42
0.0000000001
 43
0.0000000001
 44
0.00000001
 40
0.0
 40
0.0
 40
0.0
 40
0.0
 40
0.0303130746818074
 40
0.0564396715377025
 40
0.0794785256138378
 40
0.1005483543288055
 40
0.1207610090869673
 40
0.1411853913988202
 40
0.1632522971314619
 40
0.1828096737992154
 40
0.1996625130583452
 40
0.2135448791966031
 40
0.2241311106067456
 40
0.2310460155455973
 40
0.233874004140449
 40
0.233874004140449
 40
0.233874004140449
 40
0.233874004140449
 10
-165.8183764801884
 20
91.03466982028166
 30
0.0
 10
-165.8121466886156
 20
91.02671195983939
 30
0.0
 10
-165.8005474894646
 20
91.01189528306809
 30
0.0
 10
-165.785573731598
 20
90.99001448678138
 30
0.0
 10
-165.7736677393529
 20
90.96983243297713
 30
0.0
 10
-165.7642943827182
 20
90.95052065621991
 30
0.0
 10
-165.7568676989508
 20
90.93131884401959
 30
0.0
 10
-165.750604139273
 20
90.91136660668468
 30
0.0
 10
-165.7456715763352
 20
90.89125803626956
 30
0.0
 10
-165.7426265053982
 20
90.8719839589726
 30
0.0
 10
-165.741196828342
 20
90.85526823156545
 30
0.0
 10
-165.7409221612861
 20
90.84148791740748
 30
0.0
 10
-165.7413232664437
 20
90.83102964522581
 30
0.0
 10
-165.7419144574511
 20
90.82427609788655
 30
0.0
 10
-165.7423285715611
 20
90.82105487209397
 30
0.0
 10
-165.7424487730162
 20
90.82011987370038
 30
0.0
 11
-165.8183764801884
 21
91.03466982028166
 31
0.0
 11
-165.7999657504782
 21
91.01058813578489
 31
0.0
 11
-165.7852541836669
 21
90.98899719172893
 31
0.0
 11
-165.7736202248985
 21
90.96911152350992
 31
0.0
 11
-165.7644423193169
 21
90.95014566652392
 31
0.0
 11
-165.7570989120661
 21
90.93131415616705
 31
0.0
 11
-165.7509684482899
 21
90.91183152783537
 31
0.0
 11
-165.7457928842639
 21
90.89038014406587
 31
0.0
 11
-165.7427340711834
 21
90.87106345064637
 31
0.0
 11
-165.7413136519928
 21
90.85427057714548
 31
0.0
 11
-165.7410532696364
 21
90.84039065313182
 31
0.0
 11
-165.7414745670586
 21
90.82981280817403
 31
0.0
 11
-165.7420991872037
 21
90.82292617184069
 31
0.0
 11
-165.7424487730162
 21
90.82011987370038
 31
0.0
  0
SPLINE
  5
20A
330
8B
100
AcDbEntity
  8
0
  6
Continuous
 62
     7
100
AcDbSpline
210
0.0
220
0.0
230
1.0
 70
     8
 71
     3
 72
    30
 73
    26
 74
    24
 42
0.0000000001
 43
0.0000000001
 44
0.00000001
 40
0.0
 40
0.0
 40
0.0
 40
0.0
 40
0.0047713687757373
 40
0.0158356764426487
 40
0.0353219927598245
 40
0.0655576645161762
 40
0.1019136746413845
 40
0.1409343664323216
 40
0.179163461617109
 40
0.2131444511177123
 40
0.2712002639959543
 40
0.3342841791559555
 40
0.4030306528702156
 40
0.4780742055758351
 40
0.5600494490107168
 40
0.6495910973371327
 40
0.7517682674887876
 40
0.8465580290092863
 40
0.933364989629789
 40
1.011593635350788
 40
1.080648343642723
 40
1.13993339529492
 40
1.315712036060291
 40
1.48621284853244
 40
1.652120478383024
 40
1.652120478383024
 40
1.652120478383024
 40
1.652120478383024
 10
-165.6578971053223
 20
91.70007400786707
 30
0.0
 10
-165.6593579540936
 20
91.70070551617161
 30
0.0
 10
-165.6642063591449
 20
91.70280142651764
 30
0.0
 10
-165.6743035781269
 20
91.7089136510019
 30
0.0
 10
-165.6916489311866
 20
91.71935451968594
 30
0.0
 10
-165.7159059701912
 20
91.73469842062379
 30
0.0
 10
-165.7456354827454
 20
91.7535460994031
 30
0.0
 10
-165.7775385683348
 20
91.77394982414316
 30
0.0
 10
-165.8087472365902
 20
91.79396720946063
 30
0.0
 10
-165.8452777022986
 20
91.81744058544825
 30
0.0
 10
-165.8887737562742
 20
91.84539937165073
 30
0.0
 10
-165.9420223575234
 20
91.87961772836987
 30
0.0
 10
-166.0000617202881
 20
91.9168552934761
 30
0.0
 10
-166.0634445417742
 20
91.95742559606757
 30
0.0
 10
-166.1327248816847
 20
92.00163997836361
 30
0.0
 10
-166.2097027861703
 20
92.05060495414502
 30
0.0
 10
-166.2903714521538
 20
92.10172611503859
 30
0.0
 10
-166.3703604434846
 20
92.15221654592592
 30
0.0
 10
-166.4436750289101
 20
92.19832514041725
 30
0.0
 10
-166.5097912403816
 20
92.2397660411649
 30
0.0
 10
-166.5681853394725
 20
92.27625301485095
 30
0.0
 10
-166.6542211298373
 20
92.32986544041898
 30
0.0
 10
-166.7691317715961
 20
92.40107955165543
 30
0.0
 10
-166.9145813039621
 20
92.49048375826074
 30
0.0
 10
-167.0104448611083
 20
92.54866224985065
 30
0.0
 10
-167.0577221988747
 20
92.57735432303798
 30
0.0
 11
-165.6578971053223
 21
91.70007400786707
 31
0.0
 11
-165.6622504566024
 21
91.7020270292767
 31
0.0
 11
-165.671893991953
 21
91.70745115409905
 31
0.0
 11
-165.6885545199552
 21
91.71755775245367
 31
0.0
 11
-165.7141770323983
 21
91.73361025078444
 31
0.0
 11
-165.7448735688622
 21
91.753090551638
 31
0.0
 11
-165.7777560010832
 21
91.77409912224809
 31
0.0
 11
-165.8099362007974
 21
91.79473642984857
 31
0.0
 11
-165.8385260397413
 21
91.81310294167318
 31
0.0
 11
-165.8873644938949
 21
91.84449215645846
 31
0.0
 11
-165.9404383808372
 21
91.87859117223249
 31
0.0
 11
-165.9983013687833
 21
91.91571195177835
 31
0.0
 11
-166.0615071259485
 21
91.95616645787908
 31
0.0
 11
-166.1306093205481
 21
92.00026665331774
 31
0.0
 11
-166.2061616207973
 21
92.04832450087738
 31
0.0
 11
-166.2924682993477
 21
92.10301756568272
 31
0.0
 11
-166.3726250941402
 21
92.15361388113848
 31
0.0
 11
-166.4461078982989
 21
92.19982779576537
 31
0.0
 11
-166.5123926049479
 21
92.24137365808406
 31
0.0
 11
-166.570955107211
 21
92.27796581661525
 31
0.0
 11
-166.6212712982122
 21
92.30931861987958
 31
0.0
 11
-166.7706844768539
 21
92.40191361217124
 31
0.0
 11
-166.9159707346237
 21
92.4911460634259
 31
0.0
 11
-167.0577221988747
 21
92.57735432303798
 31
0.0
  0
SPLINE
  5
20B
330
8B
100
AcDbEntity
  8
0
  6
Continuous
 62
     7
100
AcDbSpline
210
0.0
220
0.0
230
1.0
 70
     8
 71
     3
 72
    31
 73
    27
 74
    25
 42
0.0000000001
 43
0.0000000001
 44
0.00000001
 40
0.0
 40
0.0
 40
0.0
 40
0.0
 40
0.103513629045138
 40
0.2182325430642236
 40
0.3442087540690947
 40
0.4814947478391963
 40
0.6301434864216271
 40
0.6797582858639869
 40
0.7428947158366401
 40
0.8187813970333463
 40
0.9066470961110195
 40
1.005720744972554
 40
1.115231461139509
 40
1.234408570552525
 40
1.423734890891479
 40
1.601718235353433
 40
1.7672558627689
 40
1.828226943263844
 40
1.876943977799511
 40
1.914721161629287
 40
1.942872579052582
 40
1.962712151208341
 40
1.975553555151287
 40
1.995202957930259
 40
2.011003056660269
 40
2.019332284514474
 40
2.019332284514474
 40
2.019332284514474
 40
2.019332284514474
 10
-167.0725744450962
 20
92.57396222902096
 30
0.0
 10
-167.0430560669292
 20
92.55609520939205
 30
0.0
 10
-166.9808239647997
 20
92.51842707654261
 30
0.0
 10
-166.8828877350581
 20
92.45865281877185
 30
0.0
 10
-166.7755313485902
 20
92.39270540180854
 30
0.0
 10
-166.6587725875287
 20
92.32045753701513
 30
0.0
 10
-166.5638534694037
 20
92.26128999435501
 30
0.0
 10
-166.4900065453628
 20
92.21504229973192
 30
0.0
 10
-166.4367558691673
 20
92.1816031766337
 30
0.0
 10
-166.3727668248405
 20
92.14128886411368
 30
0.0
 10
-166.2987196287381
 20
92.09446685501614
 30
0.0
 10
-166.2152946170013
 20
92.04150444289363
 30
0.0
 10
-166.1231735102756
 20
91.9827667609588
 30
0.0
 10
-166.0058381733286
 20
91.90761662480895
 30
0.0
 10
-165.8695560012251
 20
91.81973098750582
 30
0.0
 10
-165.7205791266866
 20
91.72301838499612
 30
0.0
 10
-165.6076575248381
 20
91.6493432263801
 30
0.0
 10
-165.5307894135903
 20
91.59926451140183
 30
0.0
 10
-165.4895283230927
 20
91.57254828481231
 30
0.0
 10
-165.4573936070969
 20
91.5518659455611
 30
0.0
 10
-165.4333045320727
 20
91.53646834997673
 30
0.0
 10
-165.4161748264708
 20
91.52561793855791
 30
0.0
 10
-165.4014122158002
 20
91.51632368746975
 30
0.0
 10
-165.3876965380802
 20
91.50790763810409
 30
0.0
 10
-165.3753116864031
 20
91.5001611192724
 30
0.0
 10
-165.3681319108227
 20
91.49652982270226
 30
0.0
 10
-165.3656535164695
 20
91.49527633158499
 30
0.0
 11
-167.0725744450962
 21
92.57396222902096
 31
0.0
 11
-166.9840506600626
 21
92.52030954147011
 31
0.0
 11
-166.8861180574026
 21
92.46056312258206
 31
0.0
 11
-166.7787779474208
 21
92.39462294872551
 31
0.0
 11
-166.6620316404216
 21
92.32238899626898
 31
0.0
 11
-166.5358804467098
 21
92.24376124158118
 31
0.0
 11
-166.4938311753048
 21
92.21742709838236
 31
0.0
 11
-166.4403626616335
 21
92.18385141022162
 31
0.0
 11
-166.376155569917
 21
92.14340097442215
 31
0.0
 11
-166.3018905643769
 21
92.09644258830711
 31
0.0
 11
-166.2182483092344
 21
92.0433430491997
 31
0.0
 11
-166.1259094687109
 21
91.98446915442302
 31
0.0
 11
-166.0255547070278
 21
91.92018770130028
 31
0.0
 11
-165.8664320046424
 21
91.81759909979569
 31
0.0
 11
-165.717137976198
 21
91.72070036927403
 31
0.0
 11
-165.5784510086066
 21
91.63031988957496
 31
0.0
 11
-165.52734965227
 21
91.59706144647726
 31
0.0
 11
-165.4864537757891
 21
91.57058736970755
 31
0.0
 11
-165.4546832780198
 21
91.55014840961667
 31
0.0
 11
-165.430958057818
 21
91.53499531655555
 31
0.0
 11
-165.4141980140398
 21
91.52437884087504
 31
0.0
 11
-165.4033230455411
 21
91.51754973292608
 31
0.0
 11
-165.3866155085985
 21
91.50720771963644
 31
0.0
 11
-165.3730465570524
 21
91.49911286486208
 31
0.0
 11
-165.3656535164695
 21
91.49527633158499
 31
0.0
  0
SPLINE
  5
20C
330
8B
100
AcDbEntity
  8
0
  6
Continuous
 62
     7
100
AcDbSpline
210
0.0
220
0.0
230
1.0
 70
     8
 71
     3
 72
    11
 73
     7
 74
     5
 42
0.0000000001
 43
0.0000000001
 44
0.00000001
 40
0.0
 40
0.0
 40
0.0
 40
0.0
 40
0.0085937770093258
 40
0.0254268602514382
 40
0.0501154220321609
 40
0.0822113268207347
 40
0.0822113268207347
 40
0.0822113268207347
 40
0.0822113268207347
 10
-165.3656535164695
 20
91.49527633158499
 30
0.0
 10
-165.3678096300606
 20
91.49716377716031
 30
0.0
 10
-165.3741890367997
 20
91.50274826170352
 30
0.0
 10
-165.3877101757695
 20
91.51258719069153
 30
0.0
 10
-165.4074688616398
 20
91.52712735302762
 30
0.0
 10
-165.4229415709247
 20
91.53803362487639
 30
0.0
 10
-165.4316871070552
 20
91.54419810407299
 30
0.0
 11
-165.3656535164695
 21
91.49527633158499
 31
0.0
 11
-165.3721767746834
 21
91.50087098131141
 31
0.0
 11
-165.3855811897931
 21
91.51105304136829
 31
0.0
 11
-165.4055246054337
 21
91.52560588491819
 31
0.0
 11
-165.4316871070552
 21
91.54419810407299
 31
0.0
  0
SPLINE
  5
20D
330
8B
100
AcDbEntity
  8
0
  6
Continuous
 62
     7
100
AcDbSpline
210
0.0
220
0.0
230
1.0
 70
     8
 71
     3
 72
    10
 73
     6
 74
     4
 42
0.0000000001
 43
0.0000000001
 44
0.00000001
 40
0.0
 40
0.0
 40
0.0
 40
0.0
 40
0.0546216409047365
 40
0.0919414926961925
 40
0.1087631031726479
 40
0.1087631031726479
 40
0.1087631031726479
 40
0.1087631031726479
 10
-165.746390484969
 20
91.76326313426378
 30
0.0
 10
-165.7314300465303
 20
91.75289130508713
 30
0.0
 10
-165.7062479938007
 20
91.7354329966091
 30
0.0
 10
-165.6763592048902
 20
91.7148692116343
 30
0.0
 10
-165.6622734976556
 20
91.70358117215785
 30
0.0
 10
-165.6578971053223
 20
91.70007400786707
 30
0.0
 11
-165.746390484969
 21
91.76326313426378
 31
0.0
 11
-165.7014795042502
 21
91.73217410941572
 31
0.0
 11
-165.6711028048059
 21
91.71049399252013
 31
0.0
 11
-165.6578971053223
 21
91.70007400786707
 31
0.0
  0
SPLINE
  5
20E
330
8B
100
AcDbEntity
  8
0
  6
Continuous
 62
     7
100
AcDbSpline
210
0.0
220
0.0
230
1.0
 70
     8
 71
     3
 72
    11
 73
     7
 74
     5
 42
0.0000000001
 43
0.0000000001
 44
0.00000001
 40
0.0
 40
0.0
 40
0.0
 40
0.0
 40
0.3956161260427001
 40
0.7894444335279402
 40
1.175612866944891
 40
1.50163616830954
 40
1.50163616830954
 40
1.50163616830954
 40
1.50163616830954
 10
-167.1310236908574
 20
91.91322217070896
 30
0.0
 10
-167.0177471966203
 20
91.84563054520615
 30
0.0
 10
-166.7917061130086
 20
91.71075274575938
 30
0.0
 10
-166.4662612285536
 20
91.49266737102478
 30
0.0
 10
-166.1659290015437
 20
91.27714456720328
 30
0.0
 10
-165.9961136420128
 20
91.11081244462889
 30
0.0
 10
-165.9183764801884
 20
91.03466982028166
 30
0.0
 11
-167.1310236908574
 21
91.91322217070896
 31
0.0
 11
-166.7930775088571
 21
91.70754159978296
 31
0.0
 11
-166.4651920097106
 21
91.48938606988249
 31
0.0
 11
-166.1565283839575
 21
91.25732395512729
 31
0.0
 11
-165.9183764801884
 21
91.03466982028166
 31
0.0
  0
SPLINE
  5
20F
330
8B
100
AcDbEntity
  8
0
  6
Continuous
 62
     7
100
AcDbSpline
210
0.0
220
0.0
230
1.0
 70
     8
 71
     3
 72
    11
 73
     7
 74
     5
 42
0.0000000001
 43
0.0000000001
 44
0.00000001
 40
0.0
 40
0.0
 40
0.0
 40
0.0
 40
0.0815822517063818
 40
0.1411323427352055
 40
0.1909463113990481
 40
0.2327211468193174
 40
0.2327211468193174
 40
0.2327211468193174
 40
0.2327211468193174
 10
-165.9183764801884
 20
91.03466982028166
 30
0.0
 10
-165.9017176508438
 20
91.01293166542652
 30
0.0
 10
-165.8728988874063
 20
90.97532597721275
 30
0.0
 10
-165.8507777817756
 20
90.91516755877575
 30
0.0
 10
-165.8392188878774
 20
90.86561305900949
 30
0.0
 10
-165.8413845331891
 20
90.83500530034033
 30
0.0
 10
-165.8423723119615
 20
90.82104470664356
 30
0.0
 11
-165.9183764801884
 21
91.03466982028166
 31
0.0
 11
-165.8725663441219
 21
90.96716355963092
 31
0.0
 11
-165.8509264962629
 21
90.91168446152918
 31
0.0
 11
-165.8413167410596
 21
90.86280620379658
 31
0.0
 11
-165.8423723119615
 21
90.82104470664356
 31
0.0
  0
SPLINE
  5
210
330
8B
100
AcDbEntity
  8
0
  6
Continuous
 62
     7
100
AcDbSpline
210
0.0
220
0.0
230
1.0
 70
     8
 71
     3
 72
     9
 73
     5
 74
     3
 42
0.0000000001
 43
0.0000000001
 44
0.00000001
 40
0.0
 40
0.0
 40
0.0
 40
0.0
 40
0.0044557846117178
 40
0.0089220676827195
 40
0.0089220676827195
 40
0.0089220676827195
 40
0.0089220676827195
 10
-165.4912954225529
 20
91.36273020841548
 30
0.0
 10
-165.4917490852883
 20
91.36414450340924
 30
0.0
 10
-165.4926574796528
 20
91.36697642567596
 30
0.0
 10
-165.4935975312136
 20
91.36979799749749
 30
0.0
 10
-165.4940681100661
 20
91.37121044345827
 30
0.0
 11
-165.4912954225529
 21
91.36273020841548
 31
0.0
 11
-165.4926643064439
 21
91.36697051187147
 31
0.0
 11
-165.4940681100661
 21
91.37121044345827
 31
0.0
  0
SPLINE
  5
211
330
8B
100
AcDbEntity
  8
0
  6
Continuous
 62
     7
100
AcDbSpline
210
0.0
220
0.0
230
1.0
 70
     8
 71
     3
 72
    14
 73
    10
 74
     8
 42
0.0000000001
 43
0.0000000001
 44
0.00000001
 40
0.0
 40
0.0
 40
0.0
 40
0.0
 40
0.4973645905363079
 40
0.8649343936797493
 40
0.9629044040033176
 40
1.14973014349098
 40
1.389972721777426
 40
1.494712442939098
 40
1.582578435251234
 40
1.582578435251234
 40
1.582578435251234
 40
1.582578435251234
 10
-167.0796855106134
 20
92.61551538073027
 30
0.0
 10
-166.9381786270718
 20
92.52912900355162
 30
0.0
 10
-166.6920932143859
 20
92.37890007654536
 30
0.0
 10
-166.4210763338233
 20
92.20691605337359
 30
0.0
 10
-166.2381821973122
 20
92.08928792555926
 30
0.0
 10
-166.0914474926709
 20
91.9938999126466
 30
0.0
 10
-165.943509900159
 20
91.8962290969701
 30
0.0
 10
-165.8236368302722
 20
91.8159276367758
 30
0.0
 10
-165.7705901694382
 20
91.77976183512159
 30
0.0
 10
-165.746390484969
 20
91.76326313426378
 30
0.0
 11
-167.0796855106134
 21
92.61551538073027
 31
0.0
 11
-166.6560387806909
 21
92.35494872103381
 31
0.0
 11
-166.3455153335716
 21
92.15826941614378
 31
0.0
 11
-166.2631230634068
 21
92.1052634095041
 31
0.0
 11
-166.1064820223561
 21
92.00344277704839
 31
0.0
 11
-165.9060231001735
 21
91.87103161083078
 31
0.0
 11
-165.8190506396639
 21
91.81266894894905
 31
0.0
 11
-165.746390484969
 21
91.76326313426378
 31
0.0
  0
SPLINE
  5
212
330
8B
100
AcDbEntity
  8
0
  6
Continuous
 62
     7
100
AcDbSpline
210
0.0
220
0.0
230
1.0
 70
     8
 71
     3
 72
     9
 73
     5
 74
     3
 42
0.0000000001
 43
0.0000000001
 44
0.00000001
 40
0.0
 40
0.0
 40
0.0
 40
0.0
 40
1.099918585998139
 40
2.175068648827228
 40
2.175068648827228
 40
2.175068648827228
 40
2.175068648827228
 10
-167.506219619836
 20
92.39295968565239
 30
0.0
 10
-167.1773237183279
 20
92.23064445470591
 30
0.0
 10
-166.5269381596105
 20
91.90966908929876
 30
0.0
 10
-165.900799624201
 20
91.54365383981187
 30
0.0
 10
-165.5912954225529
 20
91.36273020841548
 30
0.0
 11
-167.506219619836
 21
92.39295968565239
 31
0.0
 11
-166.5257325132861
 21
91.89449611655871
 31
0.0
 11
-165.5912954225529
 21
91.36273020841548
 31
0.0
  0
SPLINE
  5
213
330
8B
100
AcDbEntity
  8
0
  6
Continuous
 62
     7
100
AcDbSpline
210
0.0
220
0.0
230
1.0
 70
     8
 71
     3
 72
    14
 73
    10
 74
     8
 42
0.0000000001
 43
0.0000000001
 44
0.00000001
 40
0.0
 40
0.0
 40
0.0
 40
0.0
 40
0.0225475798583507
 40
0.0736263756682719
 40
0.1477971094191058
 40
0.2395986041767275
 40
0.3435667745504327
 40
0.4284146203930042
 40
0.5168496617012431
 40
0.5168496617012431
 40
0.5168496617012431
 40
0.5168496617012431
 10
-169.1570940287444
 20
93.70607360722607
 30
0.0
 10
-169.1507287179357
 20
93.70207512484495
 30
0.0
 10
-169.1299435708031
 20
93.68901856765598
 30
0.0
 10
-169.0866070181314
 20
93.66553117514361
 30
0.0
 10
-169.0233528865975
 20
93.63043402037135
 30
0.0
 10
-168.9443195497091
 20
93.58741007241733
 30
0.0
 10
-168.8622101851085
 20
93.54260672272925
 30
0.0
 10
-168.7811068470318
 20
93.49829842620736
 30
0.0
 10
-168.7304719184672
 20
93.47050581398818
 30
0.0
 10
-168.7046303476526
 20
93.45632183511938
 30
0.0
 11
-169.1570940287444
 21
93.70607360722607
 31
0.0
 11
-169.1379227568446
 21
93.69420534319079
 31
0.0
 11
-169.0934152705942
 21
93.66914288024196
 31
0.0
 11
-169.0284460040913
 21
93.63336170984168
 31
0.0
 11
-168.9478893914344
 21
93.58933732345213
 31
0.0
 11
-168.8566198667215
 21
93.53954521253539
 31
0.0
 11
-168.7821693705081
 21
93.49884778561794
 31
0.0
 11
-168.7046303476526
 21
93.45632183511938
 31
0.0
  0
SPLINE
  5
214
330
8B
100
AcDbEntity
  8
0
  6
Continuous
 62
     7
100
AcDbSpline
210
0.0
220
0.0
230
1.0
 70
     8
 71
     3
 72
     9
 73
     5
 74
     3
 42
0.0000000001
 43
0.0000000001
 44
0.00000001
 40
0.0
 40
0.0
 40
0.0
 40
0.0
 40
0.1984942340361315
 40
0.3969714096224293
 40
0.3969714096224293
 40
0.3969714096224293
 40
0.3969714096224293
 10
-165.5000768909738
 20
91.36273020841548
 30
0.0
 10
-165.44688696022
 20
91.32337689132703
 30
0.0
 10
-165.3405116698164
 20
91.24467363914553
 30
0.0
 10
-165.2350395527947
 20
91.16476408520586
 30
0.0
 10
-165.1823057604305
 20
91.12481102515198
 30
0.0
 11
-165.5000768909738
 21
91.36273020841548
 31
0.0
 11
-165.3407329114638
 21
91.24436865579176
 31
0.0
 11
-165.1823057604305
 21
91.12481102515198
 31
0.0
  0
SPLINE
  5
215
330
8B
100
AcDbEntity
  8
0
  6
Continuous
 62
     7
100
AcDbSpline
210
0.0
220
0.0
230
1.0
 70
     8
 71
     3
 72
     9
 73
     5
 74
     3
 42
0.0000000001
 43
0.0000000001
 44
0.00000001
 40
0.0
 40
0.0
 40
0.0
 40
0.0
 40
2.007478681557775
 40
4.009805434176227
 40
4.009805434176227
 40
4.009805434176227
 40
4.009805434176227
 10
-169.2012964023639
 20
93.64386484459638
 30
0.0
 10
-168.609990381535
 20
93.32931584024001
 30
0.0
 10
-167.428895848695
 20
92.70102508000929
 30
0.0
 10
-166.3269038663927
 20
91.94251515674013
 30
0.0
 10
-165.7766158128807
 20
91.56374747426267
 30
0.0
 11
-169.2012964023639
 21
93.64386484459638
 31
0.0
 11
-167.447204826927
 21
92.66757933211026
 31
0.0
 11
-165.7766158128807
 21
91.56374747426267
 31
0.0
  0
ENDBLK
  5
8D
330
8B
100
AcDbEntity
  8
0
100
AcDbBlockEnd
  0
BLOCK
  5
8F
330
8E
100
AcDbEntity
  8
0
100
AcDbBlockBegin
  2
Koerper_101005619__10
 70
     0
 10
-325.0000072665828
 20
39.58431352478968
 30
0.0
  3
Koerper_101005619__10
  1

  0
LINE
  5
216
330
8E
100
AcDbEntity
  8
0
  6
Continuous
 62
     7
100
AcDbLine
 10
-193.0000072665828
 20
93.03739265879668
 30
0.0
 11
-193.0000072665828
 21
90.79744319326448
 31
0.0
  0
LINE
  5
217
330
8E
100
AcDbEntity
  8
0
  6
Continuous
 62
     7
100
AcDbLine
 10
-196.0000072665828
 20
93.03739265879668
 30
0.0
 11
-196.0000072665828
 21
90.58431352478968
 31
0.0
  0
LINE
  5
218
330
8E
100
AcDbEntity
  8
0
  6
Continuous
 62
     7
100
AcDbLine
 10
-199.5000072665941
 20
90.58431352478968
 30
0.0
 11
-196.0000072665828
 21
90.58431352478968
 31
0.0
  0
LINE
  5
219
330
8E
100
AcDbEntity
  8
0
  6
Continuous
 62
     7
100
AcDbLine
 10
-217.0000072665828
 20
87.08431352478968
 30
0.0
 11
-203.0000072665991
 21
87.08431352478968
 31
0.0
  0
LINE
  5
21A
330
8E
100
AcDbEntity
  8
0
  6
Continuous
 62
     7
100
AcDbLine
 10
-218.295643120907
 20
87.08431352478968
 30
0.0
 11
-217.0000072665828
 21
87.08431352478968
 31
0.0
  0
LINE
  5
21B
330
8E
100
AcDbEntity
  8
0
  6
Continuous
 62
     7
100
AcDbLine
 10
-217.0000072665828
 20
87.08431352478968
 30
0.0
 11
-217.0000072665828
 21
87.58431352478968
 31
0.0
  0
LINE
  5
21C
330
8E
100
AcDbEntity
  8
0
  6
Continuous
 62
     7
100
AcDbLine
 10
-196.0000072665828
 20
93.12927141620628
 30
0.0
 11
-196.0000072665828
 21
93.03739265879668
 31
0.0
  0
LINE
  5
21D
330
8E
100
AcDbEntity
  8
0
  6
Continuous
 62
     7
100
AcDbLine
 10
-193.0000072665828
 20
93.03739265879668
 30
0.0
 11
-196.0000072665828
 21
93.03739265879668
 31
0.0
  0
LINE
  5
21E
330
8E
100
AcDbEntity
  8
0
  6
Continuous
 62
     7
100
AcDbLine
 10
-199.5000072665941
 20
90.58431352478968
 30
0.0
 11
-203.0000072665991
 21
87.08431352478968
 31
0.0
  0
LINE
  5
21F
330
8E
100
AcDbEntity
  8
0
  6
Continuous
 62
     7
100
AcDbLine
 10
-196.0000072665828
 20
45.08431352478968
 30
0.0
 11
-193.0000072665828
 21
45.08431352478968
 31
0.0
  0
LINE
  5
220
330
8E
100
AcDbEntity
  8
0
  6
Continuous
 62
     7
100
AcDbLine
 10
-193.0000072665828
 20
90.79744319326448
 30
0.0
 11
-193.0000072665828
 21
47.31943355728237
 31
0.0
  0
LINE
  5
221
330
8E
100
AcDbEntity
  8
0
  6
Continuous
 62
     7
100
AcDbLine
 10
-193.0000072665828
 20
47.31943355728237
 30
0.0
 11
-193.0000072665828
 21
45.08431352478968
 31
0.0
  0
LINE
  5
222
330
8E
100
AcDbEntity
  8
0
  6
Continuous
 62
     7
100
AcDbLine
 10
-196.0000072665828
 20
90.58431352478968
 30
0.0
 11
-196.0000072665828
 21
47.58431352478968
 31
0.0
  0
LINE
  5
223
330
8E
100
AcDbEntity
  8
0
  6
Continuous
 62
     7
100
AcDbLine
 10
-196.0000072665828
 20
47.58431352478968
 30
0.0
 11
-196.0000072665828
 21
45.08431352478968
 31
0.0
  0
LINE
  5
224
330
8E
100
AcDbEntity
  8
0
  6
Continuous
 62
     7
100
AcDbLine
 10
-250.351753205666
 20
39.58431352478968
 30
0.0
 11
-265.5839740716446
 21
39.58431352478968
 31
0.0
  0
LINE
  5
225
330
8E
100
AcDbEntity
  8
0
  6
Continuous
 62
     7
100
AcDbLine
 10
-325.0000072665828
 20
68.39775059366718
 30
0.0
 11
-325.0000072665828
 21
87.58431352478968
 31
0.0
  0
LINE
  5
226
330
8E
100
AcDbEntity
  8
0
  6
Continuous
 62
     7
100
AcDbLine
 10
-237.2500072666999
 20
49.82943222644707
 30
0.0
 11
-261.973285275019
 21
53.08431352478968
 31
0.0
  0
LINE
  5
227
330
8E
100
AcDbEntity
  8
0
  6
Continuous
 62
     7
100
AcDbLine
 10
-220.1966376550578
 20
47.58431352478968
 30
0.0
 11
-226.4214997758747
 21
48.40383217013238
 31
0.0
  0
LINE
  5
228
330
8E
100
AcDbEntity
  8
0
  6
Continuous
 62
     7
100
AcDbLine
 10
-220.1966376550578
 20
47.58431352478968
 30
0.0
 11
-196.0000072665828
 21
47.58431352478968
 31
0.0
  0
LINE
  5
229
330
8E
100
AcDbEntity
  8
0
  6
Continuous
 62
     7
100
AcDbLine
 10
-226.4214997758747
 20
48.40383217013238
 30
0.0
 11
-237.2500072666999
 21
49.82943222644707
 31
0.0
  0
LINE
  5
22A
330
8E
100
AcDbEntity
  8
0
  6
Continuous
 62
     3
100
AcDbLine
 10
-304.7500072665828
 20
53.08431352478968
 30
0.0
 11
-261.973285275019
 21
53.08431352478968
 31
0.0
  0
LINE
  5
22B
330
8E
100
AcDbEntity
  8
0
  6
Continuous
 62
     7
100
AcDbLine
 10
-304.7500072665828
 20
53.08431352478968
 30
0.0
 11
-304.7500072665828
 21
58.71597581358037
 31
0.0
  0
LINE
  5
22C
330
8E
100
AcDbEntity
  8
0
  6
Continuous
 62
     7
100
AcDbLine
 10
-304.7500072665828
 20
58.71597581358037
 30
0.0
 11
-318.0442168043431
 21
60.46619170267667
 31
0.0
  0
LINE
  5
22D
330
8E
100
AcDbEntity
  8
0
  6
Continuous
 62
     7
100
AcDbLine
 10
-261.973285275019
 20
53.08431352478968
 30
0.0
 11
-304.7500072665828
 21
58.71597581358037
 31
0.0
  0
LINE
  5
22E
330
8E
100
AcDbEntity
  8
0
  6
Continuous
 62
     7
100
AcDbLine
 10
-265.5839740716446
 20
39.58431352478968
 30
0.0
 11
-291.2500072665828
 21
39.58431352478968
 31
0.0
  0
LINE
  5
22F
330
8E
100
AcDbEntity
  8
1
  6
DOT_CENTER
 62
     2
100
AcDbLine
 10
-220.1966376550578
 20
69.08431352478968
 30
0.0
 11
-168.2000072665829
 21
69.0843135247895
 31
0.0
  0
LINE
  5
230
330
8E
100
AcDbEntity
  8
1
  6
DOT_CENTER
 62
     2
100
AcDbLine
 10
-271.0000072665831
 20
36.50952534961704
 30
0.0
 11
-271.0000072665831
 21
127.768221347442
 31
0.0
  0
LINE
  5
231
330
8E
100
AcDbEntity
  8
1
  6
DOT_CENTER
 62
     2
100
AcDbLine
 10
-271.0000072665828
 20
68.39775059366718
 30
0.0
 11
-271.0000072665828
 21
87.58431352478968
 31
0.0
  0
ARC
  5
232
330
8E
100
AcDbEntity
  8
0
  6
Continuous
 62
     7
100
AcDbCircle
 10
-180.7000072665827
 20
69.08431352478968
 30
0.0
 40
24.95495942693557
100
AcDbArc
 50
108.2137641409766
 51
119.5305787265498
  0
ARC
  5
233
330
8E
100
AcDbEntity
  8
0
  6
Continuous
 62
     7
100
AcDbCircle
 10
-180.7000072665827
 20
69.08431352478968
 30
0.0
 40
28.49999999999995
100
AcDbArc
 50
105.8836170437629
 51
122.4689249050288
  0
ARC
  5
234
330
8E
100
AcDbEntity
  8
0
  6
Continuous
 62
     7
100
AcDbCircle
 10
-250.351753242576
 20
53.08431351903019
 30
0.0
 40
13.49999999426645
100
AcDbArc
 50
270.0402687731596
 51
346.0483908091118
  0
ARC
  5
235
330
8E
100
AcDbEntity
  8
0
  6
Continuous
 62
     7
100
AcDbCircle
 10
-180.7000072665827
 20
69.08431352478968
 30
0.0
 40
25.00000000000006
100
AcDbArc
 50
240.527879253682
 51
251.82019881065
  0
ARC
  5
236
330
8E
100
AcDbEntity
  8
0
  6
Continuous
 62
     7
100
AcDbCircle
 10
-317.0000072665828
 20
68.39775059366718
 30
0.0
 40
8.0
100
AcDbArc
 50
180.0
 51
262.5000000000012
  0
ARC
  5
237
330
8E
100
AcDbEntity
  8
0
  6
Continuous
 62
     7
100
AcDbCircle
 10
-291.2500072665828
 20
53.08431352478968
 30
0.0
 40
13.5
100
AcDbArc
 50
180.0
 51
270.0
  0
SPLINE
  5
238
330
8E
100
AcDbEntity
  8
0
  6
Continuous
 62
     3
100
AcDbSpline
210
0.0
220
0.0
230
1.0
 70
    24
 71
     3
 72
    26
 73
    22
 74
    20
 42
0.0000000001
 43
0.0000000001
 44
0.00000001
 40
0.0
 40
0.0
 40
0.0
 40
0.0
 40
0.6282506614085731
 40
1.256501322817083
 40
3.138495199170933
 40
5.831563640674513
 40
10.09548509166072
 40
15.35683400993743
 40
21.52186566992539
 40
28.90719783448007
 40
36.92050391501402
 40
45.40540359717662
 40
58.48946530806871
 40
71.3350249948437
 40
78.95869948527931
 40
85.99967929387408
 40
92.33457185126767
 40
96.90127439610994
 40
100.8001417955489
 40
103.5531384615445
 40
105.7398833394544
 40
105.7398833394544
 40
105.7398833394544
 40
105.7398833394544
 10
-325.0000072665828
 20
68.39775059366718
 30
0.0
 10
-324.7918950318011
 20
68.37441113454818
 30
0.0
 10
-324.3756705622376
 20
68.32773221631017
 30
0.0
 10
-323.3360230300141
 20
68.2111373841903
 30
0.0
 10
-321.6123907938682
 20
68.01783474557364
 30
0.0
 10
-318.6844182849191
 20
67.68946724355814
 30
0.0
 10
-314.6370118094082
 20
67.23555698656537
 30
0.0
 10
-309.439494289273
 20
66.65266358864166
 30
0.0
 10
-303.2079885870703
 20
65.95381004579806
 30
0.0
 10
-296.0648786634304
 20
65.15272152632649
 30
0.0
 10
-288.1532969368145
 20
64.26545010536199
 30
0.0
 10
-278.353972921721
 20
63.16647136207055
 30
0.0
 10
-266.9539325702976
 20
61.88797480459557
 30
0.0
 10
-255.839178825495
 20
60.64147269040456
 30
0.0
 10
-246.7262363909047
 20
59.61947055954049
 30
0.0
 10
-239.7699960012876
 20
58.83933916377901
 30
0.0
 10
-233.8263980207307
 20
58.17277401813818
 30
0.0
 10
-228.9236457974051
 20
57.62293808366351
 30
0.0
 10
-225.20742055209
 20
57.20616927965278
 30
0.0
 10
-222.2795722065951
 20
56.8778157023729
 30
0.0
 10
-220.6432497717863
 20
56.6943047203648
 30
0.0
 10
-219.9188759009829
 20
56.61306733246107
 30
0.0
 11
-325.0000072665828
 21
68.39775059366718
 31
0.0
 11
-324.3756705622376
 21
68.3277322163102
 31
0.0
 11
-323.7513338578925
 21
68.25771383895326
 31
0.0
 11
-321.8810646699124
 21
68.04796609730727
 31
0.0
 11
-319.2047738537999
 21
67.74782430046048
 31
0.0
 11
-314.9674163310448
 21
67.27261133290669
 31
0.0
 11
-309.7388452433803
 21
66.68623532632898
 31
0.0
 11
-303.6122212933938
 21
65.99914410668927
 31
0.0
 11
-296.2728992244371
 21
65.1760507043761
 31
0.0
 11
-288.3095154724602
 21
64.28296976791404
 31
0.0
 11
-279.8774761135461
 21
63.33732984379577
 31
0.0
 11
-266.8749271791568
 21
61.87911447450184
 31
0.0
 11
-254.1093944181896
 21
60.44748009548908
 31
0.0
 11
-246.5332148791384
 21
59.59782350122276
 31
0.0
 11
-239.5360998753864
 21
58.81310808190969
 31
0.0
 11
-233.2406732493381
 21
58.10708590820448
 31
0.0
 11
-228.7024209374677
 21
57.59812806430049
 31
0.0
 11
-224.8278432054093
 21
57.16360027848549
 31
0.0
 11
-222.091997513393
 21
56.85677949617227
 31
0.0
 11
-219.9188759009829
 21
56.61306733246107
 31
0.0
  0
SPLINE
  5
239
330
8E
100
AcDbEntity
  8
0
  6
Continuous
 62
     7
100
AcDbSpline
210
0.0
220
0.0
230
1.0
 70
     8
 71
     3
 72
    15
 73
    11
 74
     9
 42
0.0000000001
 43
0.0000000001
 44
0.00000001
 40
0.0
 40
0.0
 40
0.0
 40
0.0
 40
2.676512479763736
 40
5.340906767876727
 40
7.778723695372918
 40
10.35805801012962
 40
12.65646477252444
 40
14.77000713717642
 40
16.72936266839362
 40
18.35966795795668
 40
18.35966795795668
 40
18.35966795795668
 40
18.35966795795668
 10
-221.4646663471948
 20
69.08431352478968
 30
0.0
 10
-221.4507352687872
 20
69.97659109891791
 30
0.0
 10
-221.4229361863943
 20
71.75710636664675
 30
0.0
 10
-221.2060839640963
 20
74.34281809212185
 30
0.0
 10
-220.8750484616425
 20
76.88250543036506
 30
0.0
 10
-220.4433701990381
 20
79.28354367976902
 30
0.0
 10
-219.9329017186512
 20
81.55799952385176
 30
0.0
 10
-219.389117841796
 20
83.61135758475034
 30
0.0
 10
-218.8468758889114
 20
85.43386412453778
 30
0.0
 10
-218.4678047170671
 20
86.56884343733927
 30
0.0
 10
-218.295643120907
 20
87.08431352478968
 30
0.0
 11
-221.4646663471948
 21
69.08431352478968
 31
0.0
 11
-221.3924624223903
 21
71.75985190940946
 31
0.0
 11
-221.17859483451
 21
74.41564888534407
 31
0.0
 11
-220.862297359225
 21
76.83285952554805
 31
0.0
 11
-220.4076887473602
 21
79.37181531825098
 31
0.0
 11
-219.9046357580497
 21
81.61449481728067
 31
0.0
 11
-219.3652889000266
 21
83.65806186876668
 31
0.0
 11
-218.8043355455211
 21
85.53540185709603
 31
0.0
 11
-218.295643120907
 21
87.08431352478968
 31
0.0
  0
SPLINE
  5
23A
330
8E
100
AcDbEntity
  8
0
  6
Continuous
 62
     3
100
AcDbSpline
210
0.0
220
0.0
230
1.0
 70
     8
 71
     3
 72
    11
 73
     7
 74
     5
 42
0.0000000001
 43
0.0000000001
 44
0.00000001
 40
0.0
 40
0.0
 40
0.0
 40
0.0
 40
5.17351707138701
 40
9.622634362030098
 40
12.77476881532582
 40
14.49677851031047
 40
14.49677851031047
 40
14.49677851031047
 40
14.49677851031047
 10
-261.973285275019
 20
53.08431352478968
 30
0.0
 10
-262.0123730823656
 20
51.34712563372797
 30
0.0
 10
-262.085075592654
 20
48.11599221652418
 30
0.0
 10
-262.905387744442
 20
44.03471664018326
 30
0.0
 10
-263.6550073055886
 20
40.76260400231239
 30
0.0
 10
-265.0803928102943
 20
39.89192121163492
 30
0.0
 10
-265.5839740716446
 20
39.58431352478968
 30
0.0
 11
-261.973285275019
 21
53.08431352478968
 31
0.0
 11
-262.2481427367834
 21
47.91810289574587
 31
0.0
 11
-263.0308315387963
 21
43.53837197877129
 31
0.0
 11
-264.2022274909559
 21
40.61197775807614
 31
0.0
 11
-265.5839740716446
 21
39.58431352478968
 31
0.0
  0
SPLINE
  5
23B
330
8E
100
AcDbEntity
  8
0
  6
Continuous
 62
     7
100
AcDbSpline
210
0.0
220
0.0
230
1.0
 70
     8
 71
     3
 72
    15
 73
    11
 74
     9
 42
0.0000000001
 43
0.0000000001
 44
0.00000001
 40
0.0
 40
0.0
 40
0.0
 40
0.0
 40
0.0007907561523064
 40
0.0015815123045843
 40
0.0031629438909293
 40
0.0047443216628538
 40
0.0055349821444353
 40
0.0063256426259884
 40
0.008499824372399
 40
0.0094880692278727
 40
0.0094880692278727
 40
0.0094880692278727
 40
0.0094880692278727
 10
-250.3422651372166
 20
39.58431685899168
 30
0.0
 10
-250.3425287225444
 20
39.58431668698746
 30
0.0
 10
-250.3430558932002
 20
39.58431634297903
 30
0.0
 10
-250.344110207582
 20
39.58431561492592
 30
0.0
 10
-250.345428062619
 20
39.58431500527058
 30
0.0
 10
-250.3467458857704
 20
39.58431441647632
 30
0.0
 10
-250.3478001186426
 20
39.58431412402318
 30
0.0
 10
-250.3490519528083
 20
39.58431369238063
 30
0.0
 10
-250.3503696485193
 20
39.5843136251119
 30
0.0
 10
-250.3514237907156
 20
39.58431354867567
 30
0.0
 10
-250.351753205666
 20
39.58431352478968
 30
0.0
 11
-250.3422651372166
 21
39.58431685899168
 31
0.0
 11
-250.3430558931973
 21
39.58431633797218
 31
0.0
 11
-250.3438466491779
 21
39.58431581695268
 31
0.0
 11
-250.3454280805581
 21
39.58431500943173
 31
0.0
 11
-250.3470094581959
 21
39.58431435823937
 31
0.0
 11
-250.3478001186401
 21
39.58431411514148
 31
0.0
 11
-250.3485907790843
 21
39.58431387204357
 31
0.0
 11
-250.350764960813
 21
39.58431359423855
 31
0.0
 11
-250.351753205666
 21
39.58431352478968
 31
0.0
  0
SPLINE
  5
23C
330
8E
100
AcDbEntity
  8
0
  6
Continuous
 62
     7
100
AcDbSpline
210
0.0
220
0.0
230
1.0
 70
     8
 71
     3
 72
    36
 73
    32
 74
    30
 42
0.0000000001
 43
0.0000000001
 44
0.00000001
 40
0.0
 40
0.0
 40
0.0
 40
0.0
 40
0.4075578997682672
 40
0.8849260508414833
 40
1.42284948604225
 40
2.013240487150252
 40
2.750069336679675
 40
3.468833702998034
 40
4.170219945091537
 40
4.855681002053556
 40
5.527637200700521
 40
6.189671449376123
 40
6.534107298380902
 40
6.920384344988135
 40
7.345190659160899
 40
7.806896195988516
 40
8.305791864875074
 40
8.844266312558384
 40
9.328422601692703
 40
9.771656297102076
 40
10.16820999353126
 40
10.51042379531664
 40
10.80025975386647
 40
11.131271649769
 40
11.50344049669938
 40
11.86106037966553
 40
12.17740642395796
 40
12.44170050239548
 40
12.64275067960141
 40
12.67580604034132
 40
12.70993818101439
 40
12.70993818101439
 40
12.70993818101439
 40
12.70993818101439
 10
-219.9188759009829
 20
56.61306733246107
 30
0.0
 10
-219.8881586849731
 20
56.48071454866756
 30
0.0
 10
-219.8214627267503
 20
56.19333838359542
 30
0.0
 10
-219.7397263909258
 20
55.72588615724494
 30
0.0
 10
-219.6737761776312
 20
55.1944859165592
 30
0.0
 10
-219.6353244067543
 20
54.57352290973792
 30
0.0
 10
-219.6442967856366
 20
53.89071325466788
 30
0.0
 10
-219.718089575525
 20
53.17449749577119
 30
0.0
 10
-219.8561704803694
 20
52.48519570899896
 30
0.0
 10
-220.0589377825362
 20
51.82823128266978
 30
0.0
 10
-220.3267490385164
 20
51.20914140601769
 30
0.0
 10
-220.607866517414
 20
50.72370720796218
 30
0.0
 10
-220.8775595521941
 20
50.34547810366869
 30
0.0
 10
-221.1230649583645
 20
50.04819021369043
 30
0.0
 10
-221.4190789783455
 20
49.7435423400601
 30
0.0
 10
-221.7698623894314
 20
49.44213359162447
 30
0.0
 10
-222.1796551968696
 20
49.15469944824969
 30
0.0
 10
-222.623923004261
 20
48.90798869130104
 30
0.0
 10
-223.0732205439311
 20
48.71421052227247
 30
0.0
 10
-223.4924220013937
 20
48.57476134539449
 30
0.0
 10
-223.8747270529919
 20
48.47823361579096
 30
0.0
 10
-224.2118756141775
 20
48.41491565403539
 30
0.0
 10
-224.5300266108661
 20
48.37133514673595
 30
0.0
 10
-224.8598440795418
 20
48.34180622607148
 30
0.0
 10
-225.2133268134033
 20
48.32785283678187
 30
0.0
 10
-225.5621473550011
 20
48.33114746360352
 30
0.0
 10
-225.8745623636934
 20
48.34723130393614
 30
0.0
 10
-226.1342102924974
 20
48.36955251866129
 30
0.0
 10
-226.2992968584979
 20
48.38830319739523
 30
0.0
 10
-226.3880106816567
 20
48.39946016676208
 30
0.0
 10
-226.4102181087534
 20
48.40235934777547
 30
0.0
 10
-226.4214997758747
 20
48.40383217013238
 30
0.0
 11
-219.9188759009829
 21
56.61306733246107
 31
0.0
 11
-219.8300885392894
 21
56.21529824609684
 31
0.0
 11
-219.7468798027895
 21
55.7452379756749
 31
0.0
 11
-219.6811774788071
 21
55.21134208061529
 31
0.0
 11
-219.6449093546664
 21
54.62206612033808
 31
0.0
 11
-219.6555006316908
 21
53.88531339496149
 31
0.0
 11
-219.7300945682638
 21
53.17043021645217
 31
0.0
 11
-219.8688887825544
 21
52.48291379724641
 31
0.0
 11
-220.0720808927319
 21
51.82826134978051
 31
0.0
 11
-220.3398685169657
 21
51.21197008649077
 31
0.0
 11
-220.6724492734251
 21
50.63953721981346
 31
0.0
 11
-220.8725132902522
 21
50.3591616801338
 31
0.0
 11
-221.1185780286764
 21
50.06139986048629
 31
0.0
 11
-221.4146962716505
 21
49.75681097241094
 31
0.0
 11
-221.764920802127
 21
49.45595422744775
 31
0.0
 11
-222.1733044030583
 21
49.16938883713669
 31
0.0
 11
-222.643899857397
 21
48.90767401301778
 31
0.0
 11
-223.0883225451158
 21
48.71559125234126
 31
0.0
 11
-223.5087949450396
 21
48.57538044801952
 31
0.0
 11
-223.8932252901002
 21
48.47807605989513
 31
0.0
 11
-224.2295218132293
 21
48.41471254781067
 31
0.0
 11
-224.5166652610047
 21
48.37529778828877
 31
0.0
 11
-224.8463435127487
 21
48.34561402916002
 31
0.0
 11
-225.2182156411942
 21
48.33075567424197
 31
0.0
 11
-225.5758214114919
 21
48.33393273931561
 31
0.0
 11
-225.8917545412216
 21
48.35009062527515
 31
0.0
 11
-226.155078101088
 21
48.37271942808169
 31
0.0
 11
-226.3548551617957
 21
48.39530924369637
 31
0.0
 11
-226.3876513191195
 21
48.39944070087769
 31
0.0
 11
-226.4214997758747
 21
48.40383217013238
 31
0.0
  0
SPLINE
  5
23D
330
8E
100
AcDbEntity
  8
0
  6
Continuous
 62
     7
100
AcDbSpline
210
0.0
220
0.0
230
1.0
 70
     8
 71
     3
 72
    11
 73
     7
 74
     5
 42
0.0000000001
 43
0.0000000001
 44
0.00000001
 40
0.0
 40
0.0
 40
0.0
 40
0.0
 40
3.116851991603799
 40
5.994200711836152
 40
9.282908492230021
 40
12.5951608670495
 40
12.5951608670495
 40
12.5951608670495
 40
12.5951608670495
 10
-219.9188759009829
 20
56.61306733246107
 30
0.0
 10
-220.1502565803374
 20
57.62624861870861
 30
0.0
 10
-220.5952383236568
 20
59.57475692247284
 30
0.0
 10
-221.0728895622028
 20
62.63371755867364
 30
0.0
 10
-221.4012807499763
 20
65.77918293425486
 30
0.0
 10
-221.4434876330009
 20
67.97998668680235
 30
0.0
 10
-221.4646663471948
 20
69.08431352478968
 30
0.0
 11
-219.9188759009829
 21
56.61306733246107
 31
0.0
 11
-220.5760977730432
 21
59.6598403381919
 31
0.0
 11
-221.0291546766927
 21
62.50129684848346
 31
0.0
 11
-221.3541735262737
 21
65.77390461786864
 31
0.0
 11
-221.4646663471948
 21
69.08431352478968
 31
0.0
  0
ENDBLK
  5
90
330
8E
100
AcDbEntity
  8
0
100
AcDbBlockEnd
  0
BLOCK
  5
92
330
91
100
AcDbEntity
  8
0
100
AcDbBlockBegin
  2
Koerper-Oberteil_101005614_flach__11
 70
     0
 10
-329.5000072665828
 20
87.58431352478968
 30
0.0
  3
Koerper-Oberteil_101005614_flach__11
  1

  0
LINE
  5
23E
330
91
100
AcDbEntity
  8
0
  6
Continuous
 62
     7
100
AcDbLine
 10
-217.0000072665828
 20
92.08431352478968
 30
0.0
 11
-215.0000072665828
 21
92.08431352478968
 31
0.0
  0
LINE
  5
23F
330
91
100
AcDbEntity
  8
0
  6
Continuous
 62
     7
100
AcDbLine
 10
-215.0000072665828
 20
92.08431352478968
 30
0.0
 11
-214.519922280811
 21
92.08431352478968
 31
0.0
  0
LINE
  5
240
330
91
100
AcDbEntity
  8
0
  6
Continuous
 62
     7
100
AcDbLine
 10
-214.519922280811
 20
92.08431352478968
 30
0.0
 11
-212.519241197729
 21
92.08431352478968
 31
0.0
  0
LINE
  5
241
330
91
100
AcDbEntity
  8
0
  6
Continuous
 62
     7
100
AcDbLine
 10
-212.519241197729
 20
92.08431352478968
 30
0.0
 11
-212.5000072665828
 21
92.08431352478968
 31
0.0
  0
LINE
  5
242
330
91
100
AcDbEntity
  8
0
  6
Continuous
 62
     7
100
AcDbLine
 10
-214.519922280811
 20
87.58431352478968
 30
0.0
 11
-212.519241197729
 21
87.58431352478968
 31
0.0
  0
LINE
  5
243
330
91
100
AcDbEntity
  8
0
  6
Continuous
 62
     7
100
AcDbLine
 10
-212.519241197729
 20
87.58431352478968
 30
0.0
 11
-212.5000072665828
 21
87.58431352478968
 31
0.0
  0
LINE
  5
244
330
91
100
AcDbEntity
  8
0
  6
Continuous
 62
     7
100
AcDbLine
 10
-214.519922280811
 20
87.58431352478968
 30
0.0
 11
-214.519922280811
 21
92.08431352478968
 31
0.0
  0
LINE
  5
245
330
91
100
AcDbEntity
  8
0
  6
Continuous
 62
     7
100
AcDbLine
 10
-212.519241197729
 20
87.58431352478968
 30
0.0
 11
-212.519241197729
 21
92.08431352478968
 31
0.0
  0
LINE
  5
246
330
91
100
AcDbEntity
  8
0
  6
Continuous
 62
     7
100
AcDbLine
 10
-212.5000072665828
 20
87.58431352478968
 30
0.0
 11
-212.5000072665828
 21
92.08431352478968
 31
0.0
  0
LINE
  5
247
330
91
100
AcDbEntity
  8
0
  6
Continuous
 62
     7
100
AcDbLine
 10
-269.5000072665825
 20
89.58431352478968
 30
0.0
 11
-269.5000072665825
 21
92.08431352478968
 31
0.0
  0
LINE
  5
248
330
91
100
AcDbEntity
  8
0
  6
Continuous
 62
     7
100
AcDbLine
 10
-269.5000072665825
 20
87.58431352478968
 30
0.0
 11
-269.5000072665825
 21
89.58431352478968
 31
0.0
  0
LINE
  5
249
330
91
100
AcDbEntity
  8
0
  6
Continuous
 62
     7
100
AcDbLine
 10
-230.0018959993711
 20
92.08431352478968
 30
0.0
 11
-228.5872008385327
 21
92.08431352478968
 31
0.0
  0
LINE
  5
24A
330
91
100
AcDbEntity
  8
0
  6
Continuous
 62
     7
100
AcDbLine
 10
-232.1232163429306
 20
92.08431352478968
 30
0.0
 11
-230.7085211820918
 21
92.08431352478968
 31
0.0
  0
LINE
  5
24B
330
91
100
AcDbEntity
  8
0
  6
Continuous
 62
     7
100
AcDbLine
 10
-230.7085211820918
 20
92.08431352478968
 30
0.0
 11
-230.0018959993711
 21
92.08431352478968
 31
0.0
  0
LINE
  5
24C
330
91
100
AcDbEntity
  8
0
  6
Continuous
 62
     7
100
AcDbLine
 10
-228.5872008385327
 20
92.08431352478968
 30
0.0
 11
-217.0000072665828
 21
92.08431352478968
 31
0.0
  0
LINE
  5
24D
330
91
100
AcDbEntity
  8
0
  6
Continuous
 62
     7
100
AcDbLine
 10
-269.5000072665825
 20
92.08431352478968
 30
0.0
 11
-232.1232163429306
 21
92.08431352478968
 31
0.0
  0
LINE
  5
24E
330
91
100
AcDbEntity
  8
0
  6
Continuous
 62
     7
100
AcDbLine
 10
-272.5000072665825
 20
92.08431352478968
 30
0.0
 11
-269.5000072665825
 21
92.08431352478968
 31
0.0
  0
LINE
  5
24F
330
91
100
AcDbEntity
  8
0
  6
Continuous
 62
     7
100
AcDbLine
 10
-309.8767981902346
 20
92.08431352478968
 30
0.0
 11
-272.5000072665825
 21
92.08431352478968
 31
0.0
  0
LINE
  5
250
330
91
100
AcDbEntity
  8
0
  6
Continuous
 62
     7
100
AcDbLine
 10
-311.2914933510735
 20
92.08431352478968
 30
0.0
 11
-309.8767981902346
 21
92.08431352478968
 31
0.0
  0
LINE
  5
251
330
91
100
AcDbEntity
  8
0
  6
Continuous
 62
     7
100
AcDbLine
 10
-311.9981185337942
 20
92.08431352478968
 30
0.0
 11
-311.2914933510735
 21
92.08431352478968
 31
0.0
  0
LINE
  5
252
330
91
100
AcDbEntity
  8
0
  6
Continuous
 62
     7
100
AcDbLine
 10
-313.4128136946338
 20
92.08431352478968
 30
0.0
 11
-311.9981185337942
 21
92.08431352478968
 31
0.0
  0
LINE
  5
253
330
91
100
AcDbEntity
  8
0
  6
Continuous
 62
     7
100
AcDbLine
 10
-230.7085211820918
 20
87.58431352478968
 30
0.0
 11
-230.7085211820918
 21
92.08431352478968
 31
0.0
  0
LINE
  5
254
330
91
100
AcDbEntity
  8
0
  6
Continuous
 62
     7
100
AcDbLine
 10
-232.1232163429306
 20
87.58431352478968
 30
0.0
 11
-232.1232163429306
 21
92.08431352478968
 31
0.0
  0
LINE
  5
255
330
91
100
AcDbEntity
  8
0
  6
Continuous
 62
     7
100
AcDbLine
 10
-232.1232163429306
 20
87.58431352478968
 30
0.0
 11
-230.7085211820918
 21
87.58431352478968
 31
0.0
  0
LINE
  5
256
330
91
100
AcDbEntity
  8
0
  6
Continuous
 62
     7
100
AcDbLine
 10
-228.5872008385327
 20
87.58431352478968
 30
0.0
 11
-214.519922280811
 21
87.58431352478968
 31
0.0
  0
LINE
  5
257
330
91
100
AcDbEntity
  8
0
  6
Continuous
 62
     7
100
AcDbLine
 10
-230.7085211820918
 20
87.58431352478968
 30
0.0
 11
-228.5872008385327
 21
87.58431352478968
 31
0.0
  0
LINE
  5
258
330
91
100
AcDbEntity
  8
0
  6
Continuous
 62
     7
100
AcDbLine
 10
-228.5872008385327
 20
87.58431352478968
 30
0.0
 11
-228.5872008385327
 21
92.08431352478968
 31
0.0
  0
LINE
  5
259
330
91
100
AcDbEntity
  8
0
  6
Continuous
 62
     7
100
AcDbLine
 10
-272.5000072665825
 20
87.58431352478968
 30
0.0
 11
-272.5000072665825
 21
92.08431352478968
 31
0.0
  0
LINE
  5
25A
330
91
100
AcDbEntity
  8
0
  6
Continuous
 62
     7
100
AcDbLine
 10
-311.2914933510735
 20
87.58431352478968
 30
0.0
 11
-311.2914933510735
 21
92.08431352478968
 31
0.0
  0
LINE
  5
25B
330
91
100
AcDbEntity
  8
0
  6
Continuous
 62
     7
100
AcDbLine
 10
-309.8767981902346
 20
87.58431352478968
 30
0.0
 11
-309.8767981902346
 21
92.08431352478968
 31
0.0
  0
LINE
  5
25C
330
91
100
AcDbEntity
  8
0
  6
Continuous
 62
     7
100
AcDbLine
 10
-313.4128136946338
 20
87.58431352478968
 30
0.0
 11
-311.2914933510735
 21
87.58431352478968
 31
0.0
  0
LINE
  5
25D
330
91
100
AcDbEntity
  8
0
  6
Continuous
 62
     7
100
AcDbLine
 10
-313.4128136946338
 20
87.58431352478968
 30
0.0
 11
-313.4128136946338
 21
92.08431352478968
 31
0.0
  0
LINE
  5
25E
330
91
100
AcDbEntity
  8
0
  6
Continuous
 62
     7
100
AcDbLine
 10
-311.2914933510735
 20
87.58431352478968
 30
0.0
 11
-309.8767981902346
 21
87.58431352478968
 31
0.0
  0
LINE
  5
25F
330
91
100
AcDbEntity
  8
0
  6
Continuous
 62
     7
100
AcDbLine
 10
-309.8767981902346
 20
87.58431352478968
 30
0.0
 11
-272.5000072665825
 21
87.58431352478968
 31
0.0
  0
LINE
  5
260
330
91
100
AcDbEntity
  8
0
  6
Continuous
 62
     7
100
AcDbLine
 10
-269.5000072665825
 20
87.58431352478968
 30
0.0
 11
-232.1232163429306
 21
87.58431352478968
 31
0.0
  0
LINE
  5
261
330
91
100
AcDbEntity
  8
0
  6
Continuous
 62
     7
100
AcDbLine
 10
-272.5000072665825
 20
87.58431352478968
 30
0.0
 11
-269.5000072665825
 21
87.58431352478968
 31
0.0
  0
LINE
  5
262
330
91
100
AcDbEntity
  8
0
  6
Continuous
 62
     7
100
AcDbLine
 10
-325.0000072665828
 20
92.08431352478968
 30
0.0
 11
-313.4128136946338
 21
92.08431352478968
 31
0.0
  0
LINE
  5
263
102
{ACAD_REACTORS
330
272
330
272
102
}
330
91
100
AcDbEntity
  8
0
  6
Continuous
 62
     7
100
AcDbLine
 10
-325.0000072665828
 20
96.08431352478968
 30
0.0
 11
-320.5000072665828
 21
96.08431352478968
 31
0.0
  0
LINE
  5
264
102
{ACAD_REACTORS
330
272
330
272
102
}
330
91
100
AcDbEntity
  8
0
  6
Continuous
 62
     7
100
AcDbLine
 10
-325.0000072665828
 20
94.37910207344837
 30
0.0
 11
-325.0000072665828
 21
96.08431352478968
 31
0.0
  0
LINE
  5
265
102
{ACAD_REACTORS
330
272
330
272
102
}
330
91
100
AcDbEntity
  8
0
  6
Continuous
 62
     7
100
AcDbLine
 10
-320.5000072665828
 20
94.89215434781016
 30
0.0
 11
-320.5000072665828
 21
96.08431352478968
 31
0.0
  0
LINE
  5
266
330
91
100
AcDbEntity
  8
0
  6
Continuous
 62
     7
100
AcDbLine
 10
-327.0000072665828
 20
92.08431352478968
 30
0.0
 11
-325.0000072665828
 21
92.08431352478968
 31
0.0
  0
LINE
  5
267
330
91
100
AcDbEntity
  8
0
  6
Continuous
 62
     7
100
AcDbLine
 10
-327.4800922523546
 20
92.08431352478968
 30
0.0
 11
-327.0000072665828
 21
92.08431352478968
 31
0.0
  0
LINE
  5
268
330
91
100
AcDbEntity
  8
0
  6
Continuous
 62
     7
100
AcDbLine
 10
-327.4800922523546
 20
87.58431352478968
 30
0.0
 11
-327.4800922523546
 21
92.08431352478968
 31
0.0
  0
LINE
  5
269
330
91
100
AcDbEntity
  8
0
  6
Continuous
 62
     7
100
AcDbLine
 10
-327.4800922523546
 20
87.58431352478968
 30
0.0
 11
-313.4128136946338
 21
87.58431352478968
 31
0.0
  0
LINE
  5
26A
330
91
100
AcDbEntity
  8
0
  6
Continuous
 62
     7
100
AcDbLine
 10
-329.4807733354365
 20
87.58431352478968
 30
0.0
 11
-327.4800922523546
 21
87.58431352478968
 31
0.0
  0
LINE
  5
26B
330
91
100
AcDbEntity
  8
0
  6
Continuous
 62
     7
100
AcDbLine
 10
-329.4807733354365
 20
92.08431352478968
 30
0.0
 11
-327.4800922523546
 21
92.08431352478968
 31
0.0
  0
LINE
  5
26C
330
91
100
AcDbEntity
  8
0
  6
Continuous
 62
     7
100
AcDbLine
 10
-329.4807733354365
 20
87.58431352478968
 30
0.0
 11
-329.4807733354365
 21
92.08431352478968
 31
0.0
  0
LINE
  5
26D
330
91
100
AcDbEntity
  8
0
  6
Continuous
 62
     7
100
AcDbLine
 10
-329.5000072665828
 20
87.58431352478968
 30
0.0
 11
-329.4807733354365
 21
87.58431352478968
 31
0.0
  0
LINE
  5
26E
330
91
100
AcDbEntity
  8
0
  6
Continuous
 62
     7
100
AcDbLine
 10
-329.5000072665828
 20
92.08431352478968
 30
0.0
 11
-329.4807733354365
 21
92.08431352478968
 31
0.0
  0
LINE
  5
26F
330
91
100
AcDbEntity
  8
0
  6
Continuous
 62
     7
100
AcDbLine
 10
-329.5000072665828
 20
87.58431352478968
 30
0.0
 11
-329.5000072665828
 21
92.08431352478968
 31
0.0
  0
ARC
  5
270
102
{ACAD_REACTORS
330
272
330
272
102
}
330
91
100
AcDbEntity
  8
0
  6
Continuous
 62
     2
100
AcDbCircle
 10
-323.4401812204058
 20
100.6891688485046
 30
0.0
 40
6.500000000000058
100
AcDbArc
 50
256.115039153754
 51
296.8935590564213
  0
ARC
  5
271
330
91
100
AcDbEntity
  8
0
  6
Continuous
 62
     2
100
AcDbCircle
 10
-323.4401812204058
 20
100.6891688485046
 30
0.0
 40
6.500000000000042
100
AcDbArc
 50
296.8935590564213
 51
314.8919276274524
  0
HATCH
  5
272
330
91
100
AcDbEntity
  8
0
  6
Continuous
 62
     3
100
AcDbHatch
 10
0.0
 20
0.0
 30
0.0
210
0.0
220
0.0
230
1.0
  2
_USER
 70
     0
 71
     1
 91
        1
 92
        1
 93
        4
 72
     1
 10
-325.0000072665828
 20
96.08431352478968
 11
-325.0000072665828
 21
94.37910207344837
 72
     2
 10
-323.4401812204058
 20
100.6891688485046
 40
6.500000000000058
 50
256.115039153754
 51
296.8935590564213
 73
     1
 72
     1
 10
-320.5000072665828
 20
94.89215434781016
 11
-320.5000072665828
 21
96.08431352478968
 72
     1
 10
-320.5000072665828
 20
96.08431352478968
 11
-325.0000072665828
 21
96.08431352478968
 97
        4
330
265
330
270
330
264
330
263
 75
     1
 76
     0
 52
135.0
 41
5.0
 77
     0
 78
     1
 53
135.0
 43
0.0
 44
0.0
 45
-3.535533905932738
 46
-3.535533905932737
 79
     0
 98
        1
 10
0.0
 20
0.0
  0
ENDBLK
  5
93
330
91
100
AcDbEntity
  8
0
100
AcDbBlockEnd
  0
BLOCK
  5
97
330
94
100
AcDbEntity
  8
0
100
AcDbBlockBegin
  2
188885620__12
 70
     0
 10
-329.5000072665828
 20
39.58431352478968
 30
0.0
  3
188885620__12
  1

  0
INSERT
  5
95
330
94
100
AcDbEntity
  8
0
100
AcDbBlockReference
  2
Koerper_101005619__10
 10
-325.0000072665828
 20
39.58431352478968
 30
0.0
  0
INSERT
  5
96
330
94
100
AcDbEntity
  8
0
100
AcDbBlockReference
  2
Koerper-Oberteil_101005614_flach__11
 10
-329.5000072665828
 20
87.58431352478968
 30
0.0
  0
ENDBLK
  5
98
330
94
100
AcDbEntity
  8
0
100
AcDbBlockEnd
  0
BLOCK
  5
9C
330
99
100
AcDbEntity
  8
0
100
AcDbBlockBegin
  2
HL521-Koerper__13
 70
     0
 10
-329.5000072665828
 20
39.58431352478968
 30
0.0
  3
HL521-Koerper__13
  1

  0
INSERT
  5
9A
330
99
100
AcDbEntity
  8
0
100
AcDbBlockReference
  2
Abgangsbogen_306055082__9
 10
-188.5000072665827
 20
41.58431352478968
 30
0.0
  0
INSERT
  5
9B
330
99
100
AcDbEntity
  8
0
100
AcDbBlockReference
  2
188885620__12
 10
-329.5000072665828
 20
39.58431352478968
 30
0.0
  0
ENDBLK
  5
9D
330
99
100
AcDbEntity
  8
0
100
AcDbBlockEnd
  0
BLOCK
  5
9F
330
9E
100
AcDbEntity
  8
0
100
AcDbBlockBegin
  2
01104D-Ventildichtung
 70
     0
 10
-327.0000072665828
 20
92.08431352478968
 30
0.0
  3
01104D-Ventildichtung
  1

  0
LINE
  5
273
330
9E
100
AcDbEntity
  8
0
  6
Continuous
 62
     7
100
AcDbLine
 10
-217.0000072665828
 20
92.08431352478968
 30
0.0
 11
-215.0000072665828
 21
92.08431352478968
 31
0.0
  0
LINE
  5
274
330
9E
100
AcDbEntity
  8
0
  6
Continuous
 62
     7
100
AcDbLine
 10
-230.0018959993711
 20
92.08431352478968
 30
0.0
 11
-228.5872008385327
 21
92.08431352478968
 31
0.0
  0
LINE
  5
275
330
9E
100
AcDbEntity
  8
0
  6
Continuous
 62
     7
100
AcDbLine
 10
-232.1232163429306
 20
92.08431352478968
 30
0.0
 11
-230.7085211820918
 21
92.08431352478968
 31
0.0
  0
LINE
  5
276
330
9E
100
AcDbEntity
  8
0
  6
Continuous
 62
     7
100
AcDbLine
 10
-230.7085211820918
 20
92.08431352478968
 30
0.0
 11
-230.0018959993711
 21
92.08431352478968
 31
0.0
  0
LINE
  5
277
330
9E
100
AcDbEntity
  8
0
  6
Continuous
 62
     7
100
AcDbLine
 10
-215.0000072665828
 20
103.0843135247897
 30
0.0
 11
-228.0000072665828
 21
103.0843135247897
 31
0.0
  0
LINE
  5
278
330
9E
100
AcDbEntity
  8
0
  6
Continuous
 62
     7
100
AcDbLine
 10
-228.5872008385327
 20
92.08431352478968
 30
0.0
 11
-217.0000072665828
 21
92.08431352478968
 31
0.0
  0
LINE
  5
279
330
9E
100
AcDbEntity
  8
0
  6
Continuous
 62
     7
100
AcDbLine
 10
-269.5000072665825
 20
92.08431352478968
 30
0.0
 11
-232.1232163429306
 21
92.08431352478968
 31
0.0
  0
LINE
  5
27A
330
9E
100
AcDbEntity
  8
0
  6
Continuous
 62
     7
100
AcDbLine
 10
-215.0000072665828
 20
92.08431352478968
 30
0.0
 11
-215.0000072665828
 21
103.0843135247897
 31
0.0
  0
LINE
  5
27B
330
9E
100
AcDbEntity
  8
0
  6
Continuous
 62
     7
100
AcDbLine
 10
-272.5000072665825
 20
92.08431352478968
 30
0.0
 11
-269.5000072665825
 21
92.08431352478968
 31
0.0
  0
LINE
  5
27C
330
9E
100
AcDbEntity
  8
0
  6
Continuous
 62
     7
100
AcDbLine
 10
-309.8767981902346
 20
92.08431352478968
 30
0.0
 11
-272.5000072665825
 21
92.08431352478968
 31
0.0
  0
LINE
  5
27D
330
9E
100
AcDbEntity
  8
0
  6
Continuous
 62
     7
100
AcDbLine
 10
-311.2914933510735
 20
92.08431352478968
 30
0.0
 11
-309.8767981902346
 21
92.08431352478968
 31
0.0
  0
LINE
  5
27E
330
9E
100
AcDbEntity
  8
0
  6
Continuous
 62
     7
100
AcDbLine
 10
-311.9981185337942
 20
92.08431352478968
 30
0.0
 11
-311.2914933510735
 21
92.08431352478968
 31
0.0
  0
LINE
  5
27F
330
9E
100
AcDbEntity
  8
0
  6
Continuous
 62
     7
100
AcDbLine
 10
-313.4128136946338
 20
92.08431352478968
 30
0.0
 11
-311.9981185337942
 21
92.08431352478968
 31
0.0
  0
LINE
  5
280
330
9E
100
AcDbEntity
  8
0
  6
Continuous
 62
     7
100
AcDbLine
 10
-325.0000072665828
 20
92.08431352478968
 30
0.0
 11
-313.4128136946338
 21
92.08431352478968
 31
0.0
  0
LINE
  5
281
102
{ACAD_REACTORS
330
29E
330
29E
102
}
330
9E
100
AcDbEntity
  8
0
  6
Continuous
 62
     7
100
AcDbLine
 10
-322.5000072665828
 20
98.58431352478968
 30
0.0
 11
-327.0000072665828
 21
103.0843135247897
 31
0.0
  0
LINE
  5
282
102
{ACAD_REACTORS
330
29E
330
29E
102
}
330
9E
100
AcDbEntity
  8
0
  6
Continuous
 62
     7
100
AcDbLine
 10
-325.0000072665828
 20
96.08431352478968
 30
0.0
 11
-320.5000072665828
 21
96.08431352478968
 31
0.0
  0
LINE
  5
283
102
{ACAD_REACTORS
330
29E
330
29E
102
}
330
9E
100
AcDbEntity
  8
0
  6
Continuous
 62
     7
100
AcDbLine
 10
-325.0000072665828
 20
94.37910207344837
 30
0.0
 11
-325.0000072665828
 21
96.08431352478968
 31
0.0
  0
LINE
  5
284
102
{ACAD_REACTORS
330
29E
330
29E
102
}
330
9E
100
AcDbEntity
  8
0
  6
Continuous
 62
     7
100
AcDbLine
 10
-320.5000072665828
 20
94.89215434781016
 30
0.0
 11
-320.5000072665828
 21
96.08431352478968
 31
0.0
  0
LINE
  5
285
330
9E
100
AcDbEntity
  8
0
  6
Continuous
 62
     7
100
AcDbLine
 10
-327.0000072665828
 20
92.08431352478968
 30
0.0
 11
-325.0000072665828
 21
92.08431352478968
 31
0.0
  0
LINE
  5
286
330
9E
100
AcDbEntity
  8
0
  6
Continuous
 62
     7
100
AcDbLine
 10
-327.0000072665828
 20
92.08431352478968
 30
0.0
 11
-327.0000072665828
 21
95.25063609407897
 31
0.0
  0
LINE
  5
287
102
{ACAD_REACTORS
330
29E
330
29E
102
}
330
9E
100
AcDbEntity
  8
0
  6
Continuous
 62
     7
100
AcDbLine
 10
-327.0000072665828
 20
95.25063609407897
 30
0.0
 11
-327.0000072665828
 21
103.0843135247897
 31
0.0
  0
LINE
  5
288
102
{ACAD_REACTORS
330
29E
330
29E
102
}
330
9E
100
AcDbEntity
  8
0
  6
Continuous
 62
     7
100
AcDbLine
 10
-320.8867592665828
 20
99.58431352478956
 30
0.0
 11
-321.4641092665828
 21
98.58431352478968
 31
0.0
  0
LINE
  5
289
102
{ACAD_REACTORS
330
29E
330
29E
102
}
330
9E
100
AcDbEntity
  8
0
  6
Continuous
 62
     7
100
AcDbLine
 10
-322.5000072665828
 20
98.58431352478968
 30
0.0
 11
-321.4641092665828
 21
98.58431352478968
 31
0.0
  0
LINE
  5
28A
330
9E
100
AcDbEntity
  8
0
  6
Continuous
 62
     7
100
AcDbLine
 10
-228.0000072665828
 20
103.0843135247897
 30
0.0
 11
-317.3975591091313
 21
103.0843135247897
 31
0.0
  0
LINE
  5
28B
330
9E
100
AcDbEntity
  8
0
  6
Continuous
 62
     7
100
AcDbLine
 10
-318.5773572665828
 20
99.58431352478956
 30
0.0
 11
-319.7320582665827
 21
99.58431352478956
 31
0.0
  0
LINE
  5
28C
330
9E
100
AcDbEntity
  8
0
  6
Continuous
 62
     7
100
AcDbLine
 10
-317.0347698586228
 20
99.58431352478968
 30
0.0
 11
-318.5773572665828
 21
99.58431352478956
 31
0.0
  0
LINE
  5
28D
102
{ACAD_REACTORS
330
29E
330
29E
102
}
330
9E
100
AcDbEntity
  8
0
  6
Continuous
 62
     7
100
AcDbLine
 10
-318.5773572665828
 20
99.58431352478956
 30
0.0
 11
-319.1547082665828
 21
98.58431352478968
 31
0.0
  0
LINE
  5
28E
330
9E
100
AcDbEntity
  8
0
  6
Continuous
 62
     7
100
AcDbLine
 10
-319.7320582665827
 20
99.58431352478956
 30
0.0
 11
-320.8867592665828
 21
99.58431352478956
 31
0.0
  0
LINE
  5
28F
330
9E
100
AcDbEntity
  8
0
  6
Continuous
 62
     7
100
AcDbLine
 10
-317.2904182927614
 20
98.58431352478968
 30
0.0
 11
-318.0000072665828
 21
98.58431352478968
 31
0.0
  0
LINE
  5
290
102
{ACAD_REACTORS
330
29E
330
29E
102
}
330
9E
100
AcDbEntity
  8
0
  6
Continuous
 62
     7
100
AcDbLine
 10
-318.0000072665828
 20
98.58431352478968
 30
0.0
 11
-318.5773572665828
 21
99.58431352478956
 31
0.0
  0
LINE
  5
291
102
{ACAD_REACTORS
330
29E
330
29E
102
}
330
9E
100
AcDbEntity
  8
0
  6
Continuous
 62
     7
100
AcDbLine
 10
-318.0000072665828
 20
97.13185141086348
 30
0.0
 11
-318.0000072665828
 21
98.58431352478968
 31
0.0
  0
LINE
  5
292
102
{ACAD_REACTORS
330
29E
330
29E
102
}
330
9E
100
AcDbEntity
  8
0
  6
Continuous
 62
     7
100
AcDbLine
 10
-320.3094082665828
 20
98.58431352478968
 30
0.0
 11
-320.8867592665828
 21
99.58431352478956
 31
0.0
  0
LINE
  5
293
102
{ACAD_REACTORS
330
29E
330
29E
102
}
330
9E
100
AcDbEntity
  8
0
  6
Continuous
 62
     7
100
AcDbLine
 10
-319.1547082665828
 20
98.58431352478968
 30
0.0
 11
-319.7320582665827
 21
99.58431352478956
 31
0.0
  0
LINE
  5
294
102
{ACAD_REACTORS
330
29E
330
29E
102
}
330
9E
100
AcDbEntity
  8
0
  6
Continuous
 62
     7
100
AcDbLine
 10
-319.7320582665827
 20
99.58431352478956
 30
0.0
 11
-320.3094082665828
 21
98.58431352478968
 31
0.0
  0
LINE
  5
295
330
9E
100
AcDbEntity
  8
0
  6
Continuous
 62
     7
100
AcDbLine
 10
-317.3975591091313
 20
103.0843135247897
 30
0.0
 11
-327.0000072665828
 21
103.0843135247897
 31
0.0
  0
LINE
  5
296
330
9E
100
AcDbEntity
  8
1
  6
DOT_CENTER
 62
     2
100
AcDbLine
 10
-271.0000072665831
 20
53.08431352478951
 30
0.0
 11
-271.0000072665831
 21
112.3843135247895
 31
0.0
  0
ARC
  5
297
330
9E
100
AcDbEntity
  8
0
  6
Continuous
 62
     2
100
AcDbCircle
 10
-323.4401812204058
 20
100.6891688485046
 30
0.0
 40
6.500000000000058
100
AcDbArc
 50
256.115039153754
 51
296.8935590564213
  0
ARC
  5
298
330
9E
100
AcDbEntity
  8
0
  6
Continuous
 62
     2
100
AcDbCircle
 10
-323.4401812204058
 20
100.6891688485046
 30
0.0
 40
6.499999999999961
100
AcDbArc
 50
326.8194180076894
 51
341.1056636951865
  0
ARC
  5
299
102
{ACAD_REACTORS
330
29E
330
29E
102
}
330
9E
100
AcDbEntity
  8
0
  6
Continuous
 62
     2
100
AcDbCircle
 10
-323.4401812204058
 20
100.6891688485046
 30
0.0
 40
6.500000000000052
100
AcDbArc
 50
236.7929934182852
 51
256.115039153754
  0
ARC
  5
29A
102
{ACAD_REACTORS
330
29E
330
29E
102
}
330
9E
100
AcDbEntity
  8
0
  6
Continuous
 62
     2
100
AcDbCircle
 10
-323.4401812204058
 20
100.6891688485046
 30
0.0
 40
6.500000000000042
100
AcDbArc
 50
296.8935590564213
 51
314.8919276274524
  0
ARC
  5
29B
330
9E
100
AcDbEntity
  8
0
  6
Continuous
 62
     2
100
AcDbCircle
 10
-323.4401812204058
 20
100.6891688485046
 30
0.0
 40
6.500000000000019
100
AcDbArc
 50
350.2134750610579
 51
21.62213942960561
  0
ARC
  5
29C
102
{ACAD_REACTORS
330
29E
330
29E
102
}
330
9E
100
AcDbEntity
  8
0
  6
Continuous
 62
     2
100
AcDbCircle
 10
-323.4401812204058
 20
100.6891688485046
 30
0.0
 40
6.499999999999944
100
AcDbArc
 50
314.8919276274524
 51
326.8194180076894
  0
ARC
  5
29D
330
9E
100
AcDbEntity
  8
0
  6
Continuous
 62
     2
100
AcDbCircle
 10
-323.4401812204058
 20
100.6891688485046
 30
0.0
 40
6.500000000000051
100
AcDbArc
 50
341.1056636951865
 51
350.2134750610579
  0
HATCH
  5
29E
330
9E
100
AcDbEntity
  8
0
  6
Continuous
 62
     3
100
AcDbHatch
 10
0.0
 20
0.0
 30
0.0
210
0.0
220
0.0
230
1.0
  2
_USER
 70
     0
 71
     1
 91
        1
 92
        1
 93
       16
 72
     1
 10
-320.8867592665828
 20
99.58431352478956
 11
-321.4641092665828
 21
98.58431352478968
 72
     1
 10
-321.4641092665828
 20
98.58431352478968
 11
-322.5000072665828
 21
98.58431352478968
 72
     1
 10
-322.5000072665828
 20
98.58431352478968
 11
-327.0000072665828
 21
103.0843135247897
 72
     1
 10
-327.0000072665828
 20
103.0843135247897
 11
-327.0000072665828
 21
95.25063609407897
 72
     2
 10
-323.4401812204058
 20
100.6891688485046
 40
6.500000000000052
 50
236.7929934182852
 51
256.115039153754
 73
     1
 72
     1
 10
-325.0000072665828
 20
94.37910207344837
 11
-325.0000072665828
 21
96.08431352478968
 72
     1
 10
-325.0000072665828
 20
96.08431352478968
 11
-320.5000072665828
 21
96.08431352478968
 72
     1
 10
-320.5000072665828
 20
96.08431352478968
 11
-320.5000072665828
 21
94.89215434781016
 72
     2
 10
-323.4401812204058
 20
100.6891688485046
 40
6.500000000000042
 50
296.8935590564213
 51
314.8919276274524
 73
     1
 72
     2
 10
-323.4401812204058
 20
100.6891688485046
 40
6.499999999999944
 50
314.8919276274524
 51
326.8194180076894
 73
     1
 72
     1
 10
-318.0000072665828
 20
97.13185141086348
 11
-318.0000072665828
 21
98.58431352478968
 72
     1
 10
-318.0000072665828
 20
98.58431352478968
 11
-318.5773572665828
 21
99.58431352478956
 72
     1
 10
-318.5773572665828
 20
99.58431352478956
 11
-319.1547082665828
 21
98.58431352478968
 72
     1
 10
-319.1547082665828
 20
98.58431352478968
 11
-319.7320582665827
 21
99.58431352478956
 72
     1
 10
-319.7320582665827
 20
99.58431352478956
 11
-320.3094082665828
 21
98.58431352478968
 72
     1
 10
-320.3094082665828
 20
98.58431352478968
 11
-320.8867592665828
 21
99.58431352478956
 97
       16
330
294
330
293
330
28D
330
290
330
291
330
29C
330
29A
330
284
330
282
330
283
330
299
330
287
330
281
330
289
330
288
330
292
 75
     1
 76
     0
 52
45.0
 41
5.0
 77
     0
 78
     1
 53
45.0
 43
0.0
 44
0.0
 45
-3.535533905932737
 46
3.535533905932738
 79
     0
 98
        1
 10
0.0
 20
0.0
  0
ENDBLK
  5
A0
330
9E
100
AcDbEntity
  8
0
100
AcDbBlockEnd
  0
BLOCK
  5
A2
330
A1
100
AcDbEntity
  8
0
100
AcDbBlockBegin
  2
0521-4E_Zwischenring
 70
     0
 10
-325.7500072665828
 20
104.5983695247897
 30
0.0
  3
0521-4E_Zwischenring
  1

  0
LINE
  5
29F
330
A1
100
AcDbEntity
  8
0
  6
Continuous
 62
     7
100
AcDbLine
 10
-225.5000072665828
 20
104.5983695247897
 30
0.0
 11
-216.2500072665828
 21
109.9388595147937
 31
0.0
  0
LINE
  5
2A0
330
A1
100
AcDbEntity
  8
0
  6
Continuous
 62
     7
100
AcDbLine
 10
-228.0000072665828
 20
104.5983695247897
 30
0.0
 11
-225.5000072665828
 21
104.5983695247897
 31
0.0
  0
LINE
  5
2A1
330
A1
100
AcDbEntity
  8
0
  6
Continuous
 62
     7
100
AcDbLine
 10
-216.2500072665828
 20
110.0843075247897
 30
0.0
 11
-228.0000072665828
 21
110.0843075247897
 31
0.0
  0
LINE
  5
2A2
330
A1
100
AcDbEntity
  8
0
  6
Continuous
 62
     7
100
AcDbLine
 10
-216.2500072665828
 20
109.9388595147937
 30
0.0
 11
-271.0000072665828
 21
109.9388595147937
 31
0.0
  0
LINE
  5
2A3
330
A1
100
AcDbEntity
  8
0
  6
Continuous
 62
     7
100
AcDbLine
 10
-216.2500072665828
 20
110.0843075247897
 30
0.0
 11
-216.2500072665828
 21
109.9388595147937
 31
0.0
  0
LINE
  5
2A4
330
A1
100
AcDbEntity
  8
0
  6
Continuous
 62
     7
100
AcDbLine
 10
-228.0000072665828
 20
110.0843075247897
 30
0.0
 11
-271.0000072665828
 21
110.0843075247897
 31
0.0
  0
LINE
  5
2A5
330
A1
100
AcDbEntity
  8
0
  6
Continuous
 62
     7
100
AcDbLine
 10
-271.0000072665828
 20
110.0843075247897
 30
0.0
 11
-314.0000072665828
 21
110.0843075247897
 31
0.0
  0
LINE
  5
2A6
330
A1
100
AcDbEntity
  8
0
  6
Continuous
 62
     7
100
AcDbLine
 10
-316.5000072665828
 20
104.5983695247897
 30
0.0
 11
-228.0000072665828
 21
104.5983695247897
 31
0.0
  0
LINE
  5
2A7
330
A1
100
AcDbEntity
  8
0
  6
Continuous
 62
     7
100
AcDbLine
 10
-316.5000072665828
 20
104.5983695247897
 30
0.0
 11
-325.7500072665828
 21
109.9388595147937
 31
0.0
  0
LINE
  5
2A8
330
A1
100
AcDbEntity
  8
0
  6
Continuous
 62
     7
100
AcDbLine
 10
-271.0000072665828
 20
109.9388595147937
 30
0.0
 11
-325.7500072665828
 21
109.9388595147937
 31
0.0
  0
LINE
  5
2A9
330
A1
100
AcDbEntity
  8
0
  6
Continuous
 62
     7
100
AcDbLine
 10
-314.0000072665828
 20
110.0843075247897
 30
0.0
 11
-325.7500072665828
 21
110.0843075247897
 31
0.0
  0
LINE
  5
2AA
330
A1
100
AcDbEntity
  8
0
  6
Continuous
 62
     7
100
AcDbLine
 10
-325.7500072665828
 20
110.0843075247897
 30
0.0
 11
-325.7500072665828
 21
109.9388595147937
 31
0.0
  0
ENDBLK
  5
A3
330
A1
100
AcDbEntity
  8
0
100
AcDbBlockEnd
  0
BLOCK
  5
A5
330
A4
100
AcDbEntity
  8
0
100
AcDbBlockBegin
  2
0521-1E_Einschraubventil-kurz
 70
     0
 10
-326.0000072665828
 20
87.58431352478968
 30
0.0
  3
0521-1E_Einschraubventil-kurz
  1

  0
LINE
  5
2AB
330
A4
100
AcDbEntity
  8
0
  6
Continuous
 62
     7
100
AcDbLine
 10
-269.5000072665825
 20
89.58431352478968
 30
0.0
 11
-269.5000072665825
 21
92.08431352478968
 31
0.0
  0
LINE
  5
2AC
330
A4
100
AcDbEntity
  8
0
  6
Continuous
 62
     7
100
AcDbLine
 10
-269.5000072665825
 20
87.58431352478968
 30
0.0
 11
-269.5000072665825
 21
89.58431352478968
 31
0.0
  0
LINE
  5
2AD
330
A4
100
AcDbEntity
  8
0
  6
Continuous
 62
     7
100
AcDbLine
 10
-216.2500072665828
 20
110.0843075247897
 30
0.0
 11
-228.0000072665828
 21
110.0843075247897
 31
0.0
  0
LINE
  5
2AE
330
A4
100
AcDbEntity
  8
0
  6
Continuous
 62
     7
100
AcDbLine
 10
-216.0000072665828
 20
110.0843075247897
 30
0.0
 11
-216.2500072665828
 21
110.0843075247897
 31
0.0
  0
LINE
  5
2AF
330
A4
100
AcDbEntity
  8
0
  6
Continuous
 62
     7
100
AcDbLine
 10
-228.0000072665828
 20
110.0843075247897
 30
0.0
 11
-271.0000072665828
 21
110.0843075247897
 31
0.0
  0
LINE
  5
2B0
330
A4
100
AcDbEntity
  8
0
  6
Continuous
 62
     7
100
AcDbLine
 10
-228.0000072665828
 20
104.5983695247897
 30
0.0
 11
-228.0000072665828
 21
103.0843135247897
 31
0.0
  0
LINE
  5
2B1
330
A4
100
AcDbEntity
  8
0
  6
Continuous
 62
     7
100
AcDbLine
 10
-314.0000072665828
 20
104.5983695247897
 30
0.0
 11
-314.0000072665828
 21
103.0843135247897
 31
0.0
  0
LINE
  5
2B2
330
A4
100
AcDbEntity
  8
0
  6
Continuous
 62
     7
100
AcDbLine
 10
-271.0000072665828
 20
110.0843075247897
 30
0.0
 11
-314.0000072665828
 21
110.0843075247897
 31
0.0
  0
LINE
  5
2B3
330
A4
100
AcDbEntity
  8
0
  6
Continuous
 62
     7
100
AcDbLine
 10
-272.5000072665825
 20
87.58431352478968
 30
0.0
 11
-272.5000072665825
 21
92.08431352478968
 31
0.0
  0
LINE
  5
2B4
330
A4
100
AcDbEntity
  8
0
  6
Continuous
 62
     7
100
AcDbLine
 10
-216.0000072665828
 20
111.0277975247897
 30
0.0
 11
-216.0000072665828
 21
110.0843075247897
 31
0.0
  0
LINE
  5
2B5
330
A4
100
AcDbEntity
  8
0
  6
Continuous
 62
     7
100
AcDbLine
 10
-325.7500072665828
 20
110.0843075247897
 30
0.0
 11
-326.0000072665828
 21
110.0843075247897
 31
0.0
  0
LINE
  5
2B6
330
A4
100
AcDbEntity
  8
0
  6
Continuous
 62
     7
100
AcDbLine
 10
-326.0000072665828
 20
111.0277975247897
 30
0.0
 11
-326.0000072665828
 21
110.0843075247897
 31
0.0
  0
LINE
  5
2B7
330
A4
100
AcDbEntity
  8
0
  6
Continuous
 62
     7
100
AcDbLine
 10
-314.0000072665828
 20
110.0843075247897
 30
0.0
 11
-325.7500072665828
 21
110.0843075247897
 31
0.0
  0
LINE
  5
2B8
330
A4
100
AcDbEntity
  8
0
  6
Continuous
 62
     7
100
AcDbLine
 10
-271.0000072665828
 20
111.0277975247897
 30
0.0
 11
-326.0000072665828
 21
111.0277975247897
 31
0.0
  0
LINE
  5
2B9
330
A4
100
AcDbEntity
  8
0
  6
Continuous
 62
     7
100
AcDbLine
 10
-216.0000072665828
 20
111.0277975247897
 30
0.0
 11
-271.0000072665828
 21
111.0277975247897
 31
0.0
  0
LINE
  5
2BA
330
A4
100
AcDbEntity
  8
0
  6
Continuous
 62
     7
100
AcDbLine
 10
-247.1548212552773
 20
112.5843135247897
 30
0.0
 11
-270.1221927210809
 21
112.5843135247897
 31
0.0
  0
LINE
  5
2BB
330
A4
100
AcDbEntity
  8
0
  6
Continuous
 62
     7
100
AcDbLine
 10
-308.0060511309785
 20
112.5843135247897
 30
0.0
 11
-313.6214428125866
 21
112.5843135247897
 31
0.0
  0
LINE
  5
2BC
330
A4
100
AcDbEntity
  8
0
  6
Continuous
 62
     7
100
AcDbLine
 10
-228.378571720579
 20
112.5843135247897
 30
0.0
 11
-233.9939634021878
 21
112.5843135247897
 31
0.0
  0
LINE
  5
2BD
330
A4
100
AcDbEntity
  8
0
  6
Continuous
 62
     7
100
AcDbLine
 10
-271.8778218120858
 20
112.5843135247897
 30
0.0
 11
-294.8451932778884
 21
112.5843135247897
 31
0.0
  0
LINE
  5
2BE
330
A4
100
AcDbEntity
  8
0
  6
Continuous
 62
     7
100
AcDbLine
 10
-296.0866105133863
 20
112.5843135247897
 30
0.0
 11
-300.5180863680535
 21
112.5843135247897
 31
0.0
  0
LINE
  5
2BF
330
A4
100
AcDbEntity
  8
0
  6
Continuous
 62
     7
100
AcDbLine
 10
-294.8451932778884
 20
112.5843135247897
 30
0.0
 11
-296.0866105133863
 21
112.5843135247897
 31
0.0
  0
LINE
  5
2C0
330
A4
100
AcDbEntity
  8
0
  6
Continuous
 62
     7
100
AcDbLine
 10
-241.481928165112
 20
112.5843135247897
 30
0.0
 11
-245.9134040197793
 21
112.5843135247897
 31
0.0
  0
LINE
  5
2C1
330
A4
100
AcDbEntity
  8
0
  6
Continuous
 62
     7
100
AcDbLine
 10
-245.9134040197793
 20
112.5843135247897
 30
0.0
 11
-247.1548212552773
 21
112.5843135247897
 31
0.0
  0
ARC
  5
2C2
330
A4
100
AcDbEntity
  8
0
  6
Continuous
 62
     7
100
AcDbCircle
 10
-313.621442721593
 20
62.58431353256452
 30
0.0
 40
50.00000000777256
100
AcDbArc
 50
90.00142883182936
 51
99.76600451621145
  0
ARC
  5
2C3
330
A4
100
AcDbEntity
  8
0
  6
Continuous
 62
     7
100
AcDbCircle
 10
-228.3785718115726
 20
62.58431353256452
 30
0.0
 40
50.00000000777257
100
AcDbArc
 50
80.23399548378842
 51
89.99857116817057
  0
ARC
  5
2C4
330
A4
100
AcDbEntity
  8
0
  6
Continuous
 62
     7
100
AcDbCircle
 10
-228.378571720579
 20
62.58431352478968
 30
0.0
 40
49.99999999999997
100
AcDbArc
 50
75.6661600022009
 51
80.23399558805963
  0
ARC
  5
2C5
330
A4
100
AcDbEntity
  8
0
  6
Continuous
 62
     7
100
AcDbCircle
 10
-313.6214428125866
 20
62.58431352478968
 30
0.0
 40
49.99999999999995
100
AcDbArc
 50
99.76600441194023
 51
104.3338399977991
  0
ENDBLK
  5
A6
330
A4
100
AcDbEntity
  8
0
100
AcDbBlockEnd
  0
BLOCK
  5
A8
330
A7
100
AcDbEntity
  8
0
100
AcDbBlockBegin
  2
101005625
 70
     0
 10
-325.4873330962363
 20
111.8597493381092
 30
0.0
  3
101005625
  1

  0
LINE
  5
2C6
330
A7
100
AcDbEntity
  8
0
  6
Continuous
 62
     7
100
AcDbLine
 10
-219.8973321055566
 20
111.8597493381092
 30
0.0
 11
-216.5126814369293
 21
118.7882178182936
 31
0.0
  0
LINE
  5
2C7
330
A7
100
AcDbEntity
  8
0
  6
Continuous
 62
     7
100
AcDbLine
 10
-235.4766588072121
 20
111.8599472789282
 30
0.0
 11
-233.168930578192
 21
118.7882178182936
 31
0.0
  0
LINE
  5
2C8
330
A7
100
AcDbEntity
  8
0
  6
Continuous
 62
     7
100
AcDbLine
 10
-271.8778218120858
 20
112.5843135247897
 30
0.0
 11
-271.9861113643374
 21
118.7882178182936
 31
0.0
  0
LINE
  5
2C9
330
A7
100
AcDbEntity
  8
0
  6
Continuous
 62
     7
100
AcDbLine
 10
-325.4873330962363
 20
118.7882178182936
 30
0.0
 11
-322.1026824276089
 21
111.8597493381092
 31
0.0
  0
LINE
  5
2CA
330
A7
100
AcDbEntity
  8
0
  6
Continuous
 62
     7
100
AcDbLine
 10
-270.1348365809341
 20
111.8599472789282
 30
0.0
 11
-271.8651779522324
 21
111.8599472789282
 31
0.0
  0
LINE
  5
2CB
330
A7
100
AcDbEntity
  8
0
  6
Continuous
 62
     7
100
AcDbLine
 10
-235.4766588072121
 20
111.8599472789282
 30
0.0
 11
-234.2531226897995
 21
111.8599472789282
 31
0.0
  0
LINE
  5
2CC
330
A7
100
AcDbEntity
  8
0
  6
Continuous
 62
     7
100
AcDbLine
 10
-306.5233557259537
 20
111.8599472789282
 30
0.0
 11
-307.7468918433657
 21
111.8599472789282
 31
0.0
  0
LINE
  5
2CD
330
A7
100
AcDbEntity
  8
0
  6
Continuous
 62
     7
100
AcDbLine
 10
-308.0060511309785
 20
112.5843135247897
 30
0.0
 11
-313.6214428125866
 21
112.5843135247897
 31
0.0
  0
LINE
  5
2CE
330
A7
100
AcDbEntity
  8
0
  6
Continuous
 62
     7
100
AcDbLine
 10
-228.378571720579
 20
112.5843135247897
 30
0.0
 11
-233.9939634021878
 21
112.5843135247897
 31
0.0
  0
LINE
  5
2CF
330
A7
100
AcDbEntity
  8
0
  6
Continuous
 62
     7
100
AcDbLine
 10
-296.0866105133863
 20
112.5843135247897
 30
0.0
 11
-300.5180863680535
 21
112.5843135247897
 31
0.0
  0
LINE
  5
2D0
330
A7
100
AcDbEntity
  8
0
  6
Continuous
 62
     7
100
AcDbLine
 10
-294.8451932778884
 20
112.5843135247897
 30
0.0
 11
-296.0866105133863
 21
112.5843135247897
 31
0.0
  0
LINE
  5
2D1
330
A7
100
AcDbEntity
  8
0
  6
Continuous
 62
     7
100
AcDbLine
 10
-241.481928165112
 20
112.5843135247897
 30
0.0
 11
-245.9134040197793
 21
112.5843135247897
 31
0.0
  0
LINE
  5
2D2
330
A7
100
AcDbEntity
  8
0
  6
Continuous
 62
     7
100
AcDbLine
 10
-245.9134040197793
 20
112.5843135247897
 30
0.0
 11
-247.1548212552773
 21
112.5843135247897
 31
0.0
  0
LINE
  5
2D3
330
A7
100
AcDbEntity
  8
0
  6
Continuous
 62
     7
100
AcDbLine
 10
-271.8651779522324
 20
111.8599472789282
 30
0.0
 11
-271.8778218120858
 21
112.5843135247897
 31
0.0
  0
LINE
  5
2D4
330
A7
100
AcDbEntity
  8
0
  6
Continuous
 62
     7
100
AcDbLine
 10
-228.3773249205785
 20
112.5843135247897
 30
0.0
 11
-228.378571720579
 21
112.5843135247897
 31
0.0
  0
LINE
  5
2D5
330
A7
100
AcDbEntity
  8
0
  6
Continuous
 62
     7
100
AcDbLine
 10
-313.622689612587
 20
112.5843135247897
 30
0.0
 11
-313.6214428125866
 21
112.5843135247897
 31
0.0
  0
LINE
  5
2D6
330
A7
100
AcDbEntity
  8
0
  6
Continuous
 62
     7
100
AcDbLine
 10
-310.2256457439291
 20
118.7882178182936
 30
0.0
 11
-307.7468918433657
 21
111.8599472789282
 31
0.0
  0
LINE
  5
2D7
330
A7
100
AcDbEntity
  8
0
  6
Continuous
 62
     7
100
AcDbLine
 10
-231.7743687892364
 20
118.7882178182936
 30
0.0
 11
-233.9939634021878
 21
112.5843135247897
 31
0.0
  0
LINE
  5
2D8
330
A7
100
AcDbEntity
  8
0
  6
Continuous
 62
     7
100
AcDbLine
 10
-233.9939634021878
 20
112.5843135247897
 30
0.0
 11
-234.2531226897995
 21
111.8599472789282
 31
0.0
  0
LINE
  5
2D9
330
A7
100
AcDbEntity
  8
0
  6
Continuous
 62
     7
100
AcDbLine
 10
-252.8778986286754
 20
112.5843135247897
 30
0.0
 11
-253.0263114727117
 21
114.5843135247897
 31
0.0
  0
LINE
  5
2DA
330
A7
100
AcDbEntity
  8
0
  6
Continuous
 62
     7
100
AcDbLine
 10
-289.1221159044901
 20
112.5843135247897
 30
0.0
 11
-288.973703060454
 21
114.5843135247897
 31
0.0
  0
LINE
  5
2DB
330
A7
100
AcDbEntity
  8
0
  6
Continuous
 62
     7
100
AcDbLine
 10
-270.0139031688293
 20
118.7882178182936
 30
0.0
 11
-270.1221927210809
 21
112.5843135247897
 31
0.0
  0
LINE
  5
2DC
330
A7
100
AcDbEntity
  8
0
  6
Continuous
 62
     7
100
AcDbLine
 10
-270.1221927210809
 20
112.5843135247897
 30
0.0
 11
-270.1348365809341
 21
111.8599472789282
 31
0.0
  0
LINE
  5
2DD
330
A7
100
AcDbEntity
  8
0
  6
Continuous
 62
     7
100
AcDbLine
 10
-308.8310839549744
 20
118.7882178182936
 30
0.0
 11
-306.5233557259537
 21
111.8599472789282
 31
0.0
  0
LINE
  5
2DE
330
A7
100
AcDbEntity
  8
0
  6
Continuous
 62
     7
100
AcDbLine
 10
-271.9127319419422
 20
114.584313524786
 30
0.0
 11
-288.973703060454
 21
114.5843135247897
 31
0.0
  0
LINE
  5
2DF
330
A7
100
AcDbEntity
  8
0
  6
Continuous
 62
     7
100
AcDbLine
 10
-270.0872825912081
 20
114.5843135247897
 30
0.0
 11
-253.0263114727117
 21
114.5843135247897
 31
0.0
  0
ARC
  5
2E0
330
A7
100
AcDbEntity
  8
0
  6
Continuous
 62
     7
100
AcDbCircle
 10
-313.621442721593
 20
62.58431353256452
 30
0.0
 40
50.00000000777256
100
AcDbArc
 50
90.00142883182936
 51
99.76600451621145
  0
ARC
  5
2E1
330
A7
100
AcDbEntity
  8
0
  6
Continuous
 62
     7
100
AcDbCircle
 10
-228.3785718115726
 20
62.58431353256452
 30
0.0
 40
50.00000000777257
100
AcDbArc
 50
80.23399548378842
 51
89.99857116817057
  0
SPLINE
  5
2E2
330
A7
100
AcDbEntity
  8
0
  6
Continuous
 62
     7
100
AcDbSpline
210
0.0
220
0.0
230
1.0
 70
     8
 71
     3
 72
     9
 73
     5
 74
     3
 42
0.0000000001
 43
0.0000000001
 44
0.00000001
 40
0.0
 40
0.0
 40
0.0
 40
0.0
 40
3.01678180281693
 40
6.059562084773281
 40
6.059562084773281
 40
6.059562084773281
 40
6.059562084773281
 10
-241.481928165112
 20
112.5843135247897
 30
0.0
 10
-240.4745899678613
 20
112.5534528299199
 30
0.0
 10
-238.4512323816733
 20
112.49146548421
 30
0.0
 10
-236.4710153645618
 20
112.0710546033189
 30
0.0
 10
-235.4766588072121
 20
111.8599472789282
 30
0.0
 11
-241.481928165112
 21
112.5843135247897
 31
0.0
 11
-238.4706063671156
 21
112.402892812854
 31
0.0
 11
-235.4766588072121
 21
111.8599472789282
 31
0.0
  0
SPLINE
  5
2E3
330
A7
100
AcDbEntity
  8
0
  6
Continuous
 62
     7
100
AcDbSpline
210
0.0
220
0.0
230
1.0
 70
     8
 71
     3
 72
     9
 73
     5
 74
     3
 42
0.0000000001
 43
0.0000000001
 44
0.00000001
 40
0.0
 40
0.0
 40
0.0
 40
0.0
 40
3.0427802819566
 40
6.05956208477356
 40
6.05956208477356
 40
6.05956208477356
 40
6.05956208477356
 10
-306.5233557259537
 20
111.8599472789282
 30
0.0
 10
-305.528999168604
 20
112.0710546033188
 30
0.0
 10
-303.5487821514924
 20
112.49146548421
 30
0.0
 10
-301.5254245653041
 20
112.5534528299199
 30
0.0
 10
-300.5180863680535
 20
112.5843135247897
 30
0.0
 11
-306.5233557259537
 21
111.8599472789282
 31
0.0
 11
-303.5294081660499
 21
112.402892812854
 31
0.0
 11
-300.5180863680535
 21
112.5843135247897
 31
0.0
  0
ENDBLK
  5
A9
330
A7
100
AcDbEntity
  8
0
100
AcDbBlockEnd
  0
BLOCK
  5
AB
330
AA
100
AcDbEntity
  8
0
100
AcDbBlockBegin
  2
DA-195555623-Edelstahlkappe-verpresst__14
 70
     0
 10
-327.7500072665827
 20
118.7882178182936
 30
0.0
  3
DA-195555623-Edelstahlkappe-verpresst__14
  1

  0
LINE
  5
2E4
330
AA
100
AcDbEntity
  8
0
  6
Continuous
 62
     7
100
AcDbLine
 10
-270.0139031688293
 20
118.7882178182936
 30
0.0
 11
-231.7743687892364
 21
118.7882178182936
 31
0.0
  0
LINE
  5
2E5
330
AA
100
AcDbEntity
  8
0
  6
Continuous
 62
     7
100
AcDbLine
 10
-231.7743687892364
 20
118.7882178182936
 30
0.0
 11
-216.5126814369293
 21
118.7882178182936
 31
0.0
  0
LINE
  5
2E6
330
AA
100
AcDbEntity
  8
0
  6
Continuous
 62
     7
100
AcDbLine
 10
-216.5126814369293
 20
118.7882178182936
 30
0.0
 11
-215.2715721748949
 21
118.7882178182936
 31
0.0
  0
LINE
  5
2E7
330
AA
100
AcDbEntity
  8
0
  6
Continuous
 62
     7
100
AcDbLine
 10
-215.2715721748949
 20
118.7882178182936
 30
0.0
 11
-214.7308798194662
 21
118.7882178182936
 31
0.0
  0
LINE
  5
2E8
330
AA
100
AcDbEntity
  8
0
  6
Continuous
 62
     7
100
AcDbLine
 10
-271.9861113643374
 20
118.7882178182936
 30
0.0
 11
-270.0139031688293
 21
118.7882178182936
 31
0.0
  0
LINE
  5
2E9
330
AA
100
AcDbEntity
  8
0
  6
Continuous
 62
     7
100
AcDbLine
 10
-214.7308798194662
 20
118.7882178182936
 30
0.0
 11
-214.3470352899308
 21
120.0374868954719
 31
0.0
  0
LINE
  5
2EA
330
AA
100
AcDbEntity
  8
0
  6
Continuous
 62
     3
100
AcDbLine
 10
-214.8914160232002
 20
120.0374868954719
 30
0.0
 11
-214.3470352899308
 21
120.0374868954719
 31
0.0
  0
LINE
  5
2EB
330
AA
100
AcDbEntity
  8
0
  6
Continuous
 62
     7
100
AcDbLine
 10
-310.2256457439291
 20
118.7882178182936
 30
0.0
 11
-271.9861113643374
 21
118.7882178182936
 31
0.0
  0
LINE
  5
2EC
330
AA
100
AcDbEntity
  8
0
  6
Continuous
 62
     3
100
AcDbLine
 10
-216.9503827539248
 20
122.8835049297463
 30
0.0
 11
-216.4259786729614
 21
122.8835049297463
 31
0.0
  0
LINE
  5
2ED
330
AA
100
AcDbEntity
  8
0
  6
Continuous
 62
     7
100
AcDbLine
 10
-325.4873330962363
 20
118.7882178182936
 30
0.0
 11
-310.2256457439291
 21
118.7882178182936
 31
0.0
  0
LINE
  5
2EE
330
AA
100
AcDbEntity
  8
0
  6
Continuous
 62
     7
100
AcDbLine
 10
-327.2691347136992
 20
118.7882178182936
 30
0.0
 11
-325.4873330962363
 21
118.7882178182936
 31
0.0
  0
LINE
  5
2EF
330
AA
100
AcDbEntity
  8
0
  6
Continuous
 62
     3
100
AcDbLine
 10
-327.6529792432345
 20
120.0374868954719
 30
0.0
 11
-214.8914160232002
 21
120.0374868954719
 31
0.0
  0
LINE
  5
2F0
330
AA
100
AcDbEntity
  8
0
  6
Continuous
 62
     7
100
AcDbLine
 10
-327.2691347136992
 20
118.7882178182936
 30
0.0
 11
-327.6529792432345
 21
120.0374868954719
 31
0.0
  0
LINE
  5
2F1
330
AA
100
AcDbEntity
  8
0
  6
Continuous
 62
     3
100
AcDbLine
 10
-325.5740358602039
 20
122.8835049297463
 30
0.0
 11
-216.9503827539248
 21
122.8835049297463
 31
0.0
  0
LINE
  5
2F2
330
AA
100
AcDbEntity
  8
1
  6
DOT_CENTER
 62
     2
100
AcDbLine
 10
-271.0000072665826
 20
118.7882178182936
 30
0.0
 11
-271.0000072665826
 21
120.0374868954719
 31
0.0
  0
ARC
  5
2F3
330
AA
100
AcDbEntity
  8
0
  6
Continuous
 62
     7
100
AcDbCircle
 10
-270.9993744262646
 20
-4827.382356630623
 30
0.0
 40
4950.566670155455
100
AcDbArc
 50
89.36837764412986
 51
90.00000732422806
  0
ARC
  5
2F4
330
AA
100
AcDbEntity
  8
0
  6
Continuous
 62
     7
100
AcDbCircle
 10
-216.4500072665827
 20
120.6836361548671
 30
0.0
 40
2.200000000000039
100
AcDbArc
 50
342.9201476790165
 51
89.37419801095851
  0
ARC
  5
2F5
330
AA
100
AcDbEntity
  8
0
  6
Continuous
 62
     7
100
AcDbCircle
 10
-325.5500072665826
 20
120.6836361548671
 30
0.0
 40
2.199999999999976
100
AcDbArc
 50
90.62580198904075
 51
197.0798523209837
  0
ARC
  5
2F6
330
AA
100
AcDbEntity
  8
0
  6
Continuous
 62
     7
100
AcDbCircle
 10
-271.0006401069007
 20
-4827.382356630622
 30
0.0
 40
4950.566670155455
100
AcDbArc
 50
89.99999267577194
 51
90.63162235587015
  0
ENDBLK
  5
AC
330
AA
100
AcDbEntity
  8
0
100
AcDbBlockEnd
  0
BLOCK
  5
B0
330
AD
100
AcDbEntity
  8
0
100
AcDbBlockBegin
  2
521-1_Abdeckkappe__15
 70
     0
 10
-327.7500072665827
 20
111.8597493381092
 30
0.0
  3
521-1_Abdeckkappe__15
  1

  0
INSERT
  5
AE
330
AD
100
AcDbEntity
  8
0
100
AcDbBlockReference
  2
101005625
 10
-325.4873330962363
 20
111.8597493381092
 30
0.0
  0
INSERT
  5
AF
330
AD
100
AcDbEntity
  8
0
100
AcDbBlockReference
  2
DA-195555623-Edelstahlkappe-verpresst__14
 10
-327.7500072665827
 20
118.7882178182936
 30
0.0
  0
ENDBLK
  5
B1
330
AD
100
AcDbEntity
  8
0
100
AcDbBlockEnd
  0
BLOCK
  5
B8
330
B2
100
AcDbEntity
  8
0
100
AcDbBlockBegin
  2
HL521__16
 70
     0
 10
-329.5000072665828
 20
39.58431352478968
 30
0.0
  3
HL521__16
  1

  0
INSERT
  5
B3
330
B2
100
AcDbEntity
  8
0
100
AcDbBlockReference
  2
HL521-Koerper__13
 10
-329.5000072665828
 20
39.58431352478968
 30
0.0
  0
INSERT
  5
B4
330
B2
100
AcDbEntity
  8
0
100
AcDbBlockReference
  2
01104D-Ventildichtung
 10
-327.0000072665828
 20
92.08431352478968
 30
0.0
  0
INSERT
  5
B5
330
B2
100
AcDbEntity
  8
0
100
AcDbBlockReference
  2
0521-4E_Zwischenring
 10
-325.7500072665828
 20
104.5983695247897
 30
0.0
  0
INSERT
  5
B6
330
B2
100
AcDbEntity
  8
0
100
AcDbBlockReference
  2
0521-1E_Einschraubventil-kurz
 10
-326.0000072665828
 20
87.58431352478968
 30
0.0
  0
INSERT
  5
B7
330
B2
100
AcDbEntity
  8
0
100
AcDbBlockReference
  2
521-1_Abdeckkappe__15
 10
-327.7500072665827
 20
111.8597493381092
 30
0.0
  0
ENDBLK
  5
B9
330
B2
100
AcDbEntity
  8
0
100
AcDbBlockEnd
  0
BLOCK
  5
BD
330
BA
100
AcDbEntity
  8
0
100
AcDbBlockBegin
  2
Vordans1
 70
     0
 10
-270.9999999999998
 20
140.8368810000006
 30
0.0
  3
Vordans1
  1

  0
INSERT
  5
BB
330
BA
100
AcDbEntity
  8
1
100
AcDbBlockReference
  2
Ausbruch1
 10
-329.940181220406
 20
94.18916884850401
 30
0.0
  0
INSERT
  5
BC
330
BA
100
AcDbEntity
  8
0
100
AcDbBlockReference
  2
HL521__16
 10
-329.5000072665828
 20
39.58431352478968
 30
0.0
  0
LINE
  5
2F7
330
BA
100
AcDbEntity
  8
1
  6
DOT_CENTER
 62
     2
100
AcDbLine
 10
-181.4000072665831
 20
69.0843135247893
 30
0.0
 11
-94.4666829005671
 21
45.79059946556183
 31
0.0
  0
LINE
  5
2F8
330
BA
100
AcDbEntity
  8
1
  6
Continuous
 62
     4
100
AcDbLine
 10
-214.5000072665827
 20
123.433073453689
 30
0.0
 11
-214.5000072665827
 21
124.577338147257
 31
0.0
  0
LINE
  5
2F9
330
BA
100
AcDbEntity
  8
1
  6
Continuous
 62
     4
100
AcDbLine
 10
-327.5000072665827
 20
122.834363643454
 30
0.0
 11
-327.5000072665826
 21
124.578918257873
 31
0.0
  0
LINE
  5
2FA
330
BA
100
AcDbEntity
  8
1
  6
Continuous
 62
     7
100
AcDbLine
 10
-186.8000072665831
 20
96.58431352478931
 30
0.0
 11
-188.183322040131
 21
96.58431352478931
 31
0.0
  0
MTEXT
  5
2FB
330
BA
100
AcDbEntity
  8
1
 62
     1
100
AcDbMText
 10
-213.5000072665831
 20
34.51444094905568
 30
0.0
 40
3.5
 41
0.0
 71
     2
 72
     1
  1
 
  7
CONVERTER_11
 73
     1
 44
1.32052821128451
  0
DIMENSION
  5
308
330
BA
100
AcDbEntity
  8
1
100
AcDbDimension
  2
*D24
 10
-341.3166476029247
 20
99.58431352478962
 30
0.0
 11
-346.8166476029247
 21
137.5700909132792
 31
0.0
 70
    32
  1
6
 71
     5
 42
-1.0
 53
90.0
  3
ME10_DIM_10
100
AcDbAlignedDimension
 13
-326.0000072665828
 23
110.0843075247897
 33
0.0
 14
-320.8867592665828
 24
99.58431352478956
 34
0.0
 50
90.0
100
AcDbRotatedDimension
  0
DIMENSION
  5
313
330
BA
100
AcDbEntity
  8
1
100
AcDbDimension
  2
*D25
 10
-354.4293072856268
 20
99.58431352478956
 30
0.0
 11
-359.9293072856268
 21
72.65021265501092
 31
0.0
 70
    32
  1
<>
 71
     5
 42
-1.0
 53
90.0
  3
ME10_DIM_11
100
AcDbAlignedDimension
 13
-291.2500072665828
 23
39.58431352478968
 33
0.0
 14
-319.7320582665827
 24
99.58431352478956
 34
0.0
 50
90.0
100
AcDbRotatedDimension
  0
DIMENSION
  5
320
330
BA
100
AcDbEntity
  8
1
100
AcDbDimension
  2
*D26
 10
-63.5510749649405
 20
49.08431352478965
 30
0.0
 11
-69.0510749649405
 21
107.9208574142083
 31
0.0
 70
    32
  1
<>
 71
     5
 42
-1.0
 53
90.0
  3
ME10_DIM_12
100
AcDbAlignedDimension
 13
-100.5000072665828
 23
89.08431352478968
 33
0.0
 14
-100.5000072665828
 24
49.08431352478968
 34
0.0
 50
90.0
100
AcDbRotatedDimension
  0
DIMENSION
  5
32B
330
BA
100
AcDbEntity
  8
1
100
AcDbDimension
  2
*D27
 10
-327.5000072665825
 20
141.064428318198
 30
0.0
 11
-270.5658859151039
 21
146.564428318198
 31
0.0
 70
    32
  1
<>
 71
     5
 42
-1.0
 53
0.00013888888889
  3
ME10_DIM_13
100
AcDbAlignedDimension
 13
-214.5000072665827
 23
124.577338147257
 33
0.0
 14
-327.5000072665826
 24
124.578918257873
 34
0.0
100
AcDbRotatedDimension
  0
DIMENSION
  5
336
330
BA
100
AcDbEntity
  8
1
100
AcDbDimension
  2
*D28
 10
-162.5254211784058
 20
107.2136076052653
 30
0.0
 11
-130.1512434245587
 21
112.7136076052653
 31
0.0
 70
    32
  1
<>
 71
     5
 42
-1.0
 53
0.00013888888889
  3
ME10_DIM_14
100
AcDbAlignedDimension
 13
-97.50000726658266
 23
88.28046594749628
 33
0.0
 14
-162.5254211784059
 24
89.08431352478968
 34
0.0
100
AcDbRotatedDimension
  0
DIMENSION
  5
341
330
BA
100
AcDbEntity
  8
1
100
AcDbDimension
  2
*D29
 10
-271.0000072665832
 20
16.41323537414599
 30
0.0
 11
-180.6529135122999
 21
21.91323537414599
 31
0.0
 70
    32
  1
173
 71
     5
 42
-1.0
 53
0.00013888888889
  3
ME10_DIM_15
100
AcDbAlignedDimension
 13
-97.50000726658266
 23
49.88816110208299
 33
0.0
 14
-271.0000072665831
 24
36.50952534961704
 34
0.0
100
AcDbRotatedDimension
  0
DIMENSION
  5
350
330
BA
100
AcDbEntity
  8
1
100
AcDbDimension
  2
*D30
 10
-47.37194342223035
 20
51.43918417287704
 30
0.0
 11
-52.64891849050628
 21
53.55211558877598
 31
0.0
 70
    37
  1
<>
 71
     5
 42
-1.0
  3
ME10_DIM_16
100
AcDb3PointAngularDimension
 13
-94.4666829005671
 23
45.79059946556183
 33
0.0
 14
-94.55632955995415
 24
69.0843135247893
 34
0.0
 15
-181.4000072665803
 25
69.08431352478856
 35
0.0
  0
ENDBLK
  5
BE
330
BA
100
AcDbEntity
  8
0
100
AcDbBlockEnd
  0
BLOCK
  5
305
330
2FC
100
AcDbEntity
  8
0
100
AcDbBlockBegin
  2
*D24
 70
     1
 10
0.0
 20
0.0
 30
0.0
  3
*D24
  1

  0
LINE
  5
2FD
330
2FC
100
AcDbEntity
  8
1
  6
Continuous
 62
     4
100
AcDbLine
 10
-341.3166476029247
 20
85.58431352478962
 30
0.0
 11
-341.3166476029247
 21
99.58431352478962
 31
0.0
  0
LINE
  5
2FE
330
2FC
100
AcDbEntity
  8
1
  6
Continuous
 62
     4
100
AcDbLine
 10
-341.3166476029247
 20
99.58431352478962
 30
0.0
 11
-341.3166476029247
 21
110.0843075247897
 31
0.0
  0
LINE
  5
2FF
330
2FC
100
AcDbEntity
  8
1
  6
Continuous
 62
     4
100
AcDbLine
 10
-341.3166476029247
 20
110.0843075247897
 30
0.0
 11
-341.3166476029247
 21
149.4700909132792
 31
0.0
  0
LINE
  5
300
330
2FC
100
AcDbEntity
  8
1
  6
Continuous
 62
     4
100
AcDbLine
 10
-320.8867592665828
 20
99.58431352478962
 30
0.0
 11
-343.3166476029247
 21
99.58431352478962
 31
0.0
  0
LINE
  5
301
330
2FC
100
AcDbEntity
  8
1
  6
Continuous
 62
     4
100
AcDbLine
 10
-326.0000072665828
 20
110.0843075247897
 30
0.0
 11
-343.3166476029247
 21
110.0843075247897
 31
0.0
  0
SOLID
  5
302
330
2FC
100
AcDbEntity
  8
1
 62
     4
100
AcDbTrace
 10
-340.395080119813
 20
92.58431352478962
 30
0.0
 11
-342.2382150860365
 21
92.58431352478962
 31
0.0
 12
-341.3166476029247
 22
99.58431352478962
 32
0.0
 13
-341.3166476029247
 23
99.58431352478962
 33
0.0
  0
SOLID
  5
303
330
2FC
100
AcDbEntity
  8
1
 62
     4
100
AcDbTrace
 10
-342.2382150860365
 20
117.0843075247897
 30
0.0
 11
-340.395080119813
 21
117.0843075247897
 31
0.0
 12
-341.3166476029247
 22
110.0843075247897
 32
0.0
 13
-341.3166476029247
 23
110.0843075247897
 33
0.0
  0
MTEXT
  5
304
330
2FC
100
AcDbEntity
  8
1
 62
     1
100
AcDbMText
 10
-343.3166476029247
 20
125.6700909132792
 30
0.0
 40
7.0
 41
0.0
 71
     7
 72
     1
  1
\C1;6\C1;-25
  7
CONVERTER_11
 11
0.0
 21
1.0
 31
0.0
 73
     1
 44
0.60024009603842
  0
ENDBLK
  5
306
330
2FC
100
AcDbEntity
  8
0
100
AcDbBlockEnd
  0
BLOCK
  5
310
330
309
100
AcDbEntity
  8
0
100
AcDbBlockBegin
  2
*D25
 70
     1
 10
0.0
 20
0.0
 30
0.0
  3
*D25
  1

  0
LINE
  5
30A
330
309
100
AcDbEntity
  8
1
  6
Continuous
 62
     4
100
AcDbLine
 10
-354.4293072856268
 20
99.58431352478956
 30
0.0
 11
-354.4293072856268
 21
39.5843135247897
 31
0.0
  0
LINE
  5
30B
330
309
100
AcDbEntity
  8
1
  6
Continuous
 62
     4
100
AcDbLine
 10
-319.7320582665829
 20
99.58431352478956
 30
0.0
 11
-356.4293072856268
 21
99.58431352478956
 31
0.0
  0
LINE
  5
30C
330
309
100
AcDbEntity
  8
1
  6
Continuous
 62
     4
100
AcDbLine
 10
-291.250007266583
 20
39.5843135247897
 30
0.0
 11
-356.4293072856268
 21
39.5843135247897
 31
0.0
  0
SOLID
  5
30D
330
309
100
AcDbEntity
  8
1
 62
     4
100
AcDbTrace
 10
-353.5077398025151
 20
92.58431352478956
 30
0.0
 11
-355.3508747687385
 21
92.58431352478956
 31
0.0
 12
-354.4293072856268
 22
99.58431352478956
 32
0.0
 13
-354.4293072856268
 23
99.58431352478956
 33
0.0
  0
SOLID
  5
30E
330
309
100
AcDbEntity
  8
1
 62
     4
100
AcDbTrace
 10
-355.3508747687385
 20
46.5843135247897
 30
0.0
 11
-353.5077398025151
 21
46.5843135247897
 31
0.0
 12
-354.4293072856268
 22
39.5843135247897
 32
0.0
 13
-354.4293072856268
 23
39.5843135247897
 33
0.0
  0
MTEXT
  5
30F
330
309
100
AcDbEntity
  8
1
 62
     1
100
AcDbMText
 10
-356.4293072856268
 20
67.40021265501092
 30
0.0
 40
7.0
 41
0.0
 71
     7
 72
     1
  1
60
  7
CONVERTER_11
 11
0.0
 21
1.0
 31
0.0
 73
     1
 44
0.60024009603842
  0
ENDBLK
  5
311
330
309
100
AcDbEntity
  8
0
100
AcDbBlockEnd
  0
BLOCK
  5
31D
330
314
100
AcDbEntity
  8
0
100
AcDbBlockBegin
  2
*D26
 70
     1
 10
0.0
 20
0.0
 30
0.0
  3
*D26
  1

  0
LINE
  5
315
330
314
100
AcDbEntity
  8
1
  6
Continuous
 62
     4
100
AcDbLine
 10
-63.5510749649405
 20
49.08431352478965
 30
0.0
 11
-63.5510749649405
 21
89.08431352478961
 31
0.0
  0
LINE
  5
316
330
314
100
AcDbEntity
  8
1
  6
Continuous
 62
     4
100
AcDbLine
 10
-63.5510749649405
 20
89.08431352478961
 30
0.0
 11
-63.5510749649405
 21
120.8708574142083
 31
0.0
  0
LINE
  5
317
330
314
100
AcDbEntity
  8
1
  6
Continuous
 62
     4
100
AcDbLine
 10
-100.5000072665828
 20
49.08431352478965
 30
0.0
 11
-82.10740786543124
 21
49.08431352478965
 31
0.0
  0
LINE
  5
318
330
314
100
AcDbEntity
  8
1
  6
Continuous
 62
     4
100
AcDbLine
 10
-76.18278978427165
 20
49.08431352478965
 30
0.0
 11
-61.5510749649405
 21
49.08431352478965
 31
0.0
  0
LINE
  5
319
330
314
100
AcDbEntity
  8
1
  6
Continuous
 62
     4
100
AcDbLine
 10
-100.5000072665828
 20
89.08431352478961
 30
0.0
 11
-61.5510749649405
 21
89.08431352478961
 31
0.0
  0
SOLID
  5
31A
330
314
100
AcDbEntity
  8
1
 62
     4
100
AcDbTrace
 10
-64.47264244805227
 20
56.08431352478965
 30
0.0
 11
-62.62950748182872
 21
56.08431352478965
 31
0.0
 12
-63.5510749649405
 22
49.08431352478965
 32
0.0
 13
-63.5510749649405
 23
49.08431352478965
 33
0.0
  0
SOLID
  5
31B
330
314
100
AcDbEntity
  8
1
 62
     4
100
AcDbTrace
 10
-62.62950748182873
 20
82.08431352478961
 30
0.0
 11
-64.47264244805227
 21
82.08431352478961
 31
0.0
 12
-63.5510749649405
 22
89.08431352478961
 32
0.0
 13
-63.5510749649405
 23
89.08431352478961
 33
0.0
  0
MTEXT
  5
31C
330
314
100
AcDbEntity
  8
1
 62
     1
100
AcDbMText
 10
-65.5510749649405
 20
98.8908574142083
 30
0.0
 40
7.0
 41
0.0
 71
     7
 72
     1
  1
\C1;DN\C1;40
  7
CONVERTER_11
 11
0.0
 21
1.0
 31
0.0
 73
     1
 44
0.60024009603842
  0
ENDBLK
  5
31E
330
314
100
AcDbEntity
  8
0
100
AcDbBlockEnd
  0
BLOCK
  5
328
330
321
100
AcDbEntity
  8
0
100
AcDbBlockBegin
  2
*D27
 70
     1
 10
0.0
 20
0.0
 30
0.0
  3
*D27
  1

  0
LINE
  5
322
330
321
100
AcDbEntity
  8
1
  6
Continuous
 62
     4
100
AcDbLine
 10
-327.5000072665825
 20
141.064428318198
 30
0.0
 11
-214.5000072665826
 21
141.064428318198
 31
0.0
  0
LINE
  5
323
330
321
100
AcDbEntity
  8
1
  6
Continuous
 62
     4
100
AcDbLine
 10
-327.5000072665825
 20
124.578918257873
 30
0.0
 11
-327.5000072665825
 21
143.064428318198
 31
0.0
  0
LINE
  5
324
330
321
100
AcDbEntity
  8
1
  6
Continuous
 62
     4
100
AcDbLine
 10
-214.5000072665826
 20
124.5773381472571
 30
0.0
 11
-214.5000072665826
 21
143.064428318198
 31
0.0
  0
SOLID
  5
325
330
321
100
AcDbEntity
  8
1
 62
     4
100
AcDbTrace
 10
-320.5000072665825
 20
141.9859958013098
 30
0.0
 11
-320.5000072665825
 21
140.1428608350862
 31
0.0
 12
-327.5000072665825
 22
141.064428318198
 32
0.0
 13
-327.5000072665825
 23
141.064428318198
 33
0.0
  0
SOLID
  5
326
330
321
100
AcDbEntity
  8
1
 62
     4
100
AcDbTrace
 10
-221.5000072665826
 20
140.1428608350862
 30
0.0
 11
-221.5000072665826
 21
141.9859958013098
 31
0.0
 12
-214.5000072665826
 22
141.064428318198
 32
0.0
 13
-214.5000072665826
 23
141.064428318198
 33
0.0
  0
MTEXT
  5
327
330
321
100
AcDbEntity
  8
1
 62
     1
100
AcDbMText
 10
-289.8858859150533
 20
143.0643865757401
 30
0.0
 40
7.0
 41
0.0
 71
     7
 72
     1
  1
\C1;{\Fgdt;n}\C1;113
  7
CONVERTER_11
 11
0.9999999999970619
 21
2.424068405545306E-6
 31
0.0
 73
     1
 44
0.60024009603842
  0
ENDBLK
  5
329
330
321
100
AcDbEntity
  8
0
100
AcDbBlockEnd
  0
BLOCK
  5
333
330
32C
100
AcDbEntity
  8
0
100
AcDbBlockBegin
  2
*D28
 70
     1
 10
0.0
 20
0.0
 30
0.0
  3
*D28
  1

  0
LINE
  5
32D
330
32C
100
AcDbEntity
  8
1
  6
Continuous
 62
     4
100
AcDbLine
 10
-162.5254211784058
 20
107.2136076052653
 30
0.0
 11
-97.5000072665827
 21
107.2136076052653
 31
0.0
  0
LINE
  5
32E
330
32C
100
AcDbEntity
  8
1
  6
Continuous
 62
     4
100
AcDbLine
 10
-162.5254211784058
 20
89.08431352478961
 30
0.0
 11
-162.5254211784058
 21
109.2136076052653
 31
0.0
  0
LINE
  5
32F
330
32C
100
AcDbEntity
  8
1
  6
Continuous
 62
     4
100
AcDbLine
 10
-97.5000072665827
 20
88.28046594749625
 30
0.0
 11
-97.5000072665827
 21
109.2136076052653
 31
0.0
  0
SOLID
  5
330
330
32C
100
AcDbEntity
  8
1
 62
     4
100
AcDbTrace
 10
-155.5254211784058
 20
108.1351750883771
 30
0.0
 11
-155.5254211784058
 21
106.2920401221535
 31
0.0
 12
-162.5254211784058
 22
107.2136076052653
 32
0.0
 13
-162.5254211784058
 23
107.2136076052653
 33
0.0
  0
SOLID
  5
331
330
32C
100
AcDbEntity
  8
1
 62
     4
100
AcDbTrace
 10
-104.5000072665827
 20
106.2920401221535
 30
0.0
 11
-104.5000072665827
 21
108.1351750883771
 31
0.0
 12
-97.5000072665827
 22
107.2136076052653
 32
0.0
 13
-97.5000072665827
 23
107.2136076052653
 33
0.0
  0
MTEXT
  5
332
330
32C
100
AcDbEntity
  8
1
 62
     1
100
AcDbMText
 10
-135.4012434245587
 20
109.2136076052653
 30
0.0
 40
7.0
 41
0.0
 71
     7
 72
     1
  1
65
  7
CONVERTER_11
 11
0.9999999999970619
 21
2.424068405545306E-6
 31
0.0
 73
     1
 44
0.60024009603842
  0
ENDBLK
  5
334
330
32C
100
AcDbEntity
  8
0
100
AcDbBlockEnd
  0
BLOCK
  5
33E
330
337
100
AcDbEntity
  8
0
100
AcDbBlockBegin
  2
*D29
 70
     1
 10
0.0
 20
0.0
 30
0.0
  3
*D29
  1

  0
LINE
  5
338
330
337
100
AcDbEntity
  8
1
  6
Continuous
 62
     4
100
AcDbLine
 10
-271.0000072665832
 20
16.41323537414599
 30
0.0
 11
-97.50000726658277
 21
16.41323537414599
 31
0.0
  0
LINE
  5
339
330
337
100
AcDbEntity
  8
1
  6
Continuous
 62
     4
100
AcDbLine
 10
-271.0000072665832
 20
36.50952534961703
 30
0.0
 11
-271.0000072665832
 21
14.41323537414599
 31
0.0
  0
LINE
  5
33A
330
337
100
AcDbEntity
  8
1
  6
Continuous
 62
     4
100
AcDbLine
 10
-97.50000726658276
 20
49.88816110208299
 30
0.0
 11
-97.50000726658276
 21
14.41323537414599
 31
0.0
  0
SOLID
  5
33B
330
337
100
AcDbEntity
  8
1
 62
     4
100
AcDbTrace
 10
-264.0000072665832
 20
17.33480285725776
 30
0.0
 11
-264.0000072665832
 21
15.49166789103422
 31
0.0
 12
-271.0000072665832
 22
16.41323537414599
 32
0.0
 13
-271.0000072665832
 23
16.41323537414599
 33
0.0
  0
SOLID
  5
33C
330
337
100
AcDbEntity
  8
1
 62
     4
100
AcDbTrace
 10
-104.5000072665828
 20
15.49166789103422
 30
0.0
 11
-104.5000072665828
 21
17.33480285725776
 31
0.0
 12
-97.50000726658277
 22
16.41323537414599
 32
0.0
 13
-97.50000726658277
 23
16.41323537414599
 33
0.0
  0
MTEXT
  5
33D
330
337
100
AcDbEntity
  8
1
 62
     1
100
AcDbMText
 10
-188.0029135122999
 20
18.41323537414599
 30
0.0
 40
7.0
 41
0.0
 71
     7
 72
     1
  1
173
  7
CONVERTER_11
 11
0.9999999999970619
 21
2.424068405545306E-6
 31
0.0
 73
     1
 44
0.60024009603842
  0
ENDBLK
  5
33F
330
337
100
AcDbEntity
  8
0
100
AcDbBlockEnd
  0
BLOCK
  5
34D
330
342
100
AcDbEntity
  8
0
100
AcDbBlockBegin
  2
*D30
 70
     1
 10
0.0
 20
0.0
 30
0.0
  3
*D30
  1

  0
LINE
  5
343
330
342
100
AcDbEntity
  8
1
  6
Continuous
 62
     4
100
AcDbLine
 10
-50.8217236337541
 20
34.09596787632974
 30
0.0
 11
-48.88987198117596
 21
33.57832978612468
 31
0.0
  0
LINE
  5
344
330
342
100
AcDbEntity
  8
1
  6
Continuous
 62
     4
100
AcDbLine
 10
-46.21542054268327
 20
69.08431352478974
 30
0.0
 11
-44.21542054268327
 21
69.08431352478975
 31
0.0
  0
LINE
  5
345
330
342
100
AcDbEntity
  8
1
  6
Continuous
 62
     4
100
AcDbLine
 10
-94.4666829005671
 20
45.79059946556184
 30
0.0
 11
-82.4186506425196
 21
42.56233895163381
 31
0.0
  0
LINE
  5
346
330
342
100
AcDbEntity
  8
1
  6
Continuous
 62
     4
100
AcDbLine
 10
-94.55632955995418
 20
69.08431352478931
 30
0.0
 11
-65.54819118868099
 21
69.08431352478955
 31
0.0
  0
LINE
  5
347
330
342
100
AcDbEntity
  8
1
  6
Continuous
 62
     4
100
AcDbLine
 10
-61.2344579413214
 20
69.08431352478961
 30
0.0
 11
-46.21542054268327
 21
69.08431352478974
 31
0.0
  0
LINE
  5
348
330
342
100
AcDbEntity
  8
1
  6
Continuous
 62
     4
100
AcDbLine
 10
-75.60492411613531
 20
40.73660643144257
 30
0.0
 11
-50.8217236337541
 21
34.09596787632974
 31
0.0
  0
ARC
  5
349
330
342
100
AcDbEntity
  8
1
  6
Continuous
 62
     4
100
AcDbCircle
 10
-181.4000072665803
 20
69.08431352478856
 30
0.0
 40
135.184586723897
100
AcDbArc
 50
344.9999999999996
 51
0.0000000000005
  0
SOLID
  5
34A
330
342
100
AcDbEntity
  8
1
 62
     4
100
AcDbTrace
 10
-50.08167843793266
 20
41.11747909073868
 30
0.0
 11
-48.28959403879905
 21
40.68668910699044
 31
0.0
 12
-50.8217236337541
 22
34.09596787632974
 32
0.0
 13
-50.8217236337541
 23
34.09596787632974
 33
0.0
  0
SOLID
  5
34B
330
342
100
AcDbEntity
  8
1
 62
     4
100
AcDbTrace
 10
-45.47537534686182
 20
62.06280231038079
 30
0.0
 11
-47.31789260310815
 21
62.1105167122986
 31
0.0
 12
-46.21542054268327
 22
69.08431352478974
 32
0.0
 13
-46.21542054268327
 23
69.08431352478974
 33
0.0
  0
MTEXT
  5
34C
330
342
100
AcDbEntity
  8
1
 62
     1
100
AcDbMText
 10
-49.97057634348403
 20
46.5307921135696
 30
0.0
 40
7.0
 41
0.0
 71
     7
 72
     1
  1
15{\Fgdt;~}
  7
CONVERTER_11
 11
0.1197690360002547
 21
0.9928017818354123
 31
0.0
 73
     1
 44
0.60024009603842
  0
ENDBLK
  5
34E
330
342
100
AcDbEntity
  8
0
100
AcDbBlockEnd
  0
ENDSEC
  0
SECTION
  2
ENTITIES
  0
INSERT
  5
BF
330
1F
100
AcDbEntity
  8
0
100
AcDbBlockReference
  2
Drfsicht2
 10
-271.0
 20
-23.00000099999997
 30
0.0
  0
INSERT
  5
C0
330
1F
100
AcDbEntity
  8
0
100
AcDbBlockReference
  2
Vordans1
 10
-270.9999999999998
 20
140.8368810000006
 30
0.0
  0
ENDSEC
  0
SECTION
  2
OBJECTS
  0
DICTIONARY
  5
C
330
0
100
AcDbDictionary
281
     1
  3
ACAD_GROUP
350
D
  3
ACAD_LAYOUT
350
1A
  3
ACAD_MLEADERSTYLE
350
353
  3
ACAD_MLINESTYLE
350
17
  3
ACAD_PLOTSETTINGS
350
19
  3
ACAD_PLOTSTYLENAME
350
E
  3
ACAD_SCALELIST
350
4D
  3
ACAD_VISUALSTYLE
350
2A
  3
AcDbVariableDictionary
350
351
  0
DICTIONARY
  5
D
102
{ACAD_REACTORS
330
C
102
}
330
C
100
AcDbDictionary
281
     1
  0
DICTIONARY
  5
1A
102
{ACAD_REACTORS
330
C
102
}
330
C
100
AcDbDictionary
281
     1
  3
Layout1
350
1E
  3
Layout2
350
26
  3
Model
350
22
  0
DICTIONARY
  5
353
102
{ACAD_REACTORS
330
C
102
}
330
C
100
AcDbDictionary
281
     1
  0
DICTIONARY
  5
17
102
{ACAD_REACTORS
330
C
102
}
330
C
100
AcDbDictionary
281
     1
  3
Standard
350
18
  0
DICTIONARY
  5
19
102
{ACAD_REACTORS
330
C
102
}
330
C
100
AcDbDictionary
281
     1
  0
ACDBDICTIONARYWDFLT
  5
E
102
{ACAD_REACTORS
330
C
102
}
330
C
100
AcDbDictionary
281
     1
  3
Normal
350
F
100
AcDbDictionaryWithDefault
340
F
  0
DICTIONARY
  5
4D
102
{ACAD_REACTORS
330
C
102
}
330
C
100
AcDbDictionary
281
     1
  3
A0
350
4E
  3
A1
350
4F
  3
A2
350
50
  3
A3
350
51
  3
A4
350
52
  3
A5
350
53
  3
A6
350
54
  3
A7
350
55
  3
A8
350
56
  3
A9
350
57
  3
B0
350
58
  3
B1
350
59
  3
B2
350
5A
  3
B3
350
5B
  3
B4
350
5C
  3
B5
350
5D
  3
B6
350
5E
  3
B7
350
5F
  3
B8
350
60
  3
B9
350
61
  3
C0
350
62
  3
C1
350
63
  3
C2
350
64
  3
C3
350
65
  3
C4
350
66
  3
C5
350
67
  3
C6
350
68
  3
C7
350
69
  3
C8
350
6A
  3
C9
350
6B
  3
D0
350
6C
  3
D1
350
6D
  3
D2
350
6E
  0
DICTIONARY
  5
2A
102
{ACAD_REACTORS
330
C
102
}
330
C
100
AcDbDictionary
281
     1
  3
2dWireframe
350
2F
  3
3D Hidden
350
31
  3
3dWireframe
350
30
  3
Basic
350
32
  3
Brighten
350
36
  3
ColorChange
350
3A
  3
Conceptual
350
34
  3
Dim
350
35
  3
Facepattern
350
39
  3
Flat
350
2B
  3
FlatWithEdges
350
2C
  3
Gouraud
350
2D
  3
GouraudWithEdges
350
2E
  3
Linepattern
350
38
  3
Realistic
350
33
  3
Thicken
350
37
  0
DICTIONARY
  5
351
102
{ACAD_REACTORS
330
C
102
}
330
C
100
AcDbDictionary
281
     1
  3
CANNOSCALE
350
354
  0
LAYOUT
  5
1E
102
{ACAD_REACTORS
330
1A
102
}
330
1A
100
AcDbPlotSettings
  1

  2
none_device
  4

  6

 40
0.0
 41
0.0
 42
0.0
 43
0.0
 44
0.0
 45
0.0
 46
0.0
 47
0.0
 48
0.0
 49
0.0
140
0.0
141
0.0
142
1.0
143
1.0
 70
   688
 72
     0
 73
     0
 74
     5
  7

 75
    16
147
1.0
148
0.0
149
0.0
100
AcDbLayout
  1
Layout1
 70
     1
 71
     1
 10
0.0
 20
0.0
 11
12.0
 21
9.0
 12
0.0
 22
0.0
 32
0.0
 14
1.00000000000000E+20
 24
1.00000000000000E+20
 34
1.00000000000000E+20
 15
-1.00000000000000E+20
 25
-1.00000000000000E+20
 35
-1.00000000000000E+20
146
0.0
 13
0.0
 23
0.0
 33
0.0
 16
1.0
 26
0.0
 36
0.0
 17
0.0
 27
1.0
 37
0.0
 76
     0
330
1B
  0
LAYOUT
  5
26
102
{ACAD_REACTORS
330
1A
102
}
330
1A
100
AcDbPlotSettings
  1

  2
none_device
  4

  6

 40
0.0
 41
0.0
 42
0.0
 43
0.0
 44
0.0
 45
0.0
 46
0.0
 47
0.0
 48
0.0
 49
0.0
140
0.0
141
0.0
142
1.0
143
1.0
 70
   688
 72
     0
 73
     0
 74
     5
  7

 75
    16
147
1.0
148
0.0
149
0.0
100
AcDbLayout
  1
Layout2
 70
     1
 71
     2
 10
0.0
 20
0.0
 11
0.0
 21
0.0
 12
0.0
 22
0.0
 32
0.0
 14
0.0
 24
0.0
 34
0.0
 15
0.0
 25
0.0
 35
0.0
146
0.0
 13
0.0
 23
0.0
 33
0.0
 16
1.0
 26
0.0
 36
0.0
 17
0.0
 27
1.0
 37
0.0
 76
     0
330
23
  0
LAYOUT
  5
22
102
{ACAD_REACTORS
330
1A
102
}
330
1A
100
AcDbPlotSettings
  1

  2
none_device
  4

  6

 40
0.0
 41
0.0
 42
0.0
 43
0.0
 44
0.0
 45
0.0
 46
0.0
 47
0.0
 48
0.0
 49
0.0
140
0.0
141
0.0
142
1.0
143
1.0
 70
  1712
 72
     0
 73
     0
 74
     0
  7

 75
     0
147
1.0
148
0.0
149
0.0
100
AcDbLayout
  1
Model
 70
     1
 71
     0
 10
0.0
 20
0.0
 11
12.0
 21
9.0
 12
0.0
 22
0.0
 32
0.0
 14
-363.4293072856268
 24
-160.7500009997352
 34
0.0
 15
-44.21542054268327
 25
150.064428318198
 35
0.0
146
0.0
 13
0.0
 23
0.0
 33
0.0
 16
1.0
 26
0.0
 36
0.0
 17
0.0
 27
1.0
 37
0.0
 76
     0
330
1F
331
29
  0
MLINESTYLE
  5
18
102
{ACAD_REACTORS
330
17
102
}
330
17
100
AcDbMlineStyle
  2
Standard
 70
     0
  3

 62
   256
 51
90.0
 52
90.0
 71
     2
 49
0.5
 62
   256
  6
BYLAYER
 49
-0.5
 62
   256
  6
BYLAYER
  0
ACDBPLACEHOLDER
  5
F
102
{ACAD_REACTORS
330
E
102
}
330
E
  0
SCALE
  5
4E
102
{ACAD_REACTORS
330
4D
102
}
330
4D
100
AcDbScale
 70
     0
300
1:1
140
1.0
141
1.0
290
     1
  0
SCALE
  5
4F
102
{ACAD_REACTORS
330
4D
102
}
330
4D
100
AcDbScale
 70
     0
300
1:2
140
1.0
141
2.0
290
     0
  0
SCALE
  5
50
102
{ACAD_REACTORS
330
4D
102
}
330
4D
100
AcDbScale
 70
     0
300
1:4
140
1.0
141
4.0
290
     0
  0
SCALE
  5
51
102
{ACAD_REACTORS
330
4D
102
}
330
4D
100
AcDbScale
 70
     0
300
1:5
140
1.0
141
5.0
290
     0
  0
SCALE
  5
52
102
{ACAD_REACTORS
330
4D
102
}
330
4D
100
AcDbScale
 70
     0
300
1:8
140
1.0
141
8.0
290
     0
  0
SCALE
  5
53
102
{ACAD_REACTORS
330
4D
102
}
330
4D
100
AcDbScale
 70
     0
300
1:10
140
1.0
141
10.0
290
     0
  0
SCALE
  5
54
102
{ACAD_REACTORS
330
4D
102
}
330
4D
100
AcDbScale
 70
     0
300
1:16
140
1.0
141
16.0
290
     0
  0
SCALE
  5
55
102
{ACAD_REACTORS
330
4D
102
}
330
4D
100
AcDbScale
 70
     0
300
1:20
140
1.0
141
20.0
290
     0
  0
SCALE
  5
56
102
{ACAD_REACTORS
330
4D
102
}
330
4D
100
AcDbScale
 70
     0
300
1:30
140
1.0
141
30.0
290
     0
  0
SCALE
  5
57
102
{ACAD_REACTORS
330
4D
102
}
330
4D
100
AcDbScale
 70
     0
300
1:40
140
1.0
141
40.0
290
     0
  0
SCALE
  5
58
102
{ACAD_REACTORS
330
4D
102
}
330
4D
100
AcDbScale
 70
     0
300
1:50
140
1.0
141
50.0
290
     0
  0
SCALE
  5
59
102
{ACAD_REACTORS
330
4D
102
}
330
4D
100
AcDbScale
 70
     0
300
1:100
140
1.0
141
100.0
290
     0
  0
SCALE
  5
5A
102
{ACAD_REACTORS
330
4D
102
}
330
4D
100
AcDbScale
 70
     0
300
2:1
140
2.0
141
1.0
290
     0
  0
SCALE
  5
5B
102
{ACAD_REACTORS
330
4D
102
}
330
4D
100
AcDbScale
 70
     0
300
4:1
140
4.0
141
1.0
290
     0
  0
SCALE
  5
5C
102
{ACAD_REACTORS
330
4D
102
}
330
4D
100
AcDbScale
 70
     0
300
8:1
140
8.0
141
1.0
290
     0
  0
SCALE
  5
5D
102
{ACAD_REACTORS
330
4D
102
}
330
4D
100
AcDbScale
 70
     0
300
10:1
140
10.0
141
1.0
290
     0
  0
SCALE
  5
5E
102
{ACAD_REACTORS
330
4D
102
}
330
4D
100
AcDbScale
 70
     0
300
100:1
140
100.0
141
1.0
290
     0
  0
SCALE
  5
5F
102
{ACAD_REACTORS
330
4D
102
}
330
4D
100
AcDbScale
 70
     0
300
1/128" = 1'-0"
140
0.0078125
141
12.0
290
     0
  0
SCALE
  5
60
102
{ACAD_REACTORS
330
4D
102
}
330
4D
100
AcDbScale
 70
     0
300
1/64" = 1'-0"
140
0.015625
141
12.0
290
     0
  0
SCALE
  5
61
102
{ACAD_REACTORS
330
4D
102
}
330
4D
100
AcDbScale
 70
     0
300
1/32" = 1'-0"
140
0.03125
141
12.0
290
     0
  0
SCALE
  5
62
102
{ACAD_REACTORS
330
4D
102
}
330
4D
100
AcDbScale
 70
     0
300
1/16" = 1'-0"
140
0.0625
141
12.0
290
     0
  0
SCALE
  5
63
102
{ACAD_REACTORS
330
4D
102
}
330
4D
100
AcDbScale
 70
     0
300
3/32" = 1'-0"
140
0.09375
141
12.0
290
     0
  0
SCALE
  5
64
102
{ACAD_REACTORS
330
4D
102
}
330
4D
100
AcDbScale
 70
     0
300
1/8" = 1'-0"
140
0.125
141
12.0
290
     0
  0
SCALE
  5
65
102
{ACAD_REACTORS
330
4D
102
}
330
4D
100
AcDbScale
 70
     0
300
3/16" = 1'-0"
140
0.1875
141
12.0
290
     0
  0
SCALE
  5
66
102
{ACAD_REACTORS
330
4D
102
}
330
4D
100
AcDbScale
 70
     0
300
1/4" = 1'-0"
140
0.25
141
12.0
290
     0
  0
SCALE
  5
67
102
{ACAD_REACTORS
330
4D
102
}
330
4D
100
AcDbScale
 70
     0
300
3/8" = 1'-0"
140
0.375
141
12.0
290
     0
  0
SCALE
  5
68
102
{ACAD_REACTORS
330
4D
102
}
330
4D
100
AcDbScale
 70
     0
300
1/2" = 1'-0"
140
0.5
141
12.0
290
     0
  0
SCALE
  5
69
102
{ACAD_REACTORS
330
4D
102
}
330
4D
100
AcDbScale
 70
     0
300
3/4" = 1'-0"
140
0.75
141
12.0
290
     0
  0
SCALE
  5
6A
102
{ACAD_REACTORS
330
4D
102
}
330
4D
100
AcDbScale
 70
     0
300
1" = 1'-0"
140
1.0
141
12.0
290
     0
  0
SCALE
  5
6B
102
{ACAD_REACTORS
330
4D
102
}
330
4D
100
AcDbScale
 70
     0
300
1-1/2" = 1'-0"
140
1.5
141
12.0
290
     0
  0
SCALE
  5
6C
102
{ACAD_REACTORS
330
4D
102
}
330
4D
100
AcDbScale
 70
     0
300
3" = 1'-0"
140
3.0
141
12.0
290
     0
  0
SCALE
  5
6D
102
{ACAD_REACTORS
330
4D
102
}
330
4D
100
AcDbScale
 70
     0
300
6" = 1'-0"
140
6.0
141
12.0
290
     0
  0
SCALE
  5
6E
102
{ACAD_REACTORS
330
4D
102
}
330
4D
100
AcDbScale
 70
     0
300
1'-0" = 1'-0"
140
12.0
141
12.0
290
     0
  0
VISUALSTYLE
  5
2F
102
{ACAD_REACTORS
330
2A
102
}
330
2A
100
AcDbVisualStyle
  2
2dWireframe
 70
     4
 71
     0
 72
     2
 73
     0
 90
        0
 40
-0.6
 41
-30.0
 62
     5
 63
     7
 74
     1
 91
        4
 64
     7
 65
   257
 75
     1
175
     1
 42
1.0
 92
        0
 66
   257
 43
1.0
 76
     1
 77
     6
 78
     2
 67
     7
 79
     5
170
     0
171
     0
290
     0
174
     0
 93
        1
 44
0.0
173
     0
291
     0
 45
0.0
1001
ACAD
1000
AcDbSavedByObjectVersion
1070
     0
  0
VISUALSTYLE
  5
31
102
{ACAD_REACTORS
330
2A
102
}
330
2A
100
AcDbVisualStyle
  2
3D Hidden
 70
     6
 71
     1
 72
     2
 73
     2
 90
        0
 40
-0.6
 41
-30.0
 62
     5
 63
     7
 74
     2
 91
        2
 64
     7
 65
   257
 75
     2
175
     1
 42
40.0
 92
        0
 66
   257
 43
1.0
 76
     1
 77
     6
 78
     2
 67
     7
 79
     3
170
     0
171
     0
290
     0
174
     0
 93
        1
 44
0.0
173
     0
291
     0
 45
0.0
1001
ACAD
1000
AcDbSavedByObjectVersion
1070
     0
  0
VISUALSTYLE
  5
30
102
{ACAD_REACTORS
330
2A
102
}
330
2A
100
AcDbVisualStyle
  2
3dWireframe
 70
     5
 71
     0
 72
     2
 73
     0
 90
        0
 40
-0.6
 41
-30.0
 62
     5
 63
     7
 74
     1
 91
        4
 64
     7
 65
   257
 75
     1
175
     1
 42
1.0
 92
        0
 66
   257
 43
1.0
 76
     1
 77
     6
 78
     2
 67
     7
 79
     5
170
     0
171
     0
290
     0
174
     0
 93
        1
 44
0.0
173
     0
291
     0
 45
0.0
1001
ACAD
1000
AcDbSavedByObjectVersion
1070
     0
  0
VISUALSTYLE
  5
32
102
{ACAD_REACTORS
330
2A
102
}
330
2A
100
AcDbVisualStyle
  2
Basic
 70
     7
 71
     1
 72
     0
 73
     1
 90
        0
 40
-0.6
 41
-30.0
 62
     5
 63
     7
 74
     0
 91
        4
 64
     7
 65
   257
 75
     1
175
     1
 42
1.0
 92
        8
 66
     7
 43
1.0
 76
     1
 77
     6
 78
     2
 67
     7
 79
     5
170
     0
171
     0
290
     0
174
     0
 93
        1
 44
0.0
173
     0
291
     1
 45
0.0
1001
ACAD
1000
AcDbSavedByObjectVersion
1070
     0
  0
VISUALSTYLE
  5
36
102
{ACAD_REACTORS
330
2A
102
}
330
2A
100
AcDbVisualStyle
  2
Brighten
 70
    12
 71
     2
 72
     2
 73
     0
 90
        0
 40
-0.6
 41
-30.0
 62
     5
 63
     7
 74
     1
 91
        4
 64
     7
 65
   257
 75
     1
175
     1
 42
1.0
 92
        8
 66
     7
 43
1.0
 76
     1
 77
     6
 78
     2
 67
     7
 79
     5
170
     0
171
     0
290
     0
174
     0
 93
        1
 44
50.0
173
     0
291
     1
 45
0.0
1001
ACAD
1000
AcDbSavedByObjectVersion
1070
     0
  0
VISUALSTYLE
  5
3A
102
{ACAD_REACTORS
330
2A
102
}
330
2A
100
AcDbVisualStyle
  2
ColorChange
 70
    16
 71
     2
 72
     2
 73
     3
 90
        0
 40
-0.6
 41
-30.0
 62
     5
 63
     8
 74
     1
 91
        4
 64
     7
 65
   257
 75
     1
175
     1
 42
1.0
 92
        8
 66
     8
 43
1.0
 76
     1
 77
     6
 78
     2
 67
     7
 79
     5
170
     0
171
     0
290
     0
174
     0
 93
        1
 44
0.0
173
     0
291
     1
 45
0.0
1001
ACAD
1000
AcDbSavedByObjectVersion
1070
     0
  0
VISUALSTYLE
  5
34
102
{ACAD_REACTORS
330
2A
102
}
330
2A
100
AcDbVisualStyle
  2
Conceptual
 70
     9
 71
     3
 72
     2
 73
     0
 90
        0
 40
-0.6
 41
-30.0
 62
     5
 63
     7
 74
     2
 91
        2
 64
     7
 65
   257
 75
     1
175
     1
 42
40.0
 92
        8
 66
     7
 43
1.0
 76
     1
 77
     6
 78
     2
 67
     7
 79
     3
170
     0
171
     0
290
     0
174
     0
 93
        1
 44
0.0
173
     0
291
     0
 45
0.0
1001
ACAD
1000
AcDbSavedByObjectVersion
1070
     0
  0
VISUALSTYLE
  5
35
102
{ACAD_REACTORS
330
2A
102
}
330
2A
100
AcDbVisualStyle
  2
Dim
 70
    11
 71
     2
 72
     2
 73
     0
 90
        0
 40
-0.6
 41
-30.0
 62
     5
 63
     7
 74
     1
 91
        4
 64
     7
 65
   257
 75
     1
175
     1
 42
1.0
 92
        8
 66
     7
 43
1.0
 76
     1
 77
     6
 78
     2
 67
     7
 79
     5
170
     0
171
     0
290
     0
174
     0
 93
        1
 44
-50.0
173
     0
291
     1
 45
0.0
1001
ACAD
1000
AcDbSavedByObjectVersion
1070
     0
  0
VISUALSTYLE
  5
39
102
{ACAD_REACTORS
330
2A
102
}
330
2A
100
AcDbVisualStyle
  2
Facepattern
 70
    15
 71
     2
 72
     2
 73
     0
 90
        0
 40
-0.6
 41
-30.0
 62
     5
 63
     7
 74
     1
 91
        4
 64
     7
 65
   257
 75
     1
175
     1
 42
1.0
 92
        8
 66
     7
 43
1.0
 76
     1
 77
     6
 78
     2
 67
     7
 79
     5
170
     0
171
     0
290
     0
174
     0
 93
        1
 44
0.0
173
     0
291
     1
 45
0.0
1001
ACAD
1000
AcDbSavedByObjectVersion
1070
     0
  0
VISUALSTYLE
  5
2B
102
{ACAD_REACTORS
330
2A
102
}
330
2A
100
AcDbVisualStyle
  2
Flat
 70
     0
 71
     2
 72
     1
 73
     1
 90
        2
 40
-0.6
 41
30.0
 62
     5
 63
     7
 74
     0
 91
        4
 64
     7
 65
   257
 75
     1
175
     1
 42
1.0
 92
        8
 66
     7
 43
1.0
 76
     1
 77
     6
 78
     2
 67
     7
 79
     5
170
     0
171
     0
290
     0
174
     0
 93
       13
 44
0.0
173
     0
291
     1
 45
0.0
1001
ACAD
1000
AcDbSavedByObjectVersion
1070
     0
  0
VISUALSTYLE
  5
2C
102
{ACAD_REACTORS
330
2A
102
}
330
2A
100
AcDbVisualStyle
  2
FlatWithEdges
 70
     1
 71
     2
 72
     1
 73
     1
 90
        2
 40
-0.6
 41
30.0
 62
     5
 63
     7
 74
     1
 91
        4
 64
     7
 65
   257
 75
     1
175
     1
 42
1.0
 92
        0
 66
   257
 43
1.0
 76
     1
 77
     6
 78
     2
 67
     7
 79
     5
170
     0
171
     0
290
     0
174
     0
 93
       13
 44
0.0
173
     0
291
     1
 45
0.0
1001
ACAD
1000
AcDbSavedByObjectVersion
1070
     0
  0
VISUALSTYLE
  5
2D
102
{ACAD_REACTORS
330
2A
102
}
330
2A
100
AcDbVisualStyle
  2
Gouraud
 70
     2
 71
     2
 72
     2
 73
     1
 90
        2
 40
-0.6
 41
30.0
 62
     5
 63
     7
 74
     0
 91
        4
 64
     7
 65
   257
 75
     1
175
     1
 42
1.0
 92
        0
 66
     7
 43
1.0
 76
     1
 77
     6
 78
     2
 67
     7
 79
     5
170
     0
171
     0
290
     0
174
     0
 93
       13
 44
0.0
173
     0
291
     1
 45
0.0
1001
ACAD
1000
AcDbSavedByObjectVersion
1070
     0
  0
VISUALSTYLE
  5
2E
102
{ACAD_REACTORS
330
2A
102
}
330
2A
100
AcDbVisualStyle
  2
GouraudWithEdges
 70
     3
 71
     2
 72
     2
 73
     1
 90
        2
 40
-0.6
 41
30.0
 62
     5
 63
     7
 74
     1
 91
        4
 64
     7
 65
   257
 75
     1
175
     1
 42
1.0
 92
        0
 66
   257
 43
1.0
 76
     1
 77
     6
 78
     2
 67
     7
 79
     5
170
     0
171
     0
290
     0
174
     0
 93
       13
 44
0.0
173
     0
291
     1
 45
0.0
1001
ACAD
1000
AcDbSavedByObjectVersion
1070
     0
  0
VISUALSTYLE
  5
38
102
{ACAD_REACTORS
330
2A
102
}
330
2A
100
AcDbVisualStyle
  2
Linepattern
 70
    14
 71
     2
 72
     2
 73
     0
 90
        0
 40
-0.6
 41
-30.0
 62
     5
 63
     7
 74
     1
 91
        4
 64
     7
 65
   257
 75
     7
175
     7
 42
1.0
 92
        8
 66
     7
 43
1.0
 76
     1
 77
     6
 78
     2
 67
     7
 79
     5
170
     0
171
     0
290
     0
174
     0
 93
        1
 44
0.0
173
     0
291
     1
 45
0.0
1001
ACAD
1000
AcDbSavedByObjectVersion
1070
     0
  0
VISUALSTYLE
  5
33
102
{ACAD_REACTORS
330
2A
102
}
330
2A
100
AcDbVisualStyle
  2
Realistic
 70
     8
 71
     2
 72
     2
 73
     0
 90
        0
 40
-0.6
 41
-30.0
 62
     5
 63
     7
 74
     1
 91
        0
 64
     7
 65
   257
 75
     1
175
     1
 42
1.0
 92
        8
 66
     8
 43
1.0
 76
     1
 77
     6
 78
     2
 67
     7
 79
     5
170
     0
171
     0
290
     0
174
     0
 93
       13
 44
0.0
173
     0
291
     0
 45
0.0
1001
ACAD
1000
AcDbSavedByObjectVersion
1070
     0
  0
VISUALSTYLE
  5
37
102
{ACAD_REACTORS
330
2A
102
}
330
2A
100
AcDbVisualStyle
  2
Thicken
 70
    13
 71
     2
 72
     2
 73
     0
 90
        0
 40
-0.6
 41
-30.0
 62
     5
 63
     7
 74
     1
 91
        4
 64
     7
 65
   257
 75
     1
175
     1
 42
1.0
 92
       12
 66
     7
 43
1.0
 76
     1
 77
     6
 78
     2
 67
     7
 79
     5
170
     0
171
     0
290
     0
174
     0
 93
        1
 44
0.0
173
     0
291
     1
 45
0.0
1001
ACAD
1000
AcDbSavedByObjectVersion
1070
     0
  0
DICTIONARYVAR
  5
354
102
{ACAD_REACTORS
330
351
102
}
330
351
100
DictionaryVariables
280
     0
  1
1:1
  0
ENDSEC
  0
EOF
