  0
SECTION
  2
HEADER
  9
$ACADVER
  1
AC1015
  9
$ACADMAINTVER
 70
     6
  9
$DWGCODEPAGE
  3
ANSI_1252
  9
$INSBASE
 10
0.0
 20
0.0
 30
0.0
  9
$EXTMIN
 10
-99.25179313835704
 20
-205.1530442169172
 30
0.0
  9
$EXTMAX
 10
224.163991511221
 20
61.9768121397382
 30
0.0
  9
$LIMMIN
 10
0.0
 20
0.0
  9
$LIMMAX
 10
12.0
 20
9.0
  9
$ORTHOMODE
 70
     0
  9
$REGENMODE
 70
     1
  9
$FILLMODE
 70
     1
  9
$QTEXTMODE
 70
     0
  9
$MIRRTEXT
 70
     1
  9
$LTSCALE
 40
1.0
  9
$ATTMODE
 70
     1
  9
$TEXTSIZE
 40
0.2
  9
$TRACEWID
 40
0.05
  9
$TEXTSTYLE
  7
Standard
  9
$CLAYER
  8
0
  9
$CELTYPE
  6
ByLayer
  9
$CECOLOR
 62
   256
  9
$CELTSCALE
 40
1.0
  9
$DISPSILH
 70
     0
  9
$DIMSCALE
 40
1.0
  9
$DIMASZ
 40
0.18
  9
$DIMEXO
 40
0.0625
  9
$DIMDLI
 40
0.38
  9
$DIMRND
 40
0.0
  9
$DIMDLE
 40
0.0
  9
$DIMEXE
 40
0.18
  9
$DIMTP
 40
0.0
  9
$DIMTM
 40
0.0
  9
$DIMTXT
 40
0.18
  9
$DIMCEN
 40
0.09
  9
$DIMTSZ
 40
0.0
  9
$DIMTOL
 70
     0
  9
$DIMLIM
 70
     0
  9
$DIMTIH
 70
     1
  9
$DIMTOH
 70
     1
  9
$DIMSE1
 70
     0
  9
$DIMSE2
 70
     0
  9
$DIMTAD
 70
     0
  9
$DIMZIN
 70
     0
  9
$DIMBLK
  1

  9
$DIMASO
 70
     1
  9
$DIMSHO
 70
     1
  9
$DIMPOST
  1

  9
$DIMAPOST
  1

  9
$DIMALT
 70
     0
  9
$DIMALTD
 70
     2
  9
$DIMALTF
 40
25.4
  9
$DIMLFAC
 40
1.0
  9
$DIMTOFL
 70
     0
  9
$DIMTVP
 40
0.0
  9
$DIMTIX
 70
     0
  9
$DIMSOXD
 70
     0
  9
$DIMSAH
 70
     0
  9
$DIMBLK1
  1

  9
$DIMBLK2
  1

  9
$DIMSTYLE
  2
Standard
  9
$DIMCLRD
 70
     0
  9
$DIMCLRE
 70
     0
  9
$DIMCLRT
 70
     0
  9
$DIMTFAC
 40
1.0
  9
$DIMGAP
 40
0.09
  9
$DIMJUST
 70
     0
  9
$DIMSD1
 70
     0
  9
$DIMSD2
 70
     0
  9
$DIMTOLJ
 70
     1
  9
$DIMTZIN
 70
     0
  9
$DIMALTZ
 70
     0
  9
$DIMALTTZ
 70
     0
  9
$DIMUPT
 70
     0
  9
$DIMDEC
 70
     4
  9
$DIMTDEC
 70
     4
  9
$DIMALTU
 70
     2
  9
$DIMALTTD
 70
     2
  9
$DIMTXSTY
  7
Standard
  9
$DIMAUNIT
 70
     0
  9
$DIMADEC
 70
     0
  9
$DIMALTRND
 40
0.0
  9
$DIMAZIN
 70
     0
  9
$DIMDSEP
 70
    46
  9
$DIMATFIT
 70
     3
  9
$DIMFRAC
 70
     0
  9
$DIMLDRBLK
  1

  9
$DIMLUNIT
 70
     2
  9
$DIMLWD
 70
    -2
  9
$DIMLWE
 70
    -2
  9
$DIMTMOVE
 70
     0
  9
$LUNITS
 70
     2
  9
$LUPREC
 70
     4
  9
$SKETCHINC
 40
0.1
  9
$FILLETRAD
 40
0.5
  9
$AUNITS
 70
     0
  9
$AUPREC
 70
     0
  9
$MENU
  1
.
  9
$ELEVATION
 40
0.0
  9
$PELEVATION
 40
0.0
  9
$THICKNESS
 40
0.0
  9
$LIMCHECK
 70
     0
  9
$CHAMFERA
 40
0.5
  9
$CHAMFERB
 40
0.5
  9
$CHAMFERC
 40
1.0
  9
$CHAMFERD
 40
0.0
  9
$SKPOLY
 70
     0
  9
$TDCREATE
 40
2455644.493219225
  9
$TDUCREATE
 40
2455644.451552558
  9
$TDUPDATE
 40
2455644.493219236
  9
$TDUUPDATE
 40
2455644.451552569
  9
$TDINDWG
 40
0.0000000116
  9
$TDUSRTIMER
 40
0.0000000116
  9
$USRTIMER
 70
     1
  9
$ANGBASE
 50
0.0
  9
$ANGDIR
 70
     0
  9
$PDMODE
 70
     0
  9
$PDSIZE
 40
0.0
  9
$PLINEWID
 40
0.0
  9
$SPLFRAME
 70
     0
  9
$SPLINETYPE
 70
     6
  9
$SPLINESEGS
 70
     8
  9
$HANDSEED
  5
2BC
  9
$SURFTAB1
 70
     6
  9
$SURFTAB2
 70
     6
  9
$SURFTYPE
 70
     6
  9
$SURFU
 70
     6
  9
$SURFV
 70
     6
  9
$UCSBASE
  2

  9
$UCSNAME
  2

  9
$UCSORG
 10
0.0
 20
0.0
 30
0.0
  9
$UCSXDIR
 10
1.0
 20
0.0
 30
0.0
  9
$UCSYDIR
 10
0.0
 20
1.0
 30
0.0
  9
$UCSORTHOREF
  2

  9
$UCSORTHOVIEW
 70
     0
  9
$UCSORGTOP
 10
0.0
 20
0.0
 30
0.0
  9
$UCSORGBOTTOM
 10
0.0
 20
0.0
 30
0.0
  9
$UCSORGLEFT
 10
0.0
 20
0.0
 30
0.0
  9
$UCSORGRIGHT
 10
0.0
 20
0.0
 30
0.0
  9
$UCSORGFRONT
 10
0.0
 20
0.0
 30
0.0
  9
$UCSORGBACK
 10
0.0
 20
0.0
 30
0.0
  9
$PUCSBASE
  2

  9
$PUCSNAME
  2

  9
$PUCSORG
 10
0.0
 20
0.0
 30
0.0
  9
$PUCSXDIR
 10
1.0
 20
0.0
 30
0.0
  9
$PUCSYDIR
 10
0.0
 20
1.0
 30
0.0
  9
$PUCSORTHOREF
  2

  9
$PUCSORTHOVIEW
 70
     0
  9
$PUCSORGTOP
 10
0.0
 20
0.0
 30
0.0
  9
$PUCSORGBOTTOM
 10
0.0
 20
0.0
 30
0.0
  9
$PUCSORGLEFT
 10
0.0
 20
0.0
 30
0.0
  9
$PUCSORGRIGHT
 10
0.0
 20
0.0
 30
0.0
  9
$PUCSORGFRONT
 10
0.0
 20
0.0
 30
0.0
  9
$PUCSORGBACK
 10
0.0
 20
0.0
 30
0.0
  9
$USERI1
 70
     0
  9
$USERI2
 70
     0
  9
$USERI3
 70
     0
  9
$USERI4
 70
     0
  9
$USERI5
 70
     0
  9
$USERR1
 40
16.5
  9
$USERR2
 40
0.0
  9
$USERR3
 40
0.0
  9
$USERR4
 40
0.0
  9
$USERR5
 40
0.0
  9
$WORLDVIEW
 70
     1
  9
$SHADEDGE
 70
     3
  9
$SHADEDIF
 70
    70
  9
$TILEMODE
 70
     1
  9
$MAXACTVP
 70
    64
  9
$PINSBASE
 10
0.0
 20
0.0
 30
0.0
  9
$PLIMCHECK
 70
     0
  9
$PEXTMIN
 10
1.00000000000000E+20
 20
1.00000000000000E+20
 30
1.00000000000000E+20
  9
$PEXTMAX
 10
-1.00000000000000E+20
 20
-1.00000000000000E+20
 30
-1.00000000000000E+20
  9
$PLIMMIN
 10
0.0
 20
0.0
  9
$PLIMMAX
 10
12.0
 20
9.0
  9
$UNITMODE
 70
     0
  9
$VISRETAIN
 70
     1
  9
$PLINEGEN
 70
     0
  9
$PSLTSCALE
 70
     1
  9
$TREEDEPTH
 70
  3020
  9
$CMLSTYLE
  2
Standard
  9
$CMLJUST
 70
     0
  9
$CMLSCALE
 40
1.0
  9
$PROXYGRAPHICS
 70
     1
  9
$MEASUREMENT
 70
     1
  9
$CELWEIGHT
370
    -1
  9
$ENDCAPS
280
     0
  9
$JOINSTYLE
280
     0
  9
$LWDISPLAY
290
     0
  9
$INSUNITS
 70
     1
  9
$HYPERLINKBASE
  1

  9
$STYLESHEET
  1

  9
$XEDIT
290
     1
  9
$CEPSNTYPE
380
     0
  9
$PSTYLEMODE
290
     1
  9
$FINGERPRINTGUID
  2
{10098F10-50A3-41E1-9ACE-B0D5424EB9B6}
  9
$VERSIONGUID
  2
{FAEB1C32-E019-11D5-929B-00C0DF256EC4}
  9
$EXTNAMES
290
     1
  9
$PSVPSCALE
 40
0.0
  9
$OLESTARTUP
290
     0
  0
ENDSEC
  0
SECTION
  2
CLASSES
  0
CLASS
  1
ACDBDICTIONARYWDFLT
  2
AcDbDictionaryWithDefault
  3
ObjectDBX Classes
 90
        0
280
     0
281
     0
  0
CLASS
  1
VISUALSTYLE
  2
AcDbVisualStyle
  3
ObjectDBX Classes
 90
     4095
280
     0
281
     0
  0
CLASS
  1
SCALE
  2
AcDbScale
  3
ObjectDBX Classes
 90
     1153
280
     0
281
     0
  0
CLASS
  1

  2
exOdDbSpline
  3

 90
        0
280
     0
281
     1
  0
CLASS
  1
DICTIONARYVAR
  2
AcDbDictionaryVar
  3
ObjectDBX Classes
 90
        0
280
     0
281
     0
  0
CLASS
  1
ACDBPLACEHOLDER
  2
AcDbPlaceHolder
  3
ObjectDBX Classes
 90
        0
280
     0
281
     0
  0
CLASS
  1
LAYOUT
  2
AcDbLayout
  3
ObjectDBX Classes
 90
        0
280
     0
281
     0
  0
ENDSEC
  0
SECTION
  2
TABLES
  0
TABLE
  2
VPORT
  5
8
330
0
100
AcDbSymbolTable
 70
     1
  0
VPORT
  5
29
330
8
100
AcDbSymbolTableRecord
100
AcDbViewportTableRecord
  2
*Active
 70
     0
 10
0.0
 20
0.0
 11
1.0
 21
1.0
 12
62.45609918643198
 22
-71.5881160385895
 13
0.0
 23
0.0
 14
0.5
 24
0.5
 15
0.5
 25
0.5
 16
0.0
 26
0.0
 36
1.0
 17
0.0
 27
0.0
 37
0.0
 40
293.842841992321
 41
1.60267857142857
 42
50.0
 43
0.0
 44
0.0
 50
0.0
 51
0.0
 71
     0
 72
   100
 73
     1
 74
     3
 75
     0
 76
     0
 77
     0
 78
     0
281
     0
 65
     1
110
0.0
120
0.0
130
0.0
111
1.0
121
0.0
131
0.0
112
0.0
122
1.0
132
0.0
 79
     0
146
0.0
  0
ENDTAB
  0
TABLE
  2
LTYPE
  5
5
330
0
100
AcDbSymbolTable
 70
     8
  0
LTYPE
  5
14
330
5
100
AcDbSymbolTableRecord
100
AcDbLinetypeTableRecord
  2
ByBlock
 70
     0
  3

 72
    65
 73
     0
 40
0.0
  0
LTYPE
  5
15
330
5
100
AcDbSymbolTableRecord
100
AcDbLinetypeTableRecord
  2
ByLayer
 70
     0
  3

 72
    65
 73
     0
 40
0.0
  0
LTYPE
  5
16
330
5
100
AcDbSymbolTableRecord
100
AcDbLinetypeTableRecord
  2
Continuous
 70
     0
  3
Solid line
 72
    65
 73
     0
 40
0.0
  0
LTYPE
  5
3B
330
5
100
AcDbSymbolTableRecord
100
AcDbLinetypeTableRecord
  2
DASHED
 70
     0
  3
Dashed
 72
    65
 73
     2
 40
15.0
 49
7.0
 74
     0
 49
-8.0
 74
     0
  0
LTYPE
  5
3C
330
5
100
AcDbSymbolTableRecord
100
AcDbLinetypeTableRecord
  2
DOTTED
 70
     0
  3
Dotted
 72
    65
 73
     2
 40
1.0
 49
0.0
 74
     0
 49
-1.0
 74
     0
  0
LTYPE
  5
3D
330
5
100
AcDbSymbolTableRecord
100
AcDbLinetypeTableRecord
  2
DOT_CENTER
 70
     0
  3
Dot_Center
 72
    65
 73
     4
 40
14.0
 49
12.0
 74
     0
 49
-1.0
 74
     0
 49
0.0
 74
     0
 49
-1.0
 74
     0
  0
LTYPE
  5
3E
330
5
100
AcDbSymbolTableRecord
100
AcDbLinetypeTableRecord
  2
LONG_DASHED
 70
     0
  3
Long_Dashed
 72
    65
 73
     2
 40
15.0
 49
10.0
 74
     0
 49
-5.0
 74
     0
  0
LTYPE
  5
3F
330
5
100
AcDbSymbolTableRecord
100
AcDbLinetypeTableRecord
  2
DASH_CENTER
 70
     0
  3
Dash_Center
 72
    65
 73
     4
 40
14.0
 49
11.0
 74
     0
 49
-1.0
 74
     0
 49
1.0
 74
     0
 49
-1.0
 74
     0
  0
LTYPE
  5
40
330
5
100
AcDbSymbolTableRecord
100
AcDbLinetypeTableRecord
  2
PHANTOM
 70
     0
  3
Phantom
 72
    65
 73
     6
 40
13.0
 49
10.0
 74
     0
 49
-1.0
 74
     0
 49
0.0
 74
     0
 49
-1.0
 74
     0
 49
0.0
 74
     0
 49
-1.0
 74
     0
  0
LTYPE
  5
41
330
5
100
AcDbSymbolTableRecord
100
AcDbLinetypeTableRecord
  2
CENTER_DASH_DASH
 70
     0
  3
Center_Dash_Dash
 72
    65
 73
     6
 40
14.0
 49
9.0
 74
     0
 49
-1.0
 74
     0
 49
1.0
 74
     0
 49
-1.0
 74
     0
 49
1.0
 74
     0
 49
-1.0
 74
     0
  0
ENDTAB
  0
TABLE
  2
LAYER
  5
2
330
0
100
AcDbSymbolTable
 70
     2
  0
LAYER
  5
10
330
2
100
AcDbSymbolTableRecord
100
AcDbLayerTableRecord
  2
0
 70
     0
 62
     7
  6
Continuous
370
    -3
390
F
  0
LAYER
  5
42
330
2
100
AcDbSymbolTableRecord
100
AcDbLayerTableRecord
  2
1
 70
     0
 62
     7
  6
Continuous
370
    -3
390
F
  0
ENDTAB
  0
TABLE
  2
STYLE
  5
3
330
0
100
AcDbSymbolTable
 70
     2
  0
STYLE
  5
11
330
3
100
AcDbSymbolTableRecord
100
AcDbTextStyleTableRecord
  2
Standard
 70
     0
 40
0.0
 41
1.0
 50
0.0
 71
     0
 42
0.2
  3
txt
  4

  0
STYLE
  5
1FC
330
3
100
AcDbSymbolTableRecord
100
AcDbTextStyleTableRecord
  2
CONVERTER_11
 70
     0
 40
0.0
 41
0.9
 50
0.0
 71
     0
 42
0.2
  3
txt.shx
  4

  0
ENDTAB
  0
TABLE
  2
VIEW
  5
6
330
0
100
AcDbSymbolTable
 70
     0
  0
ENDTAB
  0
TABLE
  2
UCS
  5
7
330
0
100
AcDbSymbolTable
 70
     0
  0
ENDTAB
  0
TABLE
  2
APPID
  5
9
330
0
100
AcDbSymbolTable
 70
     1
  0
APPID
  5
12
330
9
100
AcDbSymbolTableRecord
100
AcDbRegAppTableRecord
  2
ACAD
 70
     0
  0
ENDTAB
  0
TABLE
  2
DIMSTYLE
  5
A
330
0
100
AcDbSymbolTable
 70
    12
100
AcDbDimStyleTable
  0
DIMSTYLE
105
27
330
A
100
AcDbSymbolTableRecord
100
AcDbDimStyleTableRecord
  2
Standard
 70
     0
340
11
  0
DIMSTYLE
105
200
102
{ACAD_REACTORS
330
201
102
}
330
A
100
AcDbSymbolTableRecord
100
AcDbDimStyleTableRecord
  2
ME10_DIM_10
 70
     0
  3
-24
 41
7.0
 42
0.0
 44
2.0
 73
     0
 74
     0
 77
     1
 78
     8
140
7.0
147
2.0
172
     1
173
     1
176
     4
177
     4
178
     1
271
     2
340
1FC
  0
DIMSTYLE
105
20B
102
{ACAD_REACTORS
330
20C
102
}
330
A
100
AcDbSymbolTableRecord
100
AcDbDimStyleTableRecord
  2
ME10_DIM_11
 70
     0
  3
DN<>
 41
7.0
 42
0.0
 44
2.0
 73
     0
 74
     0
 77
     1
 78
     8
140
7.0
147
2.0
172
     1
173
     1
176
     4
177
     4
178
     1
271
     2
340
1FC
  0
DIMSTYLE
105
217
102
{ACAD_REACTORS
330
218
102
}
330
A
100
AcDbSymbolTableRecord
100
AcDbDimStyleTableRecord
  2
ME10_DIM_12
 70
     0
  3
DN<>
 41
7.0
 42
0.0
 44
2.0
 73
     0
 74
     0
 77
     1
 78
     8
140
7.0
147
2.0
172
     1
173
     1
176
     4
177
     4
178
     1
271
     2
340
1FC
  0
DIMSTYLE
105
222
102
{ACAD_REACTORS
330
223
102
}
330
A
100
AcDbSymbolTableRecord
100
AcDbDimStyleTableRecord
  2
ME10_DIM_13
 70
     0
 41
7.0
 42
0.0
 44
2.0
 73
     0
 74
     0
 77
     1
 78
     8
140
7.0
147
2.0
172
     1
173
     1
176
     4
177
     4
178
     1
271
     1
340
1FC
  0
DIMSTYLE
105
22D
102
{ACAD_REACTORS
330
22E
102
}
330
A
100
AcDbSymbolTableRecord
100
AcDbDimStyleTableRecord
  2
ME10_DIM_14
 70
     0
  3
{\Fgdt;n}<>
 41
7.0
 42
0.0
 44
2.0
 73
     0
 74
     0
 77
     1
 78
     8
140
7.0
147
2.0
172
     1
173
     1
176
     4
177
     4
178
     1
271
     0
340
1FC
  0
DIMSTYLE
105
238
102
{ACAD_REACTORS
330
239
102
}
330
A
100
AcDbSymbolTableRecord
100
AcDbDimStyleTableRecord
  2
ME10_DIM_15
 70
     0
 41
7.0
 42
0.0
 44
2.0
 73
     0
 74
     0
 77
     1
 78
     8
140
7.0
147
2.0
172
     1
173
     1
176
     4
177
     4
178
     1
271
     2
340
1FC
  0
DIMSTYLE
105
243
102
{ACAD_REACTORS
330
244
102
}
330
A
100
AcDbSymbolTableRecord
100
AcDbDimStyleTableRecord
  2
ME10_DIM_16
 70
     0
 41
7.0
 42
0.0
 44
2.0
 73
     0
 74
     0
 77
     1
 78
     8
140
7.0
147
2.0
172
     1
173
     1
176
     4
177
     4
178
     1
271
     0
340
1FC
  0
DIMSTYLE
105
24E
102
{ACAD_REACTORS
330
24F
102
}
330
A
100
AcDbSymbolTableRecord
100
AcDbDimStyleTableRecord
  2
ME10_DIM_17
 70
     0
 41
7.0
 42
0.0
 44
2.0
 73
     0
 74
     0
 77
     1
 78
     8
140
7.0
147
2.0
172
     1
173
     1
176
     4
177
     4
178
     1
271
     0
340
1FC
  0
DIMSTYLE
105
259
102
{ACAD_REACTORS
330
25A
102
}
330
A
100
AcDbSymbolTableRecord
100
AcDbDimStyleTableRecord
  2
ME10_DIM_18
 70
     0
 41
7.0
 42
0.0
 44
2.0
 73
     0
 74
     0
 77
     1
 78
     8
140
7.0
147
2.0
172
     1
173
     1
176
     4
177
     4
178
     1
271
     2
340
1FC
  0
DIMSTYLE
105
264
102
{ACAD_REACTORS
330
265
102
}
330
A
100
AcDbSymbolTableRecord
100
AcDbDimStyleTableRecord
  2
ME10_DIM_19
 70
     0
 41
7.0
 42
0.0
 44
2.0
 73
     0
 74
     0
 77
     1
 78
     8
140
7.0
147
2.0
172
     1
173
     1
176
     4
177
     4
178
     1
271
     1
340
1FC
  0
DIMSTYLE
105
26F
102
{ACAD_REACTORS
330
270
102
}
330
A
100
AcDbSymbolTableRecord
100
AcDbDimStyleTableRecord
  2
ME10_DIM_20
 70
     0
 41
7.0
 42
0.0
 44
2.0
 73
     0
 74
     0
 77
     1
 78
     8
140
7.0
147
2.0
172
     1
173
     1
176
     4
177
     4
178
     1
271
     2
340
1FC
  0
ENDTAB
  0
TABLE
  2
BLOCK_RECORD
  5
1
330
0
100
AcDbSymbolTable
 70
    23
  0
BLOCK_RECORD
  5
1F
330
1
100
AcDbSymbolTableRecord
100
AcDbBlockTableRecord
  2
*Model_Space
340
22
  0
BLOCK_RECORD
  5
1B
330
1
100
AcDbSymbolTableRecord
100
AcDbBlockTableRecord
  2
*Paper_Space
340
1E
  0
BLOCK_RECORD
  5
23
330
1
100
AcDbSymbolTableRecord
100
AcDbBlockTableRecord
  2
*Paper_Space0
340
26
  0
BLOCK_RECORD
  5
43
330
1
100
AcDbSymbolTableRecord
100
AcDbBlockTableRecord
  2
DA-195555623-Edelstahlkappe-verpresst
340
0
102
{BLKREFS
331
69
102
}
  0
BLOCK_RECORD
  5
46
330
1
100
AcDbSymbolTableRecord
100
AcDbBlockTableRecord
  2
Bg-11092-Abdeckplatte
340
0
102
{BLKREFS
331
82
102
}
  0
BLOCK_RECORD
  5
6C
330
1
100
AcDbSymbolTableRecord
100
AcDbBlockTableRecord
  2
01076D_Ventildichtung
340
0
102
{BLKREFS
331
83
102
}
  0
BLOCK_RECORD
  5
6F
330
1
100
AcDbSymbolTableRecord
100
AcDbBlockTableRecord
  2
0522_1E_Schraubventil_3-23
340
0
102
{BLKREFS
331
84
102
}
  0
BLOCK_RECORD
  5
72
330
1
100
AcDbSymbolTableRecord
100
AcDbBlockTableRecord
  2
HL522_Abgangsbogen_DN40_50_90Grad
340
0
102
{BLKREFS
331
7C
102
}
  0
BLOCK_RECORD
  5
75
330
1
100
AcDbSymbolTableRecord
100
AcDbBlockTableRecord
  2
HL522_Körper
340
0
102
{BLKREFS
331
7D
102
}
  0
BLOCK_RECORD
  5
78
330
1
100
AcDbSymbolTableRecord
100
AcDbBlockTableRecord
  2
HL522_Abgangsbogen_DN40_50
340
0
102
{BLKREFS
331
7E
102
}
  0
BLOCK_RECORD
  5
7B
330
1
100
AcDbSymbolTableRecord
100
AcDbBlockTableRecord
  2
Bgr_HL522
340
0
102
{BLKREFS
331
85
102
}
  0
BLOCK_RECORD
  5
81
330
1
100
AcDbSymbolTableRecord
100
AcDbBlockTableRecord
  2
HL_522_Brausetassensifon
340
0
102
{BLKREFS
331
8E
102
}
  0
BLOCK_RECORD
  5
88
330
1
100
AcDbSymbolTableRecord
100
AcDbBlockTableRecord
  2
GV_Einsatz-Rohr
340
0
102
{BLKREFS
331
8F
102
}
  0
BLOCK_RECORD
  5
8B
330
1
100
AcDbSymbolTableRecord
100
AcDbBlockTableRecord
  2
11073-Kappenhalter-520-522-verpresst
340
0
102
{BLKREFS
331
90
102
}
  0
BLOCK_RECORD
  5
1F4
330
1
100
AcDbSymbolTableRecord
100
AcDbBlockTableRecord
  2
*D12
340
0
  0
BLOCK_RECORD
  5
202
330
1
100
AcDbSymbolTableRecord
100
AcDbBlockTableRecord
  2
*D13
340
0
  0
BLOCK_RECORD
  5
20D
330
1
100
AcDbSymbolTableRecord
100
AcDbBlockTableRecord
  2
*D14
340
0
  0
BLOCK_RECORD
  5
219
330
1
100
AcDbSymbolTableRecord
100
AcDbBlockTableRecord
  2
*D15
340
0
  0
BLOCK_RECORD
  5
224
330
1
100
AcDbSymbolTableRecord
100
AcDbBlockTableRecord
  2
*D16
340
0
  0
BLOCK_RECORD
  5
22F
330
1
100
AcDbSymbolTableRecord
100
AcDbBlockTableRecord
  2
*D17
340
0
  0
BLOCK_RECORD
  5
23A
330
1
100
AcDbSymbolTableRecord
100
AcDbBlockTableRecord
  2
*D18
340
0
  0
BLOCK_RECORD
  5
245
330
1
100
AcDbSymbolTableRecord
100
AcDbBlockTableRecord
  2
*D19
340
0
  0
BLOCK_RECORD
  5
250
330
1
100
AcDbSymbolTableRecord
100
AcDbBlockTableRecord
  2
*D20
340
0
  0
BLOCK_RECORD
  5
25B
330
1
100
AcDbSymbolTableRecord
100
AcDbBlockTableRecord
  2
*D21
340
0
  0
BLOCK_RECORD
  5
266
330
1
100
AcDbSymbolTableRecord
100
AcDbBlockTableRecord
  2
*D22
340
0
  0
ENDTAB
  0
ENDSEC
  0
SECTION
  2
BLOCKS
  0
BLOCK
  5
20
330
1F
100
AcDbEntity
  8
0
100
AcDbBlockBegin
  2
*Model_Space
 70
     0
 10
0.0
 20
0.0
 30
0.0
  3
*Model_Space
  1

  0
ENDBLK
  5
21
330
1F
100
AcDbEntity
  8
0
100
AcDbBlockEnd
  0
BLOCK
  5
1C
330
1B
100
AcDbEntity
 67
     1
  8
0
100
AcDbBlockBegin
  2
*Paper_Space
 70
     0
 10
0.0
 20
0.0
 30
0.0
  3
*Paper_Space
  1

  0
ENDBLK
  5
1D
330
1B
100
AcDbEntity
 67
     1
  8
0
100
AcDbBlockEnd
  0
BLOCK
  5
24
330
23
100
AcDbEntity
  8
0
100
AcDbBlockBegin
  2
*Paper_Space0
 70
     0
 10
0.0
 20
0.0
 30
0.0
  3
*Paper_Space0
  1

  0
ENDBLK
  5
25
330
23
100
AcDbEntity
  8
0
100
AcDbBlockEnd
  0
BLOCK
  5
44
330
43
100
AcDbEntity
  8
0
100
AcDbBlockBegin
  2
DA-195555623-Edelstahlkappe-verpresst
 70
     0
 10
-0.00000000000033
 20
29.01078214746869
 30
0.0
  3
DA-195555623-Edelstahlkappe-verpresst
  1

  0
LINE
  5
91
330
43
100
AcDbEntity
  8
0
  6
Continuous
 62
     7
100
AcDbLine
 10
-54.41075584673095
 20
26.81273429419929
 30
0.0
 11
-39.22194394726864
 21
26.81273429419929
 31
0.0
  0
LINE
  5
92
330
43
100
AcDbEntity
  8
0
  6
Continuous
 62
     3
100
AcDbLine
 10
-56.65297197665214
 20
28.0620033713775
 30
0.0
 11
56.65297197665164
 21
28.0620033713775
 31
0.0
  0
LINE
  5
93
330
43
100
AcDbEntity
  8
0
  6
Continuous
 62
     7
100
AcDbLine
 10
39.22194394726824
 20
26.81273429419929
 30
0.0
 11
54.41075584673045
 21
26.81273429419929
 31
0.0
  0
LINE
  5
94
330
43
100
AcDbEntity
  8
0
  6
Continuous
 62
     7
100
AcDbLine
 10
22.61050882440526
 20
26.8127342941994
 30
0.0
 11
39.22194394726824
 21
26.81273429419929
 31
0.0
  0
LINE
  5
95
330
43
100
AcDbEntity
  8
0
  6
Continuous
 62
     7
100
AcDbLine
 10
1.23435859126096
 20
26.81273429419929
 30
0.0
 11
1.24999999999975
 21
26.81273429419929
 31
0.0
  0
LINE
  5
96
330
43
100
AcDbEntity
  8
0
  6
Continuous
 62
     7
100
AcDbLine
 10
-1.23435859126144
 20
26.81273429419929
 30
0.0
 11
1.23435859126096
 21
26.81273429419929
 31
0.0
  0
LINE
  5
97
330
43
100
AcDbEntity
  8
0
  6
Continuous
 62
     7
100
AcDbLine
 10
-22.61050882440574
 20
26.81273429419929
 30
0.0
 11
-1.25000000000025
 21
26.81273429419929
 31
0.0
  0
LINE
  5
98
330
43
100
AcDbEntity
  8
0
  6
Continuous
 62
     7
100
AcDbLine
 10
-1.25000000000025
 20
26.81273429419929
 30
0.0
 11
-1.23435859126144
 21
26.81273429419929
 31
0.0
  0
LINE
  5
99
330
43
100
AcDbEntity
  8
0
  6
Continuous
 62
     7
100
AcDbLine
 10
1.24999999999975
 20
26.81273429419929
 30
0.0
 11
22.61050882440526
 21
26.8127342941994
 31
0.0
  0
LINE
  5
9A
330
43
100
AcDbEntity
  8
0
  6
Continuous
 62
     7
100
AcDbLine
 10
54.41075584673045
 20
26.81273429419929
 30
0.0
 11
56.26912744711625
 21
26.81273429419929
 31
0.0
  0
LINE
  5
9B
330
43
100
AcDbEntity
  8
0
  6
Continuous
 62
     7
100
AcDbLine
 10
-56.26912744711675
 20
26.81273429419929
 30
0.0
 11
-54.41075584673095
 21
26.81273429419929
 31
0.0
  0
LINE
  5
9C
330
43
100
AcDbEntity
  8
0
  6
Continuous
 62
     7
100
AcDbLine
 10
-39.22194394726864
 20
26.81273429419929
 30
0.0
 11
-22.61050882440574
 21
26.81273429419929
 31
0.0
  0
LINE
  5
9D
330
43
100
AcDbEntity
  8
0
  6
Continuous
 62
     7
100
AcDbLine
 10
-56.26912744711675
 20
26.81273429419929
 30
0.0
 11
-56.65297197665214
 21
28.0620033713775
 31
0.0
  0
LINE
  5
9E
330
43
100
AcDbEntity
  8
0
  6
Continuous
 62
     7
100
AcDbLine
 10
56.26912744711625
 20
26.81273429419929
 30
0.0
 11
56.65297197665164
 21
28.0620033713775
 31
0.0
  0
LINE
  5
9F
330
43
100
AcDbEntity
  8
0
  6
Continuous
 62
     3
100
AcDbLine
 10
-54.57402859362156
 20
30.90802140565191
 30
0.0
 11
54.57402859362105
 21
30.90802140565191
 31
0.0
  0
LINE
  5
A0
330
43
100
AcDbEntity
  8
1
  6
DOT_CENTER
 62
     2
100
AcDbLine
 10
-0.00000000000025
 20
26.81273429419929
 30
0.0
 11
-0.00000000000025
 21
28.0620033713775
 31
0.0
  0
ARC
  5
A1
330
43
100
AcDbEntity
  8
0
  6
Continuous
 62
     7
100
AcDbCircle
 10
0.00063284030626
 20
-4919.357840154718
 30
0.0
 40
4950.566670155456
100
AcDbArc
 50
89.36837764412972
 51
90.00000732422792
  0
ARC
  5
A2
330
43
100
AcDbEntity
  8
0
  6
Continuous
 62
     7
100
AcDbCircle
 10
-54.55000000000035
 20
28.7081526307727
 30
0.0
 40
2.19999999999999
100
AcDbArc
 50
90.62580198903926
 51
197.0798523209843
  0
ARC
  5
A3
330
43
100
AcDbEntity
  8
0
  6
Continuous
 62
     7
100
AcDbCircle
 10
54.54999999999964
 20
28.7081526307727
 30
0.0
 40
2.200000000000134
100
AcDbArc
 50
342.9201476790172
 51
89.37419801095555
  0
ARC
  5
A4
330
43
100
AcDbEntity
  8
0
  6
Continuous
 62
     7
100
AcDbCircle
 10
-0.00063284030676
 20
-4919.357840154718
 30
0.0
 40
4950.566670155456
100
AcDbArc
 50
89.99999267577206
 51
90.63162235587029
  0
ENDBLK
  5
45
330
43
100
AcDbEntity
  8
0
100
AcDbBlockEnd
  0
BLOCK
  5
6A
330
46
100
AcDbEntity
  8
0
100
AcDbBlockBegin
  2
Bg-11092-Abdeckplatte
 70
     0
 10
-0.00000000000033
 20
25.58733633524297
 30
0.0
  3
Bg-11092-Abdeckplatte
  1

  0
INSERT
  5
69
330
46
100
AcDbEntity
  8
0
100
AcDbBlockReference
  2
DA-195555623-Edelstahlkappe-verpresst
 10
-0.00000000000033
 20
29.01078214746869
 30
0.0
  0
ENDBLK
  5
6B
330
46
100
AcDbEntity
  8
0
100
AcDbBlockEnd
  0
BLOCK
  5
6D
330
6C
100
AcDbEntity
  8
0
100
AcDbBlockBegin
  2
01076D_Ventildichtung
 70
     0
 10
0.00000000000002
 20
2.50000000000001
 30
0.0
  3
01076D_Ventildichtung
  1

  0
LINE
  5
A5
330
6C
100
AcDbEntity
  8
0
  6
Continuous
 62
     7
100
AcDbLine
 10
-55.00000000000007
 20
1.0
 30
0.0
 11
-49.42435935394488
 21
1.0
 31
0.0
  0
LINE
  5
A6
330
6C
100
AcDbEntity
  8
0
  6
Continuous
 62
     7
100
AcDbLine
 10
-55.00000000000007
 20
4.0
 30
0.0
 11
55.00000000000011
 21
4.0
 31
0.0
  0
LINE
  5
A7
330
6C
100
AcDbEntity
  8
0
  6
Continuous
 62
     7
100
AcDbLine
 10
48.46410161513779
 20
4.5
 30
0.0
 11
48.42299942786002
 21
4.49999999999999
 31
0.0
  0
LINE
  5
A8
330
6C
100
AcDbEntity
  8
0
  6
Continuous
 62
     7
100
AcDbLine
 10
48.46410161513779
 20
4.5
 30
0.0
 11
48.7527767497326
 21
4.0
 31
0.0
  0
LINE
  5
A9
330
6C
100
AcDbEntity
  8
0
  6
Continuous
 62
     7
100
AcDbLine
 10
44.49282032302757
 20
4.50000000000002
 30
0.0
 11
46.47846096908268
 21
4.5
 31
0.0
  0
LINE
  5
AA
330
6C
100
AcDbEntity
  8
0
  6
Continuous
 62
     7
100
AcDbLine
 10
44.05000000000003
 20
4.49999999999999
 30
0.0
 11
44.49282032302757
 21
4.50000000000002
 31
0.0
  0
LINE
  5
AB
330
6C
100
AcDbEntity
  8
0
  6
Continuous
 62
     7
100
AcDbLine
 10
-48.42299942785998
 20
4.49999999999999
 30
0.0
 11
-48.46410161513778
 21
4.5
 31
0.0
  0
LINE
  5
AC
330
6C
100
AcDbEntity
  8
0
  6
Continuous
 62
     7
100
AcDbLine
 10
-48.46410161513778
 20
4.5
 30
0.0
 11
-48.75277674973258
 21
4.0
 31
0.0
  0
LINE
  5
AD
330
6C
100
AcDbEntity
  8
0
  6
Continuous
 62
     7
100
AcDbLine
 10
-44.49282032302747
 20
4.50000000000002
 30
0.0
 11
-44.04999999999997
 21
4.49999999999999
 31
0.0
  0
LINE
  5
AE
330
6C
100
AcDbEntity
  8
0
  6
Continuous
 62
     7
100
AcDbLine
 10
-48.42299942785998
 20
4.49999999999999
 30
0.0
 11
-46.47846096908268
 21
4.5
 31
0.0
  0
LINE
  5
AF
330
6C
100
AcDbEntity
  8
0
  6
Continuous
 62
     7
100
AcDbLine
 10
-46.47846096908268
 20
4.5
 30
0.0
 11
-44.49282032302747
 21
4.50000000000002
 31
0.0
  0
LINE
  5
B0
330
6C
100
AcDbEntity
  8
0
  6
Continuous
 62
     7
100
AcDbLine
 10
46.47846096908268
 20
4.5
 30
0.0
 11
48.42299942786002
 21
4.49999999999999
 31
0.0
  0
LINE
  5
B1
330
6C
100
AcDbEntity
  8
0
  6
Continuous
 62
     7
100
AcDbLine
 10
-44.04999999999997
 20
4.49999999999999
 30
0.0
 11
44.05000000000003
 21
4.49999999999999
 31
0.0
  0
LINE
  5
B2
330
6C
100
AcDbEntity
  8
0
  6
Continuous
 62
     7
100
AcDbLine
 10
-49.28717967697237
 20
0.5
 30
0.0
 11
-49.42435935394488
 21
1.0
 31
0.0
  0
LINE
  5
B3
330
6C
100
AcDbEntity
  8
0
  6
Continuous
 62
     7
100
AcDbLine
 10
49.42435935394489
 20
1.0
 30
0.0
 11
55.00000000000011
 21
1.0
 31
0.0
  0
LINE
  5
B4
330
6C
100
AcDbEntity
  8
0
  6
Continuous
 62
     7
100
AcDbLine
 10
49.28717967697247
 20
0.50000000000001
 30
0.0
 11
49.42435935394489
 21
1.0
 31
0.0
  0
LINE
  5
B5
330
6C
100
AcDbEntity
  8
0
  6
Continuous
 62
     7
100
AcDbLine
 10
39.70000000000003
 20
1.0
 30
0.0
 11
49.42435935394489
 21
1.0
 31
0.0
  0
LINE
  5
B6
330
6C
100
AcDbEntity
  8
0
  6
Continuous
 62
     7
100
AcDbLine
 10
-39.69999999999997
 20
1.0
 30
0.0
 11
39.70000000000003
 21
1.0
 31
0.0
  0
LINE
  5
B7
330
6C
100
AcDbEntity
  8
0
  6
Continuous
 62
     7
100
AcDbLine
 10
-49.42435935394488
 20
1.0
 30
0.0
 11
-39.69999999999997
 21
1.0
 31
0.0
  0
LINE
  5
B8
330
6C
100
AcDbEntity
  8
0
  6
Continuous
 62
     7
100
AcDbLine
 10
55.00000000000011
 20
1.0
 30
0.0
 11
55.00000000000011
 21
4.0
 31
0.0
  0
LINE
  5
B9
330
6C
100
AcDbEntity
  8
0
  6
Continuous
 62
     7
100
AcDbLine
 10
-55.00000000000007
 20
1.0
 30
0.0
 11
-55.00000000000007
 21
4.0
 31
0.0
  0
ENDBLK
  5
6E
330
6C
100
AcDbEntity
  8
0
100
AcDbBlockEnd
  0
BLOCK
  5
70
330
6F
100
AcDbEntity
  8
0
100
AcDbBlockBegin
  2
0522_1E_Schraubventil_3-23
 70
     0
 10
0.00000000000003
 20
12.25
 30
0.0
  3
0522_1E_Schraubventil_3-23
  1

  0
LINE
  5
BA
330
6F
100
AcDbEntity
  8
0
  6
Continuous
 62
     2
100
AcDbLine
 10
-41.79999999999941
 20
4.49999999999999
 30
0.0
 11
-41.79999999999941
 21
9.32573971493477
 31
0.0
  0
LINE
  5
BB
330
6F
100
AcDbEntity
  8
0
  6
Continuous
 62
     7
100
AcDbLine
 10
-43.00000000000014
 20
4.49999999999999
 30
0.0
 11
-43.00000000000014
 21
9.6472787458508
 31
0.0
  0
LINE
  5
BC
330
6F
100
AcDbEntity
  8
0
  6
Continuous
 62
     7
100
AcDbLine
 10
-44.86926638587843
 20
14.68908864562692
 30
0.0
 11
-48.42299942786135
 21
14.99999999999929
 31
0.0
  0
LINE
  5
BD
330
6F
100
AcDbEntity
  8
1
  6
Continuous
 62
     7
100
AcDbLine
 10
0.0
 20
13.19479659849023
 30
0.0
 11
-43.50000000000014
 21
13.19479659849023
 31
0.0
  0
LINE
  5
BE
330
6F
100
AcDbEntity
  8
1
  6
Continuous
 62
     7
100
AcDbLine
 10
-43.50000000000014
 20
13.19479659849023
 30
0.0
 11
-43.50000000000014
 21
9.7812533420649
 31
0.0
  0
LINE
  5
BF
330
6F
100
AcDbEntity
  8
1
  6
Continuous
 62
     7
100
AcDbLine
 10
0.0
 20
9.7812533420649
 30
0.0
 11
-43.50000000000014
 21
9.7812533420649
 31
0.0
  0
LINE
  5
C0
330
6F
100
AcDbEntity
  8
1
  6
Continuous
 62
     7
100
AcDbLine
 10
0.00000000000001
 20
9.32573971493477
 30
0.0
 11
-41.79999999999941
 21
9.32573971493477
 31
0.0
  0
LINE
  5
C1
330
6F
100
AcDbEntity
  8
1
  6
Continuous
 62
     7
100
AcDbLine
 10
-41.79999999999941
 20
9.32573971493477
 30
0.0
 11
-43.00000000000014
 21
9.6472787458508
 31
0.0
  0
LINE
  5
C2
330
6F
100
AcDbEntity
  8
1
  6
Continuous
 62
     7
100
AcDbLine
 10
-43.50000000000014
 20
9.7812533420649
 30
0.0
 11
-43.00000000000014
 21
9.6472787458508
 31
0.0
  0
LINE
  5
C3
330
6F
100
AcDbEntity
  8
0
  6
Continuous
 62
     2
100
AcDbLine
 10
41.79999999999943
 20
9.32573971493477
 30
0.0
 11
41.79999999999943
 21
4.49999999999999
 31
0.0
  0
LINE
  5
C4
330
6F
100
AcDbEntity
  8
0
  6
Continuous
 62
     7
100
AcDbLine
 10
43.00000000000016
 20
9.6472787458508
 30
0.0
 11
43.00000000000016
 21
4.49999999999999
 31
0.0
  0
LINE
  5
C5
330
6F
100
AcDbEntity
  8
1
  6
Continuous
 62
     7
100
AcDbLine
 10
43.00000000000016
 20
9.6472787458508
 30
0.0
 11
43.50000000000016
 21
9.7812533420649
 31
0.0
  0
LINE
  5
C6
330
6F
100
AcDbEntity
  8
1
  6
Continuous
 62
     7
100
AcDbLine
 10
43.00000000000016
 20
9.6472787458508
 30
0.0
 11
41.79999999999943
 21
9.32573971493477
 31
0.0
  0
LINE
  5
C7
330
6F
100
AcDbEntity
  8
1
  6
Continuous
 62
     7
100
AcDbLine
 10
41.79999999999943
 20
9.32573971493477
 30
0.0
 11
0.00000000000001
 21
9.32573971493477
 31
0.0
  0
LINE
  5
C8
330
6F
100
AcDbEntity
  8
1
  6
Continuous
 62
     7
100
AcDbLine
 10
43.50000000000016
 20
9.7812533420649
 30
0.0
 11
0.0
 21
9.7812533420649
 31
0.0
  0
LINE
  5
C9
330
6F
100
AcDbEntity
  8
1
  6
Continuous
 62
     7
100
AcDbLine
 10
43.50000000000016
 20
9.7812533420649
 30
0.0
 11
43.50000000000016
 21
13.19479659849023
 31
0.0
  0
LINE
  5
CA
330
6F
100
AcDbEntity
  8
1
  6
Continuous
 62
     7
100
AcDbLine
 10
43.50000000000016
 20
13.19479659849023
 30
0.0
 11
0.0
 21
13.19479659849023
 31
0.0
  0
LINE
  5
CB
330
6F
100
AcDbEntity
  8
0
  6
Continuous
 62
     7
100
AcDbLine
 10
48.42299942786137
 20
14.99999999999929
 30
0.0
 11
44.86926638587845
 21
14.68908864562692
 31
0.0
  0
LINE
  5
CC
330
6F
100
AcDbEntity
  8
0
  6
Continuous
 62
     7
100
AcDbLine
 10
56.00000000000003
 20
19.20000000000001
 30
0.0
 11
-55.99999999999997
 21
19.20000000000001
 31
0.0
  0
LINE
  5
CD
330
6F
100
AcDbEntity
  8
0
  6
Continuous
 62
     7
100
AcDbLine
 10
56.00000000000003
 20
20.0
 30
0.0
 11
56.00000000000003
 21
19.20000000000001
 31
0.0
  0
LINE
  5
CE
330
6F
100
AcDbEntity
  8
0
  6
Continuous
 62
     7
100
AcDbLine
 10
56.00000000000003
 20
20.0
 30
0.0
 11
54.32325174739972
 21
20.0
 31
0.0
  0
LINE
  5
CF
330
6F
100
AcDbEntity
  8
0
  6
Continuous
 62
     7
100
AcDbLine
 10
-48.42299942785998
 20
14.99999999999999
 30
0.0
 11
-55.99999999999997
 21
19.20000000000001
 31
0.0
  0
LINE
  5
D0
330
6F
100
AcDbEntity
  8
0
  6
Continuous
 62
     7
100
AcDbLine
 10
48.42299942786002
 20
14.99999999999999
 30
0.0
 11
56.00000000000003
 21
19.20000000000001
 31
0.0
  0
LINE
  5
D1
330
6F
100
AcDbEntity
  8
0
  6
Continuous
 62
     7
100
AcDbLine
 10
-0.99999999999999
 20
20.0
 30
0.0
 11
-55.99999999999997
 21
20.0
 31
0.0
  0
LINE
  5
D2
330
6F
100
AcDbEntity
  8
0
  6
Continuous
 62
     7
100
AcDbLine
 10
1.00000000000001
 20
20.0
 30
0.0
 11
-0.99999999999999
 21
20.0
 31
0.0
  0
LINE
  5
D3
330
6F
100
AcDbEntity
  8
0
  6
Continuous
 62
     7
100
AcDbLine
 10
54.32325174739972
 20
20.0
 30
0.0
 11
39.11369993212388
 21
20.0
 31
0.0
  0
LINE
  5
D4
330
6F
100
AcDbEntity
  8
0
  6
Continuous
 62
     7
100
AcDbLine
 10
39.11369993212388
 20
20.0
 30
0.0
 11
1.00000000000001
 21
20.0
 31
0.0
  0
LINE
  5
D5
330
6F
100
AcDbEntity
  8
0
  6
Continuous
 62
     7
100
AcDbLine
 10
-48.42299942785998
 20
14.99999999999999
 30
0.0
 11
48.42299942786002
 21
14.99999999999999
 31
0.0
  0
LINE
  5
D6
330
6F
100
AcDbEntity
  8
0
  6
Continuous
 62
     7
100
AcDbLine
 10
-55.99999999999997
 20
20.0
 30
0.0
 11
-55.99999999999997
 21
19.20000000000001
 31
0.0
  0
ARC
  5
D7
330
6F
100
AcDbEntity
  8
1
  6
Continuous
 62
     7
100
AcDbCircle
 10
-45.00000000000014
 20
13.19479659849023
 30
0.0
 40
1.5
100
AcDbArc
 50
0.0
 51
84.99999999998846
  0
ARC
  5
D8
330
6F
100
AcDbEntity
  8
1
  6
Continuous
 62
     7
100
AcDbCircle
 10
45.00000000000016
 20
13.19479659849023
 30
0.0
 40
1.499999999999096
100
AcDbArc
 50
95.00000000001181
 51
180.0
  0
ENDBLK
  5
71
330
6F
100
AcDbEntity
  8
0
100
AcDbBlockEnd
  0
BLOCK
  5
73
330
72
100
AcDbEntity
  8
0
100
AcDbBlockBegin
  2
HL522_Abgangsbogen_DN40_50_90Grad
 70
     0
 10
62.79500654618856
 20
-129.4769577560539
 30
0.0
  3
HL522_Abgangsbogen_DN40_50_90Grad
  1

  0
LINE
  5
D9
330
72
100
AcDbEntity
  8
0
  6
DASHED
 62
     7
100
AcDbLine
 10
86.99500653990725
 20
-78.99552132106047
 30
0.0
 11
46.99500653991197
 21
-78.99552132099498
 31
0.0
  0
LINE
  5
DA
330
72
100
AcDbEntity
  8
0
  6
DASHED
 62
     7
100
AcDbLine
 10
86.99500653990704
 20
-76.39552132106778
 30
0.0
 11
87.59500655217778
 21
-76.3955213210692
 31
0.0
  0
LINE
  5
DB
330
72
100
AcDbEntity
  8
0
  6
DASHED
 62
     7
100
AcDbLine
 10
86.99500653990704
 20
-76.39552132106778
 30
0.0
 11
86.99500653990651
 21
-70.18500653990432
 31
0.0
  0
LINE
  5
DC
330
72
100
AcDbEntity
  8
0
  6
DASHED
 62
     7
100
AcDbLine
 10
86.99500653990833
 20
-78.99552132106047
 30
0.0
 11
86.99500653990725
 21
-78.99552132106047
 31
0.0
  0
LINE
  5
DD
330
72
100
AcDbEntity
  8
0
  6
DASHED
 62
     7
100
AcDbLine
 10
58.31590106971123
 20
-76.39552132100007
 30
0.0
 11
86.99500653990704
 21
-76.39552132106778
 31
0.0
  0
LINE
  5
DE
330
72
100
AcDbEntity
  8
0
  6
DASHED
 62
     7
100
AcDbLine
 10
54.58022225248203
 20
-77.39552132108375
 30
0.0
 11
88.59500655226873
 21
-77.39552132106192
 31
0.0
  0
LINE
  5
DF
330
72
100
AcDbEntity
  8
0
  6
DASHED
 62
     7
100
AcDbLine
 10
86.99500654424844
 20
-78.99552132106047
 30
0.0
 11
86.99500653990833
 21
-78.99552132106047
 31
0.0
  0
LINE
  5
E0
330
72
100
AcDbEntity
  8
0
  6
DASHED
 62
     7
100
AcDbLine
 10
88.59500655246518
 20
-78.99552132104591
 30
0.0
 11
88.59500655226873
 21
-77.39552132106192
 31
0.0
  0
LINE
  5
E1
330
72
100
AcDbEntity
  8
0
  6
DASHED
 62
     7
100
AcDbLine
 10
86.99500655246663
 20
-78.99552132104591
 30
0.0
 11
88.59500655246518
 21
-78.99552132104591
 31
0.0
  0
LINE
  5
E2
330
72
100
AcDbEntity
  8
0
  6
DASHED
 62
     7
100
AcDbLine
 10
87.59500655217778
 20
-76.3955213210692
 30
0.0
 11
88.59500655226873
 21
-77.39552132104009
 31
0.0
  0
LINE
  5
E3
330
72
100
AcDbEntity
  8
0
  6
DASHED
 62
     7
100
AcDbLine
 10
86.99500653990833
 20
-76.3955213210692
 30
0.0
 11
86.99500654485598
 21
-76.3955213210692
 31
0.0
  0
LINE
  5
E4
330
72
100
AcDbEntity
  8
1
  6
DASHED
 62
     2
100
AcDbLine
 10
61.99500653991196
 20
-193.1530442169172
 30
0.0
 11
61.99500653991196
 21
-129.4355023071556
 31
0.0
  0
LINE
  5
E5
330
72
100
AcDbEntity
  8
1
  6
PHANTOM
 62
     2
100
AcDbLine
 10
66.9950065399086
 20
-140.3976600550717
 30
0.0
 11
66.9950065399086
 21
-65.80087129519049
 31
0.0
  0
LINE
  5
E6
330
72
100
AcDbEntity
  8
0
  6
DASHED
 62
     7
100
AcDbLine
 10
37.93282871342088
 20
-188.9955213210459
 30
0.0
 11
86.057184366403
 21
-188.9955213210459
 31
0.0
  0
LINE
  5
E7
330
72
100
AcDbEntity
  8
0
  6
DASHED
 62
     7
100
AcDbLine
 10
53.51500653991195
 20
-133.9955213210459
 30
0.0
 11
52.49500653991194
 21
-133.9955213210459
 31
0.0
  0
LINE
  5
E8
330
72
100
AcDbEntity
  8
0
  6
DASHED
 62
     7
100
AcDbLine
 10
52.49500653991194
 20
-133.9955213210459
 30
0.0
 11
46.99500653991195
 21
-133.9955213210459
 31
0.0
  0
LINE
  5
E9
330
72
100
AcDbEntity
  8
0
  6
DASHED
 62
     7
100
AcDbLine
 10
71.49500653991193
 20
-133.9955213210459
 30
0.0
 11
70.47500653991193
 21
-133.9955213210459
 31
0.0
  0
LINE
  5
EA
330
72
100
AcDbEntity
  8
0
  6
DASHED
 62
     7
100
AcDbLine
 10
70.47500653991193
 20
-133.9955213210459
 30
0.0
 11
53.51500653991195
 21
-133.9955213210459
 31
0.0
  0
LINE
  5
EB
330
72
100
AcDbEntity
  8
0
  6
DASHED
 62
     7
100
AcDbLine
 10
46.99500653991195
 20
-133.9955213210459
 30
0.0
 11
37.99500653991195
 21
-133.9955213210459
 31
0.0
  0
LINE
  5
EC
330
72
100
AcDbEntity
  8
0
  6
DASHED
 62
     7
100
AcDbLine
 10
46.99500653991195
 20
-133.9955213210459
 30
0.0
 11
46.99500653991195
 21
-79.31112531223116
 31
0.0
  0
LINE
  5
ED
330
72
100
AcDbEntity
  8
0
  6
DASHED
 62
     7
100
AcDbLine
 10
71.99500653991193
 20
-134.4955213210459
 30
0.0
 11
70.63500653991193
 21
-134.4955213210459
 31
0.0
  0
LINE
  5
EE
330
72
100
AcDbEntity
  8
0
  6
DASHED
 62
     7
100
AcDbLine
 10
82.09500653991195
 20
-133.9955213210459
 30
0.0
 11
71.49500653991193
 21
-133.9955213210459
 31
0.0
  0
LINE
  5
EF
330
72
100
AcDbEntity
  8
0
  6
DASHED
 62
     7
100
AcDbLine
 10
70.63500653991193
 20
-134.4955213210459
 30
0.0
 11
53.35500653991195
 21
-134.4955213210459
 31
0.0
  0
LINE
  5
F0
330
72
100
AcDbEntity
  8
0
  6
DASHED
 62
     7
100
AcDbLine
 10
53.35500653991195
 20
-134.4955213210459
 30
0.0
 11
51.99500653991195
 21
-134.4955213210459
 31
0.0
  0
LINE
  5
F1
330
72
100
AcDbEntity
  8
0
  6
DASHED
 62
     7
100
AcDbLine
 10
51.99500653991195
 20
-134.9955213210459
 30
0.0
 11
51.99500653991195
 21
-134.4955213210459
 31
0.0
  0
LINE
  5
F2
330
72
100
AcDbEntity
  8
0
  6
DASHED
 62
     7
100
AcDbLine
 10
51.99500653991195
 20
-134.9955213210459
 30
0.0
 11
36.99500653991195
 21
-134.9955213210459
 31
0.0
  0
LINE
  5
F3
330
72
100
AcDbEntity
  8
0
  6
DASHED
 62
     7
100
AcDbLine
 10
71.99500653991193
 20
-134.9955213210459
 30
0.0
 11
71.99500653991193
 21
-134.4955213210459
 31
0.0
  0
LINE
  5
F4
330
72
100
AcDbEntity
  8
0
  6
DASHED
 62
     7
100
AcDbLine
 10
86.99500653991194
 20
-134.9955213210459
 30
0.0
 11
86.99500653990725
 21
-78.99552132106047
 31
0.0
  0
LINE
  5
F5
330
72
100
AcDbEntity
  8
0
  6
DASHED
 62
     7
100
AcDbLine
 10
86.99500653991194
 20
-134.9955213210459
 30
0.0
 11
71.99500653991193
 21
-134.9955213210459
 31
0.0
  0
LINE
  5
F6
330
72
100
AcDbEntity
  8
0
  6
DASHED
 62
     7
100
AcDbLine
 10
71.99500653991193
 20
-135.4955213210459
 30
0.0
 11
71.99500653991193
 21
-134.9955213210459
 31
0.0
  0
LINE
  5
F7
330
72
100
AcDbEntity
  8
0
  6
DASHED
 62
     7
100
AcDbLine
 10
71.99500653991193
 20
-135.4955213210459
 30
0.0
 11
70.63500653991193
 21
-135.4955213210459
 31
0.0
  0
LINE
  5
F8
330
72
100
AcDbEntity
  8
0
  6
DASHED
 62
     7
100
AcDbLine
 10
70.63500653991193
 20
-135.4955213210459
 30
0.0
 11
53.35500653991195
 21
-135.4955213210459
 31
0.0
  0
LINE
  5
F9
330
72
100
AcDbEntity
  8
0
  6
DASHED
 62
     7
100
AcDbLine
 10
70.63500653991193
 20
-135.4955213210459
 30
0.0
 11
70.63500653991193
 21
-134.4955213210459
 31
0.0
  0
LINE
  5
FA
330
72
100
AcDbEntity
  8
0
  6
DASHED
 62
     7
100
AcDbLine
 10
53.35500653991195
 20
-135.4955213210459
 30
0.0
 11
53.35500653991195
 21
-134.4955213210459
 31
0.0
  0
LINE
  5
FB
330
72
100
AcDbEntity
  8
0
  6
DASHED
 62
     7
100
AcDbLine
 10
53.35500653991195
 20
-135.4955213210459
 30
0.0
 11
51.99500653991195
 21
-135.4955213210459
 31
0.0
  0
LINE
  5
FC
330
72
100
AcDbEntity
  8
0
  6
DASHED
 62
     7
100
AcDbLine
 10
51.99500653991195
 20
-135.4955213210459
 30
0.0
 11
51.99500653991195
 21
-134.9955213210459
 31
0.0
  0
LINE
  5
FD
330
72
100
AcDbEntity
  8
0
  6
DASHED
 62
     7
100
AcDbLine
 10
53.51500653991195
 20
-135.9955213210459
 30
0.0
 11
52.49500653991195
 21
-135.9955213210459
 31
0.0
  0
LINE
  5
FE
330
72
100
AcDbEntity
  8
0
  6
DASHED
 62
     7
100
AcDbLine
 10
70.47500653991192
 20
-135.9955213210459
 30
0.0
 11
53.51500653991195
 21
-135.9955213210459
 31
0.0
  0
LINE
  5
FF
330
72
100
AcDbEntity
  8
0
  6
DASHED
 62
     7
100
AcDbLine
 10
71.49500653991193
 20
-135.9955213210459
 30
0.0
 11
70.47500653991192
 21
-135.9955213210459
 31
0.0
  0
LINE
  5
100
330
72
100
AcDbEntity
  8
0
  6
DASHED
 62
     7
100
AcDbLine
 10
36.99500653991195
 20
-185.4955213210459
 30
0.0
 11
37.93282871342088
 21
-188.9955213210459
 31
0.0
  0
LINE
  5
101
330
72
100
AcDbEntity
  8
0
  6
DASHED
 62
     7
100
AcDbLine
 10
86.99500653991194
 20
-185.4955213210459
 30
0.0
 11
86.057184366403
 21
-188.9955213210459
 31
0.0
  0
LINE
  5
102
330
72
100
AcDbEntity
  8
0
  6
DASHED
 62
     7
100
AcDbLine
 10
36.99500653991195
 20
-185.4955213210459
 30
0.0
 11
36.99500653991195
 21
-134.9955213210459
 31
0.0
  0
LINE
  5
103
330
72
100
AcDbEntity
  8
0
  6
DASHED
 62
     7
100
AcDbLine
 10
86.99500653991194
 20
-185.4955213210459
 30
0.0
 11
86.99500653991194
 21
-134.9955213210459
 31
0.0
  0
LINE
  5
104
330
72
100
AcDbEntity
  8
0
  6
DASHED
 62
     7
100
AcDbLine
 10
36.99500653991195
 20
-185.4955213210459
 30
0.0
 11
86.99500653991194
 21
-185.4955213210459
 31
0.0
  0
ARC
  5
105
330
72
100
AcDbEntity
  8
0
  6
DASHED
 62
     7
100
AcDbCircle
 10
52.49500653991195
 20
-134.4955213210459
 30
0.0
 40
0.5
100
AcDbArc
 50
90.00000000000082
 51
180.0
  0
ARC
  5
106
330
72
100
AcDbEntity
  8
0
  6
DASHED
 62
     7
100
AcDbCircle
 10
71.49500653991193
 20
-134.4955213210459
 30
0.0
 40
0.5
100
AcDbArc
 50
0.0
 51
90.0
  0
ARC
  5
107
330
72
100
AcDbEntity
  8
0
  6
DASHED
 62
     7
100
AcDbCircle
 10
37.99500653991195
 20
-134.9955213210459
 30
0.0
 40
1.0
100
AcDbArc
 50
90.0
 51
180.0
  0
ARC
  5
108
330
72
100
AcDbEntity
  8
0
  6
DASHED
 62
     7
100
AcDbCircle
 10
52.49500653991195
 20
-135.4955213210459
 30
0.0
 40
0.5
100
AcDbArc
 50
180.0
 51
270.0
  0
ARC
  5
109
330
72
100
AcDbEntity
  8
0
  6
DASHED
 62
     7
100
AcDbCircle
 10
71.49500653991193
 20
-135.4955213210459
 30
0.0
 40
0.5
100
AcDbArc
 50
270.0
 51
0.0
  0
SPLINE
  5
10A
330
72
100
AcDbEntity
  8
0
  6
DASHED
 62
     7
100
AcDbSpline
210
0.0
220
0.0
230
1.0
 70
     8
 71
     3
 72
    13
 73
     9
 74
     7
 42
0.0000000001
 43
0.0000000001
 44
0.00000001
 40
0.0
 40
0.0
 40
0.0
 40
0.0
 40
0.1295242792261685
 40
0.25116950384373
 40
0.3577988525611485
 40
0.4438910213935803
 40
0.5070108983732509
 40
0.5517896950645615
 40
0.5517896950645615
 40
0.5517896950645615
 40
0.5517896950645615
 10
53.35500653991195
 20
-134.4955213210459
 30
0.0
 10
53.35601543921067
 20
-134.4523153630923
 30
0.0
 10
53.3579718657417
 20
-134.3685316965309
 30
0.0
 10
53.3737501693433
 20
-134.2502955062687
 30
0.0
 10
53.39745847807327
 20
-134.1473227676209
 30
0.0
 10
53.42916508197335
 20
-134.069471606337
 30
0.0
 10
53.46490096028032
 20
-134.0105480766997
 30
0.0
 10
53.50031106743587
 20
-133.9999285203187
 30
0.0
 10
53.51500653991195
 20
-133.9955213210459
 30
0.0
 11
53.35500653991195
 21
-134.4955213210459
 31
0.0
 11
53.36045844890912
 21
-134.366111832996
 31
0.0
 11
53.37644247530644
 21
-134.2455213210459
 31
0.0
 11
53.40186948508511
 21
-134.141968024712
 31
0.0
 11
53.43500653991194
 21
-134.0625086191537
 31
0.0
 11
53.47359550373596
 21
-134.0125585366621
 31
0.0
 11
53.51500653991195
 21
-133.9955213210459
 31
0.0
  0
SPLINE
  5
10B
330
72
100
AcDbEntity
  8
0
  6
DASHED
 62
     7
100
AcDbSpline
210
0.0
220
0.0
230
1.0
 70
     8
 71
     3
 72
    13
 73
     9
 74
     7
 42
0.0000000001
 43
0.0000000001
 44
0.00000001
 40
0.0
 40
0.0
 40
0.0
 40
0.0
 40
0.1295242792261685
 40
0.25116950384373
 40
0.3577988525611451
 40
0.4438910213935797
 40
0.5070108983732502
 40
0.5517896950645609
 40
0.5517896950645609
 40
0.5517896950645609
 40
0.5517896950645609
 10
70.63500653991193
 20
-134.4955213210459
 30
0.0
 10
70.6339976406132
 20
-134.4523153630923
 30
0.0
 10
70.63204121408221
 20
-134.3685316965309
 30
0.0
 10
70.61626291048057
 20
-134.2502955062687
 30
0.0
 10
70.59255460175063
 20
-134.1473227676209
 30
0.0
 10
70.56084799785052
 20
-134.069471606337
 30
0.0
 10
70.52511211954355
 20
-134.0105480766997
 30
0.0
 10
70.489702012388
 20
-133.9999285203187
 30
0.0
 10
70.47500653991193
 20
-133.9955213210459
 30
0.0
 11
70.63500653991193
 21
-134.4955213210459
 31
0.0
 11
70.62955463091475
 21
-134.366111832996
 31
0.0
 11
70.61357060451743
 21
-134.2455213210459
 31
0.0
 11
70.58814359473878
 21
-134.141968024712
 31
0.0
 11
70.55500653991194
 21
-134.0625086191537
 31
0.0
 11
70.51641757608792
 21
-134.0125585366621
 31
0.0
 11
70.47500653991193
 21
-133.9955213210459
 31
0.0
  0
SPLINE
  5
10C
330
72
100
AcDbEntity
  8
0
  6
DASHED
 62
     7
100
AcDbSpline
210
0.0
220
0.0
230
1.0
 70
     8
 71
     3
 72
    23
 73
    19
 74
    17
 42
0.0000000001
 43
0.0000000001
 44
0.00000001
 40
0.0
 40
0.0
 40
0.0
 40
0.0
 40
0.6154531363063059
 40
1.111773858384703
 40
1.563876949030469
 40
2.095785120696084
 40
2.571715590953941
 40
2.945767207163032
 40
3.28579809576978
 40
3.658703237243528
 40
3.984756979568456
 40
4.230196170429894
 40
4.444044774653829
 40
4.658638760023303
 40
4.809872602594946
 40
4.953544228370231
 40
5.06008124063241
 40
5.151401590750702
 40
5.151401590750702
 40
5.151401590750702
 40
5.151401590750702
 10
82.09500653991195
 20
-133.9955213210459
 30
0.0
 10
82.30016419394593
 20
-133.9970721386773
 30
0.0
 10
82.67076741805398
 20
-133.9998735843115
 30
0.0
 10
83.19173423429129
 20
-134.0201380730082
 30
0.0
 10
83.68435105125226
 20
-134.0491289979609
 30
0.0
 10
84.16938210326096
 20
-134.0895669432424
 30
0.0
 10
84.62724723212634
 20
-134.1405202368013
 30
0.0
 10
85.02016958026158
 20
-134.1952632978745
 30
0.0
 10
85.37756717538885
 20
-134.2551245274791
 30
0.0
 10
85.7171240398807
 20
-134.3237438328146
 30
0.0
 10
86.02280465341217
 20
-134.3994893989986
 30
0.0
 10
86.27354364762823
 20
-134.4750864815309
 30
0.0
 10
86.48475170959208
 20
-134.5520218727999
 30
0.0
 10
86.66088711592768
 20
-134.6320256557334
 30
0.0
 10
86.80740150810271
 20
-134.7192605089545
 30
0.0
 10
86.91005978100611
 20
-134.8050781138819
 30
0.0
 10
86.9811268423759
 20
-134.8987620569699
 30
0.0
 10
86.99062342605586
 20
-134.9649654051136
 30
0.0
 10
86.99500653991194
 20
-134.9955213210459
 30
0.0
 11
82.09500653991195
 21
-133.9955213210459
 31
0.0
 11
82.71040493125918
 21
-134.0037300308418
 31
0.0
 11
83.20637316917214
 21
-134.0224320667185
 31
0.0
 11
83.65768007008205
 21
-134.049251570117
 31
0.0
 11
84.18772844822651
 21
-134.0936927662203
 31
0.0
 11
84.66069674869127
 21
-134.1467097377987
 31
0.0
 11
85.0311309156552
 21
-134.1986052051766
 31
0.0
 11
85.36643681930244
 21
-134.2550937543348
 31
0.0
 11
85.7318117005357
 21
-134.3296554113801
 31
0.0
 11
86.04807855989637
 21
-134.4089417062502
 31
0.0
 11
86.28286191168681
 21
-134.4804761324572
 31
0.0
 11
86.48349673443056
 21
-134.5544821689077
 31
0.0
 11
86.67808909887167
 21
-134.6449497888497
 31
0.0
 11
86.80710661343905
 21
-134.7238557840201
 31
0.0
 11
86.91562592773629
 21
-134.8180104146942
 31
0.0
 11
86.97510972174187
 21
-134.9063948773132
 31
0.0
 11
86.99500653991194
 21
-134.9955213210459
 31
0.0
  0
SPLINE
  5
10D
330
72
100
AcDbEntity
  8
0
  6
DASHED
 62
     7
100
AcDbSpline
210
0.0
220
0.0
230
1.0
 70
     8
 71
     3
 72
    13
 73
     9
 74
     7
 42
0.0000000001
 43
0.0000000001
 44
0.00000001
 40
0.0
 40
0.0
 40
0.0
 40
0.0
 40
0.0447787966912998
 40
0.1078986736710067
 40
0.1939908425034729
 40
0.3006201912208914
 40
0.4222654158384248
 40
0.5517896950645649
 40
0.5517896950645649
 40
0.5517896950645649
 40
0.5517896950645649
 10
70.47500653991192
 20
-135.9955213210459
 30
0.0
 10
70.48970201238798
 20
-135.9911141217731
 30
0.0
 10
70.52511211954358
 20
-135.9804945653922
 30
0.0
 10
70.56084799785047
 20
-135.9215710357547
 30
0.0
 10
70.59255460175062
 20
-135.8437198744709
 30
0.0
 10
70.61626291048057
 20
-135.740747135823
 30
0.0
 10
70.63204121408218
 20
-135.6225109455609
 30
0.0
 10
70.63399764061322
 20
-135.5387272789995
 30
0.0
 10
70.63500653991193
 20
-135.4955213210459
 30
0.0
 11
70.47500653991192
 21
-135.9955213210459
 31
0.0
 11
70.5164175760879
 21
-135.9784841054297
 31
0.0
 11
70.55500653991191
 21
-135.9285340229381
 31
0.0
 11
70.58814359473877
 21
-135.8490746173798
 31
0.0
 11
70.61357060451743
 21
-135.7455213210459
 31
0.0
 11
70.62955463091475
 21
-135.6249308090958
 31
0.0
 11
70.63500653991193
 21
-135.4955213210459
 31
0.0
  0
SPLINE
  5
10E
330
72
100
AcDbEntity
  8
0
  6
DASHED
 62
     7
100
AcDbSpline
210
0.0
220
0.0
230
1.0
 70
     8
 71
     3
 72
    13
 73
     9
 74
     7
 42
0.0000000001
 43
0.0000000001
 44
0.00000001
 40
0.0
 40
0.0
 40
0.0
 40
0.0
 40
0.0447787966912998
 40
0.1078986736710154
 40
0.1939908425034761
 40
0.3006201912208929
 40
0.4222654158384263
 40
0.5517896950645664
 40
0.5517896950645664
 40
0.5517896950645664
 40
0.5517896950645664
 10
53.51500653991195
 20
-135.9955213210459
 30
0.0
 10
53.50031106743589
 20
-135.9911141217732
 30
0.0
 10
53.46490096028031
 20
-135.9804945653922
 30
0.0
 10
53.42916508197337
 20
-135.9215710357547
 30
0.0
 10
53.39745847807326
 20
-135.8437198744709
 30
0.0
 10
53.3737501693433
 20
-135.740747135823
 30
0.0
 10
53.35797186574169
 20
-135.6225109455609
 30
0.0
 10
53.35601543921067
 20
-135.5387272789995
 30
0.0
 10
53.35500653991195
 20
-135.4955213210459
 30
0.0
 11
53.51500653991195
 21
-135.9955213210459
 31
0.0
 11
53.47359550373596
 21
-135.9784841054297
 31
0.0
 11
53.43500653991194
 21
-135.9285340229381
 31
0.0
 11
53.4018694850851
 21
-135.8490746173798
 31
0.0
 11
53.37644247530644
 21
-135.7455213210459
 31
0.0
 11
53.36045844890912
 21
-135.6249308090958
 31
0.0
 11
53.35500653991195
 21
-135.4955213210459
 31
0.0
  0
ENDBLK
  5
74
330
72
100
AcDbEntity
  8
0
100
AcDbBlockEnd
  0
BLOCK
  5
76
330
75
100
AcDbEntity
  8
0
100
AcDbBlockBegin
  2
HL522_Körper
 70
     0
 10
19.06738181024733
 20
-21.69526567073385
 30
0.0
  3
HL522_Körper
  1

  0
LINE
  5
10F
330
75
100
AcDbEntity
  8
0
  6
Continuous
 62
     7
100
AcDbLine
 10
92.9883170110881
 20
-19.21266773497659
 30
0.0
 11
35.71266773497635
 21
-76.48831701108557
 31
0.0
  0
LINE
  5
110
330
75
100
AcDbEntity
  8
0
  6
Continuous
 62
     7
100
AcDbLine
 10
-55.00000000000017
 20
0.5
 30
0.0
 11
-55.00000000000007
 21
-1.5
 31
0.0
  0
LINE
  5
111
330
75
100
AcDbEntity
  8
0
  6
Continuous
 62
     3
100
AcDbLine
 10
-55.00000000000007
 20
-1.5
 30
0.0
 11
55.00000000000018
 21
-1.5
 31
0.0
  0
LINE
  5
112
330
75
100
AcDbEntity
  8
0
  6
Continuous
 62
     7
100
AcDbLine
 10
-50.00000000000007
 20
-5.49999999999997
 30
0.0
 11
-45.00000000000007
 21
-10.50000000000005
 31
0.0
  0
LINE
  5
113
330
75
100
AcDbEntity
  8
0
  6
Continuous
 62
     7
100
AcDbLine
 10
50.0000000000001
 20
-5.49999999999997
 30
0.0
 11
45.00000000000009
 21
-10.50000000000004
 31
0.0
  0
LINE
  5
114
330
75
100
AcDbEntity
  8
0
  6
Continuous
 62
     7
100
AcDbLine
 10
1.00000000000003
 20
-5.49999999999998
 30
0.0
 11
1.00000000000003
 21
-6.5
 31
0.0
  0
LINE
  5
115
330
75
100
AcDbEntity
  8
0
  6
Continuous
 62
     7
100
AcDbLine
 10
-0.99999999999997
 20
-5.49999999999998
 30
0.0
 11
-0.99999999999997
 21
-6.5
 31
0.0
  0
LINE
  5
116
330
75
100
AcDbEntity
  8
0
  6
Continuous
 62
     3
100
AcDbLine
 10
0.50000000000003
 20
-5.49999999999999
 30
0.0
 11
0.50000000000095
 21
-10.50277786346104
 31
0.0
  0
LINE
  5
117
330
75
100
AcDbEntity
  8
0
  6
Continuous
 62
     3
100
AcDbLine
 10
-0.49999999999997
 20
-5.49999999999999
 30
0.0
 11
-0.49999999999999
 21
-10.50277786351701
 31
0.0
  0
LINE
  5
118
330
75
100
AcDbEntity
  8
0
  6
Continuous
 62
     7
100
AcDbLine
 10
-50.00000000000007
 20
-5.49999999999997
 30
0.0
 11
-45.98912915026767
 21
-5.5
 31
0.0
  0
LINE
  5
119
330
75
100
AcDbEntity
  8
0
  6
Continuous
 62
     7
100
AcDbLine
 10
-51.00000000000007
 20
-5.5
 30
0.0
 11
-50.00000000000007
 21
-5.49999999999997
 31
0.0
  0
LINE
  5
11A
330
75
100
AcDbEntity
  8
0
  6
Continuous
 62
     7
100
AcDbLine
 10
50.0000000000001
 20
-5.49999999999997
 30
0.0
 11
51.00000000000017
 21
-5.5
 31
0.0
  0
LINE
  5
11B
330
75
100
AcDbEntity
  8
0
  6
Continuous
 62
     7
100
AcDbLine
 10
0.50000000000003
 20
-5.49999999999999
 30
0.0
 11
1.00000000000003
 21
-5.49999999999998
 31
0.0
  0
LINE
  5
11C
330
75
100
AcDbEntity
  8
0
  6
Continuous
 62
     7
100
AcDbLine
 10
-0.49999999999997
 20
-5.49999999999999
 30
0.0
 11
0.50000000000003
 21
-5.49999999999999
 31
0.0
  0
LINE
  5
11D
330
75
100
AcDbEntity
  8
0
  6
Continuous
 62
     7
100
AcDbLine
 10
-0.99999999999997
 20
-5.49999999999998
 30
0.0
 11
-0.49999999999997
 21
-5.49999999999999
 31
0.0
  0
LINE
  5
11E
330
75
100
AcDbEntity
  8
0
  6
Continuous
 62
     7
100
AcDbLine
 10
-15.48999999999998
 20
-5.5
 30
0.0
 11
-0.99999999999997
 21
-5.49999999999998
 31
0.0
  0
LINE
  5
11F
330
75
100
AcDbEntity
  8
0
  6
Continuous
 62
     7
100
AcDbLine
 10
45.98912915026774
 20
-5.5
 30
0.0
 11
50.0000000000001
 21
-5.49999999999997
 31
0.0
  0
LINE
  5
120
330
75
100
AcDbEntity
  8
0
  6
Continuous
 62
     7
100
AcDbLine
 10
17.50000000003649
 20
-5.5
 30
0.0
 11
45.98912915026774
 21
-5.5
 31
0.0
  0
LINE
  5
121
330
75
100
AcDbEntity
  8
0
  6
Continuous
 62
     7
100
AcDbLine
 10
1.00000000000003
 20
-5.49999999999998
 30
0.0
 11
15.49000000000003
 21
-5.5
 31
0.0
  0
LINE
  5
122
330
75
100
AcDbEntity
  8
0
  6
Continuous
 62
     7
100
AcDbLine
 10
15.49000000000003
 20
-5.5
 30
0.0
 11
17.50000000003649
 21
-5.5
 31
0.0
  0
LINE
  5
123
330
75
100
AcDbEntity
  8
0
  6
Continuous
 62
     3
100
AcDbLine
 10
-45.00000000000007
 20
-36.99999999999999
 30
0.0
 11
32.25203821672466
 21
-36.99999999999999
 31
0.0
  0
LINE
  5
124
330
75
100
AcDbEntity
  8
0
  6
Continuous
 62
     7
100
AcDbLine
 10
-44.98888751680798
 20
-9.80400570200552
 30
0.0
 11
-44.98888751680798
 21
-6.5
 31
0.0
  0
LINE
  5
125
330
75
100
AcDbEntity
  8
0
  6
Continuous
 62
     7
100
AcDbLine
 10
-42.99999999999997
 20
-37.49999999999999
 30
0.0
 11
-42.99999999999997
 21
-76.99999998235442
 31
0.0
  0
LINE
  5
126
330
75
100
AcDbEntity
  8
0
  6
Continuous
 62
     7
100
AcDbLine
 10
30.28502226216449
 20
-37.49999999999999
 30
0.0
 11
31.81917501967068
 21
-37.49999999999999
 31
0.0
  0
LINE
  5
127
330
75
100
AcDbEntity
  8
0
  6
Continuous
 62
     7
100
AcDbLine
 10
-42.99999999999997
 20
-37.49999999999999
 30
0.0
 11
30.28502226216449
 21
-37.49999999999999
 31
0.0
  0
LINE
  5
128
330
75
100
AcDbEntity
  8
0
  6
Continuous
 62
     7
100
AcDbLine
 10
44.97907171013001
 20
-14.5
 30
0.0
 11
29.96837902863574
 21
-14.5
 31
0.0
  0
LINE
  5
129
330
75
100
AcDbEntity
  8
0
  6
Continuous
 62
     7
100
AcDbLine
 10
44.98888751680806
 20
-9.80400570200552
 30
0.0
 11
44.98888751680806
 21
-6.5
 31
0.0
  0
LINE
  5
12A
330
75
100
AcDbEntity
  8
0
  6
Continuous
 62
     7
100
AcDbLine
 10
1.00000000000003
 20
-6.5
 30
0.0
 11
1.00000000000003
 21
-9.80400570200552
 31
0.0
  0
LINE
  5
12B
330
75
100
AcDbEntity
  8
0
  6
Continuous
 62
     7
100
AcDbLine
 10
-0.99999999999997
 20
-6.5
 30
0.0
 11
-0.99999999999997
 21
-9.80400570200552
 31
0.0
  0
LINE
  5
12C
330
75
100
AcDbEntity
  8
0
  6
Continuous
 62
     3
100
AcDbLine
 10
15.00664822418532
 20
-76.99999998235442
 30
0.0
 11
-42.99999999999997
 21
-76.99999998235442
 31
0.0
  0
LINE
  5
12D
330
75
100
AcDbEntity
  8
0
  6
Continuous
 62
     7
100
AcDbLine
 10
45.00000000000009
 20
-10.50000000000004
 30
0.0
 11
44.99722213651111
 21
-10.50277786346104
 31
0.0
  0
LINE
  5
12E
330
75
100
AcDbEntity
  8
0
  6
Continuous
 62
     7
100
AcDbLine
 10
45.00000000000009
 20
-14.0
 30
0.0
 11
45.00000000000009
 21
-10.50000000000004
 31
0.0
  0
LINE
  5
12F
330
75
100
AcDbEntity
  8
0
  6
Continuous
 62
     7
100
AcDbLine
 10
35.00556095378981
 20
-76.48831701108557
 30
0.0
 11
27.2586219625296
 21
-68.74137801982499
 31
0.0
  0
LINE
  5
130
330
75
100
AcDbEntity
  8
0
  6
Continuous
 62
     7
100
AcDbLine
 10
36.71195994147546
 20
-56.3971417125486
 30
0.0
 11
35.21790758857308
 21
-57.89119406545088
 31
0.0
  0
LINE
  5
131
330
75
100
AcDbEntity
  8
0
  6
Continuous
 62
     7
100
AcDbLine
 10
81.67460851210268
 20
-11.43449314192347
 30
0.0
 11
78.7555482634328
 21
-14.35355339059326
 31
0.0
  0
LINE
  5
132
330
75
100
AcDbEntity
  8
0
  6
Continuous
 62
     7
100
AcDbLine
 10
81.67460851210268
 20
-11.43449314192347
 30
0.0
 11
85.91724919922197
 21
-11.43449314192356
 31
0.0
  0
LINE
  5
133
330
75
100
AcDbEntity
  8
0
  6
Continuous
 62
     3
100
AcDbLine
 10
92.9883170110881
 20
-18.50556095379003
 30
0.0
 11
35.00556095378981
 21
-76.48831701108557
 31
0.0
  0
LINE
  5
134
330
75
100
AcDbEntity
  8
0
  6
Continuous
 62
     7
100
AcDbLine
 10
92.9883170110881
 20
-18.50556095379003
 30
0.0
 11
85.91724919922197
 21
-11.43449314192356
 31
0.0
  0
LINE
  5
135
330
75
100
AcDbEntity
  8
0
  6
Continuous
 62
     7
100
AcDbLine
 10
27.2586219625296
 20
-68.74137801982499
 30
0.0
 11
17.66760007216021
 21
-77.53553388828723
 31
0.0
  0
LINE
  5
136
330
75
100
AcDbEntity
  8
0
  6
Continuous
 62
     7
100
AcDbLine
 10
85.91724919922197
 20
-11.43449314192356
 30
0.0
 11
34.78522954620457
 21
-62.5665127515457
 31
0.0
  0
LINE
  5
137
330
75
100
AcDbEntity
  8
0
  6
Continuous
 62
     7
100
AcDbLine
 10
44.9990218466328
 20
-13.99999999999998
 30
0.0
 11
45.00000000000009
 21
-14.0
 31
0.0
  0
LINE
  5
138
330
75
100
AcDbEntity
  8
0
  6
Continuous
 62
     7
100
AcDbLine
 10
66.89589821842856
 20
-26.21320343559693
 30
0.0
 11
36.71195994147546
 21
-56.3971417125486
 31
0.0
  0
LINE
  5
139
330
75
100
AcDbEntity
  8
0
  6
Continuous
 62
     7
100
AcDbLine
 10
78.287808523877
 20
-14.82129313014903
 30
0.0
 11
66.89589821842856
 21
-26.21320343559693
 31
0.0
  0
LINE
  5
13A
330
75
100
AcDbEntity
  8
0
  6
Continuous
 62
     7
100
AcDbLine
 10
78.60910165402605
 20
-14.5
 30
0.0
 11
78.287808523877
 21
-14.82129313014903
 31
0.0
  0
LINE
  5
13B
330
75
100
AcDbEntity
  8
0
  6
Continuous
 62
     7
100
AcDbLine
 10
78.7555482634328
 20
-14.35355339059326
 30
0.0
 11
78.60910165402605
 21
-14.5
 31
0.0
  0
LINE
  5
13C
330
75
100
AcDbEntity
  8
0
  6
Continuous
 62
     7
100
AcDbLine
 10
78.60910165402605
 20
-14.5
 30
0.0
 11
78.40199487283952
 21
-14.5
 31
0.0
  0
LINE
  5
13D
330
75
100
AcDbEntity
  8
0
  6
Continuous
 62
     7
100
AcDbLine
 10
78.40199487283952
 20
-14.5
 30
0.0
 11
45.50000000000009
 21
-14.5
 31
0.0
  0
LINE
  5
13E
330
75
100
AcDbEntity
  8
0
  6
Continuous
 62
     3
100
AcDbLine
 10
78.287808523877
 20
-14.82129313014903
 30
0.0
 11
28.86025968756126
 21
-15.54603721697467
 31
0.0
  0
LINE
  5
13F
330
75
100
AcDbEntity
  8
0
  6
Continuous
 62
     7
100
AcDbLine
 10
31.66920152075143
 20
-34.49999999999998
 30
0.0
 11
31.81111036569964
 21
-34.50000000000003
 31
0.0
  0
LINE
  5
140
330
75
100
AcDbEntity
  8
0
  6
Continuous
 62
     3
100
AcDbLine
 10
33.65583728299946
 20
-61.08112335523998
 30
0.0
 11
17.23144765831857
 21
-76.12132027870297
 31
0.0
  0
LINE
  5
141
330
75
100
AcDbEntity
  8
0
  6
Continuous
 62
     7
100
AcDbLine
 10
33.5362735686688
 20
-62.46372641368629
 30
0.0
 11
27.2586219625296
 21
-68.74137801982499
 31
0.0
  0
LINE
  5
142
330
75
100
AcDbEntity
  8
0
  6
Continuous
 62
     7
100
AcDbLine
 10
34.35832763319767
 20
-57.64415176191561
 30
0.0
 11
35.94049351401286
 21
-56.04358838958403
 31
0.0
  0
LINE
  5
143
330
75
100
AcDbEntity
  8
0
  6
Continuous
 62
     7
100
AcDbLine
 10
36.77731091954209
 20
-56.04894802487286
 30
0.0
 11
64.30907301006397
 21
-28.51718593148674
 31
0.0
  0
LINE
  5
144
330
75
100
AcDbEntity
  8
0
  6
Continuous
 62
     7
100
AcDbLine
 10
45.50000000000009
 20
-14.5
 30
0.0
 11
45.49901097826204
 21
-14.5
 31
0.0
  0
LINE
  5
145
330
75
100
AcDbEntity
  8
0
  6
Continuous
 62
     7
100
AcDbLine
 10
45.49901097826204
 20
-14.5
 30
0.0
 11
44.97907171013001
 21
-14.5
 31
0.0
  0
LINE
  5
146
330
75
100
AcDbEntity
  8
0
  6
Continuous
 62
     7
100
AcDbLine
 10
14.13206616622752
 20
-78.99999998235442
 30
0.0
 11
-40.99999999999997
 21
-78.99999998235442
 31
0.0
  0
LINE
  5
147
330
75
100
AcDbEntity
  8
0
  6
Continuous
 62
     7
100
AcDbLine
 10
-44.50000000000007
 20
-37.49999999999999
 30
0.0
 11
-42.99999999999997
 21
-37.49999999999999
 31
0.0
  0
LINE
  5
148
330
75
100
AcDbEntity
  8
0
  6
Continuous
 62
     7
100
AcDbLine
 10
-45.00000000000007
 20
-10.50000000000005
 30
0.0
 11
-44.99722213651107
 21
-10.50277786346104
 31
0.0
  0
LINE
  5
149
330
75
100
AcDbEntity
  8
0
  6
Continuous
 62
     7
100
AcDbLine
 10
-45.00000000000007
 20
-36.99999999999999
 30
0.0
 11
-45.00000000000007
 21
-10.50000000000005
 31
0.0
  0
LINE
  5
14A
330
75
100
AcDbEntity
  8
0
  6
Continuous
 62
     7
100
AcDbLine
 10
-17.49999999999997
 20
0.5
 30
0.0
 11
-55.00000000000017
 21
0.5
 31
0.0
  0
LINE
  5
14B
330
75
100
AcDbEntity
  8
0
  6
Continuous
 62
     7
100
AcDbLine
 10
13.50000000000003
 20
0.5
 30
0.0
 11
-13.49999999999997
 21
0.5
 31
0.0
  0
LINE
  5
14C
330
75
100
AcDbEntity
  8
0
  6
Continuous
 62
     7
100
AcDbLine
 10
17.50000000000003
 20
0.5
 30
0.0
 11
13.50000000000003
 21
0.5
 31
0.0
  0
LINE
  5
14D
330
75
100
AcDbEntity
  8
0
  6
Continuous
 62
     7
100
AcDbLine
 10
55.0000000000002
 20
0.5
 30
0.0
 11
17.50000000000003
 21
0.5
 31
0.0
  0
LINE
  5
14E
330
75
100
AcDbEntity
  8
0
  6
Continuous
 62
     7
100
AcDbLine
 10
-13.49999999999997
 20
0.5
 30
0.0
 11
-17.49999999999997
 21
0.5
 31
0.0
  0
LINE
  5
14F
330
75
100
AcDbEntity
  8
0
  6
Continuous
 62
     7
100
AcDbLine
 10
-45.98912915026767
 20
-5.5
 30
0.0
 11
-17.49999999999997
 21
-5.5
 31
0.0
  0
LINE
  5
150
330
75
100
AcDbEntity
  8
0
  6
Continuous
 62
     7
100
AcDbLine
 10
-17.49999999999997
 20
-5.5
 30
0.0
 11
-15.48999999999998
 21
-5.5
 31
0.0
  0
LINE
  5
151
330
75
100
AcDbEntity
  8
0
  6
Continuous
 62
     7
100
AcDbLine
 10
55.0000000000002
 20
0.5
 30
0.0
 11
55.00000000000018
 21
-1.5
 31
0.0
  0
LINE
  5
152
330
75
100
AcDbEntity
  8
0
  6
Continuous
 62
     3
100
AcDbLine
 10
-44.98888751680798
 20
-6.5
 30
0.0
 11
-0.99999999999997
 21
-6.5
 31
0.0
  0
LINE
  5
153
330
75
100
AcDbEntity
  8
0
  6
Continuous
 62
     3
100
AcDbLine
 10
1.00000000000003
 20
-6.5
 30
0.0
 11
44.98888751680806
 21
-6.5
 31
0.0
  0
LINE
  5
154
330
75
100
AcDbEntity
  8
1
  6
PHANTOM
 62
     2
100
AcDbLine
 10
-0.00000000000007
 20
36.36991365025867
 30
0.0
 11
0.0000000000002
 21
-79.76044499172637
 31
0.0
  0
LINE
  5
155
330
75
100
AcDbEntity
  8
0
  6
Continuous
 62
     7
100
AcDbLine
 10
-6.89999999999992
 20
-21.75
 30
0.0
 11
-6.89999999999992
 21
-21.25
 31
0.0
  0
LINE
  5
156
330
75
100
AcDbEntity
  8
0
  6
Continuous
 62
     7
100
AcDbLine
 10
7.10000000000008
 20
-21.75
 30
0.0
 11
14.10000000000008
 21
-21.75
 31
0.0
  0
LINE
  5
157
330
75
100
AcDbEntity
  8
0
  6
Continuous
 62
     7
100
AcDbLine
 10
7.10000000000008
 20
-21.75
 30
0.0
 11
7.10000000000008
 21
-21.25
 31
0.0
  0
LINE
  5
158
330
75
100
AcDbEntity
  8
0
  6
Continuous
 62
     7
100
AcDbLine
 10
7.10000000000008
 20
-21.25
 30
0.0
 11
14.10000000000008
 21
-21.25
 31
0.0
  0
LINE
  5
159
330
75
100
AcDbEntity
  8
0
  6
Continuous
 62
     7
100
AcDbLine
 10
-13.89999999999992
 20
-21.75
 30
0.0
 11
-13.89999999999992
 21
-21.25
 31
0.0
  0
LINE
  5
15A
330
75
100
AcDbEntity
  8
0
  6
Continuous
 62
     7
100
AcDbLine
 10
14.10000000000008
 20
-21.75
 30
0.0
 11
14.10000000000008
 21
-21.25
 31
0.0
  0
LINE
  5
15B
330
75
100
AcDbEntity
  8
0
  6
Continuous
 62
     7
100
AcDbLine
 10
-13.89999999999992
 20
-21.75
 30
0.0
 11
-6.89999999999992
 21
-21.75
 31
0.0
  0
LINE
  5
15C
330
75
100
AcDbEntity
  8
0
  6
Continuous
 62
     7
100
AcDbLine
 10
-13.89999999999992
 20
-21.25
 30
0.0
 11
-6.89999999999992
 21
-21.25
 31
0.0
  0
LINE
  5
15D
330
75
100
AcDbEntity
  8
0
  6
Continuous
 62
     7
100
AcDbLine
 10
0.35000000000008
 20
-24.5
 30
0.0
 11
0.35000000000008
 21
-18.5
 31
0.0
  0
LINE
  5
15E
330
75
100
AcDbEntity
  8
0
  6
Continuous
 62
     7
100
AcDbLine
 10
-0.64999999999992
 20
-24.5
 30
0.0
 11
-0.64999999999992
 21
-22.0
 31
0.0
  0
LINE
  5
15F
330
75
100
AcDbEntity
  8
0
  6
Continuous
 62
     7
100
AcDbLine
 10
-3.64999999999992
 20
-21.0
 30
0.0
 11
-3.64999999999992
 21
-18.5
 31
0.0
  0
LINE
  5
160
330
75
100
AcDbEntity
  8
0
  6
Continuous
 62
     7
100
AcDbLine
 10
-0.64999999999992
 20
-21.0
 30
0.0
 11
-0.64999999999992
 21
-18.5
 31
0.0
  0
LINE
  5
161
330
75
100
AcDbEntity
  8
0
  6
Continuous
 62
     7
100
AcDbLine
 10
-3.64999999999992
 20
-21.0
 30
0.0
 11
-0.64999999999992
 21
-21.0
 31
0.0
  0
LINE
  5
162
330
75
100
AcDbEntity
  8
0
  6
Continuous
 62
     7
100
AcDbLine
 10
-3.64999999999992
 20
-22.0
 30
0.0
 11
-0.64999999999992
 21
-22.0
 31
0.0
  0
LINE
  5
163
330
75
100
AcDbEntity
  8
0
  6
Continuous
 62
     7
100
AcDbLine
 10
-3.64999999999992
 20
-24.5
 30
0.0
 11
-3.64999999999992
 21
-22.0
 31
0.0
  0
LINE
  5
164
330
75
100
AcDbEntity
  8
0
  6
Continuous
 62
     7
100
AcDbLine
 10
2.35000000000008
 20
-25.0
 30
0.0
 11
5.35000000000008
 21
-25.0
 31
0.0
  0
LINE
  5
165
330
75
100
AcDbEntity
  8
0
  6
Continuous
 62
     7
100
AcDbLine
 10
1.85000000000008
 20
-24.5
 30
0.0
 11
1.85000000000008
 21
-18.5
 31
0.0
  0
LINE
  5
166
330
75
100
AcDbEntity
  8
0
  6
Continuous
 62
     7
100
AcDbLine
 10
3.35000000000008
 20
-24.0
 30
0.0
 11
5.35000000000008
 21
-24.0
 31
0.0
  0
LINE
  5
167
330
75
100
AcDbEntity
  8
0
  6
Continuous
 62
     7
100
AcDbLine
 10
2.85000000000008
 20
-23.5
 30
0.0
 11
2.85000000000008
 21
-18.5
 31
0.0
  0
LINE
  5
168
330
75
100
AcDbEntity
  8
0
  6
Continuous
 62
     7
100
AcDbLine
 10
-4.64999999999992
 20
-24.5
 30
0.0
 11
-4.64999999999992
 21
-18.5
 31
0.0
  0
ARC
  5
169
330
75
100
AcDbEntity
  8
0
  6
Continuous
 62
     7
100
AcDbCircle
 10
-44.50000000000007
 20
-36.99999999999999
 30
0.0
 40
0.5
100
AcDbArc
 50
180.0
 51
270.0
  0
ARC
  5
16A
330
75
100
AcDbEntity
  8
0
  6
Continuous
 62
     7
100
AcDbCircle
 10
0.00000000251896
 20
-55.50000000000058
 30
0.0
 40
45.00000000002851
100
AcDbArc
 50
89.363367130939
 51
90.63663287547466
  0
ARC
  5
16B
330
75
100
AcDbEntity
  8
0
  6
Continuous
 62
     7
100
AcDbCircle
 10
45.50000048908137
 20
-14.00000049005014
 30
0.0
 40
0.5000004890815205
100
AcDbArc
 50
179.9999438444455
 51
269.8866104494376
  0
ARC
  5
16C
330
75
100
AcDbEntity
  8
0
  6
Continuous
 62
     7
100
AcDbCircle
 10
78.40199487283952
 20
-14.0
 30
0.0
 40
0.5
100
AcDbArc
 50
270.0
 51
315.0000000000013
  0
ARC
  5
16D
330
75
100
AcDbEntity
  8
0
  6
Continuous
 62
     7
100
AcDbCircle
 10
45.68269478283264
 20
-5.0
 30
0.0
 40
29.99999999999992
100
AcDbArc
 50
308.3803722047155
 51
314.9999999999986
  0
ARC
  5
16E
330
75
100
AcDbEntity
  8
0
  6
Continuous
 62
     7
100
AcDbCircle
 10
14.13206616622752
 20
-73.99999998235442
 30
0.0
 40
5.0
100
AcDbArc
 50
270.0
 51
314.999999999999
  0
ARC
  5
16F
330
75
100
AcDbEntity
  8
0
  6
Continuous
 62
     7
100
AcDbCircle
 10
-40.99999999999997
 20
-76.99999998235442
 30
0.0
 40
2.0
100
AcDbArc
 50
180.0
 51
270.0
  0
ARC
  5
170
330
75
100
AcDbEntity
  8
0
  6
Continuous
 62
     7
100
AcDbCircle
 10
-51.00000000000007
 20
-1.5
 30
0.0
 40
4.0
100
AcDbArc
 50
180.0
 51
270.0
  0
ARC
  5
171
330
75
100
AcDbEntity
  8
0
  6
Continuous
 62
     7
100
AcDbCircle
 10
35.35911434438308
 20
-76.1347636204923
 30
0.0
 40
0.499999999999999
100
AcDbArc
 50
225.0000000000006
 51
314.9999999999994
  0
ARC
  5
172
330
75
100
AcDbEntity
  8
0
  6
Continuous
 62
     7
100
AcDbCircle
 10
92.63476362049481
 20
-18.85911434438331
 30
0.0
 40
0.5000000000000165
100
AcDbArc
 50
315.0000000000009
 51
44.99999999999914
  0
ARC
  5
173
330
75
100
AcDbEntity
  8
0
  6
Continuous
 62
     7
100
AcDbCircle
 10
51.00000000000017
 20
-1.5
 30
0.0
 40
4.0
100
AcDbArc
 50
270.0
 51
0.0
  0
ARC
  5
174
330
75
100
AcDbEntity
  8
0
  6
Continuous
 62
     7
100
AcDbCircle
 10
-0.14999999999992
 20
-24.5
 30
0.0
 40
0.5
100
AcDbArc
 50
180.0
 51
0.0
  0
ARC
  5
175
330
75
100
AcDbEntity
  8
0
  6
Continuous
 62
     7
100
AcDbCircle
 10
-4.14999999999992
 20
-18.5
 30
0.0
 40
0.5000000000000004
100
AcDbArc
 50
0.0
 51
180.0
  0
ARC
  5
176
330
75
100
AcDbEntity
  8
0
  6
Continuous
 62
     7
100
AcDbCircle
 10
-0.14999999999992
 20
-18.5
 30
0.0
 40
0.5
100
AcDbArc
 50
0.0
 51
180.0
  0
ARC
  5
177
330
75
100
AcDbEntity
  8
0
  6
Continuous
 62
     7
100
AcDbCircle
 10
2.35000000000008
 20
-18.5
 30
0.0
 40
0.5
100
AcDbArc
 50
0.0
 51
180.0
  0
ARC
  5
178
330
75
100
AcDbEntity
  8
0
  6
Continuous
 62
     7
100
AcDbCircle
 10
-4.14999999999992
 20
-24.5
 30
0.0
 40
0.5
100
AcDbArc
 50
180.0
 51
0.0
  0
ARC
  5
179
330
75
100
AcDbEntity
  8
0
  6
Continuous
 62
     7
100
AcDbCircle
 10
2.35000000000008
 20
-24.5
 30
0.0
 40
0.5
100
AcDbArc
 50
180.0
 51
270.0
  0
ARC
  5
17A
330
75
100
AcDbEntity
  8
0
  6
Continuous
 62
     7
100
AcDbCircle
 10
3.35000000000008
 20
-23.5
 30
0.0
 40
0.5
100
AcDbArc
 50
180.0
 51
270.0
  0
ARC
  5
17B
330
75
100
AcDbEntity
  8
0
  6
Continuous
 62
     7
100
AcDbCircle
 10
5.35000000000008
 20
-24.5
 30
0.0
 40
0.5
100
AcDbArc
 50
270.0
 51
90.0
  0
SPLINE
  5
17C
330
75
100
AcDbEntity
  8
0
  6
Continuous
 62
     7
100
AcDbSpline
210
0.0
220
0.0
230
1.0
 70
     8
 71
     3
 72
    21
 73
    17
 74
    15
 42
0.0000000001
 43
0.0000000001
 44
0.00000001
 40
0.0
 40
0.0
 40
0.0
 40
0.0
 40
0.0776162187250908
 40
0.1459524023574705
 40
0.2238507016507146
 40
0.2924070048201703
 40
0.415446540947428
 40
0.5384836860993865
 40
0.6618018928059831
 40
0.7851162334808597
 40
0.921835642584164
 40
1.031742392891392
 40
1.168113346042274
 40
1.277813615370021
 40
1.423919777853654
 40
1.570024015991763
 40
1.570024015991763
 40
1.570024015991763
 40
1.570024015991763
 10
-45.98912915026767
 20
-5.499999999999996
 30
0.0
 10
-45.96325000870647
 20
-5.500575207414165
 30
0.0
 10
-45.91458591576497
 20
-5.501656848665581
 30
0.0
 10
-45.84038043509265
 20
-5.510285247172774
 30
0.0
 10
-45.76992647609548
 20
-5.523375301949374
 30
0.0
 10
-45.68301331325782
 20
-5.546339329058924
 30
0.0
 10
-45.58436338058601
 20
-5.582768870583249
 30
0.0
 10
-45.47470390574018
 20
-5.639438304002054
 30
0.0
 10
-45.37275247113671
 20
-5.70921055964317
 30
0.0
 10
-45.27674640957044
 20
-5.794013301683875
 30
0.0
 10
-45.19542496372995
 20
-5.887261667095819
 30
0.0
 10
-45.12388352026387
 20
-5.993264803168765
 30
0.0
 10
-45.06983361127052
 20
-6.099387139687489
 30
0.0
 10
-45.02548845949686
 20
-6.222521063529609
 30
0.0
 10
-44.99506216084664
 20
-6.353770317004757
 30
0.0
 10
-44.9909457224513
 20
-6.451256986333732
 30
0.0
 10
-44.98888751680798
 20
-6.5
 30
0.0
 11
-45.98912915026767
 21
-5.499999999999996
 31
0.0
 11
-45.91157134597496
 21
-5.503010714611815
 31
0.0
 11
-45.84366147088717
 21
-5.510631925736018
 31
0.0
 11
-45.7670903715975
 21
-5.524950158390643
 31
0.0
 11
-45.70080433967897
 21
-5.542446691668896
 31
0.0
 11
-45.58538862109656
 21
-5.58508399170673
 31
0.0
 11
-45.47608217274858
 21
-5.641566196308677
 31
0.0
 11
-45.37431462296818
 21
-5.711213492860831
 31
0.0
 11
-45.28189390082447
 21
-5.792851944184427
 31
0.0
 11
-45.19203427175061
 21
-5.895892925780413
 31
0.0
 11
-45.13054153022237
 21
-5.986987033726187
 31
0.0
 11
-45.0687134452418
 21
-6.108536713984573
 31
0.0
 11
-45.03136306456327
 21
-6.211682718045561
 31
0.0
 11
-44.99956334858196
 21
-6.35428632522014
 31
0.0
 11
-44.98888751680798
 21
-6.5
 31
0.0
  0
SPLINE
  5
17D
330
75
100
AcDbEntity
  8
0
  6
Continuous
 62
     7
100
AcDbSpline
210
0.0
220
0.0
230
1.0
 70
     8
 71
     3
 72
    11
 73
     7
 74
     5
 42
0.0000000001
 43
0.0000000001
 44
0.00000001
 40
0.0
 40
0.0
 40
0.0
 40
0.0
 40
0.5925768686748955
 40
1.129122446440358
 40
1.687995465010406
 40
2.260612558711779
 40
2.260612558711779
 40
2.260612558711779
 40
2.260612558711779
 10
32.45638869879217
 20
-36.92096445503403
 30
0.0
 10
32.40866939128234
 20
-36.72928945503125
 30
0.0
 10
32.31774289028947
 20
-36.36406334452079
 30
0.0
 10
32.18382289138422
 20
-35.81756675835523
 30
0.0
 10
32.05279277955432
 20
-35.2772135879905
 30
0.0
 10
31.96533714951226
 20
-34.91032944913255
 30
0.0
 10
31.92107817794954
 20
-34.72465913081555
 30
0.0
 11
32.45638869879217
 21
-36.92096445503403
 31
0.0
 11
32.31360140421328
 21
-36.34584782877864
 31
0.0
 11
32.18580009596717
 21
-35.82474516842249
 31
0.0
 11
32.05422054315969
 21
-35.28158232712295
 31
0.0
 11
31.92107817794954
 21
-34.72465913081555
 31
0.0
  0
SPLINE
  5
17E
330
75
100
AcDbEntity
  8
0
  6
Continuous
 62
     7
100
AcDbSpline
210
0.0
220
0.0
230
1.0
 70
     8
 71
     3
 72
    23
 73
    19
 74
    17
 42
0.0000000001
 43
0.0000000001
 44
0.00000001
 40
0.0
 40
0.0
 40
0.0
 40
0.0
 40
0.0638689916528715
 40
0.1393335792986396
 40
0.2152652365174895
 40
0.3075180068044596
 40
0.3833458471735644
 40
0.4752195163319838
 40
0.5159326964732842
 40
0.5608671123221055
 40
0.6068373201435441
 40
0.6462676316152611
 40
0.7014847336532681
 40
0.7661459175664407
 40
0.8124448761843
 40
0.8578277611539096
 40
0.9000633209922915
 40
0.9493063371478143
 40
0.9493063371478143
 40
0.9493063371478143
 40
0.9493063371478143
 10
-0.9999999999999716
 20
-9.80400570200552
 30
0.0
 10
-0.9996028811721069
 20
-9.825298580586137
 30
0.0
 10
-0.9987365454705199
 20
-9.871750120048882
 30
0.0
 10
-0.991124317729132
 20
-9.943204430682126
 30
0.0
 10
-0.9765909643331944
 20
-10.02317612931502
 30
0.0
 10
-0.9546620290623338
 20
-10.10167558504233
 30
0.0
 10
-0.9232277614599007
 20
-10.18253465515363
 30
0.0
 10
-0.8911637391477077
 20
-10.24440264205371
 30
0.0
 10
-0.8589968040441847
 20
-10.29410511589785
 30
0.0
 10
-0.832745183776403
 20
-10.32930596459326
 30
0.0
 10
-0.8041727222529401
 20
-10.36209730455754
 30
0.0
 10
-0.7707118526245849
 20
-10.39497691906944
 30
0.0
 10
-0.7294886382752536
 20
-10.42862717718548
 30
0.0
 10
-0.682238520377558
 20
-10.45793992612675
 30
0.0
 10
-0.6345964847493896
 20
-10.47935731488896
 30
0.0
 10
-0.5919017826534377
 20
-10.49267036549002
 30
0.0
 10
-0.5469648707729639
 20
-10.50143704919436
 30
0.0
 10
-0.5164345204946091
 20
-10.50230866941294
 30
0.0
 10
-0.4999999999999858
 20
-10.50277786351701
 30
0.0
 11
-0.9999999999999716
 21
-9.80400570200552
 31
0.0
 11
-0.9979553880254635
 21
-9.86784195860495
 31
0.0
 11
-0.9902272707663968
 21
-9.94290979587349
 31
0.0
 11
-0.9765285297938566
 21
-10.01759554460622
 31
0.0
 11
-0.9516135598014728
 21
-10.10642019150053
 31
0.0
 11
-0.9240391862359569
 21
-10.17705669267033
 31
0.0
 11
-0.8815514726166924
 21
-10.25851567177048
 31
0.0
 11
-0.8594084391587078
 21
-10.29268069930591
 31
0.0
 11
-0.8325126617327925
 21
-10.32867679470986
 31
0.0
 11
-0.8022754685283591
 21
-10.36330297200774
 31
0.0
 11
-0.7741266326635383
 21
-10.39091442800361
 31
0.0
 11
-0.7312820235051927
 21
-10.42574642225522
 31
0.0
 11
-0.6762491001333615
 21
-10.45969411805631
 31
0.0
 11
-0.6339879878834844
 21
-10.4786042201317
 31
0.0
 11
-0.5906744727891322
 21
-10.49215212249096
 31
0.0
 11
-0.5491603015816614
 21
-10.49992490216225
 31
0.0
 11
-0.4999999999999858
 21
-10.50277786351701
 31
0.0
  0
SPLINE
  5
17F
330
75
100
AcDbEntity
  8
0
  6
Continuous
 62
     7
100
AcDbSpline
210
0.0
220
0.0
230
1.0
 70
     8
 71
     3
 72
    21
 73
    17
 74
    15
 42
0.0000000001
 43
0.0000000001
 44
0.00000001
 40
0.0
 40
0.0
 40
0.0
 40
0.0
 40
0.0492430161697257
 40
0.0914785759888474
 40
0.1404341371599662
 40
0.1831592160881333
 40
0.2420270993902342
 40
0.3030407283211419
 40
0.397244553907685
 40
0.4739691645675228
 40
0.5563331749330487
 40
0.6416748481465057
 40
0.7249056581152926
 40
0.8098617308104242
 40
0.8853263184429881
 40
0.9491953101090772
 40
0.9491953101090772
 40
0.9491953101090772
 40
0.9491953101090772
 10
0.5000000000009521
 20
-10.50277786346104
 30
0.0
 10
0.5164346528056756
 20
-10.50230837938874
 30
0.0
 10
0.5469652488655392
 20
-10.5014362204975
 30
0.0
 10
0.5930734830580995
 20
-10.4924444703857
 30
0.0
 10
0.6357228038950876
 20
-10.47892309941683
 30
0.0
 10
0.6814915619900483
 20
-10.45811023637166
 30
0.0
 10
0.7278959722157086
 20
-10.42976786680632
 30
0.0
 10
0.78356999683564
 20
-10.38484736317373
 30
0.0
 10
0.8360342427419595
 20
-10.32750455021586
 30
0.0
 10
0.8838355024055958
 20
-10.25769972629079
 30
0.0
 10
0.9219067930748946
 20
-10.18546072320617
 30
0.0
 10
0.9527032691745201
 20
-10.10752927379333
 30
0.0
 10
0.975903270164284
 20
-10.02613152099476
 30
0.0
 10
0.9908089172296095
 20
-9.946196888743895
 30
0.0
 10
0.9987358185913902
 20
-9.871750719957301
 30
0.0
 10
0.9996026527053092
 20
-9.82529876914753
 30
0.0
 10
1.000000000000028
 20
-9.80400570200552
 30
0.0
 11
0.5000000000009521
 21
-10.50277786346104
 31
0.0
 11
0.5491603015995654
 21
-10.49992490215299
 31
0.0
 11
0.5906744727891748
 21
-10.49215212249096
 31
0.0
 11
0.6373289571704976
 21
-10.47731952134713
 31
0.0
 11
0.6762491001334183
 21
-10.45969411805631
 31
0.0
 11
0.7265516046463585
 21
-10.42911494664511
 31
0.0
 11
0.774126632663581
 21
-10.39091442800362
 31
0.0
 11
0.8380422701544958
 21
-10.32171072839681
 31
0.0
 11
0.881551472616735
 21
-10.25851567177049
 31
0.0
 11
0.9201069556748253
 21
-10.18573308505052
 31
0.0
 11
0.9516135598015296
 21
-10.10642019150051
 31
0.0
 11
0.9744960504003455
 21
-10.02639669899952
 31
0.0
 11
0.9902272707664395
 21
-9.9429097958735
 31
0.0
 11
0.9979553880246497
 21
-9.867841958618147
 31
0.0
 11
1.000000000000028
 21
-9.80400570200552
 31
0.0
  0
SPLINE
  5
180
330
75
100
AcDbEntity
  8
0
  6
Continuous
 62
     7
100
AcDbSpline
210
0.0
220
0.0
230
1.0
 70
     8
 71
     3
 72
   115
 73
   111
 74
   109
 42
0.0000000001
 43
0.0000000001
 44
0.00000001
 40
0.0
 40
0.0
 40
0.0
 40
0.0
 40
0.0234472112979482
 40
0.046788469017403
 40
0.0700142908789808
 40
0.0931151945073019
 40
0.1160816974464458
 40
0.1389043171755178
 40
0.1528140520549822
 40
0.1665981984117239
 40
0.1802547480381299
 40
0.1937816926839608
 40
0.2071770240576246
 40
0.2204387338274118
 40
0.2335648136227517
 40
0.2465532550354746
 40
0.2594020496210725
 40
0.2721091888999713
 40
0.2846726643588282
 40
0.2970904674518369
 40
0.3093605896020578
 40
0.3214810222027857
 40
0.3334497566189402
 40
0.3452647841885044
 40
0.3569240962240043
 40
0.3684256840140471
 40
0.37976753882492
 40
0.3909476519022739
 40
0.4019640144728548
 40
0.4128146177463947
 40
0.4234974529175279
 40
0.4340105111679207
 40
0.4443517836684834
 40
0.4545192615817694
 40
0.4577220158486889
 40
0.4610962114642842
 40
0.4646351119160079
 40
0.4683319807122542
 40
0.4721800813839271
 40
0.4761726774861076
 40
0.4803030325997596
 40
0.4845644103336036
 40
0.4889500743260951
 40
0.4934532882475535
 40
0.498067315802512
 40
0.5027854207322039
 40
0.5076008668173279
 40
0.5125069178810293
 40
0.5174968377921788
 40
0.5225638904689538
 40
0.5277013398828028
 40
0.5329024500627558
 40
0.5381604851002373
 40
0.5434687091543403
 40
0.5488203864577055
 40
0.5542087813230153
 40
0.5596271581502497
 40
0.5650687814347554
 40
0.5705269157762737
 40
0.5759948258890959
 40
0.5814657766134236
 40
0.5869330329281996
 40
0.5916666494050284
 40
0.596230512902769
 40
0.600627137608812
 40
0.6048590376614047
 40
0.608928727147622
 40
0.6128387201012131
 40
0.6165915305003626
 40
0.620189672265327
 40
0.6236356592559512
 40
0.6269320052690869
 40
0.6300812240358675
 40
0.6330858292188655
 40
0.6359483344091037
 40
0.6386712531229702
 40
0.6412570987989629
 40
0.6437083847943563
 40
0.646027624381719
 40
0.6482173307453616
 40
0.6502800169777152
 40
0.6522181960756734
 40
0.6540343809370281
 40
0.6557310843569892
 40
0.6585107938549924
 40
0.661342618162051
 40
0.6642069391705215
 40
0.6670841398912657
 40
0.6699546047296487
 40
0.6727987198514714
 40
0.6755968736767333
 40
0.6783294575589724
 40
0.6809768667408566
 40
0.6835195017329171
 40
0.6859377703620335
 40
0.6882120909221575
 40
0.6898477835277194
 40
0.6913984432873572
 40
0.6928481713181491
 40
0.6941810921006268
 40
0.6953813683297321
 40
0.6964332297697615
 40
0.6970823900252054
 40
0.6976215340647233
 40
0.6980575680426713
 40
0.6983975285553138
 40
0.6986662659197915
 40
0.6988419282177282
 40
0.6989403119832386
 40
0.6990066250391328
 40
0.6990066250391328
 40
0.6990066250391328
 40
0.6990066250391328
 10
44.98888751680806
 20
-9.80400570200552
 30
0.0
 10
44.98888869210645
 20
-9.81182143919383
 30
0.0
 10
44.98889103739226
 20
-9.827417595710548
 30
0.0
 10
44.98890996884063
 20
-9.850755686595225
 30
0.0
 10
44.98894003412686
 20
-9.873978329013989
 30
0.0
 10
44.98898220353595
 20
-9.897076034470368
 30
0.0
 10
44.98903605246898
 20
-9.920039314426052
 30
0.0
 10
44.98909314989426
 20
-9.939938852682289
 30
0.0
 10
44.98914861089682
 20
-9.956777595260835
 30
0.0
 10
44.98919845484521
 20
-9.970560982337956
 30
0.0
 10
44.9892522379241
 20
-9.984216756870296
 30
0.0
 10
44.98930986749596
 20
-9.997742909552183
 30
0.0
 10
44.98937125071862
 20
-10.01113743106344
 30
0.0
 10
44.9894362948027
 20
-10.02439831208776
 30
0.0
 10
44.98950490694368
 20
-10.03752354330781
 30
0.0
 10
44.98957699433959
 20
-10.05051111540659
 30
0.0
 10
44.98965246418636
 20
-10.06335901906701
 30
0.0
 10
44.9897312236789
 20
-10.07606524497209
 30
0.0
 10
44.98981318001066
 20
-10.08862778380482
 30
0.0
 10
44.98989824037366
 20
-10.10104462624829
 30
0.0
 10
44.98998631195837
 20
-10.11331376298561
 30
0.0
 10
44.99007730195344
 20
-10.12543318469995
 30
0.0
 10
44.99017111754577
 20
-10.13740088207455
 30
0.0
 10
44.99026766592025
 20
-10.14921484579271
 30
0.0
 10
44.99036685425947
 20
-10.16087306653782
 30
0.0
 10
44.990468589744
 20
-10.17237353499335
 30
0.0
 10
44.99057277955033
 20
-10.1837142418429
 30
0.0
 10
44.99067933085762
 20
-10.19489317777013
 30
0.0
 10
44.99078815082206
 20
-10.20590833345897
 30
0.0
 10
44.99089914666832
 20
-10.21675769959301
 30
0.0
 10
44.9910122253557
 20
-10.22743926685778
 30
0.0
 10
44.99112729479201
 20
-10.23795102593252
 30
0.0
 10
44.99124425941119
 20
-10.2482909675203
 30
0.0
 10
44.99133659838844
 20
-10.25619426321344
 30
0.0
 10
44.99140319039891
 20
-10.26177534188814
 30
0.0
 10
44.99144383232838
 20
-10.26514704707307
 30
0.0
 10
44.99148692723266
 20
-10.26868343946828
 30
0.0
 10
44.99153246704692
 20
-10.272377782116
 30
0.0
 10
44.99158044489793
 20
-10.27622333804257
 30
0.0
 10
44.9916308535873
 20
-10.28021337027882
 30
0.0
 10
44.99168368602098
 20
-10.28434114185425
 30
0.0
 10
44.99173893508321
 20
-10.28859991579881
 30
0.0
 10
44.99179659366966
 20
-10.29298295514237
 30
0.0
 10
44.99185665467554
 20
-10.29748352291496
 30
0.0
 10
44.99191911099754
 20
-10.30209488214673
 30
0.0
 10
44.99198395553152
 20
-10.30681029586802
 30
0.0
 10
44.9920511811721
 20
-10.31162302710932
 30
0.0
 10
44.99212078081153
 20
-10.31652633890138
 30
0.0
 10
44.99219274733889
 20
-10.32151349427521
 30
0.0
 10
44.99226707363934
 20
-10.32657775626208
 30
0.0
 10
44.99234375259346
 20
-10.33171238789366
 30
0.0
 10
44.99242277707607
 20
-10.33691065220196
 30
0.0
 10
44.9925041399558
 20
-10.34216581221945
 30
0.0
 10
44.99258783409375
 20
-10.34747113097909
 30
0.0
 10
44.99267385234313
 20
-10.35281987151444
 30
0.0
 10
44.99276218754689
 20
-10.35820529685968
 30
0.0
 10
44.9928528325399
 20
-10.36362067004972
 30
0.0
 10
44.99294578013627
 20
-10.36905925412051
 30
0.0
 10
44.9930410231688
 20
-10.37451431210823
 30
0.0
 10
44.9931385543351
 20
-10.3799791070531
 30
0.0
 10
44.99323836676376
 20
-10.38544690198569
 30
0.0
 10
44.9933359487566
 20
-10.39066993184661
 30
0.0
 10
44.99342995970894
 20
-10.39559061276956
 30
0.0
 10
44.99351900774136
 20
-10.40015444580246
 30
0.0
 10
44.99360660704541
 20
-10.40455103608712
 30
0.0
 10
44.99369269880917
 20
-10.40878289867257
 30
0.0
 10
44.99377722386711
 20
-10.41285254861313
 30
0.0
 10
44.99386012314562
 20
-10.41676250096167
 30
0.0
 10
44.99394133755055
 20
-10.42051527077122
 30
0.0
 10
44.99402080799594
 20
-10.4241133730946
 30
0.0
 10
44.99409847539723
 20
-10.42755932298449
 30
0.0
 10
44.99417428067348
 20
-10.43085563549334
 30
0.0
 10
44.99424816474733
 20
-10.43400482567343
 30
0.0
 10
44.99432006854583
 20
-10.43700940857677
 30
0.0
 10
44.99438993300118
 20
-10.43987189925515
 30
0.0
 10
44.99445769905122
 20
-10.44259481275999
 30
0.0
 10
44.99452330764144
 20
-10.44518066414243
 30
0.0
 10
44.99458669972427
 20
-10.44763196845319
 30
0.0
 10
44.99464781626725
 20
-10.44995124074247
 30
0.0
 10
44.99470659823351
 20
-10.45214099606025
 30
0.0
 10
44.99476298665881
 20
-10.45420374945481
 30
0.0
 10
44.99481692240283
 20
-10.4561420159774
 30
0.0
 10
44.99486834701082
 20
-10.45795831066592
 30
0.0
 10
44.99492871101145
 20
-10.46005497454979
 30
0.0
 10
44.99500037888884
 20
-10.46248999948379
 30
0.0
 10
44.99508600219899
 20
-10.46531398708105
 30
0.0
 10
44.9951754563516
 20
-10.46817036923816
 30
0.0
 10
44.99526853681621
 20
-10.47103952265651
 30
0.0
 10
44.99536503727191
 20
-10.47390182416348
 30
0.0
 10
44.99546475057874
 20
-10.47673765070089
 30
0.0
 10
44.99556746806414
 20
-10.47952737938997
 30
0.0
 10
44.99567297890376
 20
-10.48225138763119
 30
0.0
 10
44.99578106967417
 20
-10.48489005318776
 30
0.0
 10
44.99589152142104
 20
-10.48742375462477
 30
0.0
 10
44.99600411311147
 20
-10.48983287099731
 30
0.0
 10
44.99611060373754
 20
-10.49193961527042
 30
0.0
 10
44.99621015855391
 20
-10.49375711987352
 30
0.0
 10
44.99630147012267
 20
-10.49529978545134
 30
0.0
 10
44.99639469142763
 20
-10.49674122143497
 30
0.0
 10
44.9964895611316
 20
-10.49806547574307
 30
0.0
 10
44.99658582638693
 20
-10.49925665619908
 30
0.0
 10
44.99667561087604
 20
-10.50021954757685
 30
0.0
 10
44.99675676774561
 20
-10.50096203439544
 30
0.0
 10
44.9968248871614
 20
-10.50149880020796
 30
0.0
 10
44.99689076156928
 20
-10.50193339939742
 30
0.0
 10
44.9969538965786
 20
-10.50227295111792
 30
0.0
 10
44.99701776130448
 20
-10.50253440901437
 30
0.0
 10
44.99707428281396
 20
-10.50269041458478
 30
0.0
 10
44.99714370933214
 20
-10.50281460269187
 30
0.0
 10
44.99719962342222
 20
-10.50278840972294
 30
0.0
 10
44.99722213651111
 20
-10.50277786346104
 30
0.0
 11
44.98888751680806
 21
-9.80400570200552
 31
0.0
 11
44.98889363089513
 21
-9.827452912506315
 31
0.0
 11
44.98891188551872
 21
-9.850794163087523
 31
0.0
 11
44.9889421492224
 21
-9.87401996523199
 31
0.0
 11
44.9889842905497
 21
-9.897120830422574
 31
0.0
 11
44.98903817804421
 21
-9.920087270142123
 31
0.0
 11
44.98910368024951
 21
-9.94290979587349
 31
0.0
 11
44.98914949998718
 21
-9.956819455285878
 31
0.0
 11
44.98919935240651
 21
-9.970603511492973
 31
0.0
 11
44.98925314471727
 21
-9.984259955176663
 31
0.0
 11
44.98931078412919
 21
-9.997786777018824
 31
0.0
 11
44.98937217785201
 21
-10.01118196770134
 31
0.0
 11
44.98943723309546
 21
-10.0244435179061
 31
0.0
 11
44.98950585706929
 21
-10.03756941831498
 31
0.0
 11
44.98957795698325
 21
-10.05055765960987
 31
0.0
 11
44.98965344004705
 21
-10.06340623247264
 31
0.0
 11
44.98973221347046
 21
-10.07611312758518
 31
0.0
 11
44.98981418446321
 21
-10.08867633562937
 31
0.0
 11
44.98989926023504
 21
-10.1010938472871
 31
0.0
 11
44.98998734799569
 21
-10.11336365324024
 31
0.0
 11
44.9900783549549
 21
-10.12548374417068
 31
0.0
 11
44.99017218832239
 21
-10.13745211076031
 31
0.0
 11
44.99026875530793
 21
-10.14926674369099
 31
0.0
 11
44.99036796312125
 21
-10.16092563364463
 31
0.0
 11
44.99046971897209
 21
-10.17242677130309
 31
0.0
 11
44.99057393007018
 21
-10.18376814734826
 31
0.0
 11
44.99068050362528
 21
-10.19494775246202
 31
0.0
 11
44.99078934684711
 21
-10.20596357732626
 31
0.0
 11
44.99090036694544
 21
-10.21681361262286
 31
0.0
 11
44.99101347112996
 21
-10.2274958490337
 31
0.0
 11
44.99112856661044
 21
-10.23800827724066
 31
0.0
 11
44.99124556059664
 21
-10.24834888792563
 31
0.0
 11
44.99136436029826
 21
-10.25851567177049
 31
0.0
 11
44.99140257203307
 21
-10.26171819807914
 31
0.0
 11
44.99144324321467
 21
-10.26509214856889
 31
0.0
 11
44.99148636681292
 21
-10.26863078626757
 31
0.0
 11
44.9915319357977
 21
-10.27232737420299
 31
0.0
 11
44.99157994313886
 21
-10.27617517540296
 31
0.0
 11
44.99163038180628
 21
-10.28016745289532
 31
0.0
 11
44.99168324476982
 21
-10.28429746970787
 31
0.0
 11
44.99173852499933
 21
-10.28855848886844
 31
0.0
 11
44.9917962154647
 21
-10.29294377340484
 31
0.0
 11
44.99185630913578
 21
-10.2974465863449
 31
0.0
 11
44.99191879898243
 21
-10.30206019071642
 31
0.0
 11
44.99198367797452
 21
-10.30677784954724
 31
0.0
 11
44.99205093908191
 21
-10.31159282586516
 31
0.0
 11
44.99212057527449
 21
-10.31649838269801
 31
0.0
 11
44.99219257952209
 21
-10.32148778307361
 31
0.0
 11
44.99226694479458
 21
-10.32655429001977
 31
0.0
 11
44.99234366406186
 21
-10.33169116656431
 31
0.0
 11
44.99242273029376
 21
-10.33689167573506
 31
0.0
 11
44.99250413646016
 21
-10.34214908055982
 31
0.0
 11
44.9925878755309
 21
-10.34745664406642
 31
0.0
 11
44.99267394047587
 21
-10.35280762928268
 31
0.0
 11
44.99276232426492
 21
-10.35819529923641
 31
0.0
 11
44.99285301986795
 21
-10.36361291695543
 31
0.0
 11
44.99294602025478
 21
-10.36905374546757
 31
0.0
 11
44.99304131839529
 21
-10.37451104780064
 31
0.0
 11
44.99313890725935
 21
-10.37997808698245
 31
0.0
 11
44.99323877981683
 21
-10.38544812604084
 31
0.0
 11
44.99334092903757
 21
-10.39091442800361
 31
0.0
 11
44.9934313668684
 21
-10.39564718047426
 31
0.0
 11
44.99352041482517
 21
-10.40021017515839
 31
0.0
 11
44.99360801379026
 21
-10.4046059271108
 31
0.0
 11
44.99369410464603
 21
-10.40883695138628
 31
0.0
 11
44.99377862827484
 21
-10.41290576303962
 31
0.0
 11
44.99386152555905
 21
-10.41681487712563
 31
0.0
 11
44.99394273738103
 21
-10.42056680869909
 31
0.0
 11
44.99402220462314
 21
-10.42416407281481
 31
0.0
 11
44.99409986816775
 21
-10.42760918452757
 31
0.0
 11
44.99417566889722
 21
-10.43090465889216
 31
0.0
 11
44.99424954769391
 21
-10.4340530109634
 31
0.0
 11
44.99432144544018
 21
-10.43705675579607
 31
0.0
 11
44.99439130301842
 21
-10.43991840844496
 31
0.0
 11
44.99445906131096
 21
-10.44264048396487
 31
0.0
 11
44.99452466120017
 21
-10.4452254974106
 31
0.0
 11
44.99458804356843
 21
-10.44767596383693
 31
0.0
 11
44.9946491492981
 21
-10.44999439829868
 31
0.0
 11
44.99470791927152
 21
-10.45218331585062
 31
0.0
 11
44.99476429437111
 21
-10.45424523154756
 31
0.0
 11
44.99481821547916
 21
-10.45618266044428
 31
0.0
 11
44.99486962347809
 21
-10.4579981175956
 31
0.0
 11
44.99491845925023
 21
-10.45969411805629
 31
0.0
 11
44.99500027481798
 21
-10.46247262324905
 31
0.0
 11
44.99508614125712
 21
-10.46530314543774
 31
0.0
 11
44.99517585676542
 21
-10.46816606107868
 31
0.0
 11
44.99526921954066
 21
-10.47104174662818
 31
0.0
 11
44.99536602778062
 21
-10.47391057854258
 31
0.0
 11
44.99546607968306
 21
-10.47675293327818
 31
0.0
 11
44.99556917344576
 21
-10.47954918729131
 31
0.0
 11
44.99567510726651
 21
-10.48227971703828
 31
0.0
 11
44.99578367934306
 21
-10.48492489897541
 31
0.0
 11
44.9958946878732
 21
-10.48746510955902
 31
0.0
 11
44.99600793105471
 21
-10.48988072524543
 31
0.0
 11
44.99612320708533
 21
-10.49215212249095
 31
0.0
 11
44.99621293860744
 21
-10.49378535197692
 31
0.0
 11
44.99630491412532
 21
-10.49533328162463
 31
0.0
 11
44.99639894625393
 21
-10.49677995688952
 31
0.0
 11
44.99649484760829
 21
-10.49810942322704
 31
0.0
 11
44.99659243080336
 21
-10.49930572609262
 31
0.0
 11
44.99669150845411
 21
-10.5003529109417
 31
0.0
 11
44.99676277788311
 21
-10.50099814710446
 31
0.0
 11
44.99683164134974
 21
-10.50153287518332
 31
0.0
 11
44.99689810781891
 21
-10.50196381350651
 31
0.0
 11
44.99696218625554
 21
-10.50229768040232
 31
0.0
 11
44.99702903035075
 21
-10.50255797185051
 31
0.0
 11
44.99709357273805
 21
-10.50272134725612
 31
0.0
 11
44.99715821555876
 21
-10.50279551376505
 31
0.0
 11
44.99722213651111
 21
-10.50277786346104
 31
0.0
  0
SPLINE
  5
181
330
75
100
AcDbEntity
  8
0
  6
Continuous
 62
     7
100
AcDbSpline
210
0.0
220
0.0
230
1.0
 70
     8
 71
     3
 72
    11
 73
     7
 74
     5
 42
0.0000000001
 43
0.0000000001
 44
0.00000001
 40
0.0
 40
0.0
 40
0.0
 40
0.0
 40
0.0044603054230631
 40
0.0089870857050788
 40
0.0134821553026541
 40
0.0179765422629132
 40
0.0179765422629132
 40
0.0179765422629132
 40
0.0179765422629132
 10
30.28502226216449
 20
-37.49999999999999
 30
0.0
 10
30.28650905183605
 20
-37.50000699315363
 30
0.0
 10
30.28950478978141
 20
-37.50002108368449
 30
0.0
 10
30.2939976023735
 20
-37.50013752385709
 30
0.0
 10
30.29849965904526
 20
-37.50031802348494
 30
0.0
 10
30.30149062697418
 20
-37.50050102718649
 30
0.0
 10
30.30298599737525
 20
-37.50059252208886
 30
0.0
 11
30.28502226216449
 21
-37.49999999999999
 31
0.0
 11
30.28948241719674
 21
-37.50003662724784
 31
0.0
 11
30.294007814556
 21
-37.50014851318286
 31
0.0
 11
30.298499064841
 21
-37.50033377398417
 31
0.0
 11
30.30298599737525
 21
-37.50059252208886
 31
0.0
  0
SPLINE
  5
182
330
75
100
AcDbEntity
  8
0
  6
Continuous
 62
     7
100
AcDbSpline
210
0.0
220
0.0
230
1.0
 70
     8
 71
     3
 72
    11
 73
     7
 74
     5
 42
0.0000000001
 43
0.0000000001
 44
0.00000001
 40
0.0
 40
0.0
 40
0.0
 40
0.0
 40
0.3619431127103611
 40
0.6707172321807091
 40
1.007226044694817
 40
1.344483422045645
 40
1.344483422045645
 40
1.344483422045645
 40
1.344483422045645
 10
30.57183972413493
 20
-37.58584603953455
 30
0.0
 10
30.69248624068204
 20
-37.58638137570003
 30
0.0
 10
30.91605645049972
 20
-37.5873734078139
 30
0.0
 10
31.25179510813552
 20
-37.58887486484466
 30
0.0
 10
31.57930522976053
 20
-37.59034840636954
 30
0.0
 10
31.80389165225208
 20
-37.59136647374149
 30
0.0
 10
31.91630962302216
 20
-37.59187607297189
 30
0.0
 11
30.57183972413493
 21
-37.58584603953455
 31
0.0
 11
30.93377926366849
 21
-37.58745431833441
 31
0.0
 11
31.24255029690796
 21
-37.58883485696803
 31
0.0
 11
31.5790557021023
 21
-37.59034918013357
 31
0.0
 11
31.91630962302216
 21
-37.59187607297189
 31
0.0
  0
SPLINE
  5
183
330
75
100
AcDbEntity
  8
0
  6
Continuous
 62
     7
100
AcDbSpline
210
0.0
220
0.0
230
1.0
 70
     8
 71
     3
 72
    11
 73
     7
 74
     5
 42
0.0000000001
 43
0.0000000001
 44
0.00000001
 40
0.0
 40
0.0
 40
0.0
 40
0.0
 40
0.1950862631625062
 40
0.3901736298835424
 40
0.5852626194215548
 40
0.780352800413495
 40
0.780352800413495
 40
0.780352800413495
 40
0.780352800413495
 10
45.49901097826204
 20
-14.5
 30
0.0
 10
45.43349380807323
 20
-14.49248417665384
 30
0.0
 10
45.30245909707988
 20
-14.47745248744621
 30
0.0
 10
45.13719019823645
 20
-14.36182737398445
 30
0.0
 10
45.02156855244715
 20
-14.19655500080409
 30
0.0
 10
45.0065374305373
 20
-14.06551846697938
 30
0.0
 10
44.9990218466328
 20
-13.99999999999998
 30
0.0
 11
45.49901097826204
 21
-14.5
 31
0.0
 11
45.3076734018212
 21
-14.46193975937471
 31
0.0
 11
45.14546528590963
 21
-14.35355337745075
 31
0.0
 11
45.03708125995274
 21
-14.19134173558636
 31
0.0
 11
44.9990218466328
 21
-13.99999999999998
 31
0.0
  0
SPLINE
  5
184
330
75
100
AcDbEntity
  8
0
  6
Continuous
 62
     7
100
AcDbSpline
210
0.0
220
0.0
230
1.0
 70
     8
 71
     3
 72
    22
 73
    18
 74
    16
 42
0.0000000001
 43
0.0000000001
 44
0.00000001
 40
0.0
 40
0.0
 40
0.0
 40
0.0
 40
0.0026879746584638
 40
0.0104629994441082
 40
0.0231845505279619
 40
0.040687437529594
 40
0.0628036508319661
 40
0.0893643909471798
 40
0.1202005408924704
 40
0.1551428264654271
 40
0.1940218849576375
 40
0.2366683004154496
 40
0.282912624803999
 40
0.332585392617032
 40
0.3855171322127705
 40
0.441538375412222
 40
0.5004796661078088
 40
0.5004796661078088
 40
0.5004796661078088
 40
0.5004796661078088
 10
44.9990218466328
 20
-13.99999999999998
 30
0.0
 10
44.99880167152412
 20
-14.00086970472884
 30
0.0
 10
44.99794463515573
 20
-14.00425504917987
 30
0.0
 10
44.99762748796217
 20
-14.0120228610958
 30
0.0
 10
44.99657753139066
 20
-14.02462313043367
 30
0.0
 10
44.99566719206599
 20
-14.04205810494501
 30
0.0
 10
44.99451107139107
 20
-14.0640832768813
 30
0.0
 10
44.99328413392695
 20
-14.09056095122072
 30
0.0
 10
44.99193859515453
 20
-14.12131072215367
 30
0.0
 10
44.99050677973162
 20
-14.15616737608199
 30
0.0
 10
44.98899429679873
 20
-14.19496045503812
 30
0.0
 10
44.98741623799238
 20
-14.23752118447691
 30
0.0
 10
44.98578563164978
 20
-14.28368024417564
 30
0.0
 10
44.98411639990662
 20
-14.33326846045271
 30
0.0
 10
44.98242511375373
 20
-14.38611667229567
 30
0.0
 10
44.98071916063552
 20
-14.44205546034163
 30
0.0
 10
44.9796300811686
 20
-14.48036083470697
 30
0.0
 10
44.97907171013001
 20
-14.5
 30
0.0
 11
44.9990218466328
 21
-13.99999999999998
 31
0.0
 11
44.99840843874318
 21
-14.0026170476735
 31
0.0
 11
44.99765400501086
 21
-14.01035538342229
 31
0.0
 11
44.99676446468504
 21
-14.02304579633865
 31
0.0
 11
44.99574683596062
 21
-14.0405190755149
 31
0.0
 11
44.99460920070603
 21
-14.06260601004334
 31
0.0
 11
44.99336066345643
 21
-14.08913738901625
 31
0.0
 11
44.99201130467252
 21
-14.11994400152592
 31
0.0
 11
44.99057212826446
 21
-14.15485663666463
 31
0.0
 11
44.98905500338145
 21
-14.19370608352465
 31
0.0
 11
44.98747260046642
 21
-14.23632313119827
 31
0.0
 11
44.98583832157649
 21
-14.28253856877775
 31
0.0
 11
44.9841662249685
 21
-14.33218318535539
 31
0.0
 11
44.98247094394998
 21
-14.38508777002345
 31
0.0
 11
44.98076759999587
 21
-14.44108311187423
 31
0.0
 11
44.97907171013001
 21
-14.5
 31
0.0
  0
SPLINE
  5
185
330
75
100
AcDbEntity
  8
0
  6
Continuous
 62
     7
100
AcDbSpline
210
0.0
220
0.0
230
1.0
 70
     8
 71
     3
 72
    27
 73
    23
 74
    21
 42
0.0000000001
 43
0.0000000001
 44
0.00000001
 40
0.0
 40
0.0
 40
0.0
 40
0.0
 40
0.1437999135047445
 40
0.2871405829616398
 40
0.3664052570883078
 40
0.4462693958607922
 40
0.5358535289961942
 40
0.6469614986710123
 40
0.710316357557736
 40
0.7832413414116877
 40
0.8447231240203646
 40
0.9147221072752909
 40
0.988941938032442
 40
1.075045298624485
 40
1.152977251758714
 40
1.231079646537354
 40
1.302506565536009
 40
1.382728977624194
 40
1.461691851666098
 40
1.530728449354522
 40
1.604516608733226
 40
1.685806842248691
 40
1.685806842248691
 40
1.685806842248691
 40
1.685806842248691
 10
28.86025968756126
 20
-15.54603721697467
 30
0.0
 10
28.86039702742646
 20
-15.49796851793436
 30
0.0
 10
28.86067126854384
 20
-15.4019846336034
 30
0.0
 10
28.88940820723049
 20
-15.28220649282094
 30
0.0
 10
28.9239858612933
 20
-15.18747243081766
 30
0.0
 10
28.95921843418025
 20
-15.11229064092995
 30
0.0
 10
29.00606143438341
 20
-15.03122487794753
 30
0.0
 10
29.05731942703813
 20
-14.95945885282122
 30
0.0
 10
29.11036123817109
 20
-14.89627596861056
 30
0.0
 10
29.15569378653718
 20
-14.84835177712671
 30
0.0
 10
29.20526988834672
 20
-14.80157177741698
 30
0.0
 10
29.25766204576361
 20
-14.7572786984258
 30
0.0
 10
29.31915008849325
 20
-14.7112306944278
 30
0.0
 10
29.38574144796441
 20
-14.66782979163778
 30
0.0
 10
29.45619895271252
 20
-14.62834801554542
 30
0.0
 10
29.52463510152373
 20
-14.59558380475607
 30
0.0
 10
29.59568736465162
 20
-14.56688495999831
 30
0.0
 10
29.66874137394665
 20
-14.54276813263329
 30
0.0
 10
29.74253475678063
 20
-14.52399318007307
 30
0.0
 10
29.81529605807613
 20
-14.5107143529968
 30
0.0
 10
29.88956886050536
 20
-14.50181950142373
 30
0.0
 10
29.94127519058404
 20
-14.50062575011694
 30
0.0
 10
29.96837902863574
 20
-14.5
 30
0.0
 11
28.86025968756126
 21
-15.54603721697467
 31
0.0
 11
28.86625101568741
 21
-15.40236217004147
 31
0.0
 11
28.89774616336849
 21
-15.26252439548503
 31
0.0
 11
28.92499686741117
 21
-15.18809128663161
 31
0.0
 11
28.95879402684361
 21
-15.11573085078322
 31
0.0
 11
29.00355378384519
 21
-15.03813007074345
 31
0.0
 11
29.06802470163021
 21
-14.94763984096577
 31
0.0
 11
29.10874584402459
 21
-14.89910504204115
 31
0.0
 11
29.15884350532301
 21
-14.84611185754986
 31
0.0
 11
29.20355383629881
 21
-14.80391001047209
 31
0.0
 11
29.25700367356684
 21
-14.75871075657621
 31
0.0
 11
29.31640814081001
 21
-14.71421702050949
 31
0.0
 11
29.3885444091998
 21
-14.66720481477481
 31
0.0
 11
29.4565342448901
 21
-14.62911581948587
 31
0.0
 11
29.52698570258304
 21
-14.59540267399188
 31
0.0
 11
29.59322049722284
 21
-14.56866773923108
 31
0.0
 11
29.66940548833369
 21
-14.54353842307075
 31
0.0
 11
29.74594346679338
 21
-14.52412004697332
 31
0.0
 11
29.81384859549685
 21
-14.51167234372497
 31
0.0
 11
29.88715340669705
 21
-14.50324043294507
 31
0.0
 11
29.96837902863574
 21
-14.5
 31
0.0
  0
SPLINE
  5
186
330
75
100
AcDbEntity
  8
0
  6
Continuous
 62
     7
100
AcDbSpline
210
0.0
220
0.0
230
1.0
 70
     8
 71
     3
 72
    11
 73
     7
 74
     5
 42
0.0000000001
 43
0.0000000001
 44
0.00000001
 40
0.0
 40
0.0
 40
0.0
 40
0.0
 40
4.622343005404281
 40
9.664829673361075
 40
14.24548390889978
 40
19.20475111861761
 40
19.20475111861761
 40
19.20475111861761
 40
19.20475111861761
 10
28.86025968756126
 20
-15.54603721697467
 30
0.0
 10
28.9706597677575
 20
-17.08330344810268
 30
0.0
 10
29.20149464300898
 20
-20.29756432599323
 30
0.0
 10
29.88715805624625
 20
-24.99978004438711
 30
0.0
 10
30.7549657259406
 20
-29.78317496763081
 30
0.0
 10
31.44986922281133
 20
-32.88666864238785
 30
0.0
 10
31.81111036569964
 20
-34.50000000000003
 30
0.0
 11
28.86025968756126
 21
-15.54603721697467
 31
0.0
 11
29.24506496870998
 21
-20.1523350531127
 31
0.0
 11
29.93945199489951
 21
-25.14678181470519
 31
0.0
 11
30.76175496213255
 21
-29.65302315928921
 31
0.0
 11
31.81111036569964
 21
-34.50000000000003
 31
0.0
  0
SPLINE
  5
187
330
75
100
AcDbEntity
  8
0
  6
Continuous
 62
     7
100
AcDbSpline
210
0.0
220
0.0
230
1.0
 70
     8
 71
     3
 72
    11
 73
     7
 74
     5
 42
0.0000000001
 43
0.0000000001
 44
0.00000001
 40
0.0
 40
0.0
 40
0.0
 40
0.0
 40
0.0607454294460192
 40
0.1322572875858505
 40
0.2135601632708569
 40
0.2834072743668692
 40
0.2834072743668692
 40
0.2834072743668692
 40
0.2834072743668692
 10
30.30298599737525
 20
-37.50059252208886
 30
0.0
 10
30.32311251574225
 20
-37.5030794014963
 30
0.0
 10
30.36693274636767
 20
-37.50849393108282
 30
0.0
 10
30.43535623889311
 20
-37.52904237921438
 30
0.0
 10
30.50490147778735
 20
-37.55502468677001
 30
0.0
 10
30.55068359505394
 20
-37.57610481455308
 30
0.0
 10
30.57183972413493
 20
-37.58584603953455
 30
0.0
 11
30.30298599737525
 21
-37.50059252208886
 31
0.0
 11
30.36306057004489
 21
-37.50959546145005
 31
0.0
 11
30.43194956415666
 21
-37.52878536360925
 31
0.0
 11
30.50806652531713
 21
-37.55735747970776
 31
0.0
 11
30.57183972413493
 21
-37.58584603953455
 31
0.0
  0
SPLINE
  5
188
330
75
100
AcDbEntity
  8
0
  6
Continuous
 62
     7
100
AcDbSpline
210
0.0
220
0.0
230
1.0
 70
     8
 71
     3
 72
    26
 73
    22
 74
    20
 42
0.0000000001
 43
0.0000000001
 44
0.00000001
 40
0.0
 40
0.0
 40
0.0
 40
0.0
 40
0.0208013108383075
 40
0.0431076019778205
 40
0.0668318288843143
 40
0.0918879586974311
 40
0.1181910699682153
 40
0.1456574627817934
 40
0.1742047808814567
 40
0.2160614630609045
 40
0.2574404748092653
 40
0.2778649369458318
 40
0.2980451187325097
 40
0.3080833847282343
 40
0.318073561004807
 40
0.3235543188339952
 40
0.3283114200465068
 40
0.3322352996678238
 40
0.335216362345521
 40
0.3371449883856312
 40
0.3379115421070851
 40
0.3379115421070851
 40
0.3379115421070851
 40
0.3379115421070851
 10
31.92107817794954
 20
-34.72465913081555
 30
0.0
 10
31.91555553724694
 20
-34.72046647669441
 30
0.0
 10
31.90411069133676
 20
-34.71177782882554
 30
0.0
 10
31.88653786680931
 20
-34.69808479682797
 30
0.0
 10
31.86799304312452
 20
-34.68333396464786
 30
0.0
 10
31.84858767775057
 20
-34.66752717218841
 30
0.0
 10
31.82841693661529
 20
-34.6506878494924
 30
0.0
 10
31.80758071640194
 20
-34.63283308620728
 30
0.0
 10
31.78309847564933
 20
-34.61126982294201
 30
0.0
 10
31.75556830304229
 20
-34.5861564288137
 30
0.0
 10
31.7305415790167
 20
-34.5623278094461
 30
0.0
 10
31.7110645125003
 20
-34.54315798122372
 30
0.0
 10
31.69916598229183
 20
-34.5311827644927
 30
0.0
 10
31.6898006291512
 20
-34.52159481748492
 30
0.0
 10
31.68389397640065
 20
-34.51547807697446
 30
0.0
 10
31.67923215041923
 20
-34.51060660747549
 30
0.0
 10
31.67597846409208
 20
-34.50718645184311
 30
0.0
 10
31.67330672348883
 20
-34.5043627493907
 30
0.0
 10
31.67128689812276
 20
-34.50222019531544
 30
0.0
 10
31.66999279881416
 20
-34.50083987528311
 30
0.0
 10
31.66937673849903
 20
-34.50018597894
 30
0.0
 10
31.66920152075143
 20
-34.49999999999998
 30
0.0
 11
31.92107817794954
 21
-34.72465913081555
 31
0.0
 11
31.90453589064196
 21
-34.71204773663309
 31
0.0
 11
31.88693301787381
 21
-34.69834702516584
 31
0.0
 11
31.86836849397788
 21
-34.68357551898575
 31
0.0
 11
31.848941253287
 21
-34.66775174066481
 31
0.0
 11
31.82875023013397
 21
-34.65089421277496
 31
0.0
 11
31.80789435885161
 21
-34.63302145788817
 31
0.0
 11
31.78647257377273
 21
-34.61415199857642
 31
0.0
 11
31.75555278310077
 21
-34.58593944130357
 31
0.0
 11
31.72558939338847
 21
-34.55740143348558
 31
0.0
 11
31.71103342580758
 21
-34.54307375183948
 31
0.0
 11
31.69681050837725
 21
-34.52875773435159
 31
0.0
 11
31.68979631641128
 21
-34.52157665537518
 31
0.0
 11
31.68285682873175
 21
-34.51439006141263
 31
0.0
 11
31.67906746211883
 21
-34.51043033830929
 31
0.0
 11
31.67578873675185
 21
-34.50698360479566
 31
0.0
 11
31.67309171628122
 21
-34.5041335325398
 31
0.0
 11
31.67104746435733
 21
-34.50196379320983
 31
0.0
 11
31.66972704463061
 21
-34.50055805847387
 31
0.0
 11
31.66920152075143
 21
-34.49999999999998
 31
0.0
  0
SPLINE
  5
189
330
75
100
AcDbEntity
  8
0
  6
Continuous
 62
     7
100
AcDbSpline
210
0.0
220
0.0
230
1.0
 70
     8
 71
     3
 72
    11
 73
     7
 74
     5
 42
0.0000000001
 43
0.0000000001
 44
0.00000001
 40
0.0
 40
0.0
 40
0.0
 40
0.0
 40
0.668728165953722
 40
1.285051518675204
 40
1.953227331189276
 40
2.56705807570375
 40
2.56705807570375
 40
2.56705807570375
 40
2.56705807570375
 10
31.66920152075143
 20
-34.49999999999998
 30
0.0
 10
31.71858309981042
 20
-34.71737104957911
 30
0.0
 10
31.81347647561706
 20
-35.13507888902583
 30
0.0
 10
31.96049968211307
 20
-35.76933894206631
 30
0.0
 10
32.10512371799422
 20
-36.38536818695521
 30
0.0
 10
32.20447050821809
 20
-36.80099563232747
 30
0.0
 10
32.25203821672466
 20
-36.99999999999999
 30
0.0
 11
31.66920152075143
 21
-34.49999999999998
 31
0.0
 11
31.81784317118689
 21
-35.15199924823241
 31
0.0
 11
31.95686662381245
 21
-35.75243821659632
 31
0.0
 11
32.10971961304862
 21
-36.40289565571928
 31
0.0
 11
32.25203821672466
 21
-36.99999999999999
 31
0.0
  0
SPLINE
  5
18A
330
75
100
AcDbEntity
  8
0
  6
Continuous
 62
     7
100
AcDbSpline
210
0.0
220
0.0
230
1.0
 70
     8
 71
     3
 72
    11
 73
     7
 74
     5
 42
0.0000000001
 43
0.0000000001
 44
0.00000001
 40
0.0
 40
0.0
 40
0.0
 40
0.0
 40
0.0576733194352072
 40
0.1268027422569691
 40
0.190234570719489
 40
0.2519547707612296
 40
0.2519547707612296
 40
0.2519547707612296
 40
0.2519547707612296
 10
31.92107817794954
 20
-34.72465913081555
 30
0.0
 10
31.90965247597222
 20
-34.70918045732336
 30
0.0
 10
31.88453149529824
 20
-34.67514846012722
 30
0.0
 10
31.85345919338171
 20
-34.61969431076192
 30
0.0
 10
31.82735299273287
 20
-34.56021763498797
 30
0.0
 10
31.81647498406747
 20
-34.51988869350155
 30
0.0
 10
31.81111036569964
 20
-34.50000000000003
 30
0.0
 11
31.92107817794954
 21
-34.72465913081555
 31
0.0
 11
31.88771324033813
 21
-34.67761667432291
 31
0.0
 11
31.85357271693586
 21
-34.61750592851578
 31
0.0
 11
31.82864865038206
 21
-34.55917593821474
 31
0.0
 11
31.81111036569964
 21
-34.50000000000003
 31
0.0
  0
SPLINE
  5
18B
330
75
100
AcDbEntity
  8
0
  6
Continuous
 62
     7
100
AcDbSpline
210
0.0
220
0.0
230
1.0
 70
     8
 71
     3
 72
    11
 73
     7
 74
     5
 42
0.0000000001
 43
0.0000000001
 44
0.00000001
 40
0.0
 40
0.0
 40
0.0
 40
0.0
 40
0.2304230017212117
 40
0.4618229731988124
 40
0.6917062362544409
 40
0.9229666898772004
 40
0.9229666898772004
 40
0.9229666898772004
 40
0.9229666898772004
 10
33.65583728299946
 20
-61.08112335523998
 30
0.0
 10
33.68404919075951
 20
-61.15256218233336
 30
0.0
 10
33.74059262185813
 20
-61.2957427297772
 30
0.0
 10
33.82530675548328
 20
-61.51018494137878
 30
0.0
 10
33.91013985101252
 20
-61.72488030041839
 30
0.0
 10
33.96664385612476
 20
-61.86783297495085
 30
0.0
 10
33.9949802323588
 20
-61.93952277395124
 30
0.0
 11
33.65583728299946
 21
-61.08112335523998
 31
0.0
 11
33.74047714119762
 21
-61.29543820336397
 31
0.0
 11
33.82549525723627
 21
-61.51065406417602
 31
0.0
 11
33.90997518656917
 21
-61.72445176335216
 31
0.0
 11
33.9949802323588
 21
-61.93952277395124
 31
0.0
  0
SPLINE
  5
18C
330
75
100
AcDbEntity
  8
0
  6
Continuous
 62
     7
100
AcDbSpline
210
0.0
220
0.0
230
1.0
 70
     8
 71
     3
 72
     9
 73
     5
 74
     3
 42
0.0000000001
 43
0.0000000001
 44
0.00000001
 40
0.0
 40
0.0
 40
0.0
 40
0.0
 40
0.2560820150851199
 40
0.5196953196781415
 40
0.5196953196781415
 40
0.5196953196781415
 40
0.5196953196781415
 10
35.94049351401286
 20
-56.04358838958403
 30
0.0
 10
35.97922487703428
 20
-56.12201958575478
 30
0.0
 10
36.0578266799774
 20
-56.28118861429104
 30
0.0
 10
36.21270526463243
 20
-56.36824533157974
 30
0.0
 10
36.29126678705847
 20
-56.41240449188487
 30
0.0
 11
35.94049351401286
 21
-56.04358838958403
 31
0.0
 11
36.0752081115886
 21
-56.2613726306348
 31
0.0
 11
36.29126678705847
 21
-56.41240449188487
 31
0.0
  0
SPLINE
  5
18D
330
75
100
AcDbEntity
  8
0
  6
Continuous
 62
     7
100
AcDbSpline
210
0.0
220
0.0
230
1.0
 70
     8
 71
     3
 72
    11
 73
     7
 74
     5
 42
0.0000000001
 43
0.0000000001
 44
0.00000001
 40
0.0
 40
0.0
 40
0.0
 40
0.0
 40
1.037848319818799
 40
2.154601044702932
 40
3.26839658957104
 40
4.310723022233487
 40
4.310723022233487
 40
4.310723022233487
 40
4.310723022233487
 10
34.35832763319767
 20
-57.64415176191561
 30
0.0
 10
34.32791906719717
 20
-57.98876231142464
 30
0.0
 10
34.26479006576079
 20
-58.70418308709006
 30
0.0
 10
34.17201478104338
 20
-59.78969237823188
 30
0.0
 10
34.0811158810145
 20
-60.87685813656903
 30
0.0
 10
34.0230505501736
 20
-61.59321628450804
 30
0.0
 10
33.9949802323588
 20
-61.93952277395124
 30
0.0
 11
34.35832763319767
 21
-57.64415176191561
 31
0.0
 11
34.26755889207509
 21
-58.67802320972028
 31
0.0
 11
34.17227310446821
 21
-59.79070342757996
 31
0.0
 11
34.07961594577799
 21
-60.90063818544256
 31
0.0
 11
33.9949802323588
 21
-61.93952277395124
 31
0.0
  0
SPLINE
  5
18E
330
75
100
AcDbEntity
  8
0
  6
Continuous
 62
     7
100
AcDbSpline
210
0.0
220
0.0
230
1.0
 70
     8
 71
     3
 72
    11
 73
     7
 74
     5
 42
0.0000000001
 43
0.0000000001
 44
0.00000001
 40
0.0
 40
0.0
 40
0.0
 40
0.0
 40
0.0150438320186077
 40
0.0299324998169943
 40
0.0431397277807926
 40
0.0564238858085585
 40
0.0564238858085585
 40
0.0564238858085585
 40
0.0564238858085585
 10
35.21790758857308
 20
-57.89119406545088
 30
0.0
 10
35.21428051845486
 20
-57.89466255836106
 30
0.0
 10
35.20706378833479
 20
-57.90156376965285
 30
0.0
 10
35.19555249241989
 20
-57.91022660192006
 30
0.0
 10
35.18378377414429
 20
-57.91749974207271
 30
0.0
 10
35.17563920867082
 20
-57.9209431520777
 30
0.0
 10
35.1715551001666
 20
-57.92266985685167
 30
0.0
 11
35.21790758857308
 21
-57.89119406545088
 31
0.0
 11
35.20683178066969
 21
-57.90137460380066
 31
0.0
 11
35.19496521149909
 21
-57.91036665389672
 31
0.0
 11
35.18365397143844
 21
-57.91718477084923
 31
0.0
 11
35.1715551001666
 21
-57.92266985685167
 31
0.0
  0
SPLINE
  5
18F
330
75
100
AcDbEntity
  8
0
  6
Continuous
 62
     7
100
AcDbSpline
210
0.0
220
0.0
230
1.0
 70
     8
 71
     3
 72
    29
 73
    25
 74
    23
 42
0.0000000001
 43
0.0000000001
 44
0.00000001
 40
0.0
 40
0.0
 40
0.0
 40
0.0
 40
0.0582243858776193
 40
0.130116534178753
 40
0.214888040529627
 40
0.3083809845215015
 40
0.4004489961891066
 40
0.4523826822140161
 40
0.5164594826457112
 40
0.5900080406005392
 40
0.6347771513892481
 40
0.6852509065948507
 40
0.7372094088980576
 40
0.7792250898378914
 40
0.8480287863455566
 40
0.910391472692705
 40
0.9587027945317015
 40
1.002584849979263
 40
1.029988315607576
 40
1.05314923409149
 40
1.075403227865444
 40
1.099564548755844
 40
1.106244535872108
 40
1.112800189211528
 40
1.112800189211528
 40
1.112800189211528
 40
1.112800189211528
 10
33.9949802323588
 20
-61.93952277395124
 30
0.0
 10
34.00239133930085
 20
-61.95746447526341
 30
0.0
 10
34.01895325807755
 20
-61.99755956526432
 30
0.0
 10
34.05078525905661
 20
-62.06179326943143
 30
0.0
 10
34.09201638345595
 20
-62.13432482983407
 30
0.0
 10
34.14167791529981
 20
-62.20960112530002
 30
0.0
 10
34.18949755034939
 20
-62.27276306220787
 30
0.0
 10
34.2341234355304
 20
-62.32587774906559
 30
0.0
 10
34.27676739197465
 20
-62.37253473762179
 30
0.0
 10
34.320079971521
 20
-62.41525431821766
 30
0.0
 10
34.36202786474479
 20
-62.45276941249335
 30
0.0
 10
34.39997522976957
 20
-62.48390376678462
 30
0.0
 10
34.43873319334412
 20
-62.51251882149718
 30
0.0
 10
34.48408953525009
 20
-62.54233278764124
 30
0.0
 10
34.53462963841019
 20
-62.5704488630885
 30
0.0
 10
34.59014535563846
 20
-62.59324821199448
 30
0.0
 10
34.64028142502993
 20
-62.60585003532224
 30
0.0
 10
34.680300615988
 20
-62.60892346794198
 30
0.0
 10
34.71172924691979
 20
-62.60551424111327
 30
0.0
 10
34.73523410681145
 20
-62.5990709990906
 30
0.0
 10
34.7564221637124
 20
-62.58939316696716
 30
0.0
 10
34.77107509964561
 20
-62.57927870436109
 30
0.0
 10
34.78050242113002
 20
-62.57111655196999
 30
0.0
 10
34.78366373683397
 20
-62.5680377109515
 30
0.0
 10
34.78522954620457
 20
-62.5665127515457
 30
0.0
 11
33.9949802323588
 21
-61.93952277395124
 31
0.0
 11
34.01775672239079
 21
-61.99310738566625
 31
0.0
 11
34.04942796423484
 21
-62.05764739982342
 31
0.0
 11
34.09134016390255
 21
-62.1313330551982
 31
0.0
 11
34.14277085756832
 21
-62.2094087513227
 31
0.0
 11
34.19835068479917
 21
-62.28280767214184
 31
0.0
 11
34.23176319524944
 21
-62.32256583972467
 31
0.0
 11
34.27500958142293
 21
-62.36984782822449
 31
0.0
 11
34.32741944206915
 21
-62.42144818562905
 31
0.0
 11
34.36080529304395
 21
-62.45127532487337
 31
0.0
 11
34.39985425822561
 21
-62.48325622984488
 31
0.0
 11
34.44169754834433
 21
-62.51405923349117
 31
0.0
 11
34.47683549289001
 21
-62.53709490795367
 31
0.0
 11
34.5371404220799
 21
-62.57021988596908
 31
0.0
 11
34.59502123998313
 21
-62.59343444104312
 31
0.0
 11
34.64197720504442
 21
-62.60479759038626
 31
0.0
 11
34.68576464563877
 21
-62.60767766616635
 31
0.0
 11
34.71299282006619
 21
-62.60458308286774
 31
0.0
 11
34.73531119978889
 21
-62.59839292361519
 31
0.0
 11
34.75553664117657
 21
-62.58911004908384
 31
0.0
 11
34.77544737282265
 21
-62.57542311398183
 31
0.0
 11
34.78048912998726
 21
-62.57104100118472
 31
0.0
 11
34.78522954620457
 21
-62.5665127515457
 31
0.0
  0
SPLINE
  5
190
330
75
100
AcDbEntity
  8
0
  6
Continuous
 62
     7
100
AcDbSpline
210
0.0
220
0.0
230
1.0
 70
     8
 71
     3
 72
    11
 73
     7
 74
     5
 42
0.0000000001
 43
0.0000000001
 44
0.00000001
 40
0.0
 40
0.0
 40
0.0
 40
0.0
 40
1.115648535034065
 40
2.328872932747947
 40
3.487253401567572
 40
4.65989824789859
 40
4.65989824789859
 40
4.65989824789859
 40
4.65989824789859
 10
35.1715551001666
 20
-57.92266985685167
 30
0.0
 10
35.13931660527964
 20
-58.2931528541152
 30
0.0
 10
35.0720200008589
 20
-59.06652170396002
 30
0.0
 10
34.97459376297146
 20
-60.22485088572783
 30
0.0
 10
34.87780345378384
 20
-61.40229697232083
 30
0.0
 10
34.8162131464364
 20
-62.17686088062074
 30
0.0
 10
34.78522954620457
 20
-62.5665127515457
 30
0.0
 11
35.1715551001666
 21
-57.92266985685167
 31
0.0
 11
35.07535206256615
 21
-59.03416282996491
 31
0.0
 11
34.97345174196986
 21
-60.24310028238773
 31
0.0
 11
34.87870367392857
 21
-61.39759935737446
 31
0.0
 11
34.78522954620457
 21
-62.5665127515457
 31
0.0
  0
SPLINE
  5
191
330
75
100
AcDbEntity
  8
0
  6
Continuous
 62
     7
100
AcDbSpline
210
0.0
220
0.0
230
1.0
 70
     8
 71
     3
 72
   117
 73
   113
 74
   111
 42
0.0000000001
 43
0.0000000001
 44
0.00000001
 40
0.0
 40
0.0
 40
0.0
 40
0.0
 40
0.0059285926494677
 40
0.0119868926633614
 40
0.0181758786743425
 40
0.0244955770754766
 40
0.030945169948613
 40
0.037523091830488
 40
0.0442271158295788
 40
0.0510544298541659
 40
0.0580017038320448
 40
0.0650651488363013
 40
0.0722405690114167
 40
0.0795234071416467
 40
0.0869087846345943
 40
0.09439153661738
 40
0.1019662427658234
 40
0.1096272544147694
 40
0.119085037293901
 40
0.1287250187579906
 40
0.1385422218869319
 40
0.1485314508904592
 40
0.1586873158412047
 40
0.169004254351877
 40
0.1794765506279246
 40
0.1900983522623875
 40
0.2008636850860491
 40
0.2117664663398167
 40
0.2248375617407126
 40
0.2381000432357954
 40
0.2515443345809569
 40
0.2651607463624454
 40
0.2789394916802068
 40
0.2928707001813672
 40
0.3069444307020224
 40
0.3211506827371887
 40
0.3354794069277015
 40
0.3499205147269273
 40
0.3644638873891429
 40
0.3790993844047884
 40
0.3938168514924246
 40
0.4086061282478182
 40
0.4234570555396402
 40
0.4382655560475385
 40
0.4531213656553111
 40
0.4680146477293694
 40
0.4829355984520287
 40
0.4978744538592564
 40
0.5128214970742403
 40
0.5277670658042921
 40
0.5427015601711839
 40
0.5574938604534445
 40
0.572260231373529
 40
0.5869914590987141
 40
0.6016784278138259
 40
0.616312130103055
 40
0.6308836781631342
 40
0.6453843159601886
 40
0.6598054324539586
 40
0.6678482971148997
 40
0.6757062001147448
 40
0.6833797765951265
 40
0.690869627790657
 40
0.6981763209123049
 40
0.7053003890437963
 40
0.7122423310513453
 40
0.7190026115072575
 40
0.7255816606281252
 40
0.7319798742282302
 40
0.7381976136890613
 40
0.744235205945764
 40
0.7500929434918748
 40
0.7557710844034266
 40
0.7612698523844262
 40
0.7665894368353443
 40
0.7717299929475729
 40
0.7766916418266178
 40
0.7814744706483596
 40
0.7910077653267135
 40
0.800447838074829
 40
0.8097932676157634
 40
0.8190427414100415
 40
0.8281950634509317
 40
0.8372491626337603
 40
0.843588096825525
 40
0.8500982680828801
 40
0.8567657501854445
 40
0.8635768561939277
 40
0.8664576175022395
 40
0.8695542632584666
 40
0.8728497368414763
 40
0.8763270411733194
 40
0.8772661192755385
 40
0.8783836349206724
 40
0.8796586481086861
 40
0.8810702257248654
 40
0.8825974431052775
 40
0.8829131339324835
 40
0.8834297758140865
 40
0.8840996174471477
 40
0.8848749099250356
 40
0.8857079081912085
 40
0.8863060208684505
 40
0.8867533101985386
 40
0.8870660024176023
 40
0.887260319542644
 40
0.8877122530406738
 40
0.8880442248681764
 40
0.8883283835897715
 40
0.888449407193257
 40
0.8886430548400908
 40
0.8888070780482606
 40
0.8888070780482606
 40
0.8888070780482606
 40
0.8888070780482606
 10
35.1715551001666
 20
-57.92266985685167
 30
0.0
 10
35.16969887080579
 20
-57.92334855513562
 30
0.0
 10
35.16594580099274
 20
-57.9247208004494
 30
0.0
 10
35.16016456319409
 20
-57.92653942785589
 30
0.0
 10
35.15420647204939
 20
-57.92821690787525
 30
0.0
 10
35.14807131232201
 20
-57.92973623646495
 30
0.0
 10
35.14176862967123
 20
-57.93110627863615
 30
0.0
 10
35.1353052746591
 20
-57.93232873188981
 30
0.0
 10
35.12868884760619
 20
-57.93340726315213
 30
0.0
 10
35.12192674727373
 20
-57.93434498687175
 30
0.0
 10
35.11502643347042
 20
-57.93514516307427
 30
0.0
 10
35.10799535444563
 20
-57.93581100647754
 30
0.0
 10
35.10084096652085
 20
-57.936345740362
 30
0.0
 10
35.09357072838066
 20
-57.93675258269759
 30
0.0
 10
35.08619210182369
 20
-57.93703475100173
 30
0.0
 10
35.07871255258881
 20
-57.93719546066194
 30
0.0
 10
35.07113954415303
 20
-57.93723792952581
 30
0.0
 10
35.06290845963466
 20
-57.93715994265293
 30
0.0
 10
35.05399130358251
 20
-57.93693322267545
 30
0.0
 10
35.04436106096805
 20
-57.93652865659007
 30
0.0
 10
35.03456156756531
 20
-57.93596205120299
 30
0.0
 10
35.02460023039229
 20
-57.93523559023697
 30
0.0
 10
35.01448444857457
 20
-57.93435145294191
 30
0.0
 10
35.00422162593536
 20
-57.9333118200599
 30
0.0
 10
34.99381916687311
 20
-57.93211887230309
 30
0.0
 10
34.98328447837919
 20
-57.9307747907412
 30
0.0
 10
34.97262496471262
 20
-57.9292817570753
 30
0.0
 10
34.96117674247306
 20
-57.92753980743984
 30
0.0
 10
34.94892982516271
 20
-57.92551913699408
 30
0.0
 10
34.93587640525792
 20
-57.9231896327608
 30
0.0
 10
34.92267501325637
 20
-57.92066084396595
 30
0.0
 10
34.90933710707193
 20
-57.91793556191415
 30
0.0
 10
34.8958741389501
 20
-57.91501657633291
 30
0.0
 10
34.88229756389924
 20
-57.91190667836125
 30
0.0
 10
34.8686188371768
 20
-57.90860865966189
 30
0.0
 10
34.85484941479588
 20
-57.90512531259505
 30
0.0
 10
34.84100075323349
 20
-57.90145943010529
 30
0.0
 10
34.82708430937787
 20
-57.89761380569232
 30
0.0
 10
34.81311154042565
 20
-57.89359123335444
 30
0.0
 10
34.79909390381441
 20
-57.88939450757589
 30
0.0
 10
34.78504285712805
 20
-57.88502642318115
 30
0.0
 10
34.7709698581261
 20
-57.88048977570027
 30
0.0
 10
34.75691606209259
 20
-57.87579727576919
 30
0.0
 10
34.74289068875714
 20
-57.8709521532986
 30
0.0
 10
34.72890286680675
 20
-57.86595751687638
 30
0.0
 10
34.71493244265756
 20
-57.8608050648385
 30
0.0
 10
34.70099064198867
 20
-57.85549733699628
 30
0.0
 10
34.6870886905681
 20
-57.85003687313895
 30
0.0
 10
34.67323781379397
 20
-57.84442621324573
 30
0.0
 10
34.65944923705925
 20
-57.83866789747554
 30
0.0
 10
34.64577141317627
 20
-57.83278049031591
 30
0.0
 10
34.63221368796171
 20
-57.82676740537774
 30
0.0
 10
34.61878531741282
 20
-57.82063201277525
 30
0.0
 10
34.60545911349449
 20
-57.81435974685792
 30
0.0
 10
34.59224614869067
 20
-57.8079530111083
 30
0.0
 10
34.57915749628289
 20
-57.80141420982989
 30
0.0
 10
34.56620422464322
 20
-57.79474574401034
 30
0.0
 10
34.55339741722963
 20
-57.78795002581918
 30
0.0
 10
34.54258760676646
 20
-57.78203584278396
 30
0.0
 10
34.53377084819894
 20
-57.77709379737679
 30
0.0
 10
34.52694476630597
 20
-57.77320075984252
 30
0.0
 10
34.5203071254108
 20
-57.7693498330872
 30
0.0
 10
34.51385631250933
 20
-57.7655434262989
 30
0.0
 10
34.50759071950109
 20
-57.761783949904
 30
0.0
 10
34.50150873702442
 20
-57.7580738139883
 30
0.0
 10
34.49560875605182
 20
-57.75441542870234
 30
0.0
 10
34.48988916748073
 20
-57.75081120415302
 30
0.0
 10
34.48434836224219
 20
-57.74726355042807
 30
0.0
 10
34.47898473127641
 20
-57.74377487758478
 30
0.0
 10
34.47379666554356
 20
-57.74034759564871
 30
0.0
 10
34.46878255602529
 20
-57.73698411460463
 30
0.0
 10
34.46394079373221
 20
-57.73368684440361
 30
0.0
 10
34.45926976970233
 20
-57.73045819491023
 30
0.0
 10
34.45476787503273
 20
-57.72730057605702
 30
0.0
 10
34.45043350079966
 20
-57.72421639725573
 30
0.0
 10
34.44626503838048
 20
-57.72120806943988
 30
0.0
 10
34.44226087835915
 20
-57.71827799776642
 30
0.0
 10
34.43709973532647
 20
-57.71444974068145
 30
0.0
 10
34.43078548235229
 20
-57.70967057087973
 30
0.0
 10
34.42333537883322
 20
-57.70387338692664
 30
0.0
 10
34.41603969126869
 20
-57.6980332210747
 30
0.0
 10
34.40890172029623
 20
-57.69215098343287
 30
0.0
 10
34.40192476155885
 20
-57.68622758951742
 30
0.0
 10
34.39576823235162
 20
-57.68083830808979
 30
0.0
 10
34.39033928870559
 20
-57.6759562776131
 30
0.0
 10
34.3855522517246
 20
-57.67155080127881
 30
0.0
 10
34.38070477528309
 20
-57.66697929060952
 30
0.0
 10
34.37678606031068
 20
-57.66318691560402
 30
0.0
 10
34.37375145852755
 20
-57.66019306687836
 30
0.0
 10
34.37156421692777
 20
-57.65800900084905
 30
0.0
 10
34.36925157396011
 20
-57.65566919802384
 30
0.0
 10
34.36745753456779
 20
-57.65382810017759
 30
0.0
 10
34.36617645453438
 20
-57.65250088274995
 30
0.0
 10
34.36540699399845
 20
-57.6517001189772
 30
0.0
 10
34.36453081716007
 20
-57.65078347710109
 30
0.0
 10
34.36356332003704
 20
-57.64976521156426
 30
0.0
 10
34.36281879634452
 20
-57.64897619733638
 30
0.0
 10
34.36228024348269
 20
-57.64840298762842
 30
0.0
 10
34.36193779644074
 20
-57.64803767199827
 30
0.0
 10
34.36149130693514
 20
-57.6475599002538
 30
0.0
 10
34.36097392786738
 20
-57.64700404568649
 30
0.0
 10
34.36047425216626
 20
-57.64646438120133
 30
0.0
 10
34.36005024742393
 20
-57.64600365716433
 30
0.0
 10
34.35974478445884
 20
-57.6456695544028
 30
0.0
 10
34.35953093009202
 20
-57.64543405423349
 30
0.0
 10
34.3593170161721
 20
-57.64519657309334
 30
0.0
 10
34.35909957775201
 20
-57.64495329310606
 30
0.0
 10
34.3588689873146
 20
-57.64468279302402
 30
0.0
 10
34.35871185118351
 20
-57.64449198922337
 30
0.0
 10
34.35860682763977
 20
-57.6443240426613
 30
0.0
 10
34.35850048862736
 20
-57.64419394923963
 30
0.0
 10
34.35838197980448
 20
-57.64416502582012
 30
0.0
 10
34.35832763319767
 20
-57.64415176191561
 30
0.0
 11
35.1715551001666
 21
-57.92266985685167
 31
0.0
 11
35.16597182670162
 21
-57.92466366431945
 31
0.0
 11
35.16019766441609
 21
-57.92649725341155
 31
0.0
 11
35.15424009833106
 21
-57.92817384345883
 31
0.0
 11
35.1481066134676
 21
-57.92969665379209
 31
0.0
 11
35.14180469484676
 21
-57.93106890374217
 31
0.0
 11
35.1353418274896
 21
-57.9322938126399
 31
0.0
 11
35.12872549641716
 21
-57.93337459981613
 31
0.0
 11
35.1219631866505
 21
-57.93431448460167
 31
0.0
 11
35.11506238321068
 21
-57.93511668632735
 31
0.0
 11
35.10803057111877
 21
-57.93578442432405
 31
0.0
 11
35.10087523539582
 21
-57.93632091792256
 31
0.0
 11
35.09360386106285
 21
-57.93672938645368
 31
0.0
 11
35.08622393314096
 21
-57.93701304924831
 31
0.0
 11
35.07874293665118
 21
-57.93717512563726
 31
0.0
 11
35.07116835661456
 21
-57.93721883495132
 31
0.0
 11
35.06350767805219
 21
-57.93714739652138
 31
0.0
 11
35.05405290229205
 21
-57.93690891735194
 31
0.0
 11
35.04442134225791
 21
-57.93650606013554
 31
0.0
 11
35.03462041381654
 21
-57.93594101238358
 31
0.0
 11
35.02465753283477
 21
-57.93521596160749
 31
0.0
 11
35.01454011517936
 21
-57.93433309531866
 31
0.0
 11
35.00427557671715
 21
-57.93329460102851
 31
0.0
 11
34.99387133331489
 21
-57.93210266624844
 31
0.0
 11
34.9833348008394
 21
-57.93075947848986
 31
0.0
 11
34.97267339515747
 21
-57.92926722526419
 31
0.0
 11
34.9618945321359
 21
-57.92762809408283
 31
0.0
 11
34.9489975654401
 21
-57.92550164515877
 31
0.0
 11
34.93594112727131
 21
-57.9231729464337
 31
0.0
 11
34.92273668000862
 21
-57.92064479646577
 31
0.0
 11
34.90939568603112
 21
-57.91791999381322
 31
0.0
 11
34.8959296077179
 21
-57.91500133703417
 31
0.0
 11
34.88234990744802
 21
-57.91189162468682
 31
0.0
 11
34.86866804760058
 21
-57.90859365532934
 31
0.0
 11
34.85489549055466
 21
-57.9051102275199
 31
0.0
 11
34.84104369868934
 21
-57.90144413981669
 31
0.0
 11
34.82712413438368
 21
-57.89759819077783
 31
0.0
 11
34.81314826001681
 21
-57.8935751789616
 31
0.0
 11
34.79912753796776
 21
-57.88937790292609
 31
0.0
 11
34.78507343061567
 21
-57.8850091612295
 31
0.0
 11
34.77099740033956
 21
-57.88047175243001
 31
0.0
 11
34.75691090951855
 21
-57.87576847508579
 31
0.0
 11
34.74291403843266
 21
-57.87093326184362
 31
0.0
 11
34.72892338235972
 21
-57.8659376015518
 31
0.0
 11
34.71495017192508
 21
-57.86078403569051
 31
0.0
 11
34.70100563775404
 21
-57.85547510573987
 31
0.0
 11
34.68710101047197
 21
-57.85001335318005
 31
0.0
 11
34.67324752070419
 21
-57.84440131949123
 31
0.0
 11
34.65945639907603
 21
-57.8386415461535
 31
0.0
 11
34.64573887621282
 21
-57.83273657464704
 31
0.0
 11
34.63221705490198
 21
-57.82673886707845
 31
0.0
 11
34.61878641172788
 21
-57.82060180474542
 31
0.0
 11
34.60545802684577
 21
-57.81432779273351
 31
0.0
 11
34.59224298041085
 21
-57.80791923612834
 31
0.0
 11
34.57915235257835
 21
-57.80137854001549
 31
0.0
 11
34.56619722350351
 21
-57.79470810948055
 31
0.0
 11
34.55338867334153
 21
-57.78791034960913
 31
0.0
 11
34.54073778224765
 21
-57.78098766548679
 31
0.0
 11
34.53372201582157
 21
-57.77705489376586
 31
0.0
 11
34.52689628292639
 21
-57.77316182171432
 31
0.0
 11
34.52025897436287
 21
-57.76931085936278
 31
0.0
 11
34.51380848093178
 21
-57.76550441674183
 31
0.0
 11
34.50754319343386
 21
-57.76174490388211
 31
0.0
 11
34.50146150266989
 21
-57.75803473081424
 31
0.0
 11
34.49556179944061
 21
-57.75437630756883
 31
0.0
 11
34.48984247454678
 21
-57.75077204417647
 31
0.0
 11
34.48430191878916
 21
-57.74722435066781
 31
0.0
 11
34.4789385229685
 21
-57.74373563707344
 31
0.0
 11
34.47375067788555
 21
-57.74030831342398
 31
0.0
 11
34.4687367743411
 21
-57.73694478975005
 31
0.0
 11
34.46389520313586
 21
-57.73364747608227
 31
0.0
 11
34.45922435507063
 21
-57.73041878245125
 31
0.0
 11
34.45472262094614
 21
-57.72726111888759
 31
0.0
 11
34.45038839156317
 21
-57.72417689542192
 31
0.0
 11
34.44622005772245
 21
-57.72116852208483
 31
0.0
 11
34.44221601022475
 21
-57.71823840890697
 31
0.0
 11
34.43837463987082
 21
-57.71538896591893
 31
0.0
 11
34.43077370542338
 21
-57.70963488015749
 31
0.0
 11
34.42332397439723
 21
-57.70383690800098
 31
0.0
 11
34.41602874163451
 21
-57.69799596353605
 31
0.0
 11
34.40889130197739
 21
-57.69211296084933
 31
0.0
 11
34.40191495026804
 21
-57.68618881402741
 31
0.0
 11
34.3951029813486
 21
-57.68022443715694
 31
0.0
 11
34.39038980074099
 21
-57.67598556758504
 31
0.0
 11
34.38559974694092
 21
-57.6715767452488
 31
0.0
 11
34.38074940236077
 21
-57.66700187092901
 31
0.0
 11
34.37585534941288
 21
-57.66226484540638
 31
0.0
 11
34.37380465209098
 21
-57.66024162366633
 31
0.0
 11
34.37161344233289
 21
-57.65805351609686
 31
0.0
 11
34.36929689131536
 21
-57.65570964376255
 31
0.0
 11
34.36687017021521
 21
-57.65321912772801
 31
0.0
 11
34.36621799342407
 21
-57.65254345538495
 31
0.0
 11
34.3654437001218
 21
-57.65173765696154
 31
0.0
 11
34.36456270831302
 21
-57.65081596717508
 31
0.0
 11
34.3635904360023
 21
-57.64979262074287
 31
0.0
 11
34.36254230119421
 21
-57.64868185238218
 31
0.0
 11
34.3623261424141
 21
-57.64845177396041
 31
0.0
 11
34.36197280493677
 21
-57.64807485027989
 31
0.0
 11
34.36151545844529
 21
-57.64758544043108
 31
0.0
 11
34.36098727262275
 21
-57.64701790350441
 31
0.0
 11
34.36042141715227
 21
-57.64640659859033
 31
0.0
 11
34.36001647848227
 21
-57.6459664128929
 31
0.0
 11
34.35971472787752
 21
-57.64563623973024
 31
0.0
 11
34.35950460004793
 21
-57.64540467393161
 31
0.0
 11
34.35937452970346
 21
-57.64526031032618
 31
0.0
 11
34.35907457595465
 21
-57.64492226944815
 31
0.0
 11
34.35885915294082
 21
-57.64466968635416
 31
0.0
 11
34.35868460620095
 21
-57.64444545519072
 31
0.0
 11
34.3586173879203
 21
-57.64434481516217
 31
0.0
 11
34.35848245978625
 21
-57.6442059130032
 31
0.0
 11
34.35832763319767
 21
-57.64415176191561
 31
0.0
  0
SPLINE
  5
192
330
75
100
AcDbEntity
  8
0
  6
Continuous
 62
     7
100
AcDbSpline
210
0.0
220
0.0
230
1.0
 70
     8
 71
     3
 72
     9
 73
     5
 74
     3
 42
0.0000000001
 43
0.0000000001
 44
0.00000001
 40
0.0
 40
0.0
 40
0.0
 40
0.0
 40
0.163809484705341
 40
0.3011911569321238
 40
0.3011911569321238
 40
0.3011911569321238
 40
0.3011911569321238
 10
36.46971065462589
 20
-56.17085875066709
 30
0.0
 10
36.44224084500379
 20
-56.21830536782996
 30
0.0
 10
36.39173300197096
 20
-56.30554391535065
 30
0.0
 10
36.32273753875424
 20
-56.37893072487667
 30
0.0
 10
36.29126678705847
 20
-56.41240449188487
 30
0.0
 11
36.46971065462589
 21
-56.17085875066709
 31
0.0
 11
36.38183264455824
 21
-56.30910130065072
 31
0.0
 11
36.29126678705847
 21
-56.41240449188487
 31
0.0
  0
SPLINE
  5
193
330
75
100
AcDbEntity
  8
0
  6
Continuous
 62
     7
100
AcDbSpline
210
0.0
220
0.0
230
1.0
 70
     8
 71
     3
 72
    23
 73
    19
 74
    17
 42
0.0000000001
 43
0.0000000001
 44
0.00000001
 40
0.0
 40
0.0
 40
0.0
 40
0.0
 40
0.0305303480245017
 40
0.0539089456090041
 40
0.0825635807109342
 40
0.1103514396483375
 40
0.1429258028563051
 40
0.1835670235923204
 40
0.24812604990554
 40
0.3106135583850617
 40
0.3582338967932535
 40
0.404859592347929
 40
0.444454648921079
 40
0.4733099113001932
 40
0.5099548751133611
 40
0.5434213418272996
 40
0.5549215976374302
 40
0.5666506884271779
 40
0.5666506884271779
 40
0.5666506884271779
 40
0.5666506884271779
 10
36.33473247481236
 20
-55.82791135238624
 30
0.0
 10
36.33827505546421
 20
-55.83746024756961
 30
0.0
 10
36.34453036534546
 20
-55.8543212041055
 30
0.0
 10
36.35686717444295
 20
-55.87896557504642
 30
0.0
 10
36.37053637942782
 20
-55.90182623885692
 30
0.0
 10
36.38793362149532
 20
-55.92590598035854
 30
0.0
 10
36.40990233619537
 20
-55.9514734413491
 30
0.0
 10
36.44290308862035
 20
-55.98350307928324
 30
0.0
 10
36.48707663345695
 20
-56.01798087743398
 30
0.0
 10
36.53668846919224
 20
-56.04866999553538
 30
0.0
 10
36.58378177975735
 20
-56.07147729104408
 30
0.0
 10
36.62599080457596
 20
-56.08631765213471
 30
0.0
 10
36.66391944650621
 20
-56.09336362041216
 30
0.0
 10
36.69913933435321
 20
-56.0931612165729
 30
0.0
 10
36.73158988018467
 20
-56.08446610447264
 30
0.0
 10
36.75464202779489
 20
-56.06941432089618
 30
0.0
 10
36.76896949754718
 20
-56.0570904838989
 30
0.0
 10
36.77451224479575
 20
-56.05167994449798
 30
0.0
 10
36.77731091954209
 20
-56.04894802487286
 30
0.0
 11
36.33473247481236
 21
-55.82791135238624
 31
0.0
 11
36.34593749158392
 21
-55.85631117192169
 31
0.0
 11
36.35630808095249
 21
-55.87726373026588
 31
0.0
 11
36.37103670715547
 21
-55.90184330884237
 31
0.0
 11
36.38728044381446
 21
-55.92438895417973
 31
0.0
 11
36.40846692202744
 21
-55.94913208008039
 31
0.0
 11
36.43754937516644
 21
-55.97752080570045
 31
0.0
 11
36.48829844047741
 21
-56.01742569573381
 31
0.0
 11
36.54149395712483
 21
-56.0502117556464
 31
0.0
 11
36.58443913803979
 21
-56.07078863748724
 31
0.0
 11
36.62856681940218
 21
-56.08584530456653
 31
0.0
 11
36.66758583266466
 21
-56.09257472571948
 31
0.0
 11
36.69643691951201
 21
-56.09208385435753
 31
0.0
 11
36.73176191925248
 21
-56.0823371746047
 31
0.0
 11
36.76010554764954
 21
-56.06454270569988
 31
0.0
 11
36.76883140230119
 21
-56.0570516881257
 31
0.0
 11
36.77731091954209
 21
-56.04894802487286
 31
0.0
  0
SPLINE
  5
194
330
75
100
AcDbEntity
  8
0
  6
Continuous
 62
     7
100
AcDbSpline
210
0.0
220
0.0
230
1.0
 70
     8
 71
     3
 72
     9
 73
     5
 74
     3
 42
0.0000000001
 43
0.0000000001
 44
0.00000001
 40
0.0
 40
0.0
 40
0.0
 40
0.0
 40
0.1966895219568918
 40
0.3852811961576338
 40
0.3852811961576338
 40
0.3852811961576338
 40
0.3852811961576338
 10
36.46971065462589
 20
-56.17085875066709
 30
0.0
 10
36.42883948183174
 20
-56.11953987481415
 30
0.0
 10
36.34877983154723
 20
-56.01901495779079
 30
0.0
 10
36.27863995062001
 20
-55.91133879535656
 30
0.0
 10
36.24430711085459
 20
-55.85863228398901
 30
0.0
 11
36.46971065462589
 21
-56.17085875066709
 31
0.0
 11
36.34968242106872
 21
-56.01503836946881
 31
0.0
 11
36.24430711085459
 21
-55.85863228398901
 31
0.0
  0
SPLINE
  5
195
330
75
100
AcDbEntity
  8
0
  6
Continuous
 62
     7
100
AcDbSpline
210
0.0
220
0.0
230
1.0
 70
     8
 71
     3
 72
     9
 73
     5
 74
     3
 42
0.0000000001
 43
0.0000000001
 44
0.00000001
 40
0.0
 40
0.0
 40
0.0
 40
0.0
 40
0.1898363528291803
 40
0.329657481167121
 40
0.329657481167121
 40
0.329657481167121
 40
0.329657481167121
 10
36.46971065462589
 20
-56.17085875066709
 30
0.0
 10
36.53375108691159
 20
-56.17061433988273
 30
0.0
 10
36.64495954243409
 20
-56.17018991198816
 30
0.0
 10
36.74762471718461
 20
-56.12850565346857
 30
0.0
 10
36.79116918802085
 20
-56.11082566623001
 30
0.0
 11
36.46971065462589
 21
-56.17085875066709
 31
0.0
 11
36.65899887975159
 21
-56.15644317977145
 31
0.0
 11
36.79116918802085
 21
-56.11082566623001
 31
0.0
  0
SPLINE
  5
196
330
75
100
AcDbEntity
  8
0
  6
Continuous
 62
     7
100
AcDbSpline
210
0.0
220
0.0
230
1.0
 70
     8
 71
     3
 72
    11
 73
     7
 74
     5
 42
0.0000000001
 43
0.0000000001
 44
0.00000001
 40
0.0
 40
0.0
 40
0.0
 40
0.0
 40
0.0156187149767277
 40
0.0314023403643303
 40
0.0473479636988661
 40
0.0634521899795351
 40
0.0634521899795351
 40
0.0634521899795351
 40
0.0634521899795351
 10
36.79116918802085
 20
-56.11082566623001
 30
0.0
 10
36.79031980446996
 20
-56.1056886364687
 30
0.0
 10
36.78861206914058
 20
-56.09536033754866
 30
0.0
 10
36.78537389624076
 20
-56.07990956233567
 30
0.0
 10
36.78167048090906
 20
-56.06439760177336
 30
0.0
 10
36.77876889296245
 20
-56.05411484570197
 30
0.0
 10
36.77731091954209
 20
-56.04894802487286
 30
0.0
 11
36.79116918802085
 21
-56.11082566623001
 31
0.0
 11
36.78851221415927
 21
-56.09543460559654
 31
0.0
 11
36.78531405953976
 21
-56.07997838880827
 31
0.0
 11
36.78157875014151
 21
-56.0644764416007
 31
0.0
 11
36.77731091954209
 21
-56.04894802487286
 31
0.0
  0
SPLINE
  5
197
330
75
100
AcDbEntity
  8
0
  6
Continuous
 62
     7
100
AcDbSpline
210
0.0
220
0.0
230
1.0
 70
     8
 71
     3
 72
    11
 73
     7
 74
     5
 42
0.0000000001
 43
0.0000000001
 44
0.00000001
 40
0.0
 40
0.0
 40
0.0
 40
0.0
 40
0.0227135338052425
 40
0.047758605313254
 40
0.0705343977184426
 40
0.0955224437348333
 40
0.0955224437348333
 40
0.0955224437348333
 40
0.0955224437348333
 10
36.33473247481236
 20
-55.82791135238624
 30
0.0
 10
36.32748816703547
 20
-55.83011276255644
 30
0.0
 10
36.31225592537503
 20
-55.83474155701674
 30
0.0
 10
36.28992979529043
 20
-55.84211897845294
 30
0.0
 10
36.26700901705465
 20
-55.85010235823646
 30
0.0
 10
36.2521045209309
 20
-55.85570251551816
 30
0.0
 10
36.24430711085459
 20
-55.85863228398901
 30
0.0
 11
36.33473247481236
 21
-55.82791135238624
 31
0.0
 11
36.31302562927938
 21
-55.83459846498654
 31
0.0
 11
36.28923407741883
 21
-55.84242263694965
 31
0.0
 11
36.26773544416581
 21
-55.84994231034257
 31
0.0
 11
36.24430711085459
 21
-55.85863228398901
 31
0.0
  0
SPLINE
  5
198
330
75
100
AcDbEntity
  8
0
  6
Continuous
 62
     7
100
AcDbSpline
210
0.0
220
0.0
230
1.0
 70
     8
 71
     3
 72
     9
 73
     5
 74
     3
 42
0.0000000001
 43
0.0000000001
 44
0.00000001
 40
0.0
 40
0.0
 40
0.0
 40
0.0
 40
0.2399305352856265
 40
0.4398438984637051
 40
0.4398438984637051
 40
0.4398438984637051
 40
0.4398438984637051
 10
36.29126678705847
 20
-56.41240449188487
 30
0.0
 10
36.36992408058846
 20
-56.44341126123476
 30
0.0
 10
36.51411969365478
 20
-56.50025328967179
 30
0.0
 10
36.65013819800306
 20
-56.42936234278012
 30
0.0
 10
36.71195994147546
 20
-56.3971417125486
 30
0.0
 11
36.29126678705847
 21
-56.41240449188487
 31
0.0
 11
36.52480549080756
 21
-56.46741663248712
 31
0.0
 11
36.71195994147546
 21
-56.3971417125486
 31
0.0
  0
SPLINE
  5
199
330
75
100
AcDbEntity
  8
0
  6
Continuous
 62
     7
100
AcDbSpline
210
0.0
220
0.0
230
1.0
 70
     8
 71
     3
 72
     9
 73
     5
 74
     3
 42
0.0000000001
 43
0.0000000001
 44
0.00000001
 40
0.0
 40
0.0
 40
0.0
 40
0.0
 40
0.1449659822560331
 40
0.3056208595587034
 40
0.3056208595587034
 40
0.3056208595587034
 40
0.3056208595587034
 10
36.71195994147546
 20
-56.3971417125486
 30
0.0
 10
36.74113659479792
 20
-56.35670247528144
 30
0.0
 10
36.80264753501083
 20
-56.27144747779067
 30
0.0
 10
36.79512404194425
 20
-56.16616776402412
 30
0.0
 10
36.79116918802085
 20
-56.11082566623001
 30
0.0
 11
36.71195994147546
 21
-56.3971417125486
 31
0.0
 11
36.78395773687333
 21
-56.27131860867136
 31
0.0
 11
36.79116918802085
 21
-56.11082566623001
 31
0.0
  0
SPLINE
  5
19A
330
75
100
AcDbEntity
  8
0
  6
Continuous
 62
     7
100
AcDbSpline
210
0.0
220
0.0
230
1.0
 70
     8
 71
     3
 72
    11
 73
     7
 74
     5
 42
0.0000000001
 43
0.0000000001
 44
0.00000001
 40
0.0
 40
0.0
 40
0.0
 40
0.0
 40
4.741949614494951
 40
9.852949536064525
 40
14.43928505819891
 40
19.38296989710944
 40
19.38296989710944
 40
19.38296989710944
 40
19.38296989710944
 10
30.30298599737525
 20
-37.50059252208886
 30
0.0
 10
30.72681694902285
 20
-39.02339766311784
 30
0.0
 10
31.60746421816319
 20
-42.18752284950835
 30
0.0
 10
32.99313625445868
 20
-46.79713007001543
 30
0.0
 10
34.44606534949503
 20
-51.45625342777433
 30
0.0
 10
35.43005187120598
 20
-54.47672365188212
 30
0.0
 10
35.94049351401286
 20
-56.04358838958403
 30
0.0
 11
30.30298599737525
 21
-37.50059252208886
 31
0.0
 11
31.58951005222207
 21
-42.06468520330265
 31
0.0
 11
33.05229841923484
 21
-46.96188546382052
 31
0.0
 11
34.41946357197667
 21
-51.33970832075753
 31
0.0
 11
35.94049351401286
 21
-56.04358838958403
 31
0.0
  0
SPLINE
  5
19B
330
75
100
AcDbEntity
  8
0
  6
Continuous
 62
     7
100
AcDbSpline
210
0.0
220
0.0
230
1.0
 70
     8
 71
     3
 72
    17
 73
    13
 74
    11
 42
0.0000000001
 43
0.0000000001
 44
0.00000001
 40
0.0
 40
0.0
 40
0.0
 40
0.0
 40
1.291181188892691
 40
2.312345984316709
 40
3.358137924228135
 40
4.653512372043145
 40
5.968142435819594
 40
7.019684645061234
 40
8.11360568828793
 40
9.40772642148085
 40
14.5003514256677
 40
19.13272555477886
 40
19.13272555477886
 40
19.13272555477886
 40
19.13272555477886
 10
36.33473247481236
 20
-55.82791135238624
 30
0.0
 10
36.19606512455081
 20
-55.42046770978838
 30
0.0
 10
35.94772903253563
 20
-54.69078648541702
 30
0.0
 10
35.59011972729181
 20
-53.63006584029212
 30
0.0
 10
35.23410330047501
 20
-52.56733588473543
 30
0.0
 10
34.84987459396211
 20
-51.41089509355377
 30
0.0
 10
34.46831765231897
 20
-50.25155162554088
 30
0.0
 10
34.11073495192034
 20
-49.15501811818112
 30
0.0
 10
33.75801397474066
 20
-48.06409140595761
 30
0.0
 10
32.99829301443599
 20
-45.68909708088774
 30
0.0
 10
31.90339924277556
 20
-42.182768361117
 30
0.0
 10
31.00146440218606
 20
-39.06903266753608
 30
0.0
 10
30.57183972413493
 20
-37.58584603953455
 30
0.0
 11
36.33473247481236
 21
-55.82791135238624
 31
0.0
 11
35.91938317980627
 21
-54.60535917530409
 31
0.0
 11
35.59304828425338
 21
-53.63774195999741
 31
0.0
 11
35.26089562885532
 21
-52.64609918404646
 31
0.0
 11
34.85247361791055
 21
-51.41679595821978
 31
0.0
 11
34.44153155979676
 21
-50.16804505052919
 31
0.0
 11
34.11552547315727
 21
-49.16831456220206
 31
0.0
 11
33.77903988590053
 21
-48.12742998724542
 31
0.0
 11
33.38463674278889
 21
-46.89487384946368
 31
0.0
 11
31.8753193460607
 21
-42.0310491785691
 31
0.0
 11
30.57183972413493
 21
-37.58584603953455
 31
0.0
  0
SPLINE
  5
19C
330
75
100
AcDbEntity
  8
0
  6
Continuous
 62
     7
100
AcDbSpline
210
0.0
220
0.0
230
1.0
 70
     8
 71
     3
 72
    11
 73
     7
 74
     5
 42
0.0000000001
 43
0.0000000001
 44
0.00000001
 40
0.0
 40
0.0
 40
0.0
 40
0.0
 40
0.196812402911715
 40
0.385509622002527
 40
0.5585077243991554
 40
0.7186373151779818
 40
0.7186373151779818
 40
0.7186373151779818
 40
0.7186373151779818
 10
32.25203821672466
 20
-36.99999999999999
 30
0.0
 10
32.24055831094073
 20
-37.06514279770844
 30
0.0
 10
32.21807185137863
 20
-37.19274235418574
 30
0.0
 10
32.12078598938134
 20
-37.35488664626011
 30
0.0
 10
31.98483505901432
 20
-37.47515467660529
 30
0.0
 10
31.87295440655746
 20
-37.49193428744513
 30
0.0
 10
31.81917501967068
 20
-37.49999999999999
 30
0.0
 11
32.25203821672466
 21
-36.99999999999999
 31
0.0
 11
32.20595717764657
 21
-37.19134173558679
 31
0.0
 11
32.10955166049933
 21
-37.35355337745068
 31
0.0
 11
31.97471570221554
 21
-37.46193975937445
 31
0.0
 11
31.81917501967068
 21
-37.49999999999999
 31
0.0
  0
SPLINE
  5
19D
330
75
100
AcDbEntity
  8
0
  6
Continuous
 62
     7
100
AcDbSpline
210
0.0
220
0.0
230
1.0
 70
     8
 71
     3
 72
    11
 73
     7
 74
     5
 42
0.0000000001
 43
0.0000000001
 44
0.00000001
 40
0.0
 40
0.0
 40
0.0
 40
0.0
 40
0.0598595405861165
 40
0.1169455291813732
 40
0.1770339445838556
 40
0.2193104152975825
 40
0.2193104152975825
 40
0.2193104152975825
 40
0.2193104152975825
 10
32.45638869879217
 20
-36.92096445503403
 30
0.0
 10
32.43738140353258
 20
-36.92704257878741
 30
0.0
 10
32.40024750339445
 20
-36.9389172004736
 30
0.0
 10
32.34482935819709
 20
-36.95922238146425
 30
0.0
 10
32.29552561813705
 20
-36.97916240332428
 30
0.0
 10
32.26474892334772
 20
-36.99390948712792
 30
0.0
 10
32.25203821672466
 20
-36.99999999999999
 30
0.0
 11
32.45638869879217
 21
-36.92096445503403
 31
0.0
 11
32.39950453069188
 21
-36.93960194463749
 31
0.0
 11
32.3458756701002
 21
-36.9591660803336
 31
0.0
 11
32.29031966984946
 21
-36.98206037005225
 31
0.0
 11
32.25203821672466
 21
-36.99999999999999
 31
0.0
  0
SPLINE
  5
19E
330
75
100
AcDbEntity
  8
0
  6
Continuous
 62
     7
100
AcDbSpline
210
0.0
220
0.0
230
1.0
 70
     8
 71
     3
 72
    29
 73
    25
 74
    23
 42
0.0000000001
 43
0.0000000001
 44
0.00000001
 40
0.0
 40
0.0
 40
0.0
 40
0.0
 40
0.040202771116828
 40
0.0824291858196256
 40
0.1218714539034217
 40
0.1638485919054744
 40
0.2045753152756592
 40
0.2516279822131089
 40
0.3049953067798604
 40
0.3743382716069583
 40
0.4431006947107502
 40
0.5110369568725238
 40
0.5656007989766738
 40
0.6204293234267932
 40
0.673490528964526
 40
0.730420431050526
 40
0.7801488132550575
 40
0.8251928585319279
 40
0.8656043236533347
 40
0.9137063436112769
 40
0.9593841222074221
 40
1.002896829303855
 40
1.007018551054663
 40
1.011125815706404
 40
1.011125815706404
 40
1.011125815706404
 40
1.011125815706404
 10
32.45638869879217
 20
-36.92096445503403
 30
0.0
 10
32.4595589726968
 20
-36.93398615430937
 30
0.0
 10
32.4660590991688
 20
-36.96068501211035
 30
0.0
 10
32.47363106955583
 20
-37.00062466352158
 30
0.0
 10
32.47864793489072
 20
-37.04156637796122
 30
0.0
 10
32.48037935374195
 20
-37.08229715129386
 30
0.0
 10
32.4784184879548
 20
-37.12555941731411
 30
0.0
 10
32.47177729107207
 20
-37.17222279719777
 30
0.0
 10
32.45774689806083
 20
-37.22716519977183
 30
0.0
 10
32.4341723605177
 20
-37.28670616299051
 30
0.0
 10
32.40055447257531
 20
-37.34680747728099
 30
0.0
 10
32.36265954457021
 20
-37.39828100148773
 30
0.0
 10
32.32257005985475
 20
-37.4418387791194
 30
0.0
 10
32.28209243393263
 20
-37.47794833041922
 30
0.0
 10
32.23758265016635
 20
-37.51030638217523
 30
0.0
 10
32.19134924913185
 20
-37.53693919691027
 30
0.0
 10
32.1450027284191
 20
-37.55737747820601
 30
0.0
 10
32.10214153014736
 20
-37.57149369980635
 30
0.0
 10
32.05876959775558
 20
-37.58173524504252
 30
0.0
 10
32.01446516744284
 20
-37.58830726772379
 30
0.0
 10
31.96877966385822
 20
-37.59150154880787
 30
0.0
 10
31.93766872656852
 20
-37.59194156622937
 30
0.0
 10
31.92042164966556
 20
-37.59189926230876
 30
0.0
 10
31.9176786922479
 20
-37.59188379369217
 30
0.0
 10
31.91630962302216
 20
-37.59187607297189
 30
0.0
 11
32.45638869879217
 21
-36.92096445503403
 31
0.0
 11
32.46557155290625
 21
-36.96010443454082
 31
0.0
 11
32.47333341243704
 21
-37.00161134523382
 31
0.0
 11
32.47804066465726
 21
-37.04077171152589
 31
0.0
 11
32.47977309536367
 21
-37.08271308487836
 31
0.0
 11
32.47791055447959
 21
-37.12339719649366
 31
0.0
 11
32.47128964061482
 21
-37.16998171071805
 31
0.0
 11
32.45812781788197
 21
-37.22170054436462
 31
0.0
 11
32.43270685465043
 21
-37.28621582472046
 31
0.0
 11
32.39921010541286
 21
-37.34626779073008
 31
0.0
 11
32.35895723486288
 21
-37.40099476880305
 31
0.0
 11
32.32200148919555
 21
-37.44113808365545
 31
0.0
 11
32.28107009433348
 21
-37.47761805087065
 31
0.0
 11
32.23813042864637
 21
-37.508789779148
 31
0.0
 11
32.18877714399035
 21
-37.53716700672899
 31
0.0
 11
32.1432702723768
 21
-37.55721785789864
 31
0.0
 11
32.10049026742239
 21
-37.57131882208573
 31
0.0
 11
32.06116714041329
 21
-37.5806343035808
 31
0.0
 11
32.01360059583946
 21
-37.58779168867173
 31
0.0
 11
31.96804408831065
 21
-37.59111795974549
 31
0.0
 11
31.92453854287456
 21
-37.59190738685964
 31
0.0
 11
31.92041683406649
 21
-37.59189705765112
 31
0.0
 11
31.91630962302216
 21
-37.59187607297189
 31
0.0
  0
SPLINE
  5
19F
330
75
100
AcDbEntity
  8
0
  6
Continuous
 62
     7
100
AcDbSpline
210
0.0
220
0.0
230
1.0
 70
     8
 71
     3
 72
    11
 73
     7
 74
     5
 42
0.0000000001
 43
0.0000000001
 44
0.00000001
 40
0.0
 40
0.0
 40
0.0
 40
0.0
 40
0.0996436826427646
 40
0.1945218751355777
 40
0.2816015979559774
 40
0.3583666982371344
 40
0.3583666982371344
 40
0.3583666982371344
 40
0.3583666982371344
 10
36.24430711085459
 20
-55.85863228398901
 30
0.0
 10
36.21351872542738
 20
-55.87116828364645
 30
0.0
 10
36.15341441869307
 20
-55.8956407448742
 30
0.0
 10
36.07079941388726
 20
-55.94037514856079
 30
0.0
 10
35.99815725777762
 20
-55.9876037434385
 30
0.0
 10
35.95889077298895
 20
-56.02572683626509
 30
0.0
 10
35.94049351401286
 20
-56.04358838958403
 30
0.0
 11
36.24430711085459
 21
-55.85863228398901
 31
0.0
 11
36.15273869264971
 21
-55.89792717269056
 31
0.0
 11
36.06913506130166
 21
-55.94278588685094
 31
0.0
 11
35.99716405561747
 21
-55.99180682592074
 31
0.0
 11
35.94049351401286
 21
-56.04358838958403
 31
0.0
  0
SPLINE
  5
1A0
330
75
100
AcDbEntity
  8
0
  6
Continuous
 62
     7
100
AcDbSpline
210
0.0
220
0.0
230
1.0
 70
     8
 71
     3
 72
    21
 73
    17
 74
    15
 42
0.0000000001
 43
0.0000000001
 44
0.00000001
 40
0.0
 40
0.0
 40
0.0
 40
0.0
 40
0.1158340283652129
 40
0.2181005676523651
 40
0.316809918106728
 40
0.4266412581493968
 40
0.5199330997876945
 40
0.6235480526066705
 40
0.7177965380336462
 40
0.8094696796847909
 40
0.8934156532376686
 40
0.9858895050248497
 40
1.065385411152586
 40
1.152514794876125
 40
1.309973856641503
 40
1.463505819661065
 40
1.463505819661065
 40
1.463505819661065
 40
1.463505819661065
 10
33.65583728299946
 20
-61.08112335523998
 30
0.0
 10
33.66947093405766
 20
-61.11725811295936
 30
0.0
 10
33.69514134435879
 20
-61.1852952112266
 30
0.0
 10
33.72575543323122
 20
-61.28643578734658
 30
0.0
 10
33.75107410561013
 20
-61.38693101092634
 30
0.0
 10
33.77015285809026
 20
-61.48578520252639
 30
0.0
 10
33.78378768216336
 20
-61.58716390652071
 30
0.0
 10
33.79103841263206
 20
-61.68401459526386
 30
0.0
 10
33.79209585070939
 20
-61.78058359127701
 30
0.0
 10
33.78725735136209
 20
-61.87047658522965
 30
0.0
 10
33.77654694398409
 20
-61.95926145386754
 30
0.0
 10
33.76021451684082
 20
-62.04307426320641
 30
0.0
 10
33.73721495992015
 20
-62.12643368350481
 30
0.0
 10
33.69982653721214
 20
-62.22779082510409
 30
0.0
 10
33.63912302100669
 20
-62.34728388525376
 30
0.0
 10
33.57026688811152
 20
-62.42524037437595
 30
0.0
 10
33.5362735686688
 20
-62.46372641368629
 30
0.0
 11
33.65583728299946
 21
-61.08112335523998
 31
0.0
 11
33.69544216460424
 21
-61.1899763546492
 31
0.0
 11
33.72530968185044
 21
-61.28778420950411
 31
0.0
 11
33.74931535190511
 21
-61.38353003798947
 31
0.0
 11
33.77008428775121
 21
-61.49137981573328
 31
0.0
 11
33.78246479172559
 21
-61.58384651697003
 31
0.0
 11
33.7901185832694
 21
-61.68717839938142
 31
0.0
 11
33.79107416497557
 21
-61.78142204038113
 31
0.0
 11
33.78606502185676
 21
-61.87295822658859
 31
0.0
 11
33.77593420248611
 21
-61.95629065109802
 31
0.0
 11
33.75814570694921
 21
-62.04703745650124
 31
0.0
 11
33.73688374589377
 21
-62.12363724829696
 31
0.0
 11
33.70678842797513
 21
-62.20540399794142
 31
0.0
 11
33.63302860345972
 21
-62.34451849905287
 31
0.0
 11
33.5362735686688
 21
-62.46372641368629
 31
0.0
  0
SPLINE
  5
1A1
330
75
100
AcDbEntity
  8
0
  6
Continuous
 62
     7
100
AcDbSpline
210
0.0
220
0.0
230
1.0
 70
     8
 71
     3
 72
    11
 73
     7
 74
     5
 42
0.0000000001
 43
0.0000000001
 44
0.00000001
 40
0.0
 40
0.0
 40
0.0
 40
0.0
 40
0.0299499580974429
 40
0.0574237500031185
 40
0.0949269631850148
 40
0.1396112480258571
 40
0.1396112480258571
 40
0.1396112480258571
 40
0.1396112480258571
 10
31.81917501967068
 20
-37.49999999999999
 30
0.0
 10
31.82918380889432
 20
-37.50176819281823
 30
0.0
 10
31.84837389284511
 20
-37.50515838996044
 30
0.0
 10
31.87332330110437
 20
-37.5260331358558
 30
0.0
 10
31.89647048009617
 20
-37.55436631773041
 30
0.0
 10
31.90932227017274
 20
-37.57866512448761
 30
0.0
 10
31.91630962302216
 20
-37.59187607297189
 30
0.0
 11
31.81917501967068
 21
-37.49999999999999
 31
0.0
 11
31.8480867504527
 21
-37.50781740450704
 31
0.0
 11
31.870086153978
 21
-37.52427448463102
 31
0.0
 11
31.89401849159207
 21
-37.55314894073486
 31
0.0
 11
31.91630962302216
 21
-37.59187607297189
 31
0.0
  0
SPLINE
  5
1A2
330
75
100
AcDbEntity
  8
0
  6
Continuous
 62
     3
100
AcDbSpline
210
0.0
220
0.0
230
1.0
 70
     8
 71
     3
 72
     9
 73
     5
 74
     3
 42
0.0000000001
 43
0.0000000001
 44
0.00000001
 40
0.0
 40
0.0
 40
0.0
 40
0.0
 40
0.97852972055311
 40
1.53670193757709
 40
1.53670193757709
 40
1.53670193757709
 40
1.53670193757709
 10
17.23144765831857
 20
-76.12132027870297
 30
0.0
 10
17.44551687390801
 20
-76.3943869603916
 30
0.0
 10
17.781695296967
 20
-76.8232161415855
 30
0.0
 10
17.69800036348195
 20
-77.34573920538048
 30
0.0
 10
17.66760007216021
 20
-77.53553388828723
 30
0.0
 11
17.23144765831857
 21
-76.12132027870297
 31
0.0
 11
17.70340532061345
 21
-76.9785112603441
 31
0.0
 11
17.66760007216021
 21
-77.53553388828723
 31
0.0
  0
SPLINE
  5
1A3
330
75
100
AcDbEntity
  8
0
  6
Continuous
 62
     3
100
AcDbSpline
210
0.0
220
0.0
230
1.0
 70
     8
 71
     3
 72
    11
 73
     7
 74
     5
 42
0.0000000001
 43
0.0000000001
 44
0.00000001
 40
0.0
 40
0.0
 40
0.0
 40
0.0
 40
0.3676865967763703
 40
0.8858247557115213
 40
1.561801498224927
 40
2.330058357358447
 40
2.330058357358447
 40
2.330058357358447
 40
2.330058357358447
 10
14.13206616622752
 20
-78.99999998235442
 30
0.0
 10
14.25211956364356
 20
-78.96006172863244
 30
0.0
 10
14.54135031714606
 20
-78.86384311702955
 30
0.0
 10
14.79062933115111
 20
-78.36237082504212
 30
0.0
 10
14.97337351881466
 20
-77.74243173664297
 30
0.0
 10
14.99509404074824
 20
-77.25779918998107
 30
0.0
 10
15.00664822418532
 20
-76.99999998235442
 30
0.0
 11
14.13206616622752
 21
-78.99999998235442
 31
0.0
 11
14.46675426399282
 21
-78.84775901985341
 31
0.0
 11
14.75048904712482
 21
-78.41421349215679
 31
0.0
 11
14.94007461704062
 21
-77.76536692470133
 31
0.0
 11
15.00664822418532
 21
-76.99999998235442
 31
0.0
  0
SPLINE
  5
1A4
330
75
100
AcDbEntity
  8
0
  6
Continuous
 62
     3
100
AcDbSpline
210
0.0
220
0.0
230
1.0
 70
     8
 71
     3
 72
     9
 73
     5
 74
     3
 42
0.0000000001
 43
0.0000000001
 44
0.00000001
 40
0.0
 40
0.0
 40
0.0
 40
0.0
 40
1.210955786832992
 40
2.436022160933846
 40
2.436022160933846
 40
2.436022160933846
 40
2.436022160933846
 10
15.00664822418532
 20
-76.99999998235442
 30
0.0
 10
15.41734072214922
 20
-76.9611958991504
 30
0.0
 10
16.24351128696053
 20
-76.8831355705673
 30
0.0
 10
16.90086629796081
 20
-76.37623744019956
 30
0.0
 10
17.23144765831857
 20
-76.12132027870297
 30
0.0
 11
15.00664822418532
 21
-76.99999998235442
 31
0.0
 11
16.19700934315323
 21
-76.77761670035291
 31
0.0
 11
17.23144765831857
 21
-76.12132027870297
 31
0.0
  0
SPLINE
  5
1A5
330
75
100
AcDbEntity
  8
0
  6
Continuous
 62
     7
100
AcDbSpline
210
0.0
220
0.0
230
1.0
 70
     8
 71
     3
 72
   114
 73
   110
 74
   108
 42
0.0000000001
 43
0.0000000001
 44
0.00000001
 40
0.0
 40
0.0
 40
0.0
 40
0.0
 40
0.0000663130559207
 40
0.0001646968214377
 40
0.000340359847883
 40
0.0006090964827828
 40
0.0009490572896281
 40
0.0013850914476122
 40
0.001924235430258
 40
0.0025733952682974
 40
0.0036252568400317
 40
0.0048255331846653
 40
0.0061584540391377
 40
0.0076081820710022
 40
0.0091588417333627
 40
0.0107945341158806
 40
0.0130688546590346
 40
0.0154871232711363
 40
0.0180297582470749
 40
0.0206771674146704
 40
0.0234097512853942
 40
0.0262079051028525
 40
0.0290520202215238
 40
0.0319224850623399
 40
0.0347996857920545
 40
0.0376640068169576
 40
0.0404958311488532
 40
0.0432755406810488
 40
0.0449722441161169
 40
0.0467884289912449
 40
0.0487266081016424
 40
0.0507892943450653
 40
0.0529790007184045
 40
0.0552982403140721
 40
0.0577495263163558
 40
0.0603353719978116
 40
0.0630582907156949
 40
0.065920795908494
 40
0.06892540109257
 40
0.072074619858939
 40
0.0753709658701534
 40
0.0788169528573264
 40
0.0824150946172916
 40
0.0861679050098862
 40
0.0900778979553443
 40
0.0941475874318335
 40
0.0983794874730867
 40
0.1027761121661631
 40
0.1073399756492957
 40
0.1120735921098482
 40
0.1148042505913825
 40
0.1176977723593484
 40
0.1207546771612188
 40
0.123975484785413
 40
0.127360715061503
 40
0.1309108878602982
 40
0.1346265230938574
 40
0.138508140715457
 40
0.1425562607194684
 40
0.1467714031412811
 40
0.1511540880571282
 40
0.1557048355839174
 40
0.1604241658790651
 40
0.1653125991402923
 40
0.1703706556054113
 40
0.1755988555521511
 40
0.1809977192978879
 40
0.1865677671994761
 40
0.1923095196530019
 40
0.1982234970935524
 40
0.2043102199949986
 40
0.2105702088697816
 40
0.2170039842686537
 40
0.2236120667804605
 40
0.2303949770319363
 40
0.2373532356874402
 40
0.2444873634487505
 40
0.2546548413454637
 40
0.264996113830633
 40
0.2755091720668303
 40
0.2861920072249832
 40
0.2970426104867737
 40
0.308058973046865
 40
0.3192390861149941
 40
0.3305809409179338
 40
0.3420825287013471
 40
0.3537418407315466
 40
0.3655568682971533
 40
0.3775256027107128
 40
0.3896460353102277
 40
0.4019161574606337
 40
0.4143339605552431
 40
0.4268974360171396
 40
0.4396045753005329
 40
0.4524533698920944
 40
0.4654418113122766
 40
0.4785678911165802
 40
0.4918296008968606
 40
0.5052249322825629
 40
0.5187518769419992
 40
0.5324084265835914
 40
0.5461925729571199
 40
0.5601023078549909
 40
0.5829249274611866
 40
0.6058914303238069
 40
0.6289923339240583
 40
0.6522181558081143
 40
0.6755594136026966
 40
0.6990066250305196
 40
0.6990066250305196
 40
0.6990066250305196
 40
0.6990066250305196
 10
-44.99722213651107
 20
-10.50277786346104
 30
0.0
 10
-44.99719962342198
 20
-10.50278840972255
 30
0.0
 10
-44.99714370933143
 20
-10.50281460269052
 30
0.0
 10
-44.9970742826707
 20
-10.50269041433047
 30
0.0
 10
-44.99701776125298
 20
-10.50253440876085
 30
0.0
 10
-44.99695389650579
 20
-10.50227295078673
 30
0.0
 10
-44.99689076152742
 20
-10.50193339914424
 30
0.0
 10
-44.9968248871068
 20
-10.50149879981674
 30
0.0
 10
-44.9967567677129
 20
-10.50096203409976
 30
0.0
 10
-44.99667561085816
 20
-10.50021954739477
 30
0.0
 10
-44.99658582637564
 20
-10.49925665607323
 30
0.0
 10
-44.99648956111371
 20
-10.49806547551104
 30
0.0
 10
-44.99639469140754
 20
-10.49674122114005
 30
0.0
 10
-44.996301470105
 20
-10.49529978516436
 30
0.0
 10
-44.99621015854385
 20
-10.4937571196927
 30
0.0
 10
-44.99611060373405
 20
-10.49193961520184
 30
0.0
 10
-44.99600411311227
 20
-10.4898328710143
 30
0.0
 10
-44.99589152142252
 20
-10.48742375465844
 30
0.0
 10
-44.99578106967623
 20
-10.48489005323723
 30
0.0
 10
-44.99567297890627
 20
-10.48225138769462
 30
0.0
 10
-44.99556746806694
 20
-10.47952737946461
 30
0.0
 10
-44.99546475058165
 20
-10.47673765078301
 30
0.0
 10
-44.99536503727475
 20
-10.47390182424846
 30
0.0
 10
-44.99526853681891
 20
-10.47103952273874
 30
0.0
 10
-44.99517545635385
 20
-10.46817036931112
 30
0.0
 10
-44.99508600220063
 20
-10.46531398713726
 30
0.0
 10
-44.99500037888973
 20
-10.46248999951488
 30
0.0
 10
-44.99492871101157
 20
-10.46005497455617
 30
0.0
 10
-44.99486834701035
 20
-10.45795831065128
 30
0.0
 10
-44.99481692240201
 20
-10.45614201594899
 30
0.0
 10
-44.99476298665759
 20
-10.45420374941398
 30
0.0
 10
-44.99470659823209
 20
-10.45214099600836
 30
0.0
 10
-44.99464781626556
 20
-10.44995124068089
 30
0.0
 10
-44.9945866997224
 20
-10.44763196838332
 30
0.0
 10
-44.9945233076394
 20
-10.44518066406567
 30
0.0
 10
-44.99445769904911
 20
-10.44259481267778
 30
0.0
 10
-44.99438993299898
 20
-10.43987189916892
 30
0.0
 10
-44.99432006854366
 20
-10.437009408488
 30
0.0
 10
-44.99424816474512
 20
-10.43400482558356
 30
0.0
 10
-44.99417428067136
 20
-10.4308556354039
 30
0.0
 10
-44.99409847539516
 20
-10.42755932289697
 30
0.0
 10
-44.99402080799399
 20
-10.42411337301054
 30
0.0
 10
-44.99394133754869
 20
-10.42051527069216
 30
0.0
 10
-44.99386012314427
 20
-10.41676250088916
 30
0.0
 10
-44.99377722386455
 20
-10.4128525485488
 30
0.0
 10
-44.99369269881245
 20
-10.40878289861782
 30
0.0
 10
-44.99360660702661
 20
-10.40455103604434
 30
0.0
 10
-44.99351900781127
 20
-10.40015444577018
 30
0.0
 10
-44.99342995942995
 20
-10.39559061276157
 30
0.0
 10
-44.99335337428045
 20
-10.39158196468249
 30
0.0
 10
-44.99328848692672
 20
-10.3881299755486
 30
0.0
 10
-44.99323475460791
 20
-10.3852367794192
 30
0.0
 10
-44.99317870151965
 20
-10.3821802152505
 30
0.0
 10
-44.99312041407413
 20
-10.3789597617514
 30
0.0
 10
-44.99305997943698
 20
-10.375574897619
 30
0.0
 10
-44.99299748457223
 20
-10.3720251015535
 30
0.0
 10
-44.99293301651557
 20
-10.36830985225394
 30
0.0
 10
-44.99286666229277
 20
-10.36442862841947
 30
0.0
 10
-44.992798508941
 20
-10.36038090874905
 30
0.0
 10
-44.9927286435011
 20
-10.35616617194153
 30
0.0
 10
-44.99265715301859
 20
-10.3517838966957
 30
0.0
 10
-44.99258412454238
 20
-10.34723356171024
 30
0.0
 10
-44.99250964512433
 20
-10.3425146456838
 30
0.0
 10
-44.99243380181868
 20
-10.33762662731495
 30
0.0
 10
-44.99235668168181
 20
-10.33256898530222
 30
0.0
 10
-44.99227837177171
 20
-10.32734119834413
 30
0.0
 10
-44.99219895914807
 20
-10.32194274513912
 30
0.0
 10
-44.99211853087166
 20
-10.31637310438565
 30
0.0
 10
-44.99203717400443
 20
-10.3106317547821
 30
0.0
 10
-44.9919549756093
 20
-10.30471817502689
 30
0.0
 10
-44.99187202274992
 20
-10.29863184381837
 30
0.0
 10
-44.99178840249105
 20
-10.29237223985489
 30
0.0
 10
-44.9917042018964
 20
-10.28593884183482
 30
0.0
 10
-44.99161950803676
 20
-10.2793311284563
 30
0.0
 10
-44.99153440795838
 20
-10.27254857841846
 30
0.0
 10
-44.99144898880461
 20
-10.26559067041634
 30
0.0
 10
-44.99135190418512
 20
-10.25750463168659
 30
0.0
 10
-44.99124426066911
 20
-10.24829096752533
 30
0.0
 10
-44.99112729444681
 20
-10.23795102596715
 30
0.0
 10
-44.99101222545097
 20
-10.2274392669027
 30
0.0
 10
-44.99089914664283
 20
-10.21675769965197
 30
0.0
 10
-44.99078815082987
 20
-10.20590833352938
 30
0.0
 10
-44.99067933085641
 20
-10.1948931778511
 30
0.0
 10
-44.99057277955167
 20
-10.18371424193307
 30
0.0
 10
-44.99046858974467
 20
-10.17237353509145
 30
0.0
 10
-44.99036685426039
 20
-10.16087306664254
 30
0.0
 10
-44.99026766592112
 20
-10.14921484590272
 30
0.0
 10
-44.99017111754665
 20
-10.13740088218852
 30
0.0
 10
-44.99007730195429
 20
-10.12543318481651
 30
0.0
 10
-44.98998631195917
 20
-10.11331376310337
 30
0.0
 10
-44.98989824037444
 20
-10.10104462636587
 30
0.0
 10
-44.98981318001141
 20
-10.08862778392078
 30
0.0
 10
-44.98973122367956
 20
-10.076065245085
 30
0.0
 10
-44.98965246418699
 20
-10.06335901917543
 30
0.0
 10
-44.98957699434014
 20
-10.05051111550904
 30
0.0
 10
-44.98950490694413
 20
-10.0375235434028
 30
0.0
 10
-44.98943629480312
 20
-10.02439831217378
 30
0.0
 10
-44.98937125071892
 20
-10.01113743113896
 30
0.0
 10
-44.98930986749621
 20
-9.997742909615654
 30
0.0
 10
-44.98925223792429
 20
-9.984216756920164
 30
0.0
 10
-44.98919845484529
 20
-9.970560982372621
 30
0.0
 10
-44.98914861089682
 20
-9.956777595278712
 30
0.0
 10
-44.98909314989439
 20
-9.939938852729389
 30
0.0
 10
-44.98903605246928
 20
-9.920039314533494
 30
0.0
 10
-44.98898220353629
 20
-9.897076034653624
 30
0.0
 10
-44.9889400341271
 20
-9.873978329224622
 30
0.0
 10
-44.98890996884074
 20
-9.850755686782678
 30
0.0
 10
-44.98889103739221
 20
-9.82741759582217
 30
0.0
 10
-44.98888869210637
 20
-9.811821439237121
 30
0.0
 10
-44.98888751680798
 20
-9.80400570200552
 30
0.0
 11
-44.99722213651107
 21
-10.50277786346104
 31
0.0
 11
-44.99715821555868
 21
-10.50279551376505
 31
0.0
 11
-44.99709357273797
 21
-10.50272134725612
 31
0.0
 11
-44.9970290301333
 21
-10.50255797115309
 31
0.0
 11
-44.99696218625547
 21
-10.50229768040232
 31
0.0
 11
-44.99689810776918
 21
-10.50196381321647
 31
0.0
 11
-44.99683164128368
 21
-10.50153287471363
 31
0.0
 11
-44.99676277783372
 21
-10.50099814668997
 31
0.0
 11
-44.99669150845408
 21
-10.5003529109417
 31
0.0
 11
-44.99659243079183
 21
-10.49930572596142
 31
0.0
 11
-44.99649484758938
 21
-10.49810942298052
 31
0.0
 11
-44.99639894623213
 21
-10.49677995657103
 31
0.0
 11
-44.99630491410542
 21
-10.49533328130494
 31
0.0
 11
-44.99621293859469
 21
-10.49378535175425
 31
0.0
 11
-44.99612320708528
 21
-10.49215212249097
 31
0.0
 11
-44.99600793105548
 21
-10.4898807252624
 31
0.0
 11
-44.99589468787469
 21
-10.48746510959299
 31
0.0
 11
-44.99578367934514
 21
-10.48492489902549
 31
0.0
 11
-44.99567510726904
 21
-10.48227971710264
 31
0.0
 11
-44.99556917344859
 21
-10.47954918736719
 31
0.0
 11
-44.99546607968603
 21
-10.47675293336186
 31
0.0
 11
-44.99536602778355
 21
-10.47391057862942
 31
0.0
 11
-44.99526921954341
 21
-10.47104174671259
 31
0.0
 11
-44.99517585676776
 21
-10.46816606115412
 31
0.0
 11
-44.99508614125887
 21
-10.46530314549676
 31
0.0
 11
-44.99500027481894
 21
-10.46247262328324
 31
0.0
 11
-44.99491845925017
 21
-10.45969411805631
 31
0.0
 11
-44.9948696234776
 21
-10.45799811758052
 31
0.0
 11
-44.9948182154783
 21
-10.45618266041543
 31
0.0
 11
-44.99476429436991
 21
-10.45424523150627
 31
0.0
 11
-44.99470791927007
 21
-10.45218331579827
 31
0.0
 11
-44.99464914929641
 21
-10.44999439823663
 31
0.0
 11
-44.99458804356655
 21
-10.44767596376659
 31
0.0
 11
-44.99452466119814
 21
-10.44522549733336
 31
0.0
 11
-44.99445906130882
 21
-10.44264048388217
 31
0.0
 11
-44.99439130301622
 21
-10.43991840835824
 31
0.0
 11
-44.99432144543797
 21
-10.43705675570679
 31
0.0
 11
-44.9942495476917
 21
-10.43405301087304
 31
0.0
 11
-44.99417566889507
 21
-10.43090465880222
 31
0.0
 11
-44.99409986816567
 21
-10.42760918443954
 31
0.0
 11
-44.99402220462117
 21
-10.42416407273023
 31
0.0
 11
-44.99394273737921
 21
-10.42056680861951
 31
0.0
 11
-44.9938615255574
 21
-10.41681487705261
 31
0.0
 11
-44.99377862827339
 21
-10.41290576297473
 31
0.0
 11
-44.9936941046448
 21
-10.40883695133111
 31
0.0
 11
-44.99360801378929
 21
-10.40460592706697
 31
0.0
 11
-44.99352041482447
 21
-10.40021017512752
 31
0.0
 11
-44.99343136686798
 21
-10.395647180458
 31
0.0
 11
-44.99334092903747
 21
-10.39091442800362
 31
0.0
 11
-44.99328960663932
 21
-10.38818425186384
 31
0.0
 11
-44.99323587527631
 21
-10.38529122902219
 31
0.0
 11
-44.99317982201944
 21
-10.38223483817675
 31
0.0
 11
-44.9931215339397
 21
-10.37901455802561
 31
0.0
 11
-44.99306109810812
 21
-10.37562986726685
 31
0.0
 11
-44.99299860159567
 21
-10.37208024459856
 31
0.0
 11
-44.99293413147336
 21
-10.36836516871882
 31
0.0
 11
-44.9928677748122
 21
-10.36448411832572
 31
0.0
 11
-44.99279961868318
 21
-10.36043657211734
 31
0.0
 11
-44.99272975015731
 21
-10.35622200879177
 31
0.0
 11
-44.99265825630557
 21
-10.35183990704708
 31
0.0
 11
-44.99258522419899
 21
-10.34728974558138
 31
0.0
 11
-44.99251074090856
 21
-10.34257100309273
 31
0.0
 11
-44.99243489350527
 21
-10.33768315827923
 31
0.0
 11
-44.99235776906013
 21
-10.33262568983896
 31
0.0
 11
-44.99227945464413
 21
-10.32739807647
 31
0.0
 11
-44.9922000373283
 21
-10.32199979687045
 31
0.0
 11
-44.9921196041836
 21
-10.31643032973838
 31
0.0
 11
-44.99203824228105
 21
-10.31068915377187
 31
0.0
 11
-44.99195603869165
 21
-10.30477574766902
 31
0.0
 11
-44.99187308048643
 21
-10.29868959012791
 31
0.0
 11
-44.99178945473633
 21
-10.29243015984662
 31
0.0
 11
-44.99170524851239
 21
-10.28599693552324
 31
0.0
 11
-44.99162054888561
 21
-10.27938939585585
 31
0.0
 11
-44.99153544292697
 21
-10.27260701954254
 31
0.0
 11
-44.99145001770751
 21
-10.26564928528139
 31
0.0
 11
-44.99136436029818
 21
-10.25851567177049
 31
0.0
 11
-44.99124556059675
 21
-10.24834888794221
 31
0.0
 11
-44.99112856661075
 21
-10.23800827727263
 31
0.0
 11
-44.99101347113039
 21
-10.22749584907986
 31
0.0
 11
-44.99090036694599
 21
-10.216813612682
 31
0.0
 11
-44.99078934684778
 21
-10.20596357739715
 31
0.0
 11
-44.99068050362602
 21
-10.1949477525434
 31
0.0
 11
-44.99057393007099
 21
-10.18376814743886
 31
0.0
 11
-44.99046971897293
 21
-10.17242677140162
 31
0.0
 11
-44.99036796312213
 21
-10.16092563374979
 31
0.0
 11
-44.9902687553088
 21
-10.14926674380146
 31
0.0
 11
-44.99017218832326
 21
-10.13745211087473
 31
0.0
 11
-44.99007835495574
 21
-10.1254837442877
 31
0.0
 11
-44.98998734799651
 21
-10.11336365335847
 31
0.0
 11
-44.98989926023582
 21
-10.10109384740515
 31
0.0
 11
-44.98981418446396
 21
-10.08867633574582
 31
0.0
 11
-44.98973221347114
 21
-10.07611312769859
 31
0.0
 11
-44.98965344004768
 21
-10.06340623258155
 31
0.0
 11
-44.98957795698379
 21
-10.05055765971282
 31
0.0
 11
-44.98950585706976
 21
-10.03756941841047
 31
0.0
 11
-44.98943723309586
 21
-10.02444351799263
 31
0.0
 11
-44.98937217785232
 21
-10.01118196777738
 31
0.0
 11
-44.98931078412944
 21
-9.997786777082819
 31
0.0
 11
-44.98925314471744
 21
-9.984259955227053
 31
0.0
 11
-44.98919935240661
 21
-9.970603511528177
 31
0.0
 11
-44.98914949998719
 21
-9.956819455304295
 31
0.0
 11
-44.98910368024947
 21
-9.9429097958735
 31
0.0
 11
-44.98903817804451
 21
-9.92008727026501
 31
0.0
 11
-44.98898429055006
 21
-9.897120830621985
 31
0.0
 11
-44.98894214922267
 21
-9.874019965459471
 31
0.0
 11
-44.98891188551886
 21
-9.850794163292525
 31
0.0
 11
-44.98889363089512
 21
-9.82745291263619
 31
0.0
 11
-44.98888751680798
 21
-9.80400570200552
 31
0.0
  0
SPLINE
  5
1A6
330
75
100
AcDbEntity
  8
0
  6
Continuous
 62
     7
100
AcDbSpline
210
0.0
220
0.0
230
1.0
 70
     8
 71
     3
 72
    21
 73
    17
 74
    15
 42
0.0000000001
 43
0.0000000001
 44
0.00000001
 40
0.0
 40
0.0
 40
0.0
 40
0.0
 40
0.0776162466199474
 40
0.1459524517340726
 40
0.2145087172346731
 40
0.2924071396318569
 40
0.4287834900689396
 40
0.5384782490584658
 40
0.675185188646456
 40
0.7851052050581085
 40
0.9218245473101524
 40
1.031731254557333
 40
1.154771031418198
 40
1.277807892746923
 40
1.423914145074978
 40
1.570018473094314
 40
1.570018473094314
 40
1.570018473094314
 40
1.570018473094314
 10
45.98912915026774
 20
-5.499999999999996
 30
0.0
 10
45.96325014029926
 20
-5.500574852048063
 30
0.0
 10
45.9145862958358
 20
-5.501655825033145
 30
0.0
 10
45.84347583307614
 20
-5.509928700193196
 30
0.0
 10
45.77298104455325
 20
-5.522693744351324
 30
0.0
 10
45.68163505275339
 20
-5.546372560345209
 30
0.0
 10
45.58023464302613
 20
-5.584591929859565
 30
0.0
 10
45.46707772699169
 20
-5.644028388065159
 30
0.0
 10
45.36917738362684
 20
-5.711995727422033
 30
0.0
 10
45.27380964352824
 20
-5.797384666945804
 30
0.0
 10
45.19542386292977
 20
-5.887260754646228
 30
0.0
 10
45.12637230580783
 20
-5.989581043019674
 30
0.0
 10
45.071657464947
 20
-6.095260672307644
 30
0.0
 10
45.0264821642167
 20
-6.218174317475631
 30
0.0
 10
44.99506644229327
 20
-6.353767914810639
 30
0.0
 10
44.99094714959413
 20
-6.451256185601649
 30
0.0
 10
44.98888751680806
 20
-6.5
 30
0.0
 11
45.98912915026774
 21
-5.499999999999996
 31
0.0
 11
45.91157131814317
 21
-5.503010716775878
 31
0.0
 11
45.84366142200217
 21
-5.510631932920227
 31
0.0
 11
45.77621505408003
 21
-5.522918063047307
 31
0.0
 11
45.70080421032649
 21
-5.542446730599128
 31
0.0
 11
45.57319659375159
 21
-5.590559152598146
 31
0.0
 11
45.47608213013002
 21
-5.641566221767668
 31
0.0
 11
45.36378597817671
 21
-5.719530069722946
 31
0.0
 11
45.28189389953467
 21
-5.792851945473807
 31
0.0
 11
45.19203431113504
 21
-5.895892873839578
 31
0.0
 11
45.13054158579659
 21
-5.986986940761458
 31
0.0
 11
45.07402624913674
 21
-6.09627922508288
 31
0.0
 11
45.03136311653199
 21
-6.21168254549427
 31
0.0
 11
44.99956336171721
 21
-6.354286236060359
 31
0.0
 11
44.98888751680806
 21
-6.5
 31
0.0
  0
SPLINE
  5
1A7
330
75
100
AcDbEntity
  8
0
  6
Continuous
 62
     7
100
AcDbSpline
210
0.0
220
0.0
230
1.0
 70
    11
 71
     3
 72
    47
 73
    43
 74
    41
 42
0.0000000001
 43
0.0000000001
 44
0.00000001
 40
0.0
 40
0.0
 40
0.0
 40
0.0
 40
0.9249654948294558
 40
1.90072522263607
 40
3.285953375648272
 40
4.657501806656507
 40
6.530924437636633
 40
8.404217261399944
 40
10.66924792268072
 40
12.93510271080088
 40
15.4121399491517
 40
17.88857158528129
 40
20.36500322141089
 40
22.84204045976172
 40
25.10789524788189
 40
27.37292590916266
 40
29.24621873292596
 40
31.11964136390607
 40
32.49118979491431
 40
33.87641794792651
 40
34.85217767573312
 40
35.77714317056259
 40
36.70210866539205
 40
37.67786839319867
 40
39.06309654621088
 40
40.43464497721911
 40
42.30806760819924
 40
44.18136043196255
 40
46.44639109324333
 40
48.71224588136348
 40
51.1892831197143
 40
53.6657147558439
 40
56.1421463919735
 40
58.61918363032432
 40
60.88503841844447
 40
63.15006907972525
 40
65.02336190348858
 40
66.89678453446871
 40
68.26833296547693
 40
69.65356111848908
 40
70.62932084629571
 40
71.5542863411252
 40
71.5542863411252
 40
71.5542863411252
 40
71.5542863411252
 10
-15.89999999999992
 20
-21.5
 30
0.0
 10
-15.8458422445126
 20
-21.80774758582368
 30
0.0
 10
-15.73455267486755
 20
-22.44014263390955
 30
0.0
 10
-15.05226080315988
 20
-23.33469847563695
 30
0.0
 10
-14.08862585648899
 20
-24.1320906320281
 30
0.0
 10
-12.69982159413652
 20
-24.82388813520355
 30
0.0
 10
-11.11090705910139
 20
-25.44659927762851
 30
0.0
 10
-9.184246970975767
 20
-26.00767242382731
 30
0.0
 10
-7.0923352759353
 20
-26.44285968134135
 30
0.0
 10
-4.776590540557905
 20
-26.75992062983578
 30
0.0
 10
-2.376962544323903
 20
-26.95612782336602
 30
0.0
 10
0.1000007560348271
 20
-27.02193340645017
 30
0.0
 10
2.57695951981531
 20
-26.95612782336601
 30
0.0
 10
4.97660074221542
 20
-26.75992062983578
 30
0.0
 10
7.292300957122897
 20
-26.44285968134131
 30
0.0
 10
9.384365957880577
 20
-26.00767242382726
 30
0.0
 10
11.31054748275744
 20
-25.44659927762849
 30
0.0
 10
12.90101948094929
 20
-24.82388813520355
 30
0.0
 10
14.28545083506074
 20
-24.13209063202812
 30
0.0
 10
15.26285719256481
 20
-23.33469847563698
 30
0.0
 10
15.90832259435784
 20
-22.44014263390957
 30
0.0
 10
16.19327754703638
 20
-21.50000000000002
 30
0.0
 10
15.90832259435785
 20
-20.55985736609045
 30
0.0
 10
15.26285719256481
 20
-19.66530152436305
 30
0.0
 10
14.28545083506074
 20
-18.86790936797191
 30
0.0
 10
12.90101948094929
 20
-18.17611186479645
 30
0.0
 10
11.31054748275744
 20
-17.55340072237149
 30
0.0
 10
9.384365957880576
 20
-16.99232757617268
 30
0.0
 10
7.292300957122897
 20
-16.55714031865865
 30
0.0
 10
4.976600742215417
 20
-16.24007937016421
 30
0.0
 10
2.576959519815311
 20
-16.04387217663397
 30
0.0
 10
0.1000007560348257
 20
-15.97806659354981
 30
0.0
 10
-2.3769625443239
 20
-16.04387217663396
 30
0.0
 10
-4.776590540557901
 20
-16.24007937016421
 30
0.0
 10
-7.0923352759353
 20
-16.55714031865865
 30
0.0
 10
-9.18424697097577
 20
-16.99232757617267
 30
0.0
 10
-11.11090705910141
 20
-17.55340072237149
 30
0.0
 10
-12.69982159413654
 20
-18.17611186479646
 30
0.0
 10
-14.08862585648896
 20
-18.8679093679719
 30
0.0
 10
-15.05226080315988
 20
-19.66530152436304
 30
0.0
 10
-15.73455267486754
 20
-20.55985736609042
 30
0.0
 10
-15.8458422445126
 20
-21.1922524141763
 30
0.0
 10
-15.89999999999992
 20
-21.5
 30
0.0
 11
-15.89999999999992
 21
-21.5
 31
0.0
 11
-15.67041879176234
 21
-22.39602100167868
 31
0.0
 11
-15.11690426072238
 21
-23.19959346906221
 31
0.0
 11
-14.05601786503471
 21
-24.09031064715098
 31
0.0
 11
-12.84427190999908
 21
-24.73281888760861
 31
0.0
 11
-11.10145953613011
 21
-25.42007239524439
 31
0.0
 11
-9.30456403667948
 21
-25.94959346906223
 31
0.0
 11
-7.088303144340272
 21
-26.41708844617947
 31
0.0
 11
-4.844271909999074
 21
-26.73081083962335
 31
0.0
 11
-2.375537273857279
 21
-26.93345036313867
 31
0.0
 11
0.1000000000000779
 21
-27.0
 31
0.0
 11
2.575537273857441
 21
-26.93345036313867
 31
0.0
 11
5.044271909999239
 21
-26.73081083962334
 31
0.0
 11
7.288303144340442
 21
-26.41708844617943
 31
0.0
 11
9.504564036679648
 21
-25.94959346906219
 31
0.0
 11
11.30145953613027
 21
-25.42007239524437
 31
0.0
 11
13.04427190999924
 21
-24.73281888760862
 31
0.0
 11
14.25601786503487
 21
-24.090310647151
 31
0.0
 11
15.31690426072253
 21
-23.19959346906224
 31
0.0
 11
15.8704187917625
 21
-22.39602100167871
 31
0.0
 11
16.10000000000009
 21
-21.50000000000001
 31
0.0
 11
15.8704187917625
 21
-20.60397899832132
 31
0.0
 11
15.31690426072254
 21
-19.80040653093779
 31
0.0
 11
14.25601786503486
 21
-18.90968935284902
 31
0.0
 11
13.04427190999924
 21
-18.26718111239139
 31
0.0
 11
11.30145953613027
 21
-17.57992760475561
 31
0.0
 11
9.50456403667964
 21
-17.05040653093776
 31
0.0
 11
7.288303144340433
 21
-16.58291155382053
 31
0.0
 11
5.044271909999241
 21
-16.26918916037664
 31
0.0
 11
2.575537273857442
 21
-16.06654963686132
 31
0.0
 11
0.1000000000000808
 21
-15.99999999999999
 31
0.0
 11
-2.375537273857279
 21
-16.06654963686131
 31
0.0
 11
-4.844271909999076
 21
-16.26918916037664
 31
0.0
 11
-7.088303144340264
 21
-16.58291155382052
 31
0.0
 11
-9.30456403667948
 21
-17.05040653093776
 31
0.0
 11
-11.10145953613013
 21
-17.57992760475561
 31
0.0
 11
-12.8442719099991
 21
-18.2671811123914
 31
0.0
 11
-14.05601786503471
 21
-18.90968935284902
 31
0.0
 11
-15.11690426072235
 21
-19.80040653093776
 31
0.0
 11
-15.67041879176232
 21
-20.60397899832129
 31
0.0
 11
-15.89999999999992
 21
-21.5
 31
0.0
  0
ENDBLK
  5
77
330
75
100
AcDbEntity
  8
0
100
AcDbBlockEnd
  0
BLOCK
  5
79
330
78
100
AcDbEntity
  8
0
100
AcDbBlockBegin
  2
HL522_Abgangsbogen_DN40_50
 70
     0
 10
123.1389644617254
 20
-49.4875032611321
 30
0.0
  3
HL522_Abgangsbogen_DN40_50
  1

  0
POINT
  5
1A8
330
78
100
AcDbEntity
  8
1
 62
     3
 60
     1
100
AcDbPoint
 10
37.63601285497133
 20
-76.99744856870751
 30
0.0
  0
POINT
  5
1A9
330
78
100
AcDbEntity
  8
1
 62
     3
 60
     1
100
AcDbPoint
 10
39.28898594925148
 20
-78.65042166298781
 30
0.0
  0
POINT
  5
1AA
330
78
100
AcDbEntity
  8
1
 62
     3
 60
     1
100
AcDbPoint
 10
95.1504216629905
 20
-22.78898594925231
 30
0.0
  0
POINT
  5
1AB
330
78
100
AcDbEntity
  8
1
 62
     3
 60
     1
100
AcDbPoint
 10
93.49744856870991
 20
-21.13601285497159
 30
0.0
  0
POINT
  5
1AC
330
78
100
AcDbEntity
  8
1
 62
     3
 60
     1
100
AcDbPoint
 10
95.23219943089352
 20
-28.91763599070395
 30
0.0
  0
POINT
  5
1AD
330
78
100
AcDbEntity
  8
1
 62
     3
 60
     1
100
AcDbPoint
 10
95.23219943089352
 20
-26.91763599070395
 30
0.0
  0
POINT
  5
1AE
330
78
100
AcDbEntity
  8
1
 62
     3
 60
     1
100
AcDbPoint
 10
36.83488470653133
 20
-78.99999998235442
 30
0.0
  0
POINT
  5
1AF
330
78
100
AcDbEntity
  8
1
 62
     3
 60
     1
100
AcDbPoint
 10
48.83488470653133
 20
-78.99999998235442
 30
0.0
  0
LINE
  5
1B0
330
78
100
AcDbEntity
  8
1
  6
Continuous
 62
     7
100
AcDbLine
 10
92.68552132103491
 20
-69.97500653990484
 30
0.0
 11
92.6855213210175
 21
-36.06591794570515
 31
0.0
  0
LINE
  5
1B1
330
78
100
AcDbEntity
  8
1
  6
Continuous
 62
     7
100
AcDbLine
 10
95.28552132104073
 20
-69.97500653990505
 30
0.0
 11
95.28552132104073
 21
-30.65083775531883
 31
0.0
  0
LINE
  5
1B2
330
78
100
AcDbEntity
  8
0
  6
Continuous
 62
     7
100
AcDbLine
 10
95.28552132104073
 20
-69.97500653990505
 30
0.0
 11
151.2855213210481
 21
-69.97500653990977
 31
0.0
  0
LINE
  5
1B3
330
78
100
AcDbEntity
  8
1
  6
Continuous
 62
     7
100
AcDbLine
 10
93.68552132105674
 20
-71.57500655149528
 30
0.0
 11
93.68552132106292
 21
-34.0153894836627
 31
0.0
  0
LINE
  5
1B4
330
78
100
AcDbEntity
  8
1
  6
Continuous
 62
     7
100
AcDbLine
 10
95.28552132104073
 20
-71.57500655169173
 30
0.0
 11
95.28552132104073
 21
-69.97500653990505
 31
0.0
  0
LINE
  5
1B5
330
78
100
AcDbEntity
  8
1
  6
Continuous
 62
     7
100
AcDbLine
 10
92.68552132103491
 20
-70.57500655137159
 30
0.0
 11
92.68552132103491
 21
-69.97500653990484
 31
0.0
  0
LINE
  5
1B6
330
78
100
AcDbEntity
  8
1
  6
Continuous
 62
     7
100
AcDbLine
 10
93.68552132105674
 20
-71.57500655149528
 30
0.0
 11
92.68552132103491
 21
-70.57500655137159
 31
0.0
  0
LINE
  5
1B7
330
78
100
AcDbEntity
  8
1
  6
Continuous
 62
     7
100
AcDbLine
 10
95.28552132104073
 20
-71.57500655169173
 30
0.0
 11
93.68552132105674
 21
-71.57500655149528
 31
0.0
  0
LINE
  5
1B8
330
78
100
AcDbEntity
  8
0
  6
Continuous
 62
     7
100
AcDbLine
 10
37.63601285497133
 20
-76.99744856870751
 30
0.0
 11
37.70672353308998
 21
-76.92673789058884
 31
0.0
  0
LINE
  5
1B9
330
78
100
AcDbEntity
  8
1
  6
Continuous
 62
     7
100
AcDbLine
 10
39.28898594925148
 20
-78.65042166298781
 30
0.0
 11
37.63601285497133
 21
-76.99744856870751
 31
0.0
  0
LINE
  5
1BA
330
78
100
AcDbEntity
  8
1
  6
Continuous
 62
     7
100
AcDbLine
 10
95.1504216629905
 20
-22.78898594925231
 30
0.0
 11
39.28898594925148
 21
-78.65042166298781
 31
0.0
  0
LINE
  5
1BB
330
78
100
AcDbEntity
  8
1
  6
Continuous
 62
     7
100
AcDbLine
 10
93.49744856870991
 20
-21.13601285497159
 30
0.0
 11
95.1504216629905
 21
-22.78898594925231
 31
0.0
  0
LINE
  5
1BC
330
78
100
AcDbEntity
  8
0
  6
Continuous
 62
     7
100
AcDbLine
 10
201.785521321048
 20
-69.97500653990977
 30
0.0
 11
201.785521321048
 21
-19.97500653990977
 31
0.0
  0
LINE
  5
1BD
330
78
100
AcDbEntity
  8
0
  6
Continuous
 62
     7
100
AcDbLine
 10
151.2855213210481
 20
-69.97500653990977
 30
0.0
 11
201.785521321048
 21
-69.97500653990977
 31
0.0
  0
LINE
  5
1BE
330
78
100
AcDbEntity
  8
0
  6
Continuous
 62
     7
100
AcDbLine
 10
151.2855213210481
 20
-19.97500653990977
 30
0.0
 11
201.785521321048
 21
-19.97500653990977
 31
0.0
  0
LINE
  5
1BF
330
78
100
AcDbEntity
  8
0
  6
Continuous
 62
     7
100
AcDbLine
 10
205.285521321048
 20
-69.03718436640082
 30
0.0
 11
201.785521321048
 21
-69.97500653990977
 31
0.0
  0
LINE
  5
1C0
330
78
100
AcDbEntity
  8
0
  6
Continuous
 62
     7
100
AcDbLine
 10
205.285521321048
 20
-20.9128287134187
 30
0.0
 11
201.785521321048
 21
-19.97500653990977
 31
0.0
  0
LINE
  5
1C1
330
78
100
AcDbEntity
  8
0
  6
Continuous
 62
     7
100
AcDbLine
 10
152.2855213210481
 20
-53.45500653990973
 30
0.0
 11
152.2855213210481
 21
-54.47500653990974
 31
0.0
  0
LINE
  5
1C2
330
78
100
AcDbEntity
  8
0
  6
Continuous
 62
     7
100
AcDbLine
 10
152.2855213210481
 20
-36.49500653990977
 30
0.0
 11
152.2855213210481
 21
-53.45500653990973
 31
0.0
  0
LINE
  5
1C3
330
78
100
AcDbEntity
  8
0
  6
Continuous
 62
     7
100
AcDbLine
 10
152.2855213210481
 20
-35.47500653990976
 30
0.0
 11
152.2855213210481
 21
-36.49500653990977
 31
0.0
  0
LINE
  5
1C4
330
78
100
AcDbEntity
  8
0
  6
Continuous
 62
     7
100
AcDbLine
 10
151.2855213210481
 20
-34.97500653990976
 30
0.0
 11
151.7855213210481
 21
-34.97500653990976
 31
0.0
  0
LINE
  5
1C5
330
78
100
AcDbEntity
  8
0
  6
Continuous
 62
     3
100
AcDbLine
 10
151.7855213210481
 20
-34.97500653990976
 30
0.0
 11
151.7855213210481
 21
-36.33500653990976
 31
0.0
  0
LINE
  5
1C6
330
78
100
AcDbEntity
  8
0
  6
Continuous
 62
     3
100
AcDbLine
 10
150.7855213210481
 20
-36.33500653990977
 30
0.0
 11
151.7855213210481
 21
-36.33500653990976
 31
0.0
  0
LINE
  5
1C7
330
78
100
AcDbEntity
  8
0
  6
Continuous
 62
     3
100
AcDbLine
 10
150.7855213210481
 20
-53.61500653990974
 30
0.0
 11
151.7855213210481
 21
-53.61500653990974
 31
0.0
  0
LINE
  5
1C8
330
78
100
AcDbEntity
  8
0
  6
Continuous
 62
     3
100
AcDbLine
 10
151.7855213210481
 20
-36.33500653990976
 30
0.0
 11
151.7855213210481
 21
-53.61500653990974
 31
0.0
  0
LINE
  5
1C9
330
78
100
AcDbEntity
  8
0
  6
Continuous
 62
     3
100
AcDbLine
 10
151.7855213210481
 20
-53.61500653990974
 30
0.0
 11
151.7855213210481
 21
-54.97500653990974
 31
0.0
  0
LINE
  5
1CA
330
78
100
AcDbEntity
  8
0
  6
Continuous
 62
     7
100
AcDbLine
 10
151.2855213210481
 20
-54.97500653990974
 30
0.0
 11
151.7855213210481
 21
-54.97500653990974
 31
0.0
  0
LINE
  5
1CB
330
78
100
AcDbEntity
  8
0
  6
Continuous
 62
     7
100
AcDbLine
 10
90.99426121297442
 20
-21.20672353309017
 30
0.0
 11
93.42673789059126
 21
-21.20672353309026
 31
0.0
  0
LINE
  5
1CC
330
78
100
AcDbEntity
  8
0
  6
Continuous
 62
     7
100
AcDbLine
 10
37.70672353308998
 20
-76.92673789058884
 30
0.0
 11
93.42673789059126
 21
-21.20672353309026
 31
0.0
  0
LINE
  5
1CD
330
78
100
AcDbEntity
  8
0
  6
Continuous
 62
     7
100
AcDbLine
 10
37.70672353309001
 20
-74.49426121297202
 30
0.0
 11
37.70672353308998
 21
-76.92673789058884
 31
0.0
  0
LINE
  5
1CE
330
78
100
AcDbEntity
  8
0
  6
Continuous
 62
     3
100
AcDbLine
 10
151.2855213210481
 20
-54.97500653990974
 30
0.0
 11
151.2855213210481
 21
-69.97500653990977
 31
0.0
  0
LINE
  5
1CF
330
78
100
AcDbEntity
  8
0
  6
Continuous
 62
     7
100
AcDbLine
 10
71.5636215475345
 20
-69.97500653990306
 30
0.0
 11
92.68552132103491
 21
-69.97500653990484
 31
0.0
  0
LINE
  5
1D0
330
78
100
AcDbEntity
  8
0
  6
Continuous
 62
     7
100
AcDbLine
 10
150.7855213210481
 20
-54.97500653990974
 30
0.0
 11
151.2855213210481
 21
-54.97500653990974
 31
0.0
  0
LINE
  5
1D1
330
78
100
AcDbEntity
  8
0
  6
Continuous
 62
     3
100
AcDbLine
 10
151.2855213210481
 20
-19.97500653990977
 30
0.0
 11
151.2855213210481
 21
-34.97500653990976
 31
0.0
  0
LINE
  5
1D2
330
78
100
AcDbEntity
  8
0
  6
Continuous
 62
     7
100
AcDbLine
 10
150.7855213210481
 20
-34.97500653990976
 30
0.0
 11
151.2855213210481
 21
-34.97500653990976
 31
0.0
  0
LINE
  5
1D3
330
78
100
AcDbEntity
  8
0
  6
Continuous
 62
     3
100
AcDbLine
 10
150.7855213210481
 20
-34.97500653990976
 30
0.0
 11
150.7855213210481
 21
-36.33500653990977
 31
0.0
  0
LINE
  5
1D4
330
78
100
AcDbEntity
  8
0
  6
Continuous
 62
     3
100
AcDbLine
 10
150.7855213210481
 20
-36.33500653990977
 30
0.0
 11
150.7855213210481
 21
-53.61500653990974
 31
0.0
  0
LINE
  5
1D5
330
78
100
AcDbEntity
  8
0
  6
Continuous
 62
     7
100
AcDbLine
 10
150.2855213210481
 20
-54.47500653990974
 30
0.0
 11
150.2855213210481
 21
-65.07500653990977
 31
0.0
  0
LINE
  5
1D6
330
78
100
AcDbEntity
  8
0
  6
Continuous
 62
     3
100
AcDbLine
 10
150.7855213210481
 20
-53.61500653990974
 30
0.0
 11
150.7855213210481
 21
-54.97500653990974
 31
0.0
  0
LINE
  5
1D7
330
78
100
AcDbEntity
  8
0
  6
Continuous
 62
     7
100
AcDbLine
 10
95.60112531223335
 20
-29.97500653990976
 30
0.0
 11
150.2855213210481
 21
-29.97500653990976
 31
0.0
  0
LINE
  5
1D8
330
78
100
AcDbEntity
  8
0
  6
Continuous
 62
     7
100
AcDbLine
 10
150.2855213210481
 20
-20.97500653990976
 30
0.0
 11
150.2855213210481
 21
-29.97500653990976
 31
0.0
  0
LINE
  5
1D9
330
78
100
AcDbEntity
  8
0
  6
Continuous
 62
     7
100
AcDbLine
 10
93.42673789059126
 20
-21.20672353309026
 30
0.0
 11
93.49744856870991
 21
-21.13601285497159
 31
0.0
  0
LINE
  5
1DA
330
78
100
AcDbEntity
  8
0
  6
Continuous
 62
     7
100
AcDbLine
 10
150.2855213210481
 20
-36.49500653990977
 30
0.0
 11
150.2855213210481
 21
-53.45500653990975
 31
0.0
  0
LINE
  5
1DB
330
78
100
AcDbEntity
  8
0
  6
Continuous
 62
     7
100
AcDbLine
 10
150.2855213210481
 20
-53.45500653990975
 30
0.0
 11
150.2855213210481
 21
-54.47500653990974
 31
0.0
  0
LINE
  5
1DC
330
78
100
AcDbEntity
  8
0
  6
Continuous
 62
     7
100
AcDbLine
 10
150.2855213210481
 20
-29.97500653990976
 30
0.0
 11
150.2855213210481
 21
-35.47500653990976
 31
0.0
  0
LINE
  5
1DD
330
78
100
AcDbEntity
  8
0
  6
Continuous
 62
     7
100
AcDbLine
 10
150.2855213210481
 20
-35.47500653990976
 30
0.0
 11
150.2855213210481
 21
-36.49500653990977
 31
0.0
  0
LINE
  5
1DE
330
78
100
AcDbEntity
  8
0
  6
Continuous
 62
     7
100
AcDbLine
 10
205.285521321048
 20
-69.03718436640082
 30
0.0
 11
205.285521321048
 21
-20.9128287134187
 31
0.0
  0
LINE
  5
1DF
330
78
100
AcDbEntity
  8
1
  6
PHANTOM
 62
     2
100
AcDbLine
 10
71.5636215475345
 20
-49.97500653990642
 30
0.0
 11
156.6876600550738
 21
-49.97500653990643
 31
0.0
  0
LINE
  5
1E0
330
78
100
AcDbEntity
  8
1
  6
PHANTOM
 62
     2
100
AcDbLine
 10
145.7255023071578
 20
-44.97500653990977
 30
0.0
 11
209.4430442169194
 21
-44.97500653990978
 31
0.0
  0
LINE
  5
1E1
330
78
100
AcDbEntity
  8
1
  6
DOT_CENTER
 62
     2
100
AcDbLine
 10
95.23219943089352
 20
-28.91763599070395
 30
0.0
 11
95.23219943089352
 21
-26.91763599070395
 31
0.0
  0
LINE
  5
1E2
330
78
100
AcDbEntity
  8
1
  6
DOT_CENTER
 62
     2
100
AcDbLine
 10
36.83488470653133
 20
-78.99999998235442
 30
0.0
 11
48.83488470653133
 21
-78.99999998235442
 31
0.0
  0
ARC
  5
1E3
330
78
100
AcDbEntity
  8
0
  6
Continuous
 62
     7
100
AcDbCircle
 10
42.23220693268527
 20
-25.73220693268308
 30
0.0
 40
52.99999999999999
100
AcDbArc
 50
355.9883745894311
 51
3.18341386622811
  0
ARC
  5
1E4
330
78
100
AcDbEntity
  8
0
  6
Continuous
 62
     7
100
AcDbCircle
 10
151.7855213210481
 20
-54.47500653990974
 30
0.0
 40
0.5
100
AcDbArc
 50
270.0
 51
0.0
  0
ARC
  5
1E5
330
78
100
AcDbEntity
  8
0
  6
Continuous
 62
     7
100
AcDbCircle
 10
151.7855213210481
 20
-35.47500653990976
 30
0.0
 40
0.5
100
AcDbArc
 50
0.0
 51
90.0
  0
ARC
  5
1E6
330
78
100
AcDbEntity
  8
0
  6
Continuous
 62
     7
100
AcDbCircle
 10
42.23220693268527
 20
-25.73220693268308
 30
0.0
 40
52.99999999999967
100
AcDbArc
 50
266.8165861337686
 51
303.2470890310809
  0
ARC
  5
1E7
330
78
100
AcDbEntity
  8
0
  6
Continuous
 62
     7
100
AcDbCircle
 10
151.2855213210481
 20
-20.97500653990976
 30
0.0
 40
0.9999999999999893
100
AcDbArc
 50
90.0
 51
180.0
  0
ARC
  5
1E8
330
78
100
AcDbEntity
  8
0
  6
Continuous
 62
     7
100
AcDbCircle
 10
150.7855213210481
 20
-54.47500653990974
 30
0.0
 40
0.5
100
AcDbArc
 50
180.0
 51
270.0
  0
ARC
  5
1E9
330
78
100
AcDbEntity
  8
0
  6
Continuous
 62
     7
100
AcDbCircle
 10
150.7855213210481
 20
-35.47500653990976
 30
0.0
 40
0.5
100
AcDbArc
 50
90.0
 51
180.0
  0
SPLINE
  5
1EA
330
78
100
AcDbEntity
  8
0
  6
Continuous
 62
     3
100
AcDbSpline
210
0.0
220
0.0
230
1.0
 70
     8
 71
     3
 72
    35
 73
    31
 74
    29
 42
0.0000000001
 43
0.0000000001
 44
0.00000001
 40
0.0
 40
0.0
 40
0.0
 40
0.0
 40
0.2523606926958422
 40
0.4706337063108496
 40
1.88895672534192
 40
3.268323936910835
 40
3.497157984477448
 40
3.725634716875126
 40
4.870845195153581
 40
6.007012901808359
 40
8.518575673058795
 40
10.9850731073594
 40
14.89533016574585
 40
18.68833477330445
 40
22.3651372533383
 40
25.61899543387025
 40
28.77808633370779
 40
31.84348114035087
 40
34.81635237778718
 40
37.18020380524837
 40
39.45599221105171
 40
41.64641388524706
 40
43.04726516934247
 40
44.36990073938665
 40
45.02336078200507
 40
45.61685653435421
 40
45.79157852649323
 40
45.9421224447464
 40
45.99700504980058
 40
46.05188765485477
 40
46.05188765485477
 40
46.05188765485477
 40
46.05188765485477
 10
95.28552132104073
 20
-30.65083775531883
 30
0.0
 10
95.24982427039578
 20
-30.7270081877584
 30
0.0
 10
95.1832519564988
 20
-30.86906031381408
 30
0.0
 10
94.91552764030183
 20
-31.43896001363987
 30
0.0
 10
94.48581094958091
 20
-32.34781716416992
 30
0.0
 10
94.05050318638709
 20
-33.25791370892705
 30
0.0
 10
93.78488154460469
 20
-33.80951668727158
 30
0.0
 10
93.55276108955644
 20
-34.29062135789454
 30
0.0
 10
93.18750313176312
 20
-35.0432972859897
 30
0.0
 10
92.48443790072793
 20
-36.47793445178328
 30
0.0
 10
91.57597952317539
 20
-38.30237511238553
 30
0.0
 10
90.23122714173537
 20
-40.94242644160441
 30
0.0
 10
88.65543065418693
 20
-43.94399916808297
 30
0.0
 10
86.83760140464379
 20
-47.27361792615918
 30
0.0
 10
85.07049596771904
 20
-50.38105678308089
 30
0.0
 10
83.35645479791884
 20
-53.27495238442543
 30
0.0
 10
81.69798876692317
 20
-55.96432675036668
 30
0.0
 10
80.0395139555794
 20
-58.54302438035374
 30
0.0
 10
78.47729087715909
 20
-60.86780055727987
 30
0.0
 10
77.02104834985707
 20
-62.94601144669934
 30
0.0
 10
75.6804987552344
 20
-64.78634468980353
 30
0.0
 10
74.49901095852368
 20
-66.3449709836082
 30
0.0
 10
73.4880221266216
 20
-67.63376415019872
 30
0.0
 10
72.78159745107021
 20
-68.5101951548402
 30
0.0
 10
72.2373886332125
 20
-69.17162560982034
 30
0.0
 10
71.93391475449293
 20
-69.53560533001152
 30
0.0
 10
71.73683296115634
 20
-69.77002007242005
 30
0.0
 10
71.65511670837938
 20
-69.86686767973993
 30
0.0
 10
71.59909031033436
 20
-69.93312495188114
 30
0.0
 10
71.57544446846778
 20
-69.96104601056241
 30
0.0
 10
71.5636215475345
 20
-69.97500653990306
 30
0.0
 11
95.28552132104073
 21
-30.65083775531883
 31
0.0
 11
95.17839244019048
 21
-30.87933134845811
 31
0.0
 11
95.08559048599226
 21
-31.07689375826718
 31
0.0
 11
94.47928967469882
 21
-32.35909480043581
 31
0.0
 11
93.88408656821515
 21
-33.60343686208269
 31
0.0
 11
93.78480395152775
 21
-33.8096115049208
 31
0.0
 11
93.68552132106292
 21
-34.0153894836627
 31
0.0
 11
93.18552135809927
 21
-35.04568413889251
 31
0.0
 11
92.6855213210175
 21
-36.06591794570515
 31
0.0
 11
91.56584547738251
 21
-38.31408910447208
 31
0.0
 11
90.4461729934564
 21
-40.51180226185869
 31
0.0
 11
88.62775723452248
 21
-43.97351778892353
 31
0.0
 11
86.80931792919745
 21
-47.30220558530964
 31
0.0
 11
84.99086485326524
 21
-50.49784400162268
 31
0.0
 11
83.33194438896902
 21
-53.29705388159844
 31
0.0
 11
81.67302210003001
 21
-55.98551666778271
 31
0.0
 11
80.01409788082037
 21
-58.56323188780102
 31
0.0
 11
78.35517162571229
 21
-61.03019906927896
 31
0.0
 11
76.99820933861767
 21
-62.96577312431101
 31
0.0
 11
75.65782431297427
 21
-64.80495252040586
 31
0.0
 11
74.33417999669179
 21
-66.55020689577864
 31
0.0
 11
73.46944408119758
 21
-67.65230313323077
 31
0.0
 11
72.63931271284817
 21
-68.6819859787849
 31
0.0
 11
72.22411576388123
 21
-69.18658633636247
 31
0.0
 11
71.84404282457282
 21
-69.64241719190204
 31
0.0
 11
71.73160427011034
 21
-69.77615329775013
 31
0.0
 11
71.63452351953869
 21
-69.89121327859257
 31
0.0
 11
71.59908504819406
 21
-69.93312049857062
 31
0.0
 11
71.5636215475345
 21
-69.97500653990306
 31
0.0
  0
SPLINE
  5
1EB
330
78
100
AcDbEntity
  8
0
  6
Continuous
 62
     3
100
AcDbSpline
210
0.0
220
0.0
230
1.0
 70
     8
 71
     3
 72
    13
 73
     9
 74
     7
 42
0.0000000001
 43
0.0000000001
 44
0.00000001
 40
0.0
 40
0.0
 40
0.0
 40
0.0
 40
0.0447787966912933
 40
0.1078986736710044
 40
0.1939908425034942
 40
0.300620191220885
 40
0.4222654158384175
 40
0.5517896950645579
 40
0.5517896950645579
 40
0.5517896950645579
 40
0.5517896950645579
 10
152.2855213210481
 20
-36.49500653990977
 30
0.0
 10
152.2811141217753
 20
-36.48031106743369
 30
0.0
 10
152.2704945653944
 20
-36.44490096027813
 30
0.0
 10
152.2115710357568
 20
-36.4091650819712
 30
0.0
 10
152.1337198744731
 20
-36.3774584780711
 30
0.0
 10
152.0307471358252
 20
-36.3537501693411
 30
0.0
 10
151.9125109455632
 20
-36.33797186573952
 30
0.0
 10
151.8287272790017
 20
-36.3360154392085
 30
0.0
 10
151.7855213210481
 20
-36.33500653990976
 30
0.0
 11
152.2855213210481
 21
-36.49500653990977
 31
0.0
 11
152.2684841054319
 21
-36.45359550373379
 31
0.0
 11
152.2185340229403
 21
-36.41500653990977
 31
0.0
 11
152.1390746173819
 21
-36.38186948508292
 31
0.0
 11
152.0355213210481
 21
-36.35644247530426
 31
0.0
 11
151.914930809098
 21
-36.34045844890694
 31
0.0
 11
151.7855213210481
 21
-36.33500653990976
 31
0.0
  0
SPLINE
  5
1EC
330
78
100
AcDbEntity
  8
0
  6
Continuous
 62
     3
100
AcDbSpline
210
0.0
220
0.0
230
1.0
 70
     8
 71
     3
 72
    13
 73
     9
 74
     7
 42
0.0000000001
 43
0.0000000001
 44
0.00000001
 40
0.0
 40
0.0
 40
0.0
 40
0.0
 40
0.0447787966912867
 40
0.1078986736710022
 40
0.1939908425034947
 40
0.3006201912208856
 40
0.4222654158384189
 40
0.5517896950645591
 40
0.5517896950645591
 40
0.5517896950645591
 40
0.5517896950645591
 10
152.2855213210481
 20
-53.45500653990973
 30
0.0
 10
152.2811141217753
 20
-53.4697020123858
 30
0.0
 10
152.2704945653944
 20
-53.50511211954137
 30
0.0
 10
152.2115710357569
 20
-53.54084799784829
 30
0.0
 10
152.1337198744731
 20
-53.57255460174842
 30
0.0
 10
152.0307471358252
 20
-53.59626291047839
 30
0.0
 10
151.9125109455631
 20
-53.61204121408001
 30
0.0
 10
151.8287272790017
 20
-53.61399764061103
 30
0.0
 10
151.7855213210481
 20
-53.61500653990974
 30
0.0
 11
152.2855213210481
 21
-53.45500653990973
 31
0.0
 11
152.2684841054319
 21
-53.4964175760857
 31
0.0
 11
152.2185340229403
 21
-53.53500653990973
 31
0.0
 11
152.1390746173819
 21
-53.56814359473658
 31
0.0
 11
152.0355213210481
 21
-53.59357060451525
 31
0.0
 11
151.914930809098
 21
-53.60955463091257
 31
0.0
 11
151.7855213210481
 21
-53.61500653990974
 31
0.0
  0
SPLINE
  5
1ED
330
78
100
AcDbEntity
  8
0
  6
Continuous
 62
     3
100
AcDbSpline
210
0.0
220
0.0
230
1.0
 70
     8
 71
     3
 72
    31
 73
    27
 74
    25
 42
0.0000000001
 43
0.0000000001
 44
0.00000001
 40
0.0
 40
0.0
 40
0.0
 40
0.0
 40
0.1551676564093989
 40
0.310335308645293
 40
0.8167555988906671
 40
1.226489805051342
 40
2.661358764271472
 40
4.057189862860894
 40
6.795731986962907
 40
9.407160251808307
 40
11.89429356472469
 40
17.62137985382223
 40
23.34746546447945
 40
27.57387628125471
 40
31.74087034497386
 40
35.83659829684263
 40
39.29206073496425
 40
42.78888181339598
 40
44.12208489792665
 40
45.53607927376341
 40
46.18115619348173
 40
46.77819360306417
 40
46.95020527728747
 40
47.10201200630977
 40
47.15664092542276
 40
47.21126984453578
 40
47.21126984453578
 40
47.21126984453578
 40
47.21126984453578
 10
95.10235036169294
 20
-29.4400275588942
 30
0.0
 10
95.08095266894924
 20
-29.48711642446857
 30
0.0
 10
95.03815728403735
 20
-29.58129415435079
 30
0.0
 10
94.92538393058419
 20
-29.8290909536092
 30
0.0
 10
94.7771529207956
 20
-30.15398073748514
 30
0.0
 10
94.45087346900247
 20
-30.86650269201343
 30
0.0
 10
93.99843001279508
 20
-31.84732711300086
 30
0.0
 10
93.2134283192638
 20
-33.52960610600464
 30
0.0
 10
92.24914839451962
 20
-35.56098826377992
 30
0.0
 10
91.1075884862139
 20
-37.91077691068445
 30
0.0
 10
89.50120626066777
 20
-41.14209482106164
 30
0.0
 10
87.3682658074286
 20
-45.2709001090016
 30
0.0
 10
84.85530245670056
 20
-49.85438137924702
 30
0.0
 10
82.49080743024672
 20
-53.92425064133143
 30
0.0
 10
80.31531267796068
 20
-57.47413169019704
 30
0.0
 10
78.18782840965991
 20
-60.75058902327184
 30
0.0
 10
76.09911330422493
 20
-63.78410161382446
 30
0.0
 10
74.46954845491915
 20
-66.01453518564176
 30
0.0
 10
73.205034243136
 20
-67.66775758039255
 30
0.0
 10
72.50628186755222
 20
-68.5568332802237
 30
0.0
 10
71.95198418832621
 20
-69.24722583050682
 30
0.0
 10
71.65451600436342
 20
-69.61289074543522
 30
0.0
 10
71.4598447038496
 20
-69.85021463899035
 30
0.0
 10
71.37967008705147
 20
-69.94760891488875
 30
0.0
 10
71.32429188526915
 20
-70.01473566814171
 30
0.0
 10
71.3010947466253
 20
-70.04281157886496
 30
0.0
 10
71.28949617730338
 20
-70.05684953422659
 30
0.0
 11
95.10235036169294
 21
-29.4400275588942
 31
0.0
 11
95.03814375945946
 21
-29.58128800567679
 31
0.0
 11
94.97387258543593
 21
-29.72251908047988
 31
0.0
 11
94.76365782878369
 21
-30.18324814018618
 31
0.0
 11
94.59306692234848
 21
-30.55578117541894
 31
0.0
 11
93.99201295739348
 21
-31.85869447312732
 31
0.0
 11
93.40174873109845
 21
-33.12357889430804
 31
0.0
 11
92.22717113541842
 21
-35.59743831578042
 31
0.0
 11
91.08583773362953
 21
-37.94624985534558
 31
0.0
 11
89.9784941203336
 21
-40.17327078885993
 31
0.0
 11
87.34730868834743
 21
-45.26015397852262
 31
0.0
 11
84.59125152224541
 21
-50.27933770874743
 31
0.0
 11
82.4665394022786
 21
-53.93284927974607
 31
0.0
 11
80.28742551367043
 21
-57.48465194706103
 31
0.0
 11
78.0549155958897
 21
-60.91843803864126
 31
0.0
 11
76.09384719383037
 21
-63.76350945843267
 31
0.0
 11
74.0292322481075
 21
-66.58576436904266
 31
0.0
 11
73.21915240545097
 21
-67.64463221401844
 31
0.0
 11
72.34527157231875
 21
-68.75625822324193
 31
0.0
 11
71.94140048560148
 21
-69.25926158075268
 31
0.0
 11
71.56462415237709
 21
-69.72239575479179
 31
0.0
 11
71.45553231181955
 21
-69.85538818462474
 31
0.0
 11
71.3590523407991
 21
-69.97259269890786
 31
0.0
 11
71.32428666783393
 21
-70.01473136033336
 31
0.0
 11
71.28949617730338
 21
-70.05684953422659
 31
0.0
  0
SPLINE
  5
1EE
330
78
100
AcDbEntity
  8
0
  6
Continuous
 62
     7
100
AcDbSpline
210
0.0
220
0.0
230
1.0
 70
     8
 71
     3
 72
    15
 73
    11
 74
     9
 42
0.0000000001
 43
0.0000000001
 44
0.00000001
 40
0.0
 40
0.0
 40
0.0
 40
0.0
 40
0.0332898904352637
 40
0.0719320590232216
 40
0.1084737016974773
 40
0.1450184315817951
 40
0.1789298635515547
 40
0.218091072412291
 40
0.2540573601738773
 40
0.290026447405076
 40
0.290026447405076
 40
0.290026447405076
 40
0.290026447405076
 10
71.5636215475345
 20
-69.97500653990306
 30
0.0
 10
71.55252302864963
 20
-69.9752279703203
 30
0.0
 10
71.52854159449475
 20
-69.97570643226877
 30
0.0
 10
71.49255299856245
 20
-69.97972142997402
 30
0.0
 10
71.45589254082664
 20
-69.98642160590839
 30
0.0
 10
71.42134288487311
 20
-69.9954086130684
 30
0.0
 10
71.38666966821631
 20
-70.00702339105271
 30
0.0
 10
71.35312181956274
 20
-70.02108814896985
 30
0.0
 10
71.32000458142585
 20
-70.03776783082142
 30
0.0
 10
71.29966590918052
 20
-70.0504888014065
 30
0.0
 10
71.28949617730338
 20
-70.05684953422659
 30
0.0
 11
71.5636215475345
 21
-69.97500653990306
 31
0.0
 11
71.53035091119096
 21
-69.9761386010712
 31
0.0
 11
71.49192862870683
 21
-69.98025508037875
 31
0.0
 11
71.45598892690947
 21
-69.98686034222442
 31
0.0
 11
71.42061749299322
 21
-69.99604614349735
 31
0.0
 11
71.38846624853517
 21
-70.00682958905239
 31
0.0
 11
71.35233428853715
 21
-70.0219319645654
 31
0.0
 11
71.32028160440608
 21
-70.03824757964246
 31
0.0
 11
71.28949617730338
 21
-70.05684953422659
 31
0.0
  0
SPLINE
  5
1EF
330
78
100
AcDbEntity
  8
0
  6
Continuous
 62
     7
100
AcDbSpline
210
0.0
220
0.0
230
1.0
 70
     8
 71
     3
 72
    23
 73
    19
 74
    17
 42
0.0000000001
 43
0.0000000001
 44
0.00000001
 40
0.0
 40
0.0
 40
0.0
 40
0.0
 40
0.6154531363063059
 40
1.111773858384699
 40
1.563876949030482
 40
2.09578512069609
 40
2.571715590953948
 40
2.945767207163025
 40
3.285798095769783
 40
3.658703237243556
 40
3.98475697956845
 40
4.230196170429914
 40
4.444044774653852
 40
4.658638760023325
 40
4.809872602594939
 40
4.953544228370187
 40
5.060081240632413
 40
5.151401590750736
 40
5.151401590750736
 40
5.151401590750736
 40
5.151401590750736
 10
150.2855213210481
 20
-65.07500653990977
 30
0.0
 10
150.2870721386795
 20
-65.28016419394375
 30
0.0
 10
150.2898735843137
 20
-65.65076741805179
 30
0.0
 10
150.3101380730103
 20
-66.17173423428912
 30
0.0
 10
150.3391289979631
 20
-66.66435105125011
 30
0.0
 10
150.3795669432446
 20
-67.14938210325877
 30
0.0
 10
150.4305202368034
 20
-67.60724723212415
 30
0.0
 10
150.4852632978765
 20
-68.00016958025938
 30
0.0
 10
150.5451245274812
 20
-68.35756717538669
 30
0.0
 10
150.6137438328169
 20
-68.69712403987847
 30
0.0
 10
150.6894893990006
 20
-69.00280465341001
 30
0.0
 10
150.7650864815332
 20
-69.25354364762603
 30
0.0
 10
150.842021872802
 20
-69.4647517095899
 30
0.0
 10
150.9220256557356
 20
-69.64088711592548
 30
0.0
 10
151.0092605089567
 20
-69.7874015081005
 30
0.0
 10
151.095078113884
 20
-69.89005978100397
 30
0.0
 10
151.1887620569721
 20
-69.9611268423737
 30
0.0
 10
151.2549654051157
 20
-69.97062342605365
 30
0.0
 10
151.2855213210481
 20
-69.97500653990977
 30
0.0
 11
150.2855213210481
 21
-65.07500653990977
 31
0.0
 11
150.293730030844
 21
-65.69040493125699
 31
0.0
 11
150.3124320667206
 21
-66.18637316916995
 31
0.0
 11
150.3392515701192
 21
-66.63768007007988
 31
0.0
 11
150.3836927662225
 21
-67.16772844822432
 31
0.0
 11
150.4367097378008
 21
-67.6406967486891
 31
0.0
 11
150.4886052051787
 21
-68.01113091565301
 31
0.0
 11
150.545093754337
 21
-68.34643681930025
 31
0.0
 11
150.6196554113823
 21
-68.71181170053353
 31
0.0
 11
150.6989417062523
 21
-69.02807855989418
 31
0.0
 11
150.7704761324594
 21
-69.26286191168462
 31
0.0
 11
150.8444821689098
 21
-69.46349673442839
 31
0.0
 11
150.9349497888519
 21
-69.65808909886948
 31
0.0
 11
151.0138557840223
 21
-69.78710661343686
 31
0.0
 11
151.1080104146963
 21
-69.8956259277341
 31
0.0
 11
151.1963948773154
 21
-69.95510972173969
 31
0.0
 11
151.2855213210481
 21
-69.97500653990977
 31
0.0
  0
SPLINE
  5
1F0
330
78
100
AcDbEntity
  8
0
  6
Continuous
 62
     7
100
AcDbSpline
210
0.0
220
0.0
230
1.0
 70
     8
 71
     3
 72
    11
 73
     7
 74
     5
 42
0.0000000001
 43
0.0000000001
 44
0.00000001
 40
0.0
 40
0.0
 40
0.0
 40
0.0
 40
0.1539085388548186
 40
0.3078168158390218
 40
0.5350869161146201
 40
0.7458913690874676
 40
0.7458913690874676
 40
0.7458913690874676
 40
0.7458913690874676
 10
95.60112531223335
 20
-29.97500653990976
 30
0.0
 10
95.57946442581333
 20
-30.02151232614683
 30
0.0
 10
95.5361426898286
 20
-30.1145238194928
 30
0.0
 10
95.46073837480924
 20
-30.2761632444437
 30
0.0
 10
95.37722692769685
 20
-30.45494812343957
 30
0.0
 10
95.31531416386713
 20
-30.58719814562975
 30
0.0
 10
95.28552132104073
 20
-30.65083775531883
 30
0.0
 11
95.60112531223335
 21
-29.97500653990976
 31
0.0
 11
95.53612871968
 21
-30.11451740432138
 31
0.0
 11
95.4710671226306
 21
-30.25399767645199
 31
0.0
 11
95.37487362096341
 21
-30.45990665808292
 31
0.0
 11
95.28552132104073
 21
-30.65083775531883
 31
0.0
  0
SPLINE
  5
1F1
330
78
100
AcDbEntity
  8
0
  6
Continuous
 62
     7
100
AcDbSpline
210
0.0
220
0.0
230
1.0
 70
     8
 71
     3
 72
    23
 73
    19
 74
    17
 42
0.0000000001
 43
0.0000000001
 44
0.00000001
 40
0.0
 40
0.0
 40
0.0
 40
0.0
 40
0.0523708591859251
 40
0.104386067864308
 40
0.1532975588443039
 40
0.2144279506477756
 40
0.2612071907300157
 40
0.3081148544353789
 40
0.3570667871201225
 40
0.4060814834632741
 40
0.4549334093294083
 40
0.5037236943835472
 40
0.5514798752353148
 40
0.5991029942060988
 40
0.6587925735646764
 40
0.7067849375259663
 40
0.759508194805411
 40
0.8125926876443056
 40
0.8125926876443056
 40
0.8125926876443056
 40
0.8125926876443056
 10
95.10235036169294
 20
-29.4400275588942
 30
0.0
 10
95.10174562133244
 20
-29.45749514250476
 30
0.0
 10
95.10054024740327
 20
-29.49231168736463
 30
0.0
 10
95.10651669227772
 20
-29.54324273824399
 30
0.0
 10
95.1182222721513
 20
-29.59604453502725
 30
0.0
 10
95.13545079197831
 20
-29.64556252878586
 30
0.0
 10
95.15747490303383
 20
-29.692300032685
 30
0.0
 10
95.1815129600987
 20
-29.73339480679635
 30
0.0
 10
95.2095112915132
 20
-29.77281967252384
 30
0.0
 10
95.24130488813418
 20
-29.81010841963256
 30
0.0
 10
95.276207759868
 20
-29.84442672517737
 30
0.0
 10
95.31367426217996
 20
-29.87527104695587
 30
0.0
 10
95.35339339814246
 20
-29.90243956560816
 30
0.0
 10
95.39857657080883
 20
-29.92767743068358
 30
0.0
 10
95.44630527655721
 20
-29.94810211653591
 30
0.0
 10
95.49759523978688
 20
-29.96341969129748
 30
0.0
 10
95.54812971677288
 20
-29.9731041922925
 30
0.0
 10
95.58341995257982
 20
-29.97437098239867
 30
0.0
 10
95.60112531223335
 20
-29.97500653990976
 30
0.0
 11
95.10235036169294
 21
-29.4400275588942
 31
0.0
 11
95.10186388194606
 21
-29.49239615854445
 31
0.0
 11
95.10752891344023
 21
-29.5441019546608
 31
0.0
 11
95.11815776501861
 21
-29.59184461340548
 31
0.0
 11
95.13814936206532
 21
-29.64961364359959
 31
0.0
 11
95.1580701246721
 21
-29.69193929208649
 31
0.0
 11
95.18173622353453
 21
-29.7324392263942
 31
0.0
 11
95.21006886087501
 21
-29.77235856224669
 31
0.0
 11
95.24186644018062
 21
-29.80965942561358
 31
0.0
 11
95.27670372266599
 21
-29.84390667966212
 31
0.0
 11
95.31438013914192
 21
-29.87490634993772
 31
0.0
 11
95.35380957830759
 21
-29.90185022005
 31
0.0
 11
95.39539774264122
 21
-29.92505336741979
 31
0.0
 11
95.45031136695748
 21
-29.94844866071688
 31
0.0
 11
95.49628422800959
 21
-29.96222411153624
 31
0.0
 11
95.54814131212858
 21
-29.97174171022657
 31
0.0
 11
95.60112531223335
 21
-29.97500653990976
 31
0.0
  0
SPLINE
  5
1F2
330
78
100
AcDbEntity
  8
0
  6
Continuous
 62
     3
100
AcDbSpline
210
0.0
220
0.0
230
1.0
 70
     8
 71
     3
 72
    13
 73
     9
 74
     7
 42
0.0000000001
 43
0.0000000001
 44
0.00000001
 40
0.0
 40
0.0
 40
0.0
 40
0.0
 40
0.1295242792261685
 40
0.2511695038437019
 40
0.357798852561117
 40
0.4438910213936068
 40
0.5070108983733222
 40
0.5517896950645873
 40
0.5517896950645873
 40
0.5517896950645873
 40
0.5517896950645873
 10
150.7855213210481
 20
-53.61500653990974
 30
0.0
 10
150.7423153630945
 20
-53.61399764061102
 30
0.0
 10
150.658531696533
 20
-53.61204121408001
 30
0.0
 10
150.5402955062709
 20
-53.59626291047839
 30
0.0
 10
150.4373227676231
 20
-53.57255460174845
 30
0.0
 10
150.3594716063392
 20
-53.5408479978483
 30
0.0
 10
150.3005480767018
 20
-53.50511211954141
 30
0.0
 10
150.2899285203209
 20
-53.46970201238582
 30
0.0
 10
150.2855213210481
 20
-53.45500653990975
 30
0.0
 11
150.7855213210481
 21
-53.61500653990974
 31
0.0
 11
150.6561118329982
 21
-53.60955463091257
 31
0.0
 11
150.5355213210481
 21
-53.59357060451525
 31
0.0
 11
150.4319680247142
 21
-53.5681435947366
 31
0.0
 11
150.3525086191559
 21
-53.53500653990975
 31
0.0
 11
150.3025585366642
 21
-53.49641757608573
 31
0.0
 11
150.2855213210481
 21
-53.45500653990975
 31
0.0
  0
SPLINE
  5
1F3
330
78
100
AcDbEntity
  8
0
  6
Continuous
 62
     3
100
AcDbSpline
210
0.0
220
0.0
230
1.0
 70
     8
 71
     3
 72
    13
 73
     9
 74
     7
 42
0.0000000001
 43
0.0000000001
 44
0.00000001
 40
0.0
 40
0.0
 40
0.0
 40
0.0
 40
0.1295242792261969
 40
0.2511695038437294
 40
0.3577988525611737
 40
0.4438910213936662
 40
0.5070108983733324
 40
0.551789695064604
 40
0.551789695064604
 40
0.551789695064604
 40
0.551789695064604
 10
150.7855213210481
 20
-36.33500653990977
 30
0.0
 10
150.7423153630945
 20
-36.3360154392085
 30
0.0
 10
150.658531696533
 20
-36.3379718657395
 30
0.0
 10
150.5402955062709
 20
-36.35375016934111
 30
0.0
 10
150.437322767623
 20
-36.37745847807108
 30
0.0
 10
150.3594716063392
 20
-36.40916508197117
 30
0.0
 10
150.3005480767018
 20
-36.44490096027813
 30
0.0
 10
150.2899285203208
 20
-36.48031106743369
 30
0.0
 10
150.2855213210481
 20
-36.49500653990977
 30
0.0
 11
150.7855213210481
 21
-36.33500653990977
 31
0.0
 11
150.6561118329981
 21
-36.34045844890694
 31
0.0
 11
150.5355213210481
 21
-36.35644247530426
 31
0.0
 11
150.4319680247141
 21
-36.38186948508292
 31
0.0
 11
150.3525086191558
 21
-36.41500653990977
 31
0.0
 11
150.3025585366642
 21
-36.45359550373379
 31
0.0
 11
150.2855213210481
 21
-36.49500653990977
 31
0.0
  0
ENDBLK
  5
7A
330
78
100
AcDbEntity
  8
0
100
AcDbBlockEnd
  0
BLOCK
  5
7F
330
7B
100
AcDbEntity
  8
0
100
AcDbBlockBegin
  2
Bgr_HL522
 70
     0
 10
77.22152210845961
 20
-78.39156528332927
 30
0.0
  3
Bgr_HL522
  1

  0
INSERT
  5
7C
330
7B
100
AcDbEntity
  8
0
100
AcDbBlockReference
  2
HL522_Abgangsbogen_DN40_50_90Grad
 10
62.79500654618856
 20
-129.4769577560539
 30
0.0
  0
INSERT
  5
7D
330
7B
100
AcDbEntity
  8
0
100
AcDbBlockReference
  2
HL522_Körper
 10
19.06738181024733
 20
-21.69526567073385
 30
0.0
  0
INSERT
  5
7E
330
7B
100
AcDbEntity
  8
0
100
AcDbBlockReference
  2
HL522_Abgangsbogen_DN40_50
 10
123.1389644617254
 20
-49.4875032611321
 30
0.0
  0
ENDBLK
  5
80
330
7B
100
AcDbEntity
  8
0
100
AcDbBlockEnd
  0
BLOCK
  5
86
330
81
100
AcDbEntity
  8
0
100
AcDbBlockBegin
  2
HL_522_Brausetassensifon
 70
     0
 10
62.45609918643199
 20
-71.5881160385895
 30
0.0
  3
HL_522_Brausetassensifon
  1

  0
INSERT
  5
82
330
81
100
AcDbEntity
  8
0
100
AcDbBlockReference
  2
Bg-11092-Abdeckplatte
 10
-0.00000000000033
 20
25.58733633524297
 30
0.0
  0
INSERT
  5
83
330
81
100
AcDbEntity
  8
0
100
AcDbBlockReference
  2
01076D_Ventildichtung
 10
0.00000000000002
 20
2.50000000000001
 30
0.0
  0
INSERT
  5
84
330
81
100
AcDbEntity
  8
0
100
AcDbBlockReference
  2
0522_1E_Schraubventil_3-23
 10
0.00000000000003
 20
12.25
 30
0.0
  0
INSERT
  5
85
330
81
100
AcDbEntity
  8
0
100
AcDbBlockReference
  2
Bgr_HL522
 10
77.22152210845961
 20
-78.39156528332927
 30
0.0
  0
DIMENSION
  5
201
330
81
100
AcDbEntity
  8
1
100
AcDbDimension
  2
*D12
 10
75.57221780686689
 20
4.0
 30
0.0
 11
70.07221780686689
 21
37.9421502420565
 31
0.0
 70
    32
  1
6
 71
     5
 42
-1.0
 53
-89.99999999999987
  3
ME10_DIM_10
100
AcDbAlignedDimension
 13
56.00000000000003
 23
20.0
 33
0.0
 14
55.00000000000011
 24
4.0
 34
0.0
 50
-89.99999999999987
100
AcDbRotatedDimension
  0
DIMENSION
  5
20C
330
81
100
AcDbEntity
  8
1
100
AcDbDimension
  2
*D13
 10
222.163991511221
 20
-19.97500653990977
 30
0.0
 11
216.663991511221
 21
-43.9532942245899
 31
0.0
 70
    32
  1
<>
 71
     5
 42
-1.0
 53
90.0
  3
ME10_DIM_11
100
AcDbAlignedDimension
 13
201.785521321048
 23
-69.97500653990977
 33
0.0
 14
201.785521321048
 24
-19.97500653990977
 34
0.0
 50
90.0
100
AcDbRotatedDimension
  0
DIMENSION
  5
218
330
81
100
AcDbEntity
  8
1
100
AcDbDimension
  2
*D14
 10
140.208119357606
 20
-29.97500653990976
 30
0.0
 11
134.708119357606
 21
-13.1378862948309
 31
0.0
 70
    32
  1
<>
 71
     5
 42
-1.0
 53
90.0
  3
ME10_DIM_12
100
AcDbAlignedDimension
 13
151.2855213210481
 23
-69.97500653990977
 33
0.0
 14
150.2855213210481
 24
-29.97500653990976
 34
0.0
 50
90.0
100
AcDbRotatedDimension
  0
DIMENSION
  5
223
330
81
100
AcDbEntity
  8
1
100
AcDbDimension
  2
*D15
 10
61.99500653991197
 20
-203.1530442169172
 30
0.0
 11
29.41708259250893
 21
-197.6530442169172
 31
0.0
 70
    32
  1
<>
 71
     5
 42
-1.0
 53
0.00013888888889
  3
ME10_DIM_13
100
AcDbAlignedDimension
 13
0.0000000000002
 23
-79.76044499172637
 33
0.0
 14
61.99500653991196
 24
-193.1530442169172
 34
0.0
100
AcDbRotatedDimension
  0
DIMENSION
  5
22E
330
81
100
AcDbEntity
  8
1
100
AcDbDimension
  2
*D16
 10
-56.65297197665216
 20
52.9768121397382
 30
0.0
 11
2.33429641245045
 21
58.4768121397382
 31
0.0
 70
    33
  1
<>
 71
     5
 42
-1.0
 53
0.00013888888889
  3
ME10_DIM_14
100
AcDbAlignedDimension
 13
56.65297197665164
 23
28.0620033713775
 33
0.0
 14
-56.65297197665214
 24
28.0620033713775
 34
0.0
  0
DIMENSION
  5
239
330
81
100
AcDbEntity
  8
1
100
AcDbDimension
  2
*D17
 10
205.285521321048
 20
-83.5469370404935
 30
0.0
 11
177.6529963661
 21
-78.0469370404935
 31
0.0
 70
    32
  1
<>
 71
     5
 42
-1.0
 53
0.00013888888889
  3
ME10_DIM_15
100
AcDbAlignedDimension
 13
152.2855213210481
 23
-53.45500653990973
 33
0.0
 14
205.285521321048
 24
-69.03718436640082
 34
0.0
 50
-0.00000000000001
100
AcDbRotatedDimension
  0
DIMENSION
  5
244
330
81
100
AcDbEntity
  8
1
100
AcDbDimension
  2
*D18
 10
205.285521321048
 20
-111.411933572722
 30
0.0
 11
118.972591904112
 21
-105.911933572722
 31
0.0
 70
    32
  1
<>
 71
     5
 42
-1.0
 53
0.00013888888889
  3
ME10_DIM_16
100
AcDbAlignedDimension
 13
0.0000000000002
 23
-79.76044499172637
 33
0.0
 14
205.285521321048
 24
-69.03718436640082
 34
0.0
 50
-0.00000000000001
100
AcDbRotatedDimension
  0
DIMENSION
  5
24F
330
81
100
AcDbEntity
  8
1
100
AcDbDimension
  2
*D19
 10
205.285521321048
 20
-97.9711705395296
 30
0.0
 11
143.559353550196
 21
-92.4711705395296
 31
0.0
 70
    32
  1
<>
 71
     5
 42
-1.0
 53
0.00013888888889
  3
ME10_DIM_17
100
AcDbAlignedDimension
 13
95.23219943089352
 23
-28.91763599070395
 33
0.0
 14
205.285521321048
 24
-69.03718436640082
 34
0.0
 50
-0.00000000000001
100
AcDbRotatedDimension
  0
DIMENSION
  5
25A
330
81
100
AcDbEntity
  8
1
100
AcDbDimension
  2
*D20
 10
-77.4666770823934
 20
4.0
 30
0.0
 11
-82.9666770823934
 21
-38.05247142952984
 31
0.0
 70
    32
  1
<>
 71
     5
 42
-1.0
 53
-89.99999999999987
  3
ME10_DIM_18
100
AcDbAlignedDimension
 13
-40.99999999999997
 23
-78.99999998235442
 33
0.0
 14
-55.00000000000007
 24
4.0
 34
0.0
 50
-89.99999999999987
100
AcDbRotatedDimension
  0
DIMENSION
  5
265
330
81
100
AcDbEntity
  8
1
100
AcDbDimension
  2
*D21
 10
-64.99999999999997
 20
4.0
 30
0.0
 11
-70.49999999999997
 21
-21.66129699880713
 31
0.0
 70
    32
  1
<>
 71
     5
 42
-1.0
 53
-89.99999999999987
  3
ME10_DIM_19
100
AcDbAlignedDimension
 13
71.5636215475345
 23
-49.97500653990642
 33
0.0
 14
-55.00000000000007
 24
4.0
 34
0.0
 50
-89.99999999999987
100
AcDbRotatedDimension
  0
DIMENSION
  5
270
330
81
100
AcDbEntity
  8
1
100
AcDbDimension
  2
*D22
 10
-90.25179313835704
 20
4.0
 30
0.0
 11
-95.75179313835704
 21
-93.45464100537342
 31
0.0
 70
    32
  1
<>
 71
     5
 42
-1.0
 53
-89.99999999999987
  3
ME10_DIM_20
100
AcDbAlignedDimension
 13
37.93282871342088
 23
-188.9955213210459
 33
0.0
 14
-55.00000000000007
 24
4.0
 34
0.0
 50
-89.99999999999987
100
AcDbRotatedDimension
  0
ENDBLK
  5
87
330
81
100
AcDbEntity
  8
0
100
AcDbBlockEnd
  0
BLOCK
  5
89
330
88
100
AcDbEntity
  8
0
100
AcDbBlockBegin
  2
GV_Einsatz-Rohr
 70
     0
 10
0.00000000000003
 20
22.50000000000001
 30
0.0
  3
GV_Einsatz-Rohr
  1

  0
LINE
  5
271
330
88
100
AcDbEntity
  8
0
  6
Continuous
 62
     7
100
AcDbLine
 10
-0.99999999999993
 20
25.00000000000001
 30
0.0
 11
-3.49999999999997
 21
25.00000000000001
 31
0.0
  0
LINE
  5
272
330
88
100
AcDbEntity
  8
0
  6
Continuous
 62
     7
100
AcDbLine
 10
-3.49999999999997
 20
25.00000000000001
 30
0.0
 11
-3.49999999999997
 21
21.00000000000001
 31
0.0
  0
LINE
  5
273
330
88
100
AcDbEntity
  8
0
  6
Continuous
 62
     7
100
AcDbLine
 10
-2.99999999999997
 20
21.00000000000001
 30
0.0
 11
-3.49999999999997
 21
21.00000000000001
 31
0.0
  0
LINE
  5
274
330
88
100
AcDbEntity
  8
0
  6
Continuous
 62
     7
100
AcDbLine
 10
3.50000000000003
 20
25.00000000000001
 30
0.0
 11
3.50000000000003
 21
21.00000000000001
 31
0.0
  0
LINE
  5
275
330
88
100
AcDbEntity
  8
0
  6
Continuous
 62
     7
100
AcDbLine
 10
3.50000000000003
 20
25.00000000000001
 30
0.0
 11
1.00000000000006
 21
25.00000000000001
 31
0.0
  0
LINE
  5
276
330
88
100
AcDbEntity
  8
0
  6
Continuous
 62
     7
100
AcDbLine
 10
3.50000000000003
 20
21.00000000000001
 30
0.0
 11
3.00000000000003
 21
21.00000000000001
 31
0.0
  0
ARC
  5
277
330
88
100
AcDbEntity
  8
0
  6
Continuous
 62
     7
100
AcDbCircle
 10
-3.49999999999997
 20
11.00000000000001
 30
0.0
 40
14.0
100
AcDbArc
 50
90.0
 51
139.9947991151398
  0
ARC
  5
278
330
88
100
AcDbEntity
  8
0
  6
Continuous
 62
     7
100
AcDbCircle
 10
3.50000000000003
 20
11.00000000000001
 30
0.0
 40
9.999999999999996
100
AcDbArc
 50
64.1580672368329
 51
90.0
  0
ARC
  5
279
330
88
100
AcDbEntity
  8
0
  6
Continuous
 62
     7
100
AcDbCircle
 10
3.50000000000003
 20
11.00000000000001
 30
0.0
 40
14.0
100
AcDbArc
 50
40.00520088486022
 51
90.0
  0
ARC
  5
27A
330
88
100
AcDbEntity
  8
0
  6
Continuous
 62
     7
100
AcDbCircle
 10
-3.49999999999997
 20
11.00000000000001
 30
0.0
 40
10.0
100
AcDbArc
 50
90.0
 51
115.8419327631672
  0
SPLINE
  5
27B
330
88
100
AcDbEntity
  8
0
  6
Continuous
 62
     7
100
AcDbSpline
210
0.0
220
0.0
230
1.0
 70
     8
 71
     3
 72
    22
 73
    18
 74
    16
 42
0.0000000001
 43
0.0000000001
 44
0.00000001
 40
0.0
 40
0.0
 40
0.0
 40
0.0
 40
0.0837055222974651
 40
0.1694993175204323
 40
0.3854921650880769
 40
0.6171952569362483
 40
0.8663526497386922
 40
1.134661656378659
 40
1.423777938917033
 40
1.59095273834213
 40
1.765626650156722
 40
1.88171929748463
 40
2.001183297222739
 40
2.111536902297948
 40
2.224795985754809
 40
2.232483704631843
 40
2.240171423508871
 40
2.240171423508871
 40
2.240171423508871
 40
2.240171423508871
 10
-1.000000000000043
 20
22.00000000000016
 30
0.0
 10
-1.026422890249551
 20
21.99103413307562
 30
0.0
 10
-1.079927865086133
 20
21.97287872011147
 30
0.0
 10
-1.200669064238191
 20
21.92888624905681
 30
0.0
 10
-1.366062966893611
 20
21.86343567393984
 30
0.0
 10
-1.578907587879273
 20
21.77030892721999
 30
0.0
 10
-1.80456662930198
 20
21.66327488666518
 30
0.0
 10
-2.044378747575584
 20
21.54165836702231
 30
0.0
 10
-2.257287957954386
 20
21.42756674054283
 30
0.0
 10
-2.441198732668848
 20
21.32552209319993
 30
0.0
 10
-2.57395693253498
 20
21.25017517352576
 30
0.0
 10
-2.69239409103517
 20
21.18182621371927
 30
0.0
 10
-2.791951641923945
 20
21.12366005856621
 30
0.0
 10
-2.8904162526807
 20
21.06549859526324
 30
0.0
 10
-2.956630513759656
 20
21.02599994305854
 30
0.0
 10
-2.9934075241031
 20
21.00395477998605
 30
0.0
 10
-2.997802508034348
 20
21.00131825999535
 30
0.0
 10
-2.999999999999972
 20
21.00000000000001
 30
0.0
 11
-1.000000000000043
 21
22.00000000000016
 31
0.0
 11
-1.079167323224715
 21
21.97281269788076
 31
0.0
 11
-1.159811199190528
 21
21.94353573478738
 31
0.0
 11
-1.36071455417216
 21
21.86422147278171
 31
0.0
 11
-1.573104754124719
 21
21.77161085926407
 31
0.0
 11
-1.798330825315564
 21
21.6650621697177
 31
0.0
 11
-2.037741794012053
 21
21.54393367962584
 31
0.0
 11
-2.292686686481545
 21
21.40758366447172
 31
0.0
 11
-2.438884309449191
 21
21.32650550094151
 31
0.0
 11
-2.590814540281798
 21
21.24031860850558
 31
0.0
 11
-2.69136951409728
 21
21.18229964604873
 31
0.0
 11
-2.79452352178096
 21
21.12204271340009
 31
0.0
 11
-2.889542331853917
 21
21.06592369803618
 31
0.0
 11
-2.986813516720431
 21
21.00790700578169
 31
0.0
 11
-2.993407298697843
 21
21.00395440400986
 31
0.0
 11
-2.999999999999972
 21
21.00000000000001
 31
0.0
  0
SPLINE
  5
27C
330
88
100
AcDbEntity
  8
0
  6
Continuous
 62
     7
100
AcDbSpline
210
0.0
220
0.0
230
1.0
 70
     8
 71
     3
 72
    22
 73
    18
 74
    16
 42
0.0000000001
 43
0.0000000001
 44
0.00000001
 40
0.0
 40
0.0
 40
0.0
 40
0.0
 40
0.0075169975956909
 40
0.0150339951913868
 40
0.1276989435136111
 40
0.2374895206552566
 40
0.3573240762230115
 40
0.4737675565131452
 40
0.6483989069925368
 40
0.8155347443285534
 40
1.104288188534518
 40
1.372287373844985
 40
1.621180812257527
 40
1.852658363683609
 40
2.068456292103001
 40
2.155385927323126
 40
2.24017161375749
 40
2.24017161375749
 40
2.24017161375749
 40
2.24017161375749
 10
3.000000000000028
 20
21.00000000000001
 30
0.0
 10
2.99785131001069
 20
21.00128898911086
 30
0.0
 10
2.993553930032011
 20
21.00386696733255
 30
0.0
 10
2.957044609828911
 20
21.02575213565374
 30
0.0
 10
2.89121138935589
 20
21.06502554442405
 30
0.0
 10
2.792975348484372
 20
21.12305840210185
 30
0.0
 10
2.693375557575102
 20
21.18125690519807
 30
0.0
 10
2.574745526459821
 20
21.24972436254489
 30
0.0
 10
2.441912425345458
 20
21.32512117046921
 30
0.0
 10
2.258136314946352
 20
21.42710321957792
 30
0.0
 10
2.045444600267888
 20
21.54109830362561
 30
0.0
 10
1.805926020065553
 20
21.66260304721925
 30
0.0
 10
1.580527900780078
 20
21.76956494187665
 30
0.0
 10
1.367917423532417
 20
21.86265715530862
 30
0.0
 10
1.202325703824429
 20
21.92825501145831
 30
0.0
 10
1.080966500553426
 20
21.97252003942609
 30
0.0
 10
1.026763248919619
 20
21.99091657636043
 30
0.0
 10
1.000000000000028
 20
22.00000000000001
 30
0.0
 11
3.000000000000028
 21
21.00000000000001
 31
0.0
 11
2.993553714561906
 21
21.00386660793254
 31
0.0
 11
2.98710639606287
 21
21.00773149305705
 31
0.0
 11
2.890346852319585
 21
21.06544614695916
 31
0.0
 11
2.795815564770493
 21
21.12128346873776
 31
0.0
 11
2.692345040251462
 21
21.18173321037392
 31
0.0
 11
2.591488811239088
 21
21.23993205204179
 31
0.0
 11
2.439599242591875
 21
21.32610436491791
 31
0.0
 11
2.293439800670839
 21
21.40717103907778
 31
0.0
 11
2.038825209952243
 21
21.5433692833176
 31
0.0
 11
1.799706005305259
 21
21.66438816323337
 31
0.0
 11
1.57473888287321
 21
21.77086697572422
 31
0.0
 11
1.362580538799424
 21
21.86344501768927
 31
0.0
 11
1.161887669227227
 21
21.94276158602766
 31
0.0
 11
1.080185787057297
 21
21.9724527282993
 31
0.0
 11
1.000000000000028
 21
22.00000000000001
 31
0.0
  0
ENDBLK
  5
8A
330
88
100
AcDbEntity
  8
0
100
AcDbBlockEnd
  0
BLOCK
  5
8C
330
8B
100
AcDbEntity
  8
0
100
AcDbBlockBegin
  2
11073-Kappenhalter-520-522-verpresst
 70
     0
 10
-0.00000000000025
 20
23.4063671470997
 30
0.0
  3
11073-Kappenhalter-520-522-verpresst
  1

  0
LINE
  5
27D
330
8B
100
AcDbEntity
  8
0
  6
Continuous
 62
     7
100
AcDbLine
 10
53.05877425286624
 20
20.45298164814321
 30
0.0
 11
54.41075584673045
 21
26.81273429419929
 31
0.0
  0
LINE
  5
27E
330
8B
100
AcDbEntity
  8
0
  6
Continuous
 62
     7
100
AcDbLine
 10
-53.05877425286604
 20
20.4529816481396
 30
0.0
 11
-54.41075584673095
 21
26.81273429419929
 31
0.0
  0
LINE
  5
27F
330
8B
100
AcDbEntity
  8
0
  6
Continuous
 62
     3
100
AcDbLine
 10
-52.76533163557596
 20
20.5101270565664
 30
0.0
 11
-54.10516498801476
 21
26.81273429419929
 31
0.0
  0
LINE
  5
280
330
8B
100
AcDbEntity
  8
0
  6
Continuous
 62
     3
100
AcDbLine
 10
-38.10115215395726
 20
20.45298164814321
 30
0.0
 11
-39.13564335696384
 21
26.81273429419929
 31
0.0
  0
LINE
  5
281
330
8B
100
AcDbEntity
  8
0
  6
Continuous
 62
     7
100
AcDbLine
 10
-38.18976502926515
 20
20.4671968542857
 30
0.0
 11
-39.22194394726864
 21
26.81273429419929
 31
0.0
  0
LINE
  5
282
330
8B
100
AcDbEntity
  8
0
  6
Continuous
 62
     3
100
AcDbLine
 10
-36.93528599733955
 20
20.45298164814321
 30
0.0
 11
-38.10115215395726
 21
20.45298164814321
 31
0.0
  0
LINE
  5
283
330
8B
100
AcDbEntity
  8
0
  6
Continuous
 62
     3
100
AcDbLine
 10
-36.93528599733955
 20
20.45298164814321
 30
0.0
 11
-37.81278550045445
 21
26.81273429419929
 31
0.0
  0
LINE
  5
284
330
8B
100
AcDbEntity
  8
0
  6
Continuous
 62
     3
100
AcDbLine
 10
52.76533163557535
 20
20.5101270565664
 30
0.0
 11
54.10516498801425
 21
26.81273429419929
 31
0.0
  0
LINE
  5
285
330
8B
100
AcDbEntity
  8
0
  6
Continuous
 62
     3
100
AcDbLine
 10
38.10115215395655
 20
20.45298164814321
 30
0.0
 11
39.13564335696324
 21
26.81273429419929
 31
0.0
  0
LINE
  5
286
330
8B
100
AcDbEntity
  8
0
  6
Continuous
 62
     3
100
AcDbLine
 10
36.93528599733905
 20
20.45298164814321
 30
0.0
 11
37.81278550045394
 21
26.81273429419929
 31
0.0
  0
LINE
  5
287
330
8B
100
AcDbEntity
  8
0
  6
Continuous
 62
     3
100
AcDbLine
 10
36.51569100794704
 20
20.5101270565664
 30
0.0
 11
37.38530572994524
 21
26.81273429419929
 31
0.0
  0
LINE
  5
288
330
8B
100
AcDbEntity
  8
0
  6
Continuous
 62
     3
100
AcDbLine
 10
38.10115215395655
 20
20.45298164814321
 30
0.0
 11
36.93528599733905
 21
20.45298164814321
 31
0.0
  0
LINE
  5
289
330
8B
100
AcDbEntity
  8
0
  6
Continuous
 62
     7
100
AcDbLine
 10
38.18976502926465
 20
20.4671968542857
 30
0.0
 11
39.22194394726824
 21
26.81273429419929
 31
0.0
  0
LINE
  5
28A
330
8B
100
AcDbEntity
  8
0
  6
Continuous
 62
     3
100
AcDbLine
 10
-0.82439186530044
 20
20.45298164814321
 30
0.0
 11
-0.93540176088396
 21
26.81273429419929
 31
0.0
  0
LINE
  5
28B
330
8B
100
AcDbEntity
  8
0
  6
Continuous
 62
     3
100
AcDbLine
 10
0.82439186529996
 20
20.45298164814321
 30
0.0
 11
0.93540176088345
 21
26.81273429419929
 31
0.0
  0
LINE
  5
28C
330
8B
100
AcDbEntity
  8
0
  6
Continuous
 62
     7
100
AcDbLine
 10
1.24999999999975
 20
26.81273429419929
 30
0.0
 11
1.24999999999975
 21
20.0
 31
0.0
  0
LINE
  5
28D
330
8B
100
AcDbEntity
  8
0
  6
Continuous
 62
     7
100
AcDbLine
 10
1.23435859126096
 20
26.81273429419929
 30
0.0
 11
1.12434617286175
 21
20.51012706520478
 31
0.0
  0
LINE
  5
28E
330
8B
100
AcDbEntity
  8
0
  6
Continuous
 62
     7
100
AcDbLine
 10
1.12434617286175
 20
20.51012706520478
 30
0.0
 11
1.11544187181696
 21
20.0
 31
0.0
  0
LINE
  5
28F
330
8B
100
AcDbEntity
  8
0
  6
Continuous
 62
     7
100
AcDbLine
 10
-1.23435859126144
 20
26.81273429419929
 30
0.0
 11
-1.12434617271154
 21
20.5101270565664
 31
0.0
  0
LINE
  5
290
330
8B
100
AcDbEntity
  8
0
  6
Continuous
 62
     7
100
AcDbLine
 10
-1.12434617271154
 20
20.5101270565664
 30
0.0
 11
-1.11544187181746
 21
20.0
 31
0.0
  0
LINE
  5
291
330
8B
100
AcDbEntity
  8
0
  6
Continuous
 62
     7
100
AcDbLine
 10
-1.25000000000025
 20
26.81273429419929
 30
0.0
 11
-1.25000000000025
 21
20.0
 31
0.0
  0
LINE
  5
292
330
8B
100
AcDbEntity
  8
0
  6
Continuous
 62
     3
100
AcDbLine
 10
0.82439186529996
 20
20.45298164814321
 30
0.0
 11
-0.82439186530044
 21
20.45298164814321
 31
0.0
  0
LINE
  5
293
330
8B
100
AcDbEntity
  8
0
  6
Continuous
 62
     3
100
AcDbLine
 10
-36.51569100794757
 20
20.5101270565664
 30
0.0
 11
-37.38530572994574
 21
26.81273429419929
 31
0.0
  0
ARC
  5
294
330
8B
100
AcDbEntity
  8
0
  6
Continuous
 62
     3
100
AcDbCircle
 10
-52.08063099978915
 20
20.65568297122201
 30
0.0
 40
0.7000010606692639
100
AcDbArc
 50
192.0014652802554
 51
249.502675167583
  0
ARC
  5
295
330
8B
100
AcDbEntity
  8
0
  6
Continuous
 62
     7
100
AcDbCircle
 10
-52.08063210862875
 20
20.66091900809889
 30
0.0
 40
0.9999999999999807
100
AcDbArc
 50
192.0015035947282
 51
221.3699992858527
  0
ARC
  5
296
330
8B
100
AcDbEntity
  8
0
  6
Continuous
 62
     3
100
AcDbCircle
 10
52.08063099978865
 20
20.65568297122201
 30
0.0
 40
0.7000010606692421
100
AcDbArc
 50
290.4973248324164
 51
347.9985347197427
  0
ARC
  5
297
330
8B
100
AcDbEntity
  8
0
  6
Continuous
 62
     7
100
AcDbCircle
 10
52.08063210862825
 20
20.66091900809889
 30
0.0
 40
0.9999999999999403
100
AcDbArc
 50
318.6300007141459
 51
347.9984964054826
  0
SPLINE
  5
298
330
8B
100
AcDbEntity
  8
0
  6
Continuous
 62
     3
100
AcDbSpline
210
0.0
220
0.0
230
1.0
 70
     8
 71
     3
 72
    26
 73
    22
 74
    20
 42
0.0000000001
 43
0.0000000001
 44
0.00000001
 40
0.0
 40
0.0
 40
0.0
 40
0.0
 40
0.0360318022955217
 40
0.0730382537749419
 40
0.1101303876903977
 40
0.1373933401480618
 40
0.163661934518599
 40
0.1884910196956833
 40
0.211435486156175
 40
0.2281903064121263
 40
0.2433102718050003
 40
0.2567059599663161
 40
0.2682880147777958
 40
0.2779672116695564
 40
0.2845961078050071
 40
0.2899249437267949
 40
0.2939836793332746
 40
0.296220797174529
 40
0.2977935457648942
 40
0.2982273025216416
 40
0.2990896459662866
 40
0.2990896459662866
 40
0.2990896459662866
 40
0.2990896459662866
 10
-52.76533163557596
 20
20.5101270565664
 30
0.0
 10
-52.77708138018775
 20
20.50763745115972
 30
0.0
 10
-52.80089869639382
 20
20.50259089728486
 30
0.0
 10
-52.83683162880902
 20
20.49507684282896
 30
0.0
 10
-52.86991806793242
 20
20.48823118068962
 30
0.0
 10
-52.89951392104494
 20
20.48218108241011
 30
0.0
 10
-52.92511613793199
 20
20.47700487964723
 30
0.0
 10
-52.94931916618241
 20
20.47217244520538
 30
0.0
 10
-52.97042421759947
 20
20.46802090438955
 30
0.0
 10
-52.9883652368746
 20
20.46455298945668
 30
0.0
 10
-53.00319075190303
 20
20.46173906935585
 30
0.0
 10
-53.0163321880665
 20
20.45929965407363
 30
0.0
 10
-53.02770101108611
 20
20.45724822291543
 30
0.0
 10
-53.0368610523414
 20
20.45566013949741
 30
0.0
 10
-53.04397833936697
 20
20.45449062733558
 30
0.0
 10
-53.04925638411054
 20
20.45369126438819
 30
0.0
 10
-53.05309645107272
 20
20.45315914865429
 30
0.0
 10
-53.05570470090438
 20
20.45289961649021
 30
0.0
 10
-53.05711584159495
 20
20.45276053055881
 30
0.0
 10
-53.05807364707496
 20
20.45280744090876
 30
0.0
 10
-53.05849434617848
 20
20.45291204870215
 30
0.0
 10
-53.05877425286604
 20
20.4529816481396
 30
0.0
 11
-52.76533163557596
 21
20.5101270565664
 31
0.0
 11
-52.8005841142961
 21
20.50267363314158
 31
0.0
 11
-52.83680633008785
 21
20.49509547147569
 31
0.0
 11
-52.87312992252126
 21
20.48758394492418
 31
0.0
 11
-52.89984064739082
 21
20.48212448033036
 31
0.0
 11
-52.92558860346468
 21
20.47692046186166
 31
0.0
 11
-52.94993759395152
 21
20.47206143593017
 31
0.0
 11
-52.97245142206006
 21
20.46763694894798
 31
0.0
 11
-52.9889021492983
 21
20.4644592807554
 31
0.0
 11
-53.00375741801879
 21
20.46164248386464
 31
0.0
 11
-53.01692876033397
 21
20.45920113117982
 31
0.0
 11
-53.0283277083563
 21
20.45714979560505
 31
0.0
 11
-53.03786579419824
 21
20.45550305004448
 31
0.0
 11
-53.04440817709402
 21
20.4544355810662
 31
0.0
 11
-53.04967734673496
 21
20.45364038072897
 31
0.0
 11
-53.05370117795945
 21
20.45310923385648
 31
0.0
 11
-53.0559263108394
 21
20.45287797663557
 31
0.0
 11
-53.05749623492184
 21
20.45278376143588
 31
0.0
 11
-53.05792921091334
 21
20.45280977517867
 31
0.0
 11
-53.05877425286604
 21
20.4529816481396
 31
0.0
  0
SPLINE
  5
299
330
8B
100
AcDbEntity
  8
0
  6
Continuous
 62
     3
100
AcDbSpline
210
0.0
220
0.0
230
1.0
 70
     8
 71
     3
 72
    17
 73
    13
 74
    11
 42
0.0000000001
 43
0.0000000001
 44
0.00000001
 40
0.0
 40
0.0
 40
0.0
 40
0.0
 40
0.0178874325644364
 40
0.0345108452724824
 40
0.049525882420151
 40
0.0626065273056147
 40
0.0734747557228299
 40
0.0819557254299451
 40
0.0863222051047876
 40
0.0897578354796007
 40
0.0912014886991363
 40
0.0925672579800093
 40
0.0925672579800093
 40
0.0925672579800093
 40
0.0925672579800093
 10
-38.10115215395726
 20
20.45298164814321
 30
0.0
 10
-38.10711408126161
 20
20.45287943286361
 30
0.0
 10
-38.11861663479942
 20
20.45268222537249
 30
0.0
 10
-38.13512668689509
 20
20.4529781932543
 30
0.0
 10
-38.15001462695366
 20
20.45378634928548
 30
0.0
 10
-38.16294046150965
 20
20.45515407659972
 30
0.0
 10
-38.17358405079783
 20
20.45709309264876
 30
0.0
 10
-38.1811859748608
 20
20.45940469570115
 30
0.0
 10
-38.18602068452441
 20
20.46193394273499
 30
0.0
 10
-38.18835468809637
 20
20.46402764181908
 30
0.0
 10
-38.18943852645452
 20
20.46583678601025
 30
0.0
 10
-38.18965822518711
 20
20.46675195508878
 30
0.0
 10
-38.18976502926515
 20
20.4671968542857
 30
0.0
 11
-38.10115215395726
 21
20.45298164814321
 31
0.0
 11
-38.11903848774595
 21
20.45278338733861
 31
0.0
 11
-38.13565900848266
 21
20.45309345265861
 31
0.0
 11
-38.15064913704397
 21
20.45395796770262
 31
0.0
 11
-38.16364914895326
 21
20.4554081266518
 31
0.0
 11
-38.17432080091851
 21
20.45746585191563
 31
0.0
 11
-38.18237256843847
 21
20.46012966252781
 31
0.0
 11
-38.18618838240329
 21
20.46225232795992
 31
0.0
 11
-38.18866670220936
 21
20.46463171590878
 31
0.0
 11
-38.18938130851532
 21
20.46588609720877
 31
0.0
 11
-38.18976502926515
 21
20.4671968542857
 31
0.0
  0
SPLINE
  5
29A
330
8B
100
AcDbEntity
  8
0
  6
Continuous
 62
     7
100
AcDbSpline
210
0.0
220
0.0
230
1.0
 70
     8
 71
     3
 72
    11
 73
     7
 74
     5
 42
0.0000000001
 43
0.0000000001
 44
0.00000001
 40
0.0
 40
0.0
 40
0.0
 40
0.0
 40
0.1588303877601643
 40
0.3835917898253434
 40
0.4468493482086419
 40
0.5057500453125167
 40
0.5057500453125167
 40
0.5057500453125167
 40
0.5057500453125167
 10
-38.00580645781534
 20
20.0
 30
0.0
 10
-38.03398413190494
 20
20.04493123207504
 30
0.0
 10
-38.10203612491193
 20
20.15344479785912
 30
0.0
 10
-38.15208642894051
 20
20.29536289842913
 30
0.0
 10
-38.17942440765034
 20
20.40771338313142
 30
0.0
 10
-38.18640109827537
 20
20.44784615183765
 30
0.0
 10
-38.18976502926515
 20
20.4671968542857
 30
0.0
 11
-38.00580645781534
 21
20.0
 31
0.0
 11
-38.08603840463787
 21
20.1370763538511
 31
0.0
 11
-38.16435193603834
 21
20.34775306983531
 31
0.0
 11
-38.17905723670135
 21
20.40927764074017
 31
0.0
 11
-38.18976502926515
 21
20.4671968542857
 31
0.0
  0
SPLINE
  5
29B
330
8B
100
AcDbEntity
  8
0
  6
Continuous
 62
     3
100
AcDbSpline
210
0.0
220
0.0
230
1.0
 70
     8
 71
     3
 72
    11
 73
     7
 74
     5
 42
0.0000000001
 43
0.0000000001
 44
0.00000001
 40
0.0
 40
0.0
 40
0.0
 40
0.0
 40
0.0970278107757463
 40
0.1770286346686222
 40
0.3507123288576558
 40
0.4850863164297243
 40
0.4850863164297243
 40
0.4850863164297243
 40
0.4850863164297243
 10
-37.93624142331214
 20
20.0
 30
0.0
 10
-37.95275551074792
 20
20.02784066540955
 30
0.0
 10
-37.98288570051704
 20
20.07863635941022
 30
0.0
 10
-38.03139610882253
 20
20.18512508849487
 30
0.0
 10
-38.07386700704394
 20
20.30793017484749
 30
0.0
 10
-38.0928651929498
 20
20.40892706023515
 30
0.0
 10
-38.10115215395726
 20
20.45298164814321
 30
0.0
 11
-37.93624142331214
 21
20.0
 31
0.0
 11
-37.98408831166756
 21
20.08441013765323
 31
0.0
 11
-38.01770944566246
 21
20.15700318947251
 31
0.0
 11
-38.07349108241213
 21
20.32148551262207
 31
0.0
 11
-38.10115215395726
 21
20.45298164814321
 31
0.0
  0
SPLINE
  5
29C
330
8B
100
AcDbEntity
  8
0
  6
Continuous
 62
     3
100
AcDbSpline
210
0.0
220
0.0
230
1.0
 70
     8
 71
     3
 72
    16
 73
    12
 74
    10
 42
0.0000000001
 43
0.0000000001
 44
0.00000001
 40
0.0
 40
0.0
 40
0.0
 40
0.0
 40
0.0130487725644568
 40
0.0250887525248594
 40
0.0709652278599787
 40
0.1303550667242774
 40
0.2032015759687953
 40
0.313420726631104
 40
0.4008208235220966
 40
0.5066945059008161
 40
0.6153375137477295
 40
0.6153375137477295
 40
0.6153375137477295
 40
0.6153375137477295
 10
36.21115416901195
 20
20.0
 30
0.0
 10
36.21497523839331
 20
20.00207892218356
 30
0.0
 10
36.22232197262563
 20
20.00607604635169
 30
0.0
 10
36.24265776931121
 20
20.01816696813379
 30
0.0
 10
36.27495035222043
 20
20.04034571527033
 30
0.0
 10
36.31984948784727
 20
20.07942085095311
 30
0.0
 10
36.37375183491581
 20
20.1399310260909
 30
0.0
 10
36.42300561334676
 20
20.21603433991411
 30
0.0
 10
36.46559570282486
 20
20.30795732536874
 30
0.0
 10
36.49746242226346
 20
20.40383763004785
 30
0.0
 10
36.50956274260557
 20
20.4743936310552
 30
0.0
 10
36.51569100794704
 20
20.5101270565664
 30
0.0
 11
36.21115416901195
 21
20.0
 31
0.0
 11
36.22257482588299
 21
20.00631181923639
 31
0.0
 11
36.23293336038574
 21
20.0124487468392
 31
0.0
 11
36.27076644881965
 21
20.03839693384188
 31
0.0
 11
36.3156633969312
 21
20.07727388087475
 31
0.0
 11
36.36427758132444
 21
20.1315258392255
 31
0.0
 11
36.42459314002923
 21
20.22377709694511
 31
0.0
 11
36.46162843622555
 21
20.30294251725098
 31
0.0
 11
36.49460235652096
 21
20.40355045531146
 31
0.0
 11
36.51569100794704
 21
20.5101270565664
 31
0.0
  0
SPLINE
  5
29D
330
8B
100
AcDbEntity
  8
0
  6
Continuous
 62
     7
100
AcDbSpline
210
0.0
220
0.0
230
1.0
 70
     8
 71
     3
 72
    11
 73
     7
 74
     5
 42
0.0000000001
 43
0.0000000001
 44
0.00000001
 40
0.0
 40
0.0
 40
0.0
 40
0.0
 40
0.058900696878019
 40
0.1221582549877633
 40
0.3469196574289479
 40
0.5057500453103985
 40
0.5057500453103985
 40
0.5057500453103985
 40
0.5057500453103985
 10
38.18976502926465
 20
20.4671968542857
 30
0.0
 10
38.18640109828836
 20
20.44784615191179
 30
0.0
 10
38.17942440769314
 20
20.40771338336952
 30
0.0
 10
38.15208642903237
 20
20.29536289869817
 30
0.0
 10
38.10203612501448
 20
20.15344479803856
 30
0.0
 10
38.0339841319243
 20
20.04493123211066
 30
0.0
 10
38.00580645781524
 20
20.0
 30
0.0
 11
38.18976502926465
 21
20.4671968542857
 31
0.0
 11
38.1790572367465
 21
20.40927764096141
 31
0.0
 11
38.16435193616675
 21
20.34775307031791
 31
0.0
 11
38.0860384046907
 21
20.13707635396065
 31
0.0
 11
38.00580645781524
 21
20.0
 31
0.0
  0
SPLINE
  5
29E
330
8B
100
AcDbEntity
  8
0
  6
Continuous
 62
     3
100
AcDbSpline
210
0.0
220
0.0
230
1.0
 70
     8
 71
     3
 72
    11
 73
     7
 74
     5
 42
0.0000000001
 43
0.0000000001
 44
0.00000001
 40
0.0
 40
0.0
 40
0.0
 40
0.0
 40
0.0817829000332641
 40
0.1770304067020547
 40
0.3291362026600358
 40
0.4851012245117151
 40
0.4851012245117151
 40
0.4851012245117151
 40
0.4851012245117151
 10
37.93624160425604
 20
20.0
 30
0.0
 10
37.95024753794489
 20
20.02340733205129
 30
0.0
 10
37.98056531997723
 20
20.07407574208768
 30
0.0
 10
38.02671255696999
 20
20.17377633436461
 30
0.0
 10
38.07192123949281
 20
20.30089783210903
 30
0.0
 10
38.09132748132694
 20
20.40186543326557
 30
0.0
 10
38.10115215395655
 20
20.45298164814321
 30
0.0
 11
37.93624160425604
 21
20.0
 31
0.0
 11
37.97708628129764
 21
20.07085305282921
 31
0.0
 11
38.01770944566185
 21
20.15700318947251
 31
0.0
 11
38.06780130681752
 21
20.30062414410648
 31
0.0
 11
38.10115215395655
 21
20.45298164814321
 31
0.0
  0
SPLINE
  5
29F
330
8B
100
AcDbEntity
  8
0
  6
Continuous
 62
     3
100
AcDbSpline
210
0.0
220
0.0
230
1.0
 70
     8
 71
     3
 72
    17
 73
    13
 74
    11
 42
0.0000000001
 43
0.0000000001
 44
0.00000001
 40
0.0
 40
0.0
 40
0.0
 40
0.0
 40
0.0013657692808034
 40
0.0028094225004531
 40
0.0062450528760547
 40
0.0106115325499957
 40
0.0190925022600426
 40
0.0299607306744138
 40
0.0430413755599238
 40
0.0580564127075258
 40
0.0746798254155892
 40
0.0925672579802101
 40
0.0925672579802101
 40
0.0925672579802101
 40
0.0925672579802101
 10
38.18976502926465
 20
20.4671968542857
 30
0.0
 10
38.18965822518659
 20
20.4667519550888
 30
0.0
 10
38.18943852645398
 20
20.46583678601028
 30
0.0
 10
38.18835468809567
 20
20.46402764181884
 30
0.0
 10
38.18602068452304
 20
20.46193394273545
 30
0.0
 10
38.18118597485921
 20
20.4594046957005
 30
0.0
 10
38.17358405079688
 20
20.45709309264616
 30
0.0
 10
38.16294046150799
 20
20.45515407660049
 30
0.0
 10
38.15001462695321
 20
20.45378634928518
 30
0.0
 10
38.13512668689451
 20
20.4529781932547
 30
0.0
 10
38.11861663479885
 20
20.45268222537242
 30
0.0
 10
38.10711408126096
 20
20.45287943286359
 30
0.0
 10
38.10115215395655
 20
20.45298164814321
 30
0.0
 11
38.18976502926465
 21
20.4671968542857
 31
0.0
 11
38.1893813085148
 21
20.46588609720884
 31
0.0
 11
38.18866670220875
 21
20.46463171590878
 31
0.0
 11
38.1861883824017
 21
20.46225232795981
 31
0.0
 11
38.18237256843784
 21
20.46012966252781
 31
0.0
 11
38.17432080091551
 21
20.45746585191347
 31
0.0
 11
38.16364914895274
 21
20.4554081266518
 31
0.0
 11
38.1506491370434
 21
20.45395796770265
 31
0.0
 11
38.13565900848215
 21
20.45309345265881
 31
0.0
 11
38.11903848774543
 21
20.45278338733863
 31
0.0
 11
38.10115215395655
 21
20.45298164814321
 31
0.0
  0
SPLINE
  5
2A0
330
8B
100
AcDbEntity
  8
0
  6
Continuous
 62
     3
100
AcDbSpline
210
0.0
220
0.0
230
1.0
 70
     8
 71
     3
 72
    15
 73
    11
 74
     9
 42
0.0000000001
 43
0.0000000001
 44
0.00000001
 40
0.0
 40
0.0
 40
0.0
 40
0.0
 40
0.0421137153688911
 40
0.0927573976962257
 40
0.1501898857409474
 40
0.2114405566078108
 40
0.2728273445212655
 40
0.330650379279875
 40
0.3818930187141276
 40
0.4247499680480946
 40
0.4247499680480946
 40
0.4247499680480946
 40
0.4247499680480946
 10
36.93528599733905
 20
20.45298164814321
 30
0.0
 10
36.92124596183631
 20
20.45290256799366
 30
0.0
 10
36.89032213701132
 20
20.45272839032215
 30
0.0
 10
36.84030312535467
 20
20.45536389923217
 30
0.0
 10
36.78406096280283
 20
20.46017809395666
 30
0.0
 10
36.72445098224849
 20
20.46731424042688
 30
0.0
 10
36.66497564590592
 20
20.47640136586521
 30
0.0
 10
36.60912248817202
 20
20.48685607758204
 30
0.0
 10
36.55964959174653
 20
20.49778120192065
 30
0.0
 10
36.52944669150033
 20
20.50626374580834
 30
0.0
 10
36.51569100794704
 20
20.5101270565664
 30
0.0
 11
36.93528599733905
 21
20.45298164814321
 31
0.0
 11
36.89317249574947
 21
20.45311583471549
 31
0.0
 11
36.84258510836244
 21
20.45550305004448
 31
0.0
 11
36.78536012671051
 21
20.46038077061283
 31
0.0
 11
36.72454078309674
 21
20.46763694894798
 31
0.0
 11
36.66386116624807
 21
20.47692790312016
 31
0.0
 11
36.60702849851404
 21
20.48758394492418
 31
0.0
 11
36.55704936701517
 21
20.49889299045455
 31
0.0
 11
36.51569100794704
 21
20.5101270565664
 31
0.0
  0
SPLINE
  5
2A1
330
8B
100
AcDbEntity
  8
0
  6
Continuous
 62
     3
100
AcDbSpline
210
0.0
220
0.0
230
1.0
 70
     8
 71
     3
 72
    11
 73
     7
 74
     5
 42
0.0000000001
 43
0.0000000001
 44
0.00000001
 40
0.0
 40
0.0
 40
0.0
 40
0.0
 40
0.0811778896773783
 40
0.1758005507634262
 40
0.3049194949054882
 40
0.4825213729432355
 40
0.4825213729432355
 40
0.4825213729432355
 40
0.4825213729432355
 10
36.77820280623284
 20
20.0
 30
0.0
 10
36.79180654844451
 20
20.02341060951032
 30
0.0
 10
36.82126709962118
 20
20.07410911943684
 30
0.0
 10
36.86267645518853
 20
20.1670936387672
 30
0.0
 10
36.9068099859976
 20
20.29378618348699
 30
0.0
 10
36.92484380024402
 20
20.39460442674654
 30
0.0
 10
36.93528599733905
 20
20.45298164814321
 30
0.0
 11
36.77820280623284
 21
20.0
 31
0.0
 11
36.81782294646312
 21
20.07085262352663
 31
0.0
 11
36.85695768778345
 21
20.15700318947251
 31
0.0
 11
36.89869731451886
 21
20.27918954426039
 31
0.0
 11
36.93528599733905
 21
20.45298164814321
 31
0.0
  0
SPLINE
  5
2A2
330
8B
100
AcDbEntity
  8
0
  6
Continuous
 62
     7
100
AcDbSpline
210
0.0
220
0.0
230
1.0
 70
     8
 71
     3
 72
    11
 73
     7
 74
     5
 42
0.0000000001
 43
0.0000000001
 44
0.00000001
 40
0.0
 40
0.0
 40
0.0
 40
0.0
 40
0.3382416154906813
 40
0.6764832311674396
 40
3.753974640788917
 40
6.83146605041067
 40
6.83146605041067
 40
6.83146605041067
 40
6.83146605041067
 10
23.11605786708356
 20
20.0
 30
0.0
 10
23.10771423473233
 20
20.11243805437388
 30
0.0
 10
23.09102697002527
 20
20.33731416318347
 30
0.0
 10
22.99842516392322
 20
21.58520793329043
 30
0.0
 10
22.83825244854411
 20
23.74368131030368
 30
0.0
 10
22.68642336578488
 20
25.7897166329008
 30
0.0
 10
22.61050882440526
 20
26.8127342941994
 30
0.0
 11
23.11605786708356
 21
20.0
 31
0.0
 11
23.0910269699986
 21
20.33731416311929
 31
0.0
 11
23.06599607277264
 21
20.67462832641471
 31
0.0
 11
22.83825244858902
 21
23.74368131030692
 31
0.0
 11
22.61050882440526
 21
26.8127342941994
 31
0.0
  0
SPLINE
  5
2A3
330
8B
100
AcDbEntity
  8
0
  6
Continuous
 62
     3
100
AcDbSpline
210
0.0
220
0.0
230
1.0
 70
    24
 71
     3
 72
     9
 73
     5
 74
     3
 42
0.0000000001
 43
0.0000000001
 44
0.00000001
 40
0.0
 40
0.0
 40
0.0
 40
0.0
 40
3.415733025215256
 40
6.8314660504305
 40
6.8314660504305
 40
6.8314660504305
 40
6.8314660504305
 10
22.69884543059346
 20
26.81273429419929
 30
0.0
 10
22.78310360441809
 20
25.6772785784994
 30
0.0
 10
22.95161995206734
 20
23.40636714709964
 30
0.0
 10
23.12013629971661
 20
21.13545571569988
 30
0.0
 10
23.20439447354125
 20
20.0
 30
0.0
 11
22.69884543059346
 21
26.81273429419929
 31
0.0
 11
22.95161995206735
 21
23.40636714709964
 31
0.0
 11
23.20439447354125
 21
20.0
 31
0.0
  0
SPLINE
  5
2A4
330
8B
100
AcDbEntity
  8
0
  6
Continuous
 62
     3
100
AcDbSpline
210
0.0
220
0.0
230
1.0
 70
     8
 71
     3
 72
    13
 73
     9
 74
     7
 42
0.0000000001
 43
0.0000000001
 44
0.00000001
 40
0.0
 40
0.0
 40
0.0
 40
0.0
 40
1.042396883601644
 40
2.469488337142495
 40
4.273137105762543
 40
6.445080612556501
 40
6.629410232802761
 40
6.815380119818027
 40
6.815380119818027
 40
6.815380119818027
 40
6.815380119818027
 10
25.15519742714264
 20
26.81273429419929
 30
0.0
 10
25.13716587932942
 20
26.46572670075249
 30
0.0
 10
25.09444827557803
 20
25.64364902726988
 30
0.0
 10
25.05494355612764
 20
24.21971382227359
 30
0.0
 10
25.01591587387735
 20
22.41926561503514
 30
0.0
 10
24.99558573262999
 20
21.0327542211741
 30
0.0
 10
24.98478152796715
 20
20.1854091015806
 30
0.0
 10
24.98326216444067
 20
20.06198527193352
 30
0.0
 10
24.98249911761556
 20
20.0
 30
0.0
 11
25.15519742714264
 21
26.81273429419929
 31
0.0
 11
25.10464627205158
 21
25.77156387411362
 31
0.0
 11
25.05969887419197
 21
24.34518042349629
 31
0.0
 11
25.02048835093372
 21
22.54195791492714
 31
0.0
 11
24.98714781964674
 21
20.37027032098598
 31
0.0
 11
24.98480196915219
 21
20.18595562844741
 31
0.0
 11
24.98249911761556
 21
20.0
 31
0.0
  0
SPLINE
  5
2A5
330
8B
100
AcDbEntity
  8
0
  6
Continuous
 62
     3
100
AcDbSpline
210
0.0
220
0.0
230
1.0
 70
     8
 71
     3
 72
    13
 73
     9
 74
     7
 42
0.0000000001
 43
0.0000000001
 44
0.00000001
 40
0.0
 40
0.0
 40
0.0
 40
0.0
 40
0.1859136010126091
 40
0.366204828046243
 40
2.508165954193108
 40
4.312233838094657
 40
5.757318139324758
 40
6.822484951626148
 40
6.822484951626148
 40
6.822484951626148
 40
6.822484951626148
 10
25.78968905051386
 20
20.0
 30
0.0
 10
25.78733726308465
 20
20.06192656633304
 30
0.0
 10
25.78270481066362
 20
20.18390692415498
 30
0.0
 10
25.75058440883205
 20
21.0193446194267
 30
0.0
 10
25.69494848684646
 20
22.3936813124393
 30
0.0
 10
25.60890054625736
 20
24.18863029458135
 30
0.0
 10
25.53083402259861
 20
25.62473807828706
 30
0.0
 10
25.46362523231408
 20
26.45881367049078
 30
0.0
 10
25.43510674166584
 20
26.81273429419929
 30
0.0
 11
25.78968905051386
 21
20.0
 31
0.0
 11
25.78261892318221
 21
20.18577911707452
 31
0.0
 11
25.77569672765535
 21
20.3659374079034
 31
0.0
 11
25.68751160033687
 21
22.50608246122202
 31
0.0
 11
25.60103348707754
 21
24.30807648608784
 31
0.0
 11
25.51673949760974
 21
25.75070019343543
 31
0.0
 11
25.43510674166584
 21
26.81273429419929
 31
0.0
  0
SPLINE
  5
2A6
330
8B
100
AcDbEntity
  8
0
  6
Continuous
 62
     3
100
AcDbSpline
210
0.0
220
0.0
230
1.0
 70
     8
 71
     3
 72
    14
 73
    10
 74
     8
 42
0.0000000001
 43
0.0000000001
 44
0.00000001
 40
0.0
 40
0.0
 40
0.0
 40
0.0
 40
0.1857555646149372
 40
0.3705047813150011
 40
1.784615693749521
 40
3.225499907079644
 40
4.604352790588431
 40
5.832424461752717
 40
6.821107351732945
 40
6.821107351732945
 40
6.821107351732945
 40
6.821107351732945
 10
25.75181385411276
 20
20.0
 30
0.0
 10
25.74963758631644
 20
20.06188026455349
 30
0.0
 10
25.74529684085542
 20
20.18530555161626
 30
0.0
 10
25.72413586779298
 20
20.77980101313834
 30
0.0
 10
25.68652529230839
 20
21.7923505390225
 30
0.0
 10
25.62926681534074
 20
23.2024837960553
 30
0.0
 10
25.56631310376184
 20
24.55026974709353
 30
0.0
 10
25.50372756023375
 20
25.74724694401489
 30
0.0
 10
25.44819280405724
 20
26.48409611963499
 30
0.0
 10
25.42342404336836
 20
26.81273429419929
 30
0.0
 11
25.75181385411276
 21
20.0
 31
0.0
 11
25.74527185617294
 21
20.18564032980031
 31
0.0
 11
25.73870194518395
 21
20.37027269245888
 31
0.0
 11
25.68605033975303
 21
21.78340307607956
 31
0.0
 11
25.62693429370632
 21
23.22307408340164
 31
0.0
 11
25.56261626019352
 21
24.60042605908743
 31
0.0
 11
25.4943586923643
 21
25.82659934779922
 31
0.0
 11
25.42342404336836
 21
26.81273429419929
 31
0.0
  0
SPLINE
  5
2A7
330
8B
100
AcDbEntity
  8
0
  6
Continuous
 62
     3
100
AcDbSpline
210
0.0
220
0.0
230
1.0
 70
     8
 71
     3
 72
    13
 73
     9
 74
     7
 42
0.0000000001
 43
0.0000000001
 44
0.00000001
 40
0.0
 40
0.0
 40
0.0
 40
0.0
 40
1.048438591848806
 40
2.480357917536133
 40
4.284597239238579
 40
6.449847162876038
 40
6.629701547696195
 40
6.815816430826215
 40
6.815816430826215
 40
6.815816430826215
 40
6.815816430826215
 10
25.14516294682534
 20
26.81273429419929
 30
0.0
 10
25.12561336949978
 20
26.46379006622877
 30
0.0
 10
25.07936368994683
 20
25.63827049326169
 30
0.0
 10
25.03671104903998
 20
24.21058700153188
 30
0.0
 10
24.99466898360563
 20
22.41063573304719
 30
0.0
 10
24.9727967059503
 20
21.02767126349978
 30
0.0
 10
24.96118557709141
 20
20.18401181469073
 30
0.0
 10
24.95956415229502
 20
20.06203282111739
 30
0.0
 10
24.95873957134544
 20
20.0
 30
0.0
 11
25.14516294682534
 21
26.81273429419929
 31
0.0
 11
25.09036603643159
 21
25.76572866886139
 31
0.0
 11
25.0417931852249
 21
24.33463341228254
 31
0.0
 11
24.99953917768777
 21
22.53088893791141
 31
0.0
 11
24.96369879830266
 21
20.36593565919671
 31
0.0
 11
24.96122814329017
 21
20.18609824483906
 31
0.0
 11
24.95873957134544
 21
20.0
 31
0.0
  0
SPLINE
  5
2A8
330
8B
100
AcDbEntity
  8
0
  6
Continuous
 62
     3
100
AcDbSpline
210
0.0
220
0.0
230
1.0
 70
     8
 71
     3
 72
    11
 73
     7
 74
     5
 42
0.0000000001
 43
0.0000000001
 44
0.00000001
 40
0.0
 40
0.0
 40
0.0
 40
0.0
 40
3.207132909591755
 40
6.443303536816534
 40
6.628462498504613
 40
6.813624024938604
 40
6.813624024938604
 40
6.813624024938604
 40
6.813624024938604
 10
-1.235531318579458
 20
26.81273429419929
 30
0.0
 10
-1.218255575915926
 20
25.74382958800985
 30
0.0
 10
-1.183547674203417
 20
23.59634220034593
 30
0.0
 10
-1.147842395504449
 20
21.38714321801622
 30
0.0
 10
-1.128415437771311
 20
20.18513649290586
 30
0.0
 10
-1.126420641155164
 20
20.06171244923657
 30
0.0
 10
-1.125423235939362
 20
20.00000000000009
 30
0.0
 11
-1.235531318579458
 21
26.81273429419929
 31
0.0
 11
-1.18370409344368
 21
23.60602017558485
 31
0.0
 11
-1.131407619177363
 21
20.3702721311148
 31
0.0
 11
-1.128415450491325
 21
20.18513734772723
 31
0.0
 11
-1.125423235939362
 21
20.00000000000009
 31
0.0
  0
SPLINE
  5
2A9
330
8B
100
AcDbEntity
  8
0
  6
Continuous
 62
     3
100
AcDbSpline
210
0.0
220
0.0
230
1.0
 70
    24
 71
     3
 72
    11
 73
     7
 74
     5
 42
0.0000000001
 43
0.0000000001
 44
0.00000001
 40
0.0
 40
0.0
 40
0.0
 40
0.0
 40
1.334674200599867
 40
2.403387743230843
 40
4.6170269868849
 40
6.813624024792215
 40
6.813624024792215
 40
6.813624024792215
 40
6.813624024792215
 10
1.125423245017945
 20
20.0
 30
0.0
 10
1.132612684125001
 20
20.44483330578679
 30
0.0
 10
1.145558922107901
 20
21.24585794118344
 30
0.0
 10
1.170429286991741
 20
22.78466597130786
 30
0.0
 10
1.199942539097057
 20
24.6107440969205
 30
0.0
 10
1.223698992296783
 20
26.08063089292376
 30
0.0
 10
1.235531318593647
 20
26.81273429419929
 30
0.0
 11
1.125423245017945
 21
20.0
 31
0.0
 11
1.146991562338165
 21
21.33449991736038
 31
0.0
 11
1.164261958964037
 21
22.40307390619
 31
0.0
 11
1.200034339696732
 21
24.6164240903728
 31
0.0
 11
1.235531318593647
 21
26.81273429419929
 31
0.0
  0
SPLINE
  5
2AA
330
8B
100
AcDbEntity
  8
0
  6
Continuous
 62
     3
100
AcDbSpline
210
0.0
220
0.0
230
1.0
 70
     8
 71
     3
 72
    11
 73
     7
 74
     5
 42
0.0000000001
 43
0.0000000001
 44
0.00000001
 40
0.0
 40
0.0
 40
0.0
 40
0.0
 40
0.0757002701600107
 40
0.1570149087621578
 40
0.3004492693787352
 40
0.4530154603398829
 40
0.4530154603398829
 40
0.4530154603398829
 40
0.4530154603398829
 10
-0.8188570886639432
 20
20.0
 30
0.0
 10
-0.8191653813786524
 20
20.02523154001271
 30
0.0
 10
-0.8198048315730807
 20
20.07756593650364
 30
0.0
 10
-0.8210284246671198
 20
20.17770821797781
 30
0.0
 10
-0.8225650570306275
 20
20.30347056068522
 30
0.0
 10
-0.823770532613659
 20
20.40213004690586
 30
0.0
 10
-0.8243918653004378
 20
20.45298164814321
 30
0.0
 11
-0.8188570886639432
 21
20.0
 31
0.0
 11
-0.8197819668191357
 21
20.075694620038
 31
0.0
 11
-0.820775439270161
 21
20.15700318947251
 31
0.0
 11
-0.8225278673961968
 21
20.30042684442925
 31
0.0
 11
-0.8243918653004378
 21
20.45298164814321
 31
0.0
  0
SPLINE
  5
2AB
330
8B
100
AcDbEntity
  8
0
  6
Continuous
 62
     3
100
AcDbSpline
210
0.0
220
0.0
230
1.0
 70
     8
 71
     3
 72
    18
 73
    14
 74
    12
 42
0.0000000001
 43
0.0000000001
 44
0.00000001
 40
0.0
 40
0.0
 40
0.0
 40
0.0
 40
0.0043840726658385
 40
0.0093362778700171
 40
0.0191946740820053
 40
0.0324135361948988
 40
0.0511887568606474
 40
0.0745726283680848
 40
0.1023658679456054
 40
0.1508164994720355
 40
0.2046589861919618
 40
0.2604214389622966
 40
0.314900653484993
 40
0.314900653484993
 40
0.314900653484993
 40
0.314900653484993
 10
1.124346172861753
 20
20.51012706520478
 30
0.0
 10
1.124169636072965
 20
20.50866349307046
 30
0.0
 10
1.123793685070317
 20
20.50554668430145
 30
0.0
 10
1.120524219848867
 20
20.49988248909247
 30
0.0
 10
1.113604716788709
 20
20.49344589879777
 30
0.0
 10
1.101474488809841
 20
20.48640922419272
 30
0.0
 10
1.084296990856033
 20
20.47953734876799
 30
0.0
 10
1.061890263664236
 20
20.4729959003702
 30
0.0
 10
1.029417369909461
 20
20.46594408727633
 30
0.0
 10
0.9864683030103194
 20
20.45969848069733
 30
0.0
 10
0.9339718165066881
 20
20.45505284130638
 30
0.0
 10
0.8793039391919824
 20
20.45267285298394
 30
0.0
 10
0.8425532946249711
 20
20.45287951830066
 30
0.0
 10
0.8243918652999618
 20
20.45298164814321
 30
0.0
 11
1.124346172861753
 21
20.51012706520478
 31
0.0
 11
1.123548806455752
 21
20.50581611403898
 31
0.0
 11
1.12123317171444
 21
20.50143865220258
 31
0.0
 11
1.114253344740639
 21
20.49447661289729
 31
0.0
 11
1.102973741743544
 21
20.48758394492418
 31
0.0
 11
1.085641851137641
 21
20.4803649090417
 31
0.0
 11
1.063242513667607
 21
20.47365110776523
 31
0.0
 11
1.036107774679838
 21
20.46763694894798
 31
0.0
 11
0.9882029998994107
 21
20.4603846218355
 31
0.0
 11
0.9345822610660584
 21
20.45550305004448
 31
0.0
 11
0.8788709135867165
 21
20.45311623186962
 31
0.0
 11
0.8243918652999618
 21
20.45298164814321
 31
0.0
  0
SPLINE
  5
2AC
330
8B
100
AcDbEntity
  8
0
  6
Continuous
 62
     3
100
AcDbSpline
210
0.0
220
0.0
230
1.0
 70
     8
 71
     3
 72
    18
 73
    14
 74
    12
 42
0.0000000001
 43
0.0000000001
 44
0.00000001
 40
0.0
 40
0.0
 40
0.0
 40
0.0
 40
0.0544792145196845
 40
0.1102416672930384
 40
0.1640841540042288
 40
0.2125347855393038
 40
0.2403280253097649
 40
0.2637118965800965
 40
0.2824871172976339
 40
0.295705979454633
 40
0.3055643756251852
 40
0.3105165798660755
 40
0.3149006450754138
 40
0.3149006450754138
 40
0.3149006450754138
 40
0.3149006450754138
 10
-0.824391865300438
 20
20.45298164814321
 30
0.0
 10
-0.8425532946244346
 20
20.45287951830083
 30
0.0
 10
-0.8793039391914307
 20
20.45267285298447
 30
0.0
 10
-0.9339718165033501
 20
20.45505284130707
 30
0.0
 10
-0.9864683030076775
 20
20.4596984806932
 30
0.0
 10
-1.029417369970703
 20
20.46594408730241
 30
0.0
 10
-1.061890263713345
 20
20.47299590034848
 30
0.0
 10
-1.084296990943622
 20
20.47953734870796
 30
0.0
 10
-1.101474488753364
 20
20.48640922423809
 30
0.0
 10
-1.113604716919996
 20
20.49344589871774
 30
0.0
 10
-1.120524219390372
 20
20.49988248903895
 30
0.0
 10
-1.123793683873922
 20
20.50554668125647
 30
0.0
 10
-1.124169635684443
 20
20.50866348701506
 30
0.0
 10
-1.124346172711537
 20
20.5101270565664
 30
0.0
 11
-0.824391865300438
 21
20.45298164814321
 31
0.0
 11
-0.8788709135841797
 21
20.45311623187007
 31
0.0
 11
-0.9345822610665628
 21
20.45550305004448
 31
0.0
 11
-0.9882029998911008
 21
20.46038462183596
 31
0.0
 11
-1.036107774680342
 21
20.46763694894798
 31
0.0
 11
-1.06324251386347
 21
20.47365110777545
 31
0.0
 11
-1.085641851106989
 21
20.48036490898181
 31
0.0
 11
-1.102973741744048
 21
20.48758394492418
 31
0.0
 11
-1.114253344782018
 21
20.49447661291499
 31
0.0
 11
-1.121233171714945
 21
20.50143865220258
 31
0.0
 11
-1.123548806437416
 21
20.50581611295918
 31
0.0
 11
-1.124346172711537
 21
20.5101270565664
 31
0.0
  0
SPLINE
  5
2AD
330
8B
100
AcDbEntity
  8
0
  6
Continuous
 62
     3
100
AcDbSpline
210
0.0
220
0.0
230
1.0
 70
     8
 71
     3
 72
    11
 73
     7
 74
     5
 42
0.0000000001
 43
0.0000000001
 44
0.00000001
 40
0.0
 40
0.0
 40
0.0
 40
0.0
 40
0.0757002701600108
 40
0.1570149087621578
 40
0.3004492693787352
 40
0.4530154603398833
 40
0.4530154603398833
 40
0.4530154603398833
 40
0.4530154603398833
 10
0.8188570886634388
 20
20.0
 30
0.0
 10
0.8191653813781534
 20
20.02523154001271
 30
0.0
 10
0.819804831572593
 20
20.07756593650364
 30
0.0
 10
0.8210284246666067
 20
20.17770821797782
 30
0.0
 10
0.8225650570301245
 20
20.30347056068521
 30
0.0
 10
0.8237705326131738
 20
20.40213004690586
 30
0.0
 10
0.8243918652999618
 20
20.45298164814321
 30
0.0
 11
0.8188570886634388
 21
20.0
 31
0.0
 11
0.8197819668186419
 21
20.075694620038
 31
0.0
 11
0.8207754392696565
 21
20.15700318947251
 31
0.0
 11
0.8225278673956958
 21
20.30042684442925
 31
0.0
 11
0.8243918652999618
 21
20.45298164814321
 31
0.0
  0
SPLINE
  5
2AE
330
8B
100
AcDbEntity
  8
0
  6
Continuous
 62
     7
100
AcDbSpline
210
0.0
220
0.0
230
1.0
 70
     8
 71
     3
 72
    11
 73
     7
 74
     5
 42
0.0000000001
 43
0.0000000001
 44
0.00000001
 40
0.0
 40
0.0
 40
0.0
 40
0.0
 40
3.077491409621753
 40
6.154982819243326
 40
6.493224434919973
 40
6.83146605041055
 40
6.83146605041055
 40
6.83146605041055
 40
6.83146605041055
 10
-22.61050882440574
 20
26.81273429419929
 30
0.0
 10
-22.68642336578533
 20
25.78971663290068
 30
0.0
 10
-22.8382524485445
 20
23.74368131030354
 30
0.0
 10
-22.99842516392413
 20
21.58520793329031
 30
0.0
 10
-23.09102697002578
 20
20.33731416318337
 30
0.0
 10
-23.10771423473275
 20
20.11243805437384
 30
0.0
 10
-23.11605786708395
 20
20.0
 30
0.0
 11
-22.61050882440574
 21
26.81273429419929
 31
0.0
 11
-22.83825244858954
 21
23.74368131030681
 31
0.0
 11
-23.06599607277326
 21
20.67462832641451
 31
0.0
 11
-23.09102696999911
 21
20.3373141631192
 31
0.0
 11
-23.11605786708395
 21
20.0
 31
0.0
  0
SPLINE
  5
2AF
330
8B
100
AcDbEntity
  8
0
  6
Continuous
 62
     3
100
AcDbSpline
210
0.0
220
0.0
230
1.0
 70
    24
 71
     3
 72
     9
 73
     5
 74
     3
 42
0.0000000001
 43
0.0000000001
 44
0.00000001
 40
0.0
 40
0.0
 40
0.0
 40
0.0
 40
3.415733025215348
 40
6.831466050430605
 40
6.831466050430605
 40
6.831466050430605
 40
6.831466050430605
 10
-22.69884543059396
 20
26.8127342941994
 30
0.0
 10
-22.78310360441859
 20
25.67727857849948
 30
0.0
 10
-22.95161995206786
 20
23.40636714709969
 30
0.0
 10
-23.12013629971705
 20
21.13545571569989
 30
0.0
 10
-23.20439447354164
 20
20.0
 30
0.0
 11
-22.69884543059396
 21
26.8127342941994
 31
0.0
 11
-22.95161995206784
 21
23.40636714709966
 31
0.0
 11
-23.20439447354164
 21
20.0
 31
0.0
  0
SPLINE
  5
2B0
330
8B
100
AcDbEntity
  8
0
  6
Continuous
 62
     3
100
AcDbSpline
210
0.0
220
0.0
230
1.0
 70
     8
 71
     3
 72
    26
 73
    22
 74
    20
 42
0.0000000001
 43
0.0000000001
 44
0.00000001
 40
0.0
 40
0.0
 40
0.0
 40
0.0
 40
0.0005967233309562
 40
0.0013034502278571
 40
0.0028761988182294
 40
0.0051133166594909
 40
0.0091720522608733
 40
0.0145008881826797
 40
0.0211297843233007
 40
0.0308089812150052
 40
0.0423910360264436
 40
0.0557867241877518
 40
0.0709066895806537
 40
0.0876615098366957
 40
0.1106059762891574
 40
0.1354350614681048
 40
0.1617036558435477
 40
0.1889666083023753
 40
0.2260587422178443
 40
0.2630651936972923
 40
0.2990969959928704
 40
0.2990969959928704
 40
0.2990969959928704
 40
0.2990969959928704
 10
53.05877425286624
 20
20.45298164814321
 30
0.0
 10
53.05858560506712
 20
20.45291370865531
 30
0.0
 10
53.05817353299957
 20
20.4527653053059
 30
0.0
 10
53.05720239999445
 20
20.45278763111596
 30
0.0
 10
53.05570681925804
 20
20.45288149109812
 30
0.0
 10
53.05309521284376
 20
20.45316974339186
 30
0.0
 10
53.04925693098802
 20
20.45368658513402
 30
0.0
 10
53.04397813447211
 20
20.45449238051234
 30
0.0
 10
53.03686114275932
 20
20.45565936585901
 30
0.0
 10
53.02770097721032
 20
20.4572485127639
 30
0.0
 10
53.01633219947647
 20
20.45929955644186
 30
0.0
 10
53.00319074820882
 20
20.46173910096055
 30
0.0
 10
52.98836523802758
 20
20.46455297958664
 30
0.0
 10
52.97042421714593
 20
20.46802090828756
 30
0.0
 10
52.94931916633645
 20
20.47217244392097
 30
0.0
 10
52.92511613789232
 20
20.47700488002377
 30
0.0
 10
52.89951392105929
 20
20.48218108230281
 30
0.0
 10
52.86991806792749
 20
20.48823118073045
 30
0.0
 10
52.83683162880992
 20
20.4950768428167
 30
0.0
 10
52.80089869639291
 20
20.50259089728783
 30
0.0
 10
52.77708138018704
 20
20.5076374511607
 30
0.0
 10
52.76533163557535
 20
20.5101270565664
 30
0.0
 11
53.05877425286624
 21
20.45298164814321
 31
0.0
 11
53.05820243466133
 21
20.45281105308396
 31
0.0
 11
53.05749623492135
 21
20.45278376143588
 31
0.0
 11
53.0559263108389
 21
20.45287797663557
 31
0.0
 11
53.05370117795894
 21
20.45310923385648
 31
0.0
 11
53.0496773467395
 21
20.45364038072823
 31
0.0
 11
53.04440817709853
 21
20.4544355810654
 31
0.0
 11
53.03786579419764
 21
20.45550305004448
 31
0.0
 11
53.02832770835576
 21
20.45714979560505
 31
0.0
 11
53.01692876033347
 21
20.45920113117982
 31
0.0
 11
53.0037574180183
 21
20.46164248386464
 31
0.0
 11
52.98890214929779
 21
20.4644592807554
 31
0.0
 11
52.97245142205945
 21
20.46763694894798
 31
0.0
 11
52.94993759395879
 21
20.47206143592863
 31
0.0
 11
52.92558860347012
 21
20.47692046186049
 31
0.0
 11
52.89984064739146
 21
20.48212448033015
 31
0.0
 11
52.87312992252075
 21
20.48758394492418
 31
0.0
 11
52.83680633008733
 21
20.49509547147568
 31
0.0
 11
52.80058411429555
 21
20.50267363314157
 31
0.0
 11
52.76533163557535
 21
20.5101270565664
 31
0.0
  0
SPLINE
  5
2B1
330
8B
100
AcDbEntity
  8
0
  6
Continuous
 62
     3
100
AcDbSpline
210
0.0
220
0.0
230
1.0
 70
     8
 71
     3
 72
    13
 73
     9
 74
     7
 42
0.0000000001
 43
0.0000000001
 44
0.00000001
 40
0.0
 40
0.0
 40
0.0
 40
0.0
 40
0.1835625171030227
 40
0.3662047404504359
 40
2.508139502100512
 40
4.312205561911709
 40
5.757302151404391
 40
6.822484945032731
 40
6.822484945032731
 40
6.822484945032731
 40
6.822484945032731
 10
-25.78968890558724
 20
20.0
 30
0.0
 10
-25.7873669652221
 20
20.06114344014837
 30
0.0
 10
-25.78273472557876
 20
20.18312377678329
 30
0.0
 10
-25.75061670292306
 20
21.01855273423805
 30
0.0
 10
-25.694949148368
 20
22.39366305549614
 30
0.0
 10
-25.60890176411595
 20
24.18860675917395
 30
0.0
 10
-25.53083504595569
 20
25.62472336127078
 30
0.0
 10
-25.46362561617433
 20
26.45880835628088
 30
0.0
 10
-25.43510674745636
 20
26.81273429419929
 30
0.0
 11
-25.78968890558724
 21
20.0
 31
0.0
 11
-25.78270871219365
 21
20.18342975381706
 31
0.0
 11
-25.77569673082075
 21
20.36593732589699
 31
0.0
 11
-25.68751277100803
 21
22.5060560404539
 31
0.0
 11
-25.60103497126349
 21
24.30804825417571
 31
0.0
 11
-25.51674055545649
 21
25.75068424583374
 31
0.0
 11
-25.43510674745636
 21
26.81273429419929
 31
0.0
  0
SPLINE
  5
2B2
330
8B
100
AcDbEntity
  8
0
  6
Continuous
 62
     3
100
AcDbSpline
210
0.0
220
0.0
230
1.0
 70
     8
 71
     3
 72
    14
 73
    10
 74
     8
 42
0.0000000001
 43
0.0000000001
 44
0.00000001
 40
0.0
 40
0.0
 40
0.0
 40
0.0
 40
0.1863751876098226
 40
0.370504692616227
 40
2.418886408050423
 40
4.035083648098404
 40
5.272147474124693
 40
6.183134715881723
 40
6.821110916120975
 40
6.821110916120975
 40
6.821110916120975
 40
6.821110916120975
 10
-25.75181381887395
 20
20.0
 30
0.0
 10
-25.74963030384207
 20
20.06208667919765
 30
0.0
 10
-25.74528958351293
 20
20.18551193921589
 30
0.0
 10
-25.71660605398338
 20
20.991297068151
 30
0.0
 10
-25.66825650406041
 20
22.27329095807139
 30
0.0
 10
-25.59812441647937
 20
23.90568531111835
 30
0.0
 10
-25.53457371267081
 20
25.15881977038314
 30
0.0
 10
-25.48052715145602
 20
26.08597221391755
 30
0.0
 10
-25.44015760126945
 20
26.6007225397358
 30
0.0
 10
-25.42353047403384
 20
26.81273429419929
 30
0.0
 11
-25.75181381887395
 21
20.0
 31
0.0
 11
-25.74524991791509
 21
20.18625956555517
 31
0.0
 11
-25.73870194830976
 21
20.37027260506039
 31
0.0
 11
-25.66082879689623
 21
22.41717353681407
 31
0.0
 11
-25.5903426236102
 21
24.03183301116592
 31
0.0
 11
-25.52727587860334
 21
25.26728818855482
 31
0.0
 11
-25.47166101202733
 21
26.17657622941966
 31
0.0
 11
-25.42353047403384
 21
26.81273429419929
 31
0.0
  0
SPLINE
  5
2B3
330
8B
100
AcDbEntity
  8
0
  6
Continuous
 62
     3
100
AcDbSpline
210
0.0
220
0.0
230
1.0
 70
     8
 71
     3
 72
    16
 73
    12
 74
    10
 42
0.0000000001
 43
0.0000000001
 44
0.00000001
 40
0.0
 40
0.0
 40
0.0
 40
0.0
 40
0.0130487725646581
 40
0.0250887525248876
 40
0.1242050826948749
 40
0.203056631423369
 40
0.3132757820877294
 40
0.4006758789767727
 40
0.4568261387996286
 40
0.5287892898836798
 40
0.6152627524328039
 40
0.6152627524328039
 40
0.6152627524328039
 40
0.6152627524328039
 10
-36.21115416901256
 20
20.0
 30
0.0
 10
-36.21497523678187
 20
20.00207905533491
 30
0.0
 10
-36.22232196791462
 20
20.00607643551181
 30
0.0
 10
-36.25791425131023
 20
20.02723222035039
 30
0.0
 10
-36.30824857406613
 20
20.06661798194007
 30
0.0
 10
-36.37265251753107
 20
20.13824104712867
 30
0.0
 10
-36.42296296589587
 20
20.21603693221918
 30
0.0
 10
-36.45872997798099
 20
20.29289047725057
 30
0.0
 10
-36.48300584161967
 20
20.36054005848774
 30
0.0
 10
-36.5024410234108
 20
20.42951183930792
 30
0.0
 10
-36.51101267025123
 20
20.4816632339293
 30
0.0
 10
-36.51569100794757
 20
20.5101270565664
 30
0.0
 11
-36.21115416901256
 21
20.0
 31
0.0
 11
-36.22257482588378
 21
20.00631181923648
 31
0.0
 11
-36.23293336038634
 21
20.01244874683928
 31
0.0
 11
-36.31133003331246
 21
20.07309533438121
 31
0.0
 11
-36.36427758132484
 21
20.1315258392255
 31
0.0
 11
-36.42459314003074
 21
20.22377709694683
 31
0.0
 11
-36.46162843622616
 21
20.30294251725098
 31
0.0
 11
-36.48068146458976
 21
20.35576139444796
 31
0.0
 11
-36.49993479373461
 21
20.42510116969122
 31
0.0
 11
-36.51569100794757
 21
20.5101270565664
 31
0.0
  0
SPLINE
  5
2B4
330
8B
100
AcDbEntity
  8
0
  6
Continuous
 62
     3
100
AcDbSpline
210
0.0
220
0.0
230
1.0
 70
     8
 71
     3
 72
    15
 73
    11
 74
     9
 42
0.0000000001
 43
0.0000000001
 44
0.00000001
 40
0.0
 40
0.0
 40
0.0
 40
0.0
 40
0.0428569493346823
 40
0.0940995887676142
 40
0.1519226235207589
 40
0.2133094114396665
 40
0.2745600822887921
 40
0.3319925703513613
 40
0.3826362526323422
 40
0.4247499680471331
 40
0.4247499680471331
 40
0.4247499680471331
 40
0.4247499680471331
 10
-36.51569100794757
 20
20.5101270565664
 30
0.0
 10
-36.52944669150287
 20
20.50626374581498
 30
0.0
 10
-36.55964959175275
 20
20.49778120194205
 30
0.0
 10
-36.60912248816952
 20
20.48685607757528
 30
0.0
 10
-36.66497564590513
 20
20.47640136586767
 30
0.0
 10
-36.72445098224115
 20
20.46731424042686
 30
0.0
 10
-36.78406096279767
 20
20.46017809395951
 30
0.0
 10
-36.84030312533378
 20
20.45536389922967
 30
0.0
 10
-36.89032213699679
 20
20.4527283903346
 30
0.0
 10
-36.92124596182154
 20
20.45290256799749
 30
0.0
 10
-36.93528599733955
 20
20.45298164814321
 30
0.0
 11
-36.51569100794757
 21
20.5101270565664
 31
0.0
 11
-36.55704936702003
 21
20.49889299046775
 31
0.0
 11
-36.60702849851455
 21
20.48758394492418
 31
0.0
 11
-36.66386116624318
 21
20.47692790312102
 31
0.0
 11
-36.72454078309724
 21
20.46763694894798
 31
0.0
 11
-36.78536012669342
 21
20.46038077061515
 31
0.0
 11
-36.84258510836307
 21
20.45550305004448
 31
0.0
 11
-36.89317249570409
 21
20.45311583472407
 31
0.0
 11
-36.93528599733955
 21
20.45298164814321
 31
0.0
  0
SPLINE
  5
2B5
330
8B
100
AcDbEntity
  8
0
  6
Continuous
 62
     3
100
AcDbSpline
210
0.0
220
0.0
230
1.0
 70
     8
 71
     3
 72
    11
 73
     7
 74
     5
 42
0.0000000001
 43
0.0000000001
 44
0.00000001
 40
0.0
 40
0.0
 40
0.0
 40
0.0
 40
0.0963152613258824
 40
0.1757987165092292
 40
0.3485862095034565
 40
0.4825152701005532
 40
0.4825152701005532
 40
0.4825152701005532
 40
0.4825152701005532
 10
-36.77820262431445
 20
20.0
 30
0.0
 10
-36.79423786364865
 20
20.02784603820191
 30
0.0
 10
-36.82350606533405
 20
20.07867181293765
 30
0.0
 10
-36.87019121278387
 20
20.1852035560258
 30
0.0
 10
-36.91053923394325
 20
20.30807844157556
 30
0.0
 10
-36.92776450916909
 20
20.40894001988633
 30
0.0
 10
-36.93528599733955
 20
20.45298164814321
 30
0.0
 11
-36.77820262431445
 21
20.0
 31
0.0
 11
-36.82459020703701
 21
20.08440865911404
 31
0.0
 11
-36.85695768778416
 21
20.15700318947251
 31
0.0
 11
-36.90989608673401
 21
20.32148128422028
 31
0.0
 11
-36.93528599733955
 21
20.45298164814321
 31
0.0
  0
SPLINE
  5
2B6
330
8B
100
AcDbEntity
  8
0
  6
Continuous
 62
     3
100
AcDbSpline
210
0.0
220
0.0
230
1.0
 70
     8
 71
     3
 72
    14
 73
    10
 74
     8
 42
0.0000000001
 43
0.0000000001
 44
0.00000001
 40
0.0
 40
0.0
 40
0.0
 40
0.0
 40
0.9973583137730007
 40
2.234278944945245
 40
3.617093170066902
 40
5.05198601218534
 40
6.44508660911483
 40
6.62941623499996
 40
6.815386188454935
 40
6.815386188454935
 40
6.815386188454935
 40
6.815386188454935
 10
-25.15517560042454
 20
26.8127342941994
 30
0.0
 10
-25.13777120772244
 20
26.48072792976939
 30
0.0
 10
-25.09878194215275
 20
25.73696832061993
 30
0.0
 10
-25.06349431706996
 20
24.53170951269753
 30
0.0
 10
-25.03140478235811
 20
23.18056243851363
 30
0.0
 10
-25.00659225085058
 20
21.77716671443898
 30
0.0
 10
-24.99226913594863
 20
20.77316155170999
 30
0.0
 10
-24.98478197657511
 20
20.18540912351645
 30
0.0
 10
-24.98326231450266
 20
20.0619852859768
 30
0.0
 10
-24.98249911761925
 20
20.0
 30
0.0
 11
-25.15517560042454
 21
26.8127342941994
 31
0.0
 11
-25.10638817837578
 21
25.8165699535899
 31
0.0
 11
-25.0659930934226
 21
24.58030910533369
 31
0.0
 11
-25.03318894150906
 21
23.19788403726814
 31
0.0
 11
-25.00717431857927
 21
21.76322703723066
 31
0.0
 11
-24.98714782057726
 21
20.3702703930586
 31
0.0
 11
-24.98480196998774
 21
20.18595569488191
 31
0.0
 11
-24.98249911761925
 21
20.0
 31
0.0
  0
SPLINE
  5
2B7
330
8B
100
AcDbEntity
  8
0
  6
Continuous
 62
     3
100
AcDbSpline
210
0.0
220
0.0
230
1.0
 70
     8
 71
     3
 72
    13
 73
     9
 74
     7
 42
0.0000000001
 43
0.0000000001
 44
0.00000001
 40
0.0
 40
0.0
 40
0.0
 40
0.0
 40
1.048438554796147
 40
2.480357844834194
 40
4.284597150096574
 40
6.449847094327517
 40
6.629701653970298
 40
6.81581643082604
 40
6.81581643082604
 40
6.81581643082604
 40
6.81581643082604
 10
-25.14516294680396
 20
26.81273429419929
 30
0.0
 10
-25.12561337006475
 20
26.46379007856693
 30
0.0
 10
-25.07936369162011
 20
25.63827052981137
 30
0.0
 10
-25.03671105081978
 20
24.21058706780934
 30
0.0
 10
-24.99466898505193
 20
22.41063580983273
 30
0.0
 10
-24.97279670610109
 20
21.02767128063853
 30
0.0
 10
-24.96118557693179
 20
20.18401180211739
 30
0.0
 10
-24.95956415187464
 20
20.06203278569605
 30
0.0
 10
-24.95873957141776
 20
20.0
 30
0.0
 11
-25.14516294680396
 21
26.81273429419929
 31
0.0
 11
-25.09036603797334
 21
25.76572870588295
 31
0.0
 11
-25.04179318726504
 21
24.33463348495699
 31
0.0
 11
-24.99953917943957
 21
22.5308890270372
 31
0.0
 11
-24.96369879925745
 21
20.36593572773938
 31
0.0
 11
-24.96122814187213
 21
20.1860981385752
 31
0.0
 11
-24.95873957141776
 21
20.0
 31
0.0
  0
ENDBLK
  5
8D
330
8B
100
AcDbEntity
  8
0
100
AcDbBlockEnd
  0
BLOCK
  5
1FE
330
1F4
100
AcDbEntity
  8
0
100
AcDbBlockBegin
  2
*D12
 70
     1
 10
0.0
 20
0.0
 30
0.0
  3
*D12
  1

  0
LINE
  5
1F5
330
1F4
100
AcDbEntity
  8
1
  6
Continuous
 62
     4
100
AcDbLine
 10
75.57221780686689
 20
20.0
 30
0.0
 11
75.57221780686689
 21
49.8421502420565
 31
0.0
  0
LINE
  5
1F6
330
1F4
100
AcDbEntity
  8
1
  6
Continuous
 62
     4
100
AcDbLine
 10
75.57221780686689
 20
4.0
 30
0.0
 11
75.57221780686689
 21
20.0
 31
0.0
  0
LINE
  5
1F7
330
1F4
100
AcDbEntity
  8
1
  6
Continuous
 62
     4
100
AcDbLine
 10
75.57221780686689
 20
-10.0
 30
0.0
 11
75.57221780686689
 21
4.0
 31
0.0
  0
LINE
  5
1F8
330
1F4
100
AcDbEntity
  8
1
  6
Continuous
 62
     4
100
AcDbLine
 10
56.00000000000003
 20
20.0
 30
0.0
 11
77.57221780686689
 21
20.0
 31
0.0
  0
LINE
  5
1F9
330
1F4
100
AcDbEntity
  8
1
  6
Continuous
 62
     4
100
AcDbLine
 10
55.00000000000011
 20
4.0
 30
0.0
 11
77.57221780686689
 21
4.0
 31
0.0
  0
SOLID
  5
1FA
330
1F4
100
AcDbEntity
  8
1
 62
     4
100
AcDbTrace
 10
76.49378528997866
 20
-3.0
 30
0.0
 11
74.65065032375512
 21
-3.0
 31
0.0
 12
75.57221780686689
 22
4.0
 32
0.0
 13
75.57221780686689
 23
4.0
 33
0.0
  0
SOLID
  5
1FB
330
1F4
100
AcDbEntity
  8
1
 62
     4
100
AcDbTrace
 10
74.65065032375512
 20
27.0
 30
0.0
 11
76.49378528997866
 21
27.0
 31
0.0
 12
75.57221780686689
 22
20.0
 32
0.0
 13
75.57221780686689
 23
20.0
 33
0.0
  0
MTEXT
  5
1FD
330
1F4
100
AcDbEntity
  8
1
 62
     1
100
AcDbMText
 10
73.57221780686689
 20
26.0421502420565
 30
0.0
 40
7.0
 41
0.0
 71
     7
 72
     1
  1
\C1;6\C1;-24
  7
CONVERTER_11
 11
0.0
 21
1.0
 31
0.0
 73
     1
 44
0.60024009603842
  0
ENDBLK
  5
1FF
330
1F4
100
AcDbEntity
  8
0
100
AcDbBlockEnd
  0
BLOCK
  5
209
330
202
100
AcDbEntity
  8
0
100
AcDbBlockBegin
  2
*D13
 70
     1
 10
0.0
 20
0.0
 30
0.0
  3
*D13
  1

  0
LINE
  5
203
330
202
100
AcDbEntity
  8
1
  6
Continuous
 62
     4
100
AcDbLine
 10
222.163991511221
 20
-19.97500653990977
 30
0.0
 11
222.163991511221
 21
-69.97500653990977
 31
0.0
  0
LINE
  5
204
330
202
100
AcDbEntity
  8
1
  6
Continuous
 62
     4
100
AcDbLine
 10
201.785521321048
 20
-69.97500653990977
 30
0.0
 11
224.163991511221
 21
-69.97500653990977
 31
0.0
  0
LINE
  5
205
330
202
100
AcDbEntity
  8
1
  6
Continuous
 62
     4
100
AcDbLine
 10
201.785521321048
 20
-19.97500653990977
 30
0.0
 11
224.163991511221
 21
-19.97500653990977
 31
0.0
  0
SOLID
  5
206
330
202
100
AcDbEntity
  8
1
 62
     4
100
AcDbTrace
 10
223.0855589943328
 20
-26.97500653990977
 30
0.0
 11
221.2424240281092
 21
-26.97500653990977
 31
0.0
 12
222.163991511221
 22
-19.97500653990977
 32
0.0
 13
222.163991511221
 23
-19.97500653990977
 33
0.0
  0
SOLID
  5
207
330
202
100
AcDbEntity
  8
1
 62
     4
100
AcDbTrace
 10
221.2424240281092
 20
-62.97500653990977
 30
0.0
 11
223.0855589943328
 21
-62.97500653990977
 31
0.0
 12
222.163991511221
 22
-69.97500653990977
 32
0.0
 13
222.163991511221
 23
-69.97500653990977
 33
0.0
  0
MTEXT
  5
208
330
202
100
AcDbEntity
  8
1
 62
     1
100
AcDbMText
 10
220.163991511221
 20
-52.98329422458989
 30
0.0
 40
7.0
 41
0.0
 71
     7
 72
     1
  1
\C1;DN\C1;50
  7
CONVERTER_11
 11
0.0
 21
1.0
 31
0.0
 73
     1
 44
0.60024009603842
  0
ENDBLK
  5
20A
330
202
100
AcDbEntity
  8
0
100
AcDbBlockEnd
  0
BLOCK
  5
215
330
20D
100
AcDbEntity
  8
0
100
AcDbBlockBegin
  2
*D14
 70
     1
 10
0.0
 20
0.0
 30
0.0
  3
*D14
  1

  0
LINE
  5
20E
330
20D
100
AcDbEntity
  8
1
  6
Continuous
 62
     4
100
AcDbLine
 10
140.208119357606
 20
-29.97500653990976
 30
0.0
 11
140.208119357606
 21
-69.97500653990977
 31
0.0
  0
LINE
  5
20F
330
20D
100
AcDbEntity
  8
1
  6
Continuous
 62
     4
100
AcDbLine
 10
140.208119357606
 20
-0.1878862948309
 30
0.0
 11
140.208119357606
 21
-29.97500653990976
 31
0.0
  0
LINE
  5
210
330
20D
100
AcDbEntity
  8
1
  6
Continuous
 62
     4
100
AcDbLine
 10
151.2855213210481
 20
-69.97500653990977
 30
0.0
 11
138.208119357606
 21
-69.97500653990977
 31
0.0
  0
LINE
  5
211
330
20D
100
AcDbEntity
  8
1
  6
Continuous
 62
     4
100
AcDbLine
 10
150.2855213210481
 20
-29.97500653990976
 30
0.0
 11
138.208119357606
 21
-29.97500653990976
 31
0.0
  0
SOLID
  5
212
330
20D
100
AcDbEntity
  8
1
 62
     4
100
AcDbTrace
 10
141.1296868407178
 20
-36.97500653990976
 30
0.0
 11
139.2865518744942
 21
-36.97500653990976
 31
0.0
 12
140.208119357606
 22
-29.97500653990976
 32
0.0
 13
140.208119357606
 23
-29.97500653990976
 33
0.0
  0
SOLID
  5
213
330
20D
100
AcDbEntity
  8
1
 62
     4
100
AcDbTrace
 10
139.2865518744942
 20
-62.97500653990977
 30
0.0
 11
141.1296868407178
 21
-62.97500653990977
 31
0.0
 12
140.208119357606
 22
-69.97500653990977
 32
0.0
 13
140.208119357606
 23
-69.97500653990977
 33
0.0
  0
MTEXT
  5
214
330
20D
100
AcDbEntity
  8
1
 62
     1
100
AcDbMText
 10
138.208119357606
 20
-22.1678862948309
 30
0.0
 40
7.0
 41
0.0
 71
     7
 72
     1
  1
\C1;DN\C1;40
  7
CONVERTER_11
 11
0.0
 21
1.0
 31
0.0
 73
     1
 44
0.60024009603842
  0
ENDBLK
  5
216
330
20D
100
AcDbEntity
  8
0
100
AcDbBlockEnd
  0
BLOCK
  5
220
330
219
100
AcDbEntity
  8
0
100
AcDbBlockBegin
  2
*D15
 70
     1
 10
0.0
 20
0.0
 30
0.0
  3
*D15
  1

  0
LINE
  5
21A
330
219
100
AcDbEntity
  8
1
  6
Continuous
 62
     4
100
AcDbLine
 10
61.99500653991197
 20
-203.1530442169172
 30
0.0
 11
0.0000000000002
 21
-203.1530442169172
 31
0.0
  0
LINE
  5
21B
330
219
100
AcDbEntity
  8
1
  6
Continuous
 62
     4
100
AcDbLine
 10
0.0000000000002
 20
-79.7604449917264
 30
0.0
 11
0.0000000000002
 21
-205.1530442169172
 31
0.0
  0
LINE
  5
21C
330
219
100
AcDbEntity
  8
1
  6
Continuous
 62
     4
100
AcDbLine
 10
61.99500653991197
 20
-193.1530442169172
 30
0.0
 11
61.99500653991197
 21
-205.1530442169172
 31
0.0
  0
SOLID
  5
21D
330
219
100
AcDbEntity
  8
1
 62
     4
100
AcDbTrace
 10
54.99500653991197
 20
-204.074611700029
 30
0.0
 11
54.99500653991197
 21
-202.2314767338054
 31
0.0
 12
61.99500653991197
 22
-203.1530442169172
 32
0.0
 13
61.99500653991197
 23
-203.1530442169172
 33
0.0
  0
SOLID
  5
21E
330
219
100
AcDbEntity
  8
1
 62
     4
100
AcDbTrace
 10
7.0000000000002
 20
-202.2314767338054
 30
0.0
 11
7.0000000000002
 21
-204.074611700029
 31
0.0
 12
0.0000000000002
 22
-203.1530442169172
 32
0.0
 13
0.0000000000002
 23
-203.1530442169172
 33
0.0
  0
MTEXT
  5
21F
330
219
100
AcDbEntity
  8
1
 62
     1
100
AcDbMText
 10
24.16708259250893
 20
-201.1530442169172
 30
0.0
 40
7.0
 41
0.0
 71
     7
 72
     1
  1
62
  7
CONVERTER_11
 11
0.9999999999970619
 21
2.424068405545306E-6
 31
0.0
 73
     1
 44
0.60024009603842
  0
ENDBLK
  5
221
330
219
100
AcDbEntity
  8
0
100
AcDbBlockEnd
  0
BLOCK
  5
22B
330
224
100
AcDbEntity
  8
0
100
AcDbBlockBegin
  2
*D16
 70
     1
 10
0.0
 20
0.0
 30
0.0
  3
*D16
  1

  0
LINE
  5
225
330
224
100
AcDbEntity
  8
1
  6
Continuous
 62
     4
100
AcDbLine
 10
-56.65297197665216
 20
52.9768121397382
 30
0.0
 11
56.65297197665165
 21
52.9768121397382
 31
0.0
  0
LINE
  5
226
330
224
100
AcDbEntity
  8
1
  6
Continuous
 62
     4
100
AcDbLine
 10
-56.65297197665216
 20
28.06200337137747
 30
0.0
 11
-56.65297197665216
 21
54.9768121397382
 31
0.0
  0
LINE
  5
227
330
224
100
AcDbEntity
  8
1
  6
Continuous
 62
     4
100
AcDbLine
 10
56.65297197665165
 20
28.06200337137747
 30
0.0
 11
56.65297197665165
 21
54.9768121397382
 31
0.0
  0
SOLID
  5
228
330
224
100
AcDbEntity
  8
1
 62
     4
100
AcDbTrace
 10
-49.65297197665216
 20
53.89837962284997
 30
0.0
 11
-49.65297197665216
 21
52.05524465662643
 31
0.0
 12
-56.65297197665216
 22
52.9768121397382
 32
0.0
 13
-56.65297197665216
 23
52.9768121397382
 33
0.0
  0
SOLID
  5
229
330
224
100
AcDbEntity
  8
1
 62
     4
100
AcDbTrace
 10
49.65297197665165
 20
52.05524465662643
 30
0.0
 11
49.65297197665165
 21
53.89837962284997
 31
0.0
 12
56.65297197665165
 22
52.9768121397382
 32
0.0
 13
56.65297197665165
 23
52.9768121397382
 33
0.0
  0
MTEXT
  5
22A
330
224
100
AcDbEntity
  8
1
 62
     1
100
AcDbMText
 10
-16.98570358749896
 20
54.97677039728026
 30
0.0
 40
7.0
 41
0.0
 71
     7
 72
     1
  1
\C1;{\Fgdt;n}\C1;113
  7
CONVERTER_11
 11
0.9999999999970619
 21
2.424068405545306E-6
 31
0.0
 73
     1
 44
0.60024009603842
  0
ENDBLK
  5
22C
330
224
100
AcDbEntity
  8
0
100
AcDbBlockEnd
  0
BLOCK
  5
236
330
22F
100
AcDbEntity
  8
0
100
AcDbBlockBegin
  2
*D17
 70
     1
 10
0.0
 20
0.0
 30
0.0
  3
*D17
  1

  0
LINE
  5
230
330
22F
100
AcDbEntity
  8
1
  6
Continuous
 62
     4
100
AcDbLine
 10
205.285521321048
 20
-83.5469370404935
 30
0.0
 11
152.2855213210481
 21
-83.5469370404935
 31
0.0
  0
LINE
  5
231
330
22F
100
AcDbEntity
  8
1
  6
Continuous
 62
     4
100
AcDbLine
 10
152.2855213210481
 20
-53.45500653990973
 30
0.0
 11
152.2855213210481
 21
-85.5469370404935
 31
0.0
  0
LINE
  5
232
330
22F
100
AcDbEntity
  8
1
  6
Continuous
 62
     4
100
AcDbLine
 10
205.285521321048
 20
-69.03718436640082
 30
0.0
 11
205.285521321048
 21
-85.5469370404935
 31
0.0
  0
SOLID
  5
233
330
22F
100
AcDbEntity
  8
1
 62
     4
100
AcDbTrace
 10
198.285521321048
 20
-84.46850452360528
 30
0.0
 11
198.285521321048
 21
-82.62536955738173
 31
0.0
 12
205.285521321048
 22
-83.5469370404935
 32
0.0
 13
205.285521321048
 23
-83.5469370404935
 33
0.0
  0
SOLID
  5
234
330
22F
100
AcDbEntity
  8
1
 62
     4
100
AcDbTrace
 10
159.2855213210481
 20
-82.62536955738173
 30
0.0
 11
159.2855213210481
 21
-84.46850452360528
 31
0.0
 12
152.2855213210481
 22
-83.5469370404935
 32
0.0
 13
152.2855213210481
 23
-83.5469370404935
 33
0.0
  0
MTEXT
  5
235
330
22F
100
AcDbEntity
  8
1
 62
     1
100
AcDbMText
 10
172.4029963661
 20
-81.5469370404935
 30
0.0
 40
7.0
 41
0.0
 71
     7
 72
     1
  1
53
  7
CONVERTER_11
 11
0.9999999999970619
 21
2.424068405545306E-6
 31
0.0
 73
     1
 44
0.60024009603842
  0
ENDBLK
  5
237
330
22F
100
AcDbEntity
  8
0
100
AcDbBlockEnd
  0
BLOCK
  5
241
330
23A
100
AcDbEntity
  8
0
100
AcDbBlockBegin
  2
*D18
 70
     1
 10
0.0
 20
0.0
 30
0.0
  3
*D18
  1

  0
LINE
  5
23B
330
23A
100
AcDbEntity
  8
1
  6
Continuous
 62
     4
100
AcDbLine
 10
205.285521321048
 20
-111.411933572722
 30
0.0
 11
0.0000000000002
 21
-111.411933572722
 31
0.0
  0
LINE
  5
23C
330
23A
100
AcDbEntity
  8
1
  6
Continuous
 62
     4
100
AcDbLine
 10
0.0000000000002
 20
-79.76044499172642
 30
0.0
 11
0.0000000000002
 21
-113.411933572722
 31
0.0
  0
LINE
  5
23D
330
23A
100
AcDbEntity
  8
1
  6
Continuous
 62
     4
100
AcDbLine
 10
205.285521321048
 20
-69.03718436640087
 30
0.0
 11
205.285521321048
 21
-113.411933572722
 31
0.0
  0
SOLID
  5
23E
330
23A
100
AcDbEntity
  8
1
 62
     4
100
AcDbTrace
 10
198.285521321048
 20
-112.3335010558338
 30
0.0
 11
198.285521321048
 21
-110.4903660896102
 31
0.0
 12
205.285521321048
 22
-111.411933572722
 32
0.0
 13
205.285521321048
 23
-111.411933572722
 33
0.0
  0
SOLID
  5
23F
330
23A
100
AcDbEntity
  8
1
 62
     4
100
AcDbTrace
 10
7.0000000000002
 20
-110.4903660896102
 30
0.0
 11
7.0000000000002
 21
-112.3335010558338
 31
0.0
 12
0.0000000000002
 22
-111.411933572722
 32
0.0
 13
0.0000000000002
 23
-111.411933572722
 33
0.0
  0
MTEXT
  5
240
330
23A
100
AcDbEntity
  8
1
 62
     1
100
AcDbMText
 10
110.572591904112
 20
-109.411933572722
 30
0.0
 40
7.0
 41
0.0
 71
     7
 72
     1
  1
205
  7
CONVERTER_11
 11
0.9999999999970619
 21
2.424068405545306E-6
 31
0.0
 73
     1
 44
0.60024009603842
  0
ENDBLK
  5
242
330
23A
100
AcDbEntity
  8
0
100
AcDbBlockEnd
  0
BLOCK
  5
24C
330
245
100
AcDbEntity
  8
0
100
AcDbBlockBegin
  2
*D19
 70
     1
 10
0.0
 20
0.0
 30
0.0
  3
*D19
  1

  0
LINE
  5
246
330
245
100
AcDbEntity
  8
1
  6
Continuous
 62
     4
100
AcDbLine
 10
205.285521321048
 20
-97.9711705395296
 30
0.0
 11
95.23219943089352
 21
-97.9711705395296
 31
0.0
  0
LINE
  5
247
330
245
100
AcDbEntity
  8
1
  6
Continuous
 62
     4
100
AcDbLine
 10
95.23219943089352
 20
-28.91763599070394
 30
0.0
 11
95.23219943089352
 21
-99.9711705395296
 31
0.0
  0
LINE
  5
248
330
245
100
AcDbEntity
  8
1
  6
Continuous
 62
     4
100
AcDbLine
 10
205.285521321048
 20
-69.03718436640082
 30
0.0
 11
205.285521321048
 21
-99.9711705395296
 31
0.0
  0
SOLID
  5
249
330
245
100
AcDbEntity
  8
1
 62
     4
100
AcDbTrace
 10
198.285521321048
 20
-98.89273802264137
 30
0.0
 11
198.285521321048
 21
-97.04960305641782
 31
0.0
 12
205.285521321048
 22
-97.9711705395296
 32
0.0
 13
205.285521321048
 23
-97.9711705395296
 33
0.0
  0
SOLID
  5
24A
330
245
100
AcDbEntity
  8
1
 62
     4
100
AcDbTrace
 10
102.2321994308935
 20
-97.04960305641782
 30
0.0
 11
102.2321994308935
 21
-98.89273802264137
 31
0.0
 12
95.23219943089352
 22
-97.9711705395296
 32
0.0
 13
95.23219943089352
 23
-97.9711705395296
 33
0.0
  0
MTEXT
  5
24B
330
245
100
AcDbEntity
  8
1
 62
     1
100
AcDbMText
 10
137.259353550196
 20
-95.9711705395296
 30
0.0
 40
7.0
 41
0.0
 71
     7
 72
     1
  1
110
  7
CONVERTER_11
 11
0.9999999999970619
 21
2.424068405545306E-6
 31
0.0
 73
     1
 44
0.60024009603842
  0
ENDBLK
  5
24D
330
245
100
AcDbEntity
  8
0
100
AcDbBlockEnd
  0
BLOCK
  5
257
330
250
100
AcDbEntity
  8
0
100
AcDbBlockBegin
  2
*D20
 70
     1
 10
0.0
 20
0.0
 30
0.0
  3
*D20
  1

  0
LINE
  5
251
330
250
100
AcDbEntity
  8
1
  6
Continuous
 62
     4
100
AcDbLine
 10
-77.4666770823934
 20
4.0
 30
0.0
 11
-77.4666770823934
 21
-78.99999998235444
 31
0.0
  0
LINE
  5
252
330
250
100
AcDbEntity
  8
1
  6
Continuous
 62
     4
100
AcDbLine
 10
-40.99999999999997
 20
-78.99999998235444
 30
0.0
 11
-79.4666770823934
 21
-78.99999998235444
 31
0.0
  0
LINE
  5
253
330
250
100
AcDbEntity
  8
1
  6
Continuous
 62
     4
100
AcDbLine
 10
-55.00000000000007
 20
4.0
 30
0.0
 11
-79.4666770823934
 21
4.0
 31
0.0
  0
SOLID
  5
254
330
250
100
AcDbEntity
  8
1
 62
     4
100
AcDbTrace
 10
-76.54510959928163
 20
-3.0
 30
0.0
 11
-78.38824456550518
 21
-3.0
 31
0.0
 12
-77.4666770823934
 22
4.0
 32
0.0
 13
-77.4666770823934
 23
4.0
 33
0.0
  0
SOLID
  5
255
330
250
100
AcDbEntity
  8
1
 62
     4
100
AcDbTrace
 10
-78.38824456550518
 20
-71.99999998235444
 30
0.0
 11
-76.54510959928163
 21
-71.99999998235444
 31
0.0
 12
-77.4666770823934
 22
-78.99999998235444
 32
0.0
 13
-77.4666770823934
 23
-78.99999998235444
 33
0.0
  0
MTEXT
  5
256
330
250
100
AcDbEntity
  8
1
 62
     1
100
AcDbMText
 10
-79.4666770823934
 20
-43.30247142952984
 30
0.0
 40
7.0
 41
0.0
 71
     7
 72
     1
  1
83
  7
CONVERTER_11
 11
0.0
 21
1.0
 31
0.0
 73
     1
 44
0.60024009603842
  0
ENDBLK
  5
258
330
250
100
AcDbEntity
  8
0
100
AcDbBlockEnd
  0
BLOCK
  5
262
330
25B
100
AcDbEntity
  8
0
100
AcDbBlockBegin
  2
*D21
 70
     1
 10
0.0
 20
0.0
 30
0.0
  3
*D21
  1

  0
LINE
  5
25C
330
25B
100
AcDbEntity
  8
1
  6
Continuous
 62
     4
100
AcDbLine
 10
-64.99999999999997
 20
4.0
 30
0.0
 11
-64.99999999999997
 21
-49.97500653990642
 31
0.0
  0
LINE
  5
25D
330
25B
100
AcDbEntity
  8
1
  6
Continuous
 62
     4
100
AcDbLine
 10
71.56362154753452
 20
-49.97500653990642
 30
0.0
 11
-66.99999999999997
 21
-49.97500653990642
 31
0.0
  0
LINE
  5
25E
330
25B
100
AcDbEntity
  8
1
  6
Continuous
 62
     4
100
AcDbLine
 10
-55.00000000000007
 20
4.0
 30
0.0
 11
-66.99999999999997
 21
4.0
 31
0.0
  0
SOLID
  5
25F
330
25B
100
AcDbEntity
  8
1
 62
     4
100
AcDbTrace
 10
-64.0784325168882
 20
-3.0
 30
0.0
 11
-65.92156748311174
 21
-3.0
 31
0.0
 12
-64.99999999999997
 22
4.0
 32
0.0
 13
-64.99999999999997
 23
4.0
 33
0.0
  0
SOLID
  5
260
330
25B
100
AcDbEntity
  8
1
 62
     4
100
AcDbTrace
 10
-65.92156748311174
 20
-42.97500653990642
 30
0.0
 11
-64.0784325168882
 21
-42.97500653990642
 31
0.0
 12
-64.99999999999997
 22
-49.97500653990642
 32
0.0
 13
-64.99999999999997
 23
-49.97500653990642
 33
0.0
  0
MTEXT
  5
261
330
25B
100
AcDbEntity
  8
1
 62
     1
100
AcDbMText
 10
-66.99999999999997
 20
-26.91129699880713
 30
0.0
 40
7.0
 41
0.0
 71
     7
 72
     1
  1
54
  7
CONVERTER_11
 11
0.0
 21
1.0
 31
0.0
 73
     1
 44
0.60024009603842
  0
ENDBLK
  5
263
330
25B
100
AcDbEntity
  8
0
100
AcDbBlockEnd
  0
BLOCK
  5
26D
330
266
100
AcDbEntity
  8
0
100
AcDbBlockBegin
  2
*D22
 70
     1
 10
0.0
 20
0.0
 30
0.0
  3
*D22
  1

  0
LINE
  5
267
330
266
100
AcDbEntity
  8
1
  6
Continuous
 62
     4
100
AcDbLine
 10
-90.25179313835704
 20
4.0
 30
0.0
 11
-90.25179313835704
 21
-188.9955213210459
 31
0.0
  0
LINE
  5
268
330
266
100
AcDbEntity
  8
1
  6
Continuous
 62
     4
100
AcDbLine
 10
37.93282871342086
 20
-188.9955213210459
 30
0.0
 11
-92.25179313835704
 21
-188.9955213210459
 31
0.0
  0
LINE
  5
269
330
266
100
AcDbEntity
  8
1
  6
Continuous
 62
     4
100
AcDbLine
 10
-55.00000000000007
 20
4.0
 30
0.0
 11
-92.25179313835704
 21
4.0
 31
0.0
  0
SOLID
  5
26A
330
266
100
AcDbEntity
  8
1
 62
     4
100
AcDbTrace
 10
-89.33022565524527
 20
-3.0
 30
0.0
 11
-91.17336062146882
 21
-3.0
 31
0.0
 12
-90.25179313835704
 22
4.0
 32
0.0
 13
-90.25179313835704
 23
4.0
 33
0.0
  0
SOLID
  5
26B
330
266
100
AcDbEntity
  8
1
 62
     4
100
AcDbTrace
 10
-91.17336062146882
 20
-181.9955213210459
 30
0.0
 11
-89.33022565524527
 21
-181.9955213210459
 31
0.0
 12
-90.25179313835704
 22
-188.9955213210459
 32
0.0
 13
-90.25179313835704
 23
-188.9955213210459
 33
0.0
  0
MTEXT
  5
26C
330
266
100
AcDbEntity
  8
1
 62
     1
100
AcDbMText
 10
-92.25179313835704
 20
-100.8046410053734
 30
0.0
 40
7.0
 41
0.0
 71
     7
 72
     1
  1
193
  7
CONVERTER_11
 11
0.0
 21
1.0
 31
0.0
 73
     1
 44
0.60024009603842
  0
ENDBLK
  5
26E
330
266
100
AcDbEntity
  8
0
100
AcDbBlockEnd
  0
ENDSEC
  0
SECTION
  2
ENTITIES
  0
INSERT
  5
8E
330
1F
100
AcDbEntity
  8
0
100
AcDbBlockReference
  2
HL_522_Brausetassensifon
 10
62.45609918643199
 20
-71.5881160385895
 30
0.0
  0
INSERT
  5
8F
330
1F
100
AcDbEntity
  8
0
100
AcDbBlockReference
  2
GV_Einsatz-Rohr
 10
0.00000000000003
 20
22.50000000000001
 30
0.0
  0
INSERT
  5
90
330
1F
100
AcDbEntity
  8
0
100
AcDbBlockReference
  2
11073-Kappenhalter-520-522-verpresst
 10
-0.00000000000025
 20
23.4063671470997
 30
0.0
  0
ENDSEC
  0
SECTION
  2
OBJECTS
  0
DICTIONARY
  5
C
330
0
100
AcDbDictionary
281
     1
  3
ACAD_GROUP
350
D
  3
ACAD_LAYOUT
350
1A
  3
ACAD_MLEADERSTYLE
350
2BA
  3
ACAD_MLINESTYLE
350
17
  3
ACAD_PLOTSETTINGS
350
19
  3
ACAD_PLOTSTYLENAME
350
E
  3
ACAD_SCALELIST
350
47
  3
ACAD_VISUALSTYLE
350
2A
  3
AcDbVariableDictionary
350
2B8
  0
DICTIONARY
  5
D
102
{ACAD_REACTORS
330
C
102
}
330
C
100
AcDbDictionary
281
     1
  0
DICTIONARY
  5
1A
102
{ACAD_REACTORS
330
C
102
}
330
C
100
AcDbDictionary
281
     1
  3
Layout1
350
1E
  3
Layout2
350
26
  3
Model
350
22
  0
DICTIONARY
  5
2BA
102
{ACAD_REACTORS
330
C
102
}
330
C
100
AcDbDictionary
281
     1
  0
DICTIONARY
  5
17
102
{ACAD_REACTORS
330
C
102
}
330
C
100
AcDbDictionary
281
     1
  3
Standard
350
18
  0
DICTIONARY
  5
19
102
{ACAD_REACTORS
330
C
102
}
330
C
100
AcDbDictionary
281
     1
  0
ACDBDICTIONARYWDFLT
  5
E
102
{ACAD_REACTORS
330
C
102
}
330
C
100
AcDbDictionary
281
     1
  3
Normal
350
F
100
AcDbDictionaryWithDefault
340
F
  0
DICTIONARY
  5
47
102
{ACAD_REACTORS
330
C
102
}
330
C
100
AcDbDictionary
281
     1
  3
A0
350
48
  3
A1
350
49
  3
A2
350
4A
  3
A3
350
4B
  3
A4
350
4C
  3
A5
350
4D
  3
A6
350
4E
  3
A7
350
4F
  3
A8
350
50
  3
A9
350
51
  3
B0
350
52
  3
B1
350
53
  3
B2
350
54
  3
B3
350
55
  3
B4
350
56
  3
B5
350
57
  3
B6
350
58
  3
B7
350
59
  3
B8
350
5A
  3
B9
350
5B
  3
C0
350
5C
  3
C1
350
5D
  3
C2
350
5E
  3
C3
350
5F
  3
C4
350
60
  3
C5
350
61
  3
C6
350
62
  3
C7
350
63
  3
C8
350
64
  3
C9
350
65
  3
D0
350
66
  3
D1
350
67
  3
D2
350
68
  0
DICTIONARY
  5
2A
102
{ACAD_REACTORS
330
C
102
}
330
C
100
AcDbDictionary
281
     1
  3
2dWireframe
350
2F
  3
3D Hidden
350
31
  3
3dWireframe
350
30
  3
Basic
350
32
  3
Brighten
350
36
  3
ColorChange
350
3A
  3
Conceptual
350
34
  3
Dim
350
35
  3
Facepattern
350
39
  3
Flat
350
2B
  3
FlatWithEdges
350
2C
  3
Gouraud
350
2D
  3
GouraudWithEdges
350
2E
  3
Linepattern
350
38
  3
Realistic
350
33
  3
Thicken
350
37
  0
DICTIONARY
  5
2B8
102
{ACAD_REACTORS
330
C
102
}
330
C
100
AcDbDictionary
281
     1
  3
CANNOSCALE
350
2BB
  0
LAYOUT
  5
1E
102
{ACAD_REACTORS
330
1A
102
}
330
1A
100
AcDbPlotSettings
  1

  2
none_device
  4

  6

 40
0.0
 41
0.0
 42
0.0
 43
0.0
 44
0.0
 45
0.0
 46
0.0
 47
0.0
 48
0.0
 49
0.0
140
0.0
141
0.0
142
1.0
143
1.0
 70
   688
 72
     0
 73
     0
 74
     5
  7

 75
    16
147
1.0
148
0.0
149
0.0
100
AcDbLayout
  1
Layout1
 70
     1
 71
     1
 10
0.0
 20
0.0
 11
12.0
 21
9.0
 12
0.0
 22
0.0
 32
0.0
 14
1.00000000000000E+20
 24
1.00000000000000E+20
 34
1.00000000000000E+20
 15
-1.00000000000000E+20
 25
-1.00000000000000E+20
 35
-1.00000000000000E+20
146
0.0
 13
0.0
 23
0.0
 33
0.0
 16
1.0
 26
0.0
 36
0.0
 17
0.0
 27
1.0
 37
0.0
 76
     0
330
1B
  0
LAYOUT
  5
26
102
{ACAD_REACTORS
330
1A
102
}
330
1A
100
AcDbPlotSettings
  1

  2
none_device
  4

  6

 40
0.0
 41
0.0
 42
0.0
 43
0.0
 44
0.0
 45
0.0
 46
0.0
 47
0.0
 48
0.0
 49
0.0
140
0.0
141
0.0
142
1.0
143
1.0
 70
   688
 72
     0
 73
     0
 74
     5
  7

 75
    16
147
1.0
148
0.0
149
0.0
100
AcDbLayout
  1
Layout2
 70
     1
 71
     2
 10
0.0
 20
0.0
 11
0.0
 21
0.0
 12
0.0
 22
0.0
 32
0.0
 14
0.0
 24
0.0
 34
0.0
 15
0.0
 25
0.0
 35
0.0
146
0.0
 13
0.0
 23
0.0
 33
0.0
 16
1.0
 26
0.0
 36
0.0
 17
0.0
 27
1.0
 37
0.0
 76
     0
330
23
  0
LAYOUT
  5
22
102
{ACAD_REACTORS
330
1A
102
}
330
1A
100
AcDbPlotSettings
  1

  2
none_device
  4

  6

 40
0.0
 41
0.0
 42
0.0
 43
0.0
 44
0.0
 45
0.0
 46
0.0
 47
0.0
 48
0.0
 49
0.0
140
0.0
141
0.0
142
1.0
143
1.0
 70
  1712
 72
     0
 73
     0
 74
     0
  7

 75
     0
147
1.0
148
0.0
149
0.0
100
AcDbLayout
  1
Model
 70
     1
 71
     0
 10
0.0
 20
0.0
 11
12.0
 21
9.0
 12
0.0
 22
0.0
 32
0.0
 14
-99.25179313835704
 24
-205.1530442169172
 34
0.0
 15
224.163991511221
 25
61.9768121397382
 35
0.0
146
0.0
 13
0.0
 23
0.0
 33
0.0
 16
1.0
 26
0.0
 36
0.0
 17
0.0
 27
1.0
 37
0.0
 76
     0
330
1F
331
29
  0
MLINESTYLE
  5
18
102
{ACAD_REACTORS
330
17
102
}
330
17
100
AcDbMlineStyle
  2
Standard
 70
     0
  3

 62
   256
 51
90.0
 52
90.0
 71
     2
 49
0.5
 62
   256
  6
BYLAYER
 49
-0.5
 62
   256
  6
BYLAYER
  0
ACDBPLACEHOLDER
  5
F
102
{ACAD_REACTORS
330
E
102
}
330
E
  0
SCALE
  5
48
102
{ACAD_REACTORS
330
47
102
}
330
47
100
AcDbScale
 70
     0
300
1:1
140
1.0
141
1.0
290
     1
  0
SCALE
  5
49
102
{ACAD_REACTORS
330
47
102
}
330
47
100
AcDbScale
 70
     0
300
1:2
140
1.0
141
2.0
290
     0
  0
SCALE
  5
4A
102
{ACAD_REACTORS
330
47
102
}
330
47
100
AcDbScale
 70
     0
300
1:4
140
1.0
141
4.0
290
     0
  0
SCALE
  5
4B
102
{ACAD_REACTORS
330
47
102
}
330
47
100
AcDbScale
 70
     0
300
1:5
140
1.0
141
5.0
290
     0
  0
SCALE
  5
4C
102
{ACAD_REACTORS
330
47
102
}
330
47
100
AcDbScale
 70
     0
300
1:8
140
1.0
141
8.0
290
     0
  0
SCALE
  5
4D
102
{ACAD_REACTORS
330
47
102
}
330
47
100
AcDbScale
 70
     0
300
1:10
140
1.0
141
10.0
290
     0
  0
SCALE
  5
4E
102
{ACAD_REACTORS
330
47
102
}
330
47
100
AcDbScale
 70
     0
300
1:16
140
1.0
141
16.0
290
     0
  0
SCALE
  5
4F
102
{ACAD_REACTORS
330
47
102
}
330
47
100
AcDbScale
 70
     0
300
1:20
140
1.0
141
20.0
290
     0
  0
SCALE
  5
50
102
{ACAD_REACTORS
330
47
102
}
330
47
100
AcDbScale
 70
     0
300
1:30
140
1.0
141
30.0
290
     0
  0
SCALE
  5
51
102
{ACAD_REACTORS
330
47
102
}
330
47
100
AcDbScale
 70
     0
300
1:40
140
1.0
141
40.0
290
     0
  0
SCALE
  5
52
102
{ACAD_REACTORS
330
47
102
}
330
47
100
AcDbScale
 70
     0
300
1:50
140
1.0
141
50.0
290
     0
  0
SCALE
  5
53
102
{ACAD_REACTORS
330
47
102
}
330
47
100
AcDbScale
 70
     0
300
1:100
140
1.0
141
100.0
290
     0
  0
SCALE
  5
54
102
{ACAD_REACTORS
330
47
102
}
330
47
100
AcDbScale
 70
     0
300
2:1
140
2.0
141
1.0
290
     0
  0
SCALE
  5
55
102
{ACAD_REACTORS
330
47
102
}
330
47
100
AcDbScale
 70
     0
300
4:1
140
4.0
141
1.0
290
     0
  0
SCALE
  5
56
102
{ACAD_REACTORS
330
47
102
}
330
47
100
AcDbScale
 70
     0
300
8:1
140
8.0
141
1.0
290
     0
  0
SCALE
  5
57
102
{ACAD_REACTORS
330
47
102
}
330
47
100
AcDbScale
 70
     0
300
10:1
140
10.0
141
1.0
290
     0
  0
SCALE
  5
58
102
{ACAD_REACTORS
330
47
102
}
330
47
100
AcDbScale
 70
     0
300
100:1
140
100.0
141
1.0
290
     0
  0
SCALE
  5
59
102
{ACAD_REACTORS
330
47
102
}
330
47
100
AcDbScale
 70
     0
300
1/128" = 1'-0"
140
0.0078125
141
12.0
290
     0
  0
SCALE
  5
5A
102
{ACAD_REACTORS
330
47
102
}
330
47
100
AcDbScale
 70
     0
300
1/64" = 1'-0"
140
0.015625
141
12.0
290
     0
  0
SCALE
  5
5B
102
{ACAD_REACTORS
330
47
102
}
330
47
100
AcDbScale
 70
     0
300
1/32" = 1'-0"
140
0.03125
141
12.0
290
     0
  0
SCALE
  5
5C
102
{ACAD_REACTORS
330
47
102
}
330
47
100
AcDbScale
 70
     0
300
1/16" = 1'-0"
140
0.0625
141
12.0
290
     0
  0
SCALE
  5
5D
102
{ACAD_REACTORS
330
47
102
}
330
47
100
AcDbScale
 70
     0
300
3/32" = 1'-0"
140
0.09375
141
12.0
290
     0
  0
SCALE
  5
5E
102
{ACAD_REACTORS
330
47
102
}
330
47
100
AcDbScale
 70
     0
300
1/8" = 1'-0"
140
0.125
141
12.0
290
     0
  0
SCALE
  5
5F
102
{ACAD_REACTORS
330
47
102
}
330
47
100
AcDbScale
 70
     0
300
3/16" = 1'-0"
140
0.1875
141
12.0
290
     0
  0
SCALE
  5
60
102
{ACAD_REACTORS
330
47
102
}
330
47
100
AcDbScale
 70
     0
300
1/4" = 1'-0"
140
0.25
141
12.0
290
     0
  0
SCALE
  5
61
102
{ACAD_REACTORS
330
47
102
}
330
47
100
AcDbScale
 70
     0
300
3/8" = 1'-0"
140
0.375
141
12.0
290
     0
  0
SCALE
  5
62
102
{ACAD_REACTORS
330
47
102
}
330
47
100
AcDbScale
 70
     0
300
1/2" = 1'-0"
140
0.5
141
12.0
290
     0
  0
SCALE
  5
63
102
{ACAD_REACTORS
330
47
102
}
330
47
100
AcDbScale
 70
     0
300
3/4" = 1'-0"
140
0.75
141
12.0
290
     0
  0
SCALE
  5
64
102
{ACAD_REACTORS
330
47
102
}
330
47
100
AcDbScale
 70
     0
300
1" = 1'-0"
140
1.0
141
12.0
290
     0
  0
SCALE
  5
65
102
{ACAD_REACTORS
330
47
102
}
330
47
100
AcDbScale
 70
     0
300
1-1/2" = 1'-0"
140
1.5
141
12.0
290
     0
  0
SCALE
  5
66
102
{ACAD_REACTORS
330
47
102
}
330
47
100
AcDbScale
 70
     0
300
3" = 1'-0"
140
3.0
141
12.0
290
     0
  0
SCALE
  5
67
102
{ACAD_REACTORS
330
47
102
}
330
47
100
AcDbScale
 70
     0
300
6" = 1'-0"
140
6.0
141
12.0
290
     0
  0
SCALE
  5
68
102
{ACAD_REACTORS
330
47
102
}
330
47
100
AcDbScale
 70
     0
300
1'-0" = 1'-0"
140
12.0
141
12.0
290
     0
  0
VISUALSTYLE
  5
2F
102
{ACAD_REACTORS
330
2A
102
}
330
2A
100
AcDbVisualStyle
  2
2dWireframe
 70
     4
 71
     0
 72
     2
 73
     0
 90
        0
 40
-0.6
 41
-30.0
 62
     5
 63
     7
 74
     1
 91
        4
 64
     7
 65
   257
 75
     1
175
     1
 42
1.0
 92
        0
 66
   257
 43
1.0
 76
     1
 77
     6
 78
     2
 67
     7
 79
     5
170
     0
171
     0
290
     0
174
     0
 93
        1
 44
0.0
173
     0
291
     0
 45
0.0
1001
ACAD
1000
AcDbSavedByObjectVersion
1070
     0
  0
VISUALSTYLE
  5
31
102
{ACAD_REACTORS
330
2A
102
}
330
2A
100
AcDbVisualStyle
  2
3D Hidden
 70
     6
 71
     1
 72
     2
 73
     2
 90
        0
 40
-0.6
 41
-30.0
 62
     5
 63
     7
 74
     2
 91
        2
 64
     7
 65
   257
 75
     2
175
     1
 42
40.0
 92
        0
 66
   257
 43
1.0
 76
     1
 77
     6
 78
     2
 67
     7
 79
     3
170
     0
171
     0
290
     0
174
     0
 93
        1
 44
0.0
173
     0
291
     0
 45
0.0
1001
ACAD
1000
AcDbSavedByObjectVersion
1070
     0
  0
VISUALSTYLE
  5
30
102
{ACAD_REACTORS
330
2A
102
}
330
2A
100
AcDbVisualStyle
  2
3dWireframe
 70
     5
 71
     0
 72
     2
 73
     0
 90
        0
 40
-0.6
 41
-30.0
 62
     5
 63
     7
 74
     1
 91
        4
 64
     7
 65
   257
 75
     1
175
     1
 42
1.0
 92
        0
 66
   257
 43
1.0
 76
     1
 77
     6
 78
     2
 67
     7
 79
     5
170
     0
171
     0
290
     0
174
     0
 93
        1
 44
0.0
173
     0
291
     0
 45
0.0
1001
ACAD
1000
AcDbSavedByObjectVersion
1070
     0
  0
VISUALSTYLE
  5
32
102
{ACAD_REACTORS
330
2A
102
}
330
2A
100
AcDbVisualStyle
  2
Basic
 70
     7
 71
     1
 72
     0
 73
     1
 90
        0
 40
-0.6
 41
-30.0
 62
     5
 63
     7
 74
     0
 91
        4
 64
     7
 65
   257
 75
     1
175
     1
 42
1.0
 92
        8
 66
     7
 43
1.0
 76
     1
 77
     6
 78
     2
 67
     7
 79
     5
170
     0
171
     0
290
     0
174
     0
 93
        1
 44
0.0
173
     0
291
     1
 45
0.0
1001
ACAD
1000
AcDbSavedByObjectVersion
1070
     0
  0
VISUALSTYLE
  5
36
102
{ACAD_REACTORS
330
2A
102
}
330
2A
100
AcDbVisualStyle
  2
Brighten
 70
    12
 71
     2
 72
     2
 73
     0
 90
        0
 40
-0.6
 41
-30.0
 62
     5
 63
     7
 74
     1
 91
        4
 64
     7
 65
   257
 75
     1
175
     1
 42
1.0
 92
        8
 66
     7
 43
1.0
 76
     1
 77
     6
 78
     2
 67
     7
 79
     5
170
     0
171
     0
290
     0
174
     0
 93
        1
 44
50.0
173
     0
291
     1
 45
0.0
1001
ACAD
1000
AcDbSavedByObjectVersion
1070
     0
  0
VISUALSTYLE
  5
3A
102
{ACAD_REACTORS
330
2A
102
}
330
2A
100
AcDbVisualStyle
  2
ColorChange
 70
    16
 71
     2
 72
     2
 73
     3
 90
        0
 40
-0.6
 41
-30.0
 62
     5
 63
     8
 74
     1
 91
        4
 64
     7
 65
   257
 75
     1
175
     1
 42
1.0
 92
        8
 66
     8
 43
1.0
 76
     1
 77
     6
 78
     2
 67
     7
 79
     5
170
     0
171
     0
290
     0
174
     0
 93
        1
 44
0.0
173
     0
291
     1
 45
0.0
1001
ACAD
1000
AcDbSavedByObjectVersion
1070
     0
  0
VISUALSTYLE
  5
34
102
{ACAD_REACTORS
330
2A
102
}
330
2A
100
AcDbVisualStyle
  2
Conceptual
 70
     9
 71
     3
 72
     2
 73
     0
 90
        0
 40
-0.6
 41
-30.0
 62
     5
 63
     7
 74
     2
 91
        2
 64
     7
 65
   257
 75
     1
175
     1
 42
40.0
 92
        8
 66
     7
 43
1.0
 76
     1
 77
     6
 78
     2
 67
     7
 79
     3
170
     0
171
     0
290
     0
174
     0
 93
        1
 44
0.0
173
     0
291
     0
 45
0.0
1001
ACAD
1000
AcDbSavedByObjectVersion
1070
     0
  0
VISUALSTYLE
  5
35
102
{ACAD_REACTORS
330
2A
102
}
330
2A
100
AcDbVisualStyle
  2
Dim
 70
    11
 71
     2
 72
     2
 73
     0
 90
        0
 40
-0.6
 41
-30.0
 62
     5
 63
     7
 74
     1
 91
        4
 64
     7
 65
   257
 75
     1
175
     1
 42
1.0
 92
        8
 66
     7
 43
1.0
 76
     1
 77
     6
 78
     2
 67
     7
 79
     5
170
     0
171
     0
290
     0
174
     0
 93
        1
 44
-50.0
173
     0
291
     1
 45
0.0
1001
ACAD
1000
AcDbSavedByObjectVersion
1070
     0
  0
VISUALSTYLE
  5
39
102
{ACAD_REACTORS
330
2A
102
}
330
2A
100
AcDbVisualStyle
  2
Facepattern
 70
    15
 71
     2
 72
     2
 73
     0
 90
        0
 40
-0.6
 41
-30.0
 62
     5
 63
     7
 74
     1
 91
        4
 64
     7
 65
   257
 75
     1
175
     1
 42
1.0
 92
        8
 66
     7
 43
1.0
 76
     1
 77
     6
 78
     2
 67
     7
 79
     5
170
     0
171
     0
290
     0
174
     0
 93
        1
 44
0.0
173
     0
291
     1
 45
0.0
1001
ACAD
1000
AcDbSavedByObjectVersion
1070
     0
  0
VISUALSTYLE
  5
2B
102
{ACAD_REACTORS
330
2A
102
}
330
2A
100
AcDbVisualStyle
  2
Flat
 70
     0
 71
     2
 72
     1
 73
     1
 90
        2
 40
-0.6
 41
30.0
 62
     5
 63
     7
 74
     0
 91
        4
 64
     7
 65
   257
 75
     1
175
     1
 42
1.0
 92
        8
 66
     7
 43
1.0
 76
     1
 77
     6
 78
     2
 67
     7
 79
     5
170
     0
171
     0
290
     0
174
     0
 93
       13
 44
0.0
173
     0
291
     1
 45
0.0
1001
ACAD
1000
AcDbSavedByObjectVersion
1070
     0
  0
VISUALSTYLE
  5
2C
102
{ACAD_REACTORS
330
2A
102
}
330
2A
100
AcDbVisualStyle
  2
FlatWithEdges
 70
     1
 71
     2
 72
     1
 73
     1
 90
        2
 40
-0.6
 41
30.0
 62
     5
 63
     7
 74
     1
 91
        4
 64
     7
 65
   257
 75
     1
175
     1
 42
1.0
 92
        0
 66
   257
 43
1.0
 76
     1
 77
     6
 78
     2
 67
     7
 79
     5
170
     0
171
     0
290
     0
174
     0
 93
       13
 44
0.0
173
     0
291
     1
 45
0.0
1001
ACAD
1000
AcDbSavedByObjectVersion
1070
     0
  0
VISUALSTYLE
  5
2D
102
{ACAD_REACTORS
330
2A
102
}
330
2A
100
AcDbVisualStyle
  2
Gouraud
 70
     2
 71
     2
 72
     2
 73
     1
 90
        2
 40
-0.6
 41
30.0
 62
     5
 63
     7
 74
     0
 91
        4
 64
     7
 65
   257
 75
     1
175
     1
 42
1.0
 92
        0
 66
     7
 43
1.0
 76
     1
 77
     6
 78
     2
 67
     7
 79
     5
170
     0
171
     0
290
     0
174
     0
 93
       13
 44
0.0
173
     0
291
     1
 45
0.0
1001
ACAD
1000
AcDbSavedByObjectVersion
1070
     0
  0
VISUALSTYLE
  5
2E
102
{ACAD_REACTORS
330
2A
102
}
330
2A
100
AcDbVisualStyle
  2
GouraudWithEdges
 70
     3
 71
     2
 72
     2
 73
     1
 90
        2
 40
-0.6
 41
30.0
 62
     5
 63
     7
 74
     1
 91
        4
 64
     7
 65
   257
 75
     1
175
     1
 42
1.0
 92
        0
 66
   257
 43
1.0
 76
     1
 77
     6
 78
     2
 67
     7
 79
     5
170
     0
171
     0
290
     0
174
     0
 93
       13
 44
0.0
173
     0
291
     1
 45
0.0
1001
ACAD
1000
AcDbSavedByObjectVersion
1070
     0
  0
VISUALSTYLE
  5
38
102
{ACAD_REACTORS
330
2A
102
}
330
2A
100
AcDbVisualStyle
  2
Linepattern
 70
    14
 71
     2
 72
     2
 73
     0
 90
        0
 40
-0.6
 41
-30.0
 62
     5
 63
     7
 74
     1
 91
        4
 64
     7
 65
   257
 75
     7
175
     7
 42
1.0
 92
        8
 66
     7
 43
1.0
 76
     1
 77
     6
 78
     2
 67
     7
 79
     5
170
     0
171
     0
290
     0
174
     0
 93
        1
 44
0.0
173
     0
291
     1
 45
0.0
1001
ACAD
1000
AcDbSavedByObjectVersion
1070
     0
  0
VISUALSTYLE
  5
33
102
{ACAD_REACTORS
330
2A
102
}
330
2A
100
AcDbVisualStyle
  2
Realistic
 70
     8
 71
     2
 72
     2
 73
     0
 90
        0
 40
-0.6
 41
-30.0
 62
     5
 63
     7
 74
     1
 91
        0
 64
     7
 65
   257
 75
     1
175
     1
 42
1.0
 92
        8
 66
     8
 43
1.0
 76
     1
 77
     6
 78
     2
 67
     7
 79
     5
170
     0
171
     0
290
     0
174
     0
 93
       13
 44
0.0
173
     0
291
     0
 45
0.0
1001
ACAD
1000
AcDbSavedByObjectVersion
1070
     0
  0
VISUALSTYLE
  5
37
102
{ACAD_REACTORS
330
2A
102
}
330
2A
100
AcDbVisualStyle
  2
Thicken
 70
    13
 71
     2
 72
     2
 73
     0
 90
        0
 40
-0.6
 41
-30.0
 62
     5
 63
     7
 74
     1
 91
        4
 64
     7
 65
   257
 75
     1
175
     1
 42
1.0
 92
       12
 66
     7
 43
1.0
 76
     1
 77
     6
 78
     2
 67
     7
 79
     5
170
     0
171
     0
290
     0
174
     0
 93
        1
 44
0.0
173
     0
291
     1
 45
0.0
1001
ACAD
1000
AcDbSavedByObjectVersion
1070
     0
  0
DICTIONARYVAR
  5
2BB
102
{ACAD_REACTORS
330
2B8
102
}
330
2B8
100
DictionaryVariables
280
     0
  1
1:1
  0
ENDSEC
  0
EOF
