  0
SECTION
  2
HEADER
  9
$ACADVER
  1
AC1014
  9
$ACADMAINTVER
 70
             0
  9
$DWGCODEPAGE
  3
ANSI_1252
  9
$INSBASE
 10
0.0
 20
0.0
 30
0.0
  9
$EXTMIN
 10
-199.500437640054
 20
-232.99202971822399
 30
0.0
  9
$EXTMAX
 10
176.99999800000001
 20
118.841394334611
 30
0.0
  9
$LIMMIN
 10
0.0
 20
0.0
  9
$LIMMAX
 10
0.0
 20
0.0
  9
$ORTHOMODE
 70
             0
  9
$REGENMODE
 70
             1
  9
$FILLMODE
 70
             1
  9
$QTEXTMODE
 70
             0
  9
$MIRRTEXT
 70
             1
  9
$DRAGMODE
 70
             2
  9
$LTSCALE
 40
1.0
  9
$OSMODE
 70
             0
  9
$ATTMODE
 70
             1
  9
$TEXTSIZE
 40
0.2
  9
$TRACEWID
 40
0.05
  9
$TEXTSTYLE
  7
STANDARD
  9
$CLAYER
  8
0
  9
$CELTYPE
  6
CONTINUOUS
  9
$CECOLOR
 62
           256
  9
$CELTSCALE
 40
1.0
  9
$DELOBJ
 70
             1
  9
$DISPSILH
 70
             0
  9
$DIMSCALE
 40
1.0
  9
$DIMASZ
 40
0.18
  9
$DIMEXO
 40
0.0625
  9
$DIMDLI
 40
0.38
  9
$DIMRND
 40
0.0
  9
$DIMDLE
 40
0.0
  9
$DIMEXE
 40
0.18
  9
$DIMTP
 40
0.0
  9
$DIMTM
 40
0.0
  9
$DIMTXT
 40
0.18
  9
$DIMCEN
 40
0.09
  9
$DIMTSZ
 40
0.0
  9
$DIMTOL
 70
             0
  9
$DIMLIM
 70
             0
  9
$DIMTIH
 70
             1
  9
$DIMTOH
 70
             1
  9
$DIMSE1
 70
             0
  9
$DIMSE2
 70
             0
  9
$DIMTAD
 70
             0
  9
$DIMZIN
 70
             0
  9
$DIMBLK
  1

  9
$DIMASO
 70
             1
  9
$DIMSHO
 70
             1
  9
$DIMPOST
  1

  9
$DIMAPOST
  1

  9
$DIMALT
 70
             0
  9
$DIMALTD
 70
             2
  9
$DIMALTF
 40
25.4
  9
$DIMLFAC
 40
1.0
  9
$DIMTOFL
 70
             0
  9
$DIMTVP
 40
0.0
  9
$DIMTIX
 70
             0
  9
$DIMSOXD
 70
             0
  9
$DIMSAH
 70
             0
  9
$DIMBLK1
  1

  9
$DIMBLK2
  1

  9
$DIMSTYLE
  2
STANDARD
  9
$DIMCLRD
 70
             0
  9
$DIMCLRE
 70
             0
  9
$DIMCLRT
 70
             0
  9
$DIMTFAC
 40
1.0
  9
$DIMGAP
 40
0.09
  9
$DIMJUST
 70
             0
  9
$DIMSD1
 70
             0
  9
$DIMSD2
 70
             0
  9
$DIMTOLJ
 70
             1
  9
$DIMTZIN
 70
             0
  9
$DIMALTZ
 70
             0
  9
$DIMALTTZ
 70
             0
  9
$DIMFIT
 70
             3
  9
$DIMUPT
 70
             0
  9
$DIMUNIT
 70
             2
  9
$DIMDEC
 70
             4
  9
$DIMTDEC
 70
             4
  9
$DIMALTU
 70
             2
  9
$DIMALTTD
 70
             2
  9
$DIMTXSTY
  7
STANDARD
  9
$DIMAUNIT
 70
             0
  9
$LUNITS
 70
             2
  9
$LUPREC
 70
             4
  9
$SKETCHINC
 40
0.1
  9
$FILLETRAD
 40
0.0
  9
$AUNITS
 70
             0
  9
$AUPREC
 70
             0
  9
$MENU
  1
acad
  9
$ELEVATION
 40
0.0
  9
$PELEVATION
 40
0.0
  9
$THICKNESS
 40
0.0
  9
$LIMCHECK
 70
             0
  9
$BLIPMODE
 70
             1
  9
$CHAMFERA
 40
0.0
  9
$CHAMFERB
 40
0.0
  9
$CHAMFERC
 40
0.0
  9
$CHAMFERD
 40
0.0
  9
$SKPOLY
 70
             0
  9
$TDCREATE
 40
0.000000000
  9
$TDUPDATE
 40
0.000000000
  9
$TDINDWG
 40
0.0000000000
  9
$TDUSRTIMER
 40
0.0000000000
  9
$USRTIMER
 70
             1
  9
$ANGBASE
 50
0.0
  9
$ANGDIR
 70
             0
  9
$PDMODE
 70
             0
  9
$PDSIZE
 40
0.0
  9
$PLINEWID
 40
0.0
  9
$COORDS
 70
             0
  9
$SPLFRAME
 70
             0
  9
$SPLINETYPE
 70
             6
  9
$SPLINESEGS
 70
             8
  9
$ATTDIA
 70
             0
  9
$ATTREQ
 70
             1
  9
$HANDLING
 70
             1
  9
$HANDSEED
  5
31B
  9
$SURFTAB1
 70
             6
  9
$SURFTAB2
 70
             6
  9
$SURFTYPE
 70
             6
  9
$SURFU
 70
             6
  9
$SURFV
 70
             6
  9
$UCSNAME
  2

  9
$UCSORG
 10
0.0
 20
0.0
 30
0.0
  9
$UCSXDIR
 10
1.0
 20
0.0
 30
0.0
  9
$UCSYDIR
 10
0.0
 20
1.0
 30
0.0
  9
$PUCSNAME
  2

  9
$PUCSORG
 10
0.0
 20
0.0
 30
0.0
  9
$PUCSXDIR
 10
1.0
 20
0.0
 30
0.0
  9
$PUCSYDIR
 10
0.0
 20
1.0
 30
0.0
  9
$USERI1
 70
             0
  9
$USERI2
 70
             0
  9
$USERI3
 70
             0
  9
$USERI4
 70
             0
  9
$USERI5
 70
             0
  9
$USERR1
 40
12.01
  9
$USERR2
 40
0.0
  9
$USERR3
 40
0.0
  9
$USERR4
 40
0.0
  9
$USERR5
 40
0.0
  9
$WORLDVIEW
 70
             1
  9
$SHADEDGE
 70
             3
  9
$SHADEDIF
 70
            70
  9
$TILEMODE
 70
             1
  9
$MAXACTVP
 70
            16
  9
$PINSBASE
 10
0.0
 20
0.0
 30
0.0
  9
$PLIMCHECK
 70
             0
  9
$PEXTMIN
 10
1.00000000000000E+20
 20
1.00000000000000E+20
 30
1.00000000000000E+20
  9
$PEXTMAX
 10
-1.00000000000000E+20
 20
-1.00000000000000E+20
 30
-1.00000000000000E+20
  9
$PLIMMIN
 10
0.0
 20
0.0
  9
$PLIMMAX
 10
12.0
 20
9.0
  9
$UNITMODE
 70
             0
  9
$VISRETAIN
 70
             0
  9
$PLINEGEN
 70
             1
  9
$PSLTSCALE
 70
             0
  9
$TREEDEPTH
 70
          3020
  9
$PICKSTYLE
 70
             1
  9
$CMLSTYLE
  2
STANDARD
  9
$CMLJUST
 70
             0
  9
$CMLSCALE
 40
1.0
  9
$PROXYGRAPHICS
 70
             0
  9
$MEASUREMENT
 70
             1
  0
ENDSEC
  0
SECTION
  2
CLASSES
  0
CLASS
  1
LWPOLYLINE
  2
AcDbPolyline
  3
"AutoCAD"
 90
        0
280
             0
281
             1
  0
CLASS
  1
IMAGE
  2
AcDbRasterImage
  3
ISM
 90
      127
280
             0
281
             1
  0
CLASS
  1
OLE2FRAME
  2
AcDbOle2Frame
  3
""
 90
        0
280
             0
281
             1
  0
CLASS
  1
HATCH
  2
AcDbHatch
  3
"ACAD_SEDONA"
 90
        0
280
             0
281
             1
  0
CLASS
  1
DICTIONARYVAR
  2
AcDbDictionaryVar
  3
"AutoCAD"
 90
        0
280
             0
281
             0
  0
CLASS
  1
RASTERVARIABLES
  2
AcDbRasterVariables
  3
ISM
 90
        0
280
             0
281
             0
  0
CLASS
  1
IMAGEDEF
  2
AcDbRasterImageDef
  3
ISM
 90
        0
280
             0
281
             0
  0
CLASS
  1
IMAGEDEF_REACTOR
  2
AcDbRasterImageDefReactor
  3
ISM
 90
        1
280
             0
281
             0
  0
CLASS
  1
IDBUFFER
  2
AcDbIdBuffer
  3
"Acad"
 90
        0
280
             0
281
             0
  0
CLASS
  1
SPATIAL_FILTER
  2
AcDbSpatialFilter
  3
"Acad"
 90
        0
280
             0
281
             0
  0
CLASS
  1
XRECORD
  2
AcDbXrecord
  3
"<Built In>"
 90
        0
280
             0
281
             0
  0
CLASS
  1
SORTENTSTABLE
  2
AcDbSortentsTable
  3
"AutoCAD"
 90
        0
280
             0
281
             0
  0
CLASS
  1
LAYER_INDEX
  2
AcDbLayerIndex
  3
"Acad"
 90
        0
280
             0
281
             0
  0
CLASS
  1
SPATIAL_INDEX
  2
AcDbSpatialIndex
  3
"Acad"
 90
        0
280
             0
281
             0
  0
CLASS
  1
OBJECT_PTR
  2
CAseDLPNTableRecord
  3
"ASE-LPNTableRecord"
 90
        1
280
             0
281
             0
  0
CLASS
  1
LAYOUT
  2
AcDbLayout
  3
"AutoCAD 2000"
 90
        0
280
             0
281
             0
  0
CLASS
  1
PLOTSETTINGS
  2
AcDbPlotSettings
  3
"AutoCAD 2000"
 90
        0
280
             0
281
             0
  0
CLASS
  1
ACDBDICTIONARYWDFLT
  2
AcDbDictionaryWithDefault
  3
"AutoCAD 2000"
 90
        0
280
             0
281
             0
  0
CLASS
  1
ACDBPLACEHOLDER
  2
AcDbPlaceHolder
  3
"AutoCAD 2000"
 90
        0
280
             0
281
             0
  0
ENDSEC
  0
SECTION
  2
TABLES
  0
TABLE
  2
VPORT
  5
7
100
AcDbSymbolTable
 70
             1
  0
VPORT
  5
15
100
AcDbSymbolTableRecord
100
AcDbViewportTableRecord
  2
*ACTIVE
 70
             0
 10
0.0
 20
0.0
 11
1.0
 21
1.0
 12
-11.250219820027
 22
-57.0753176918065
 13
0.0
 23
0.0
 14
1.0
 24
1.0
 15
0.0
 25
0.0
 16
0.0
 26
0.0
 36
1.0
 17
0.0
 27
0.0
 37
0.0
 40
387.01676645811852
 41
1.60267857142857
 42
50.0
 43
0.0
 44
0.0
 50
0.0
 51
0.0
 71
             0
 72
           100
 73
             1
 74
             1
 75
             0
 76
             0
 77
             0
 78
             0
  0
ENDTAB
  0
TABLE
  2
LTYPE
  5
4
100
AcDbSymbolTable
 70
            11
  0
LTYPE
  5
11
100
AcDbSymbolTableRecord
100
AcDbLinetypeTableRecord
  2
BYBLOCK
 70
            64
  3

 72
            65
 73
             0
 40
0.0
  0
LTYPE
  5
12
100
AcDbSymbolTableRecord
100
AcDbLinetypeTableRecord
  2
BYLAYER
 70
            64
  3

 72
            65
 73
             0
 40
0.0
  0
LTYPE
  5
13
100
AcDbSymbolTableRecord
100
AcDbLinetypeTableRecord
  2
CONTINUOUS
 70
            64
  3
Solid line
 72
            65
 73
             0
 40
0.0
  0
LTYPE
  5
1D
100
AcDbSymbolTableRecord
100
AcDbLinetypeTableRecord
  2
DASHED
 70
            64
  3
Dashed
 72
            65
 73
             2
 40
15.0
 49
7.0
 74
             0
 49
-8.0
 74
             0
  0
LTYPE
  5
1E
100
AcDbSymbolTableRecord
100
AcDbLinetypeTableRecord
  2
DOTTED
 70
            64
  3
Dotted
 72
            65
 73
             2
 40
1.0
 49
0.0
 74
             0
 49
-1.0
 74
             0
  0
LTYPE
  5
1F
100
AcDbSymbolTableRecord
100
AcDbLinetypeTableRecord
  2
DOT_CENTER
 70
            64
  3
Dot_Center
 72
            65
 73
             4
 40
14.0
 49
12.0
 74
             0
 49
-1.0
 74
             0
 49
0.0
 74
             0
 49
-1.0
 74
             0
  0
LTYPE
  5
20
100
AcDbSymbolTableRecord
100
AcDbLinetypeTableRecord
  2
LONG_DASHED
 70
            64
  3
Long_Dashed
 72
            65
 73
             2
 40
15.0
 49
10.0
 74
             0
 49
-5.0
 74
             0
  0
LTYPE
  5
21
100
AcDbSymbolTableRecord
100
AcDbLinetypeTableRecord
  2
DASH_CENTER
 70
            64
  3
Dash_Center
 72
            65
 73
             4
 40
14.0
 49
11.0
 74
             0
 49
-1.0
 74
             0
 49
1.0
 74
             0
 49
-1.0
 74
             0
  0
LTYPE
  5
22
100
AcDbSymbolTableRecord
100
AcDbLinetypeTableRecord
  2
PHANTOM
 70
            64
  3
Phantom
 72
            65
 73
             6
 40
13.0
 49
10.0
 74
             0
 49
-1.0
 74
             0
 49
0.0
 74
             0
 49
-1.0
 74
             0
 49
0.0
 74
             0
 49
-1.0
 74
             0
  0
LTYPE
  5
23
100
AcDbSymbolTableRecord
100
AcDbLinetypeTableRecord
  2
CENTER_DASH_DASH
 70
            64
  3
Center_Dash_Dash
 72
            65
 73
             6
 40
14.0
 49
9.0
 74
             0
 49
-1.0
 74
             0
 49
1.0
 74
             0
 49
-1.0
 74
             0
 49
1.0
 74
             0
 49
-1.0
 74
             0
  0
LTYPE
  5
24
100
AcDbSymbolTableRecord
100
AcDbLinetypeTableRecord
  2
DASHDOT
 70
            64
  3
DASHDOT
 72
            65
 73
             4
 40
16.0
 49
10.0
 74
             0
 49
-3.0
 74
             0
 49
0.0
 74
             0
 49
-3.0
 74
             0
  0
ENDTAB
  0
TABLE
  2
LAYER
  5
2
100
AcDbSymbolTable
 70
             8
  0
LAYER
  5
14
100
AcDbSymbolTableRecord
100
AcDbLayerTableRecord
  2
0
 70
             0
 62
             7
  6
CONTINUOUS
  0
LAYER
  5
25
100
AcDbSymbolTableRecord
100
AcDbLayerTableRecord
  2
1
 70
             0
 62
             7
  6
CONTINUOUS
  0
LAYER
  5
26
100
AcDbSymbolTableRecord
100
AcDbLayerTableRecord
  2
LC-001-002-----0
 70
             0
 62
             7
  6
CONTINUOUS
  0
LAYER
  5
27
100
AcDbSymbolTableRecord
100
AcDbLayerTableRecord
  2
LC-002-002-RND-0
 70
             0
 62
             7
  6
CONTINUOUS
  0
LAYER
  5
28
100
AcDbSymbolTableRecord
100
AcDbLayerTableRecord
  2
LC-003-002-----0
 70
             0
 62
             7
  6
CONTINUOUS
  0
LAYER
  5
29
100
AcDbSymbolTableRecord
100
AcDbLayerTableRecord
  2
LC-004-003-----0
 70
             0
 62
             7
  6
CONTINUOUS
  0
LAYER
  5
2A
100
AcDbSymbolTableRecord
100
AcDbLayerTableRecord
  2
LC-009-002-RND-0
 70
             0
 62
             7
  6
CONTINUOUS
  0
LAYER
  5
2B
100
AcDbSymbolTableRecord
100
AcDbLayerTableRecord
  2
LC-010-006-MLN-0
 70
             0
 62
             7
  6
CONTINUOUS
  0
ENDTAB
  0
TABLE
  2
STYLE
  5
3
100
AcDbSymbolTable
 70
             2
  0
STYLE
  5
17
100
AcDbSymbolTableRecord
100
AcDbTextStyleTableRecord
  2
STANDARD
 70
             0
 40
0.0
 41
1.0
 50
0.0
 71
             0
 42
0.0
  3
txt
  4

  0
STYLE
  5
2D3
100
AcDbSymbolTableRecord
100
AcDbTextStyleTableRecord
  2
CONVERTER_1
 70
             0
 40
0.0
 41
0.9
 50
0.0
 71
             0
 42
0.0
  3
txt.shx
  4

  0
ENDTAB
  0
TABLE
  2
VIEW
  5
5
100
AcDbSymbolTable
 70
             0
  0
ENDTAB
  0
TABLE
  2
UCS
  5
6
100
AcDbSymbolTable
 70
             0
  0
ENDTAB
  0
TABLE
  2
APPID
  5
8
100
AcDbSymbolTable
 70
             1
  0
APPID
  5
16
100
AcDbSymbolTableRecord
100
AcDbRegAppTableRecord
  2
ACAD
 70
             0
  0
ENDTAB
  0
TABLE
  2
DIMSTYLE
  5
9
100
AcDbSymbolTable
 70
             8
  0
DIMSTYLE
105
18
100
AcDbSymbolTableRecord
100
AcDbDimStyleTableRecord
  2
STANDARD
 70
             0
  3

  4

  5

  6

  7

 40
1.0
 41
0.18
 42
0.0625
 43
0.38
 44
0.18
 45
0.0
 46
0.0
 47
0.0
 48
0.0
 71
             0
 72
             0
 73
             1
 74
             1
 75
             0
 76
             0
 77
             0
 78
             0
140
0.18
141
0.09
142
0.0
143
25.4
144
1.0
145
0.0
146
1.0
147
0.09
170
             0
171
             2
172
             0
173
             0
174
             0
175
             0
176
             0
177
             0
178
             0
270
             2
271
             4
272
             4
273
             2
274
             2
275
             0
280
             0
281
             0
282
             0
283
             1
284
             0
285
             0
286
             0
287
             3
288
             0
340
17
  0
DIMSTYLE
105
2D6
100
AcDbSymbolTableRecord
100
AcDbDimStyleTableRecord
  2
ME10_DIM_0
 70
             0
  3

  4

  5

  6

  7

 40
1.0
 41
10.0
 42
0.0
 43
0.38
 44
2.0
 45
0.0
 46
0.0
 47
0.0
 48
0.0
 71
             0
 72
             0
 73
             0
 74
             0
 75
             0
 76
             0
 77
             1
 78
             8
140
10.0
141
0.09
142
0.0
143
25.4
144
1.0
145
0.0
146
1.0
147
0.625
170
             0
171
             2
172
             1
173
             1
174
             0
175
             0
176
             4
177
             4
178
             1
270
             2
271
             2
272
             4
273
             2
274
             2
275
             0
280
             0
281
             0
282
             0
283
             1
284
             0
285
             0
286
             0
287
             3
288
             0
340
2D3
  0
DIMSTYLE
105
2E1
100
AcDbSymbolTableRecord
100
AcDbDimStyleTableRecord
  2
ME10_DIM_1
 70
             0
  3
Ø<>
  4

  5

  6

  7

 40
1.0
 41
10.0
 42
0.0
 43
0.38
 44
2.0
 45
0.0
 46
0.0
 47
0.0
 48
0.0
 71
             0
 72
             0
 73
             0
 74
             0
 75
             0
 76
             0
 77
             1
 78
             8
140
10.0
141
0.09
142
0.0
143
25.4
144
1.0
145
0.0
146
1.0
147
0.625
170
             0
171
             2
172
             1
173
             1
174
             0
175
             0
176
             4
177
             4
178
             1
270
             2
271
             2
272
             4
273
             2
274
             2
275
             0
280
             0
281
             0
282
             0
283
             1
284
             0
285
             0
286
             0
287
             3
288
             0
340
2D3
  0
DIMSTYLE
105
2EC
100
AcDbSymbolTableRecord
100
AcDbDimStyleTableRecord
  2
ME10_DIM_2
 70
             0
  3
Ø<>
  4

  5

  6

  7

 40
1.0
 41
10.0
 42
0.0
 43
0.38
 44
2.0
 45
0.0
 46
0.0
 47
0.0
 48
0.0
 71
             0
 72
             0
 73
             0
 74
             0
 75
             0
 76
             0
 77
             1
 78
             8
140
10.0
141
0.09
142
0.0
143
25.4
144
1.0
145
0.0
146
1.0
147
0.625
170
             0
171
             2
172
             1
173
             1
174
             0
175
             0
176
             4
177
             4
178
             1
270
             2
271
             2
272
             4
273
             2
274
             2
275
             0
280
             0
281
             0
282
             0
283
             1
284
             0
285
             0
286
             0
287
             3
288
             0
340
2D3
  0
DIMSTYLE
105
2F7
100
AcDbSymbolTableRecord
100
AcDbDimStyleTableRecord
  2
ME10_DIM_3
 70
             0
  3
DN<>
  4

  5

  6

  7

 40
1.0
 41
10.0
 42
0.0
 43
0.38
 44
2.0
 45
0.0
 46
0.0
 47
0.0
 48
0.0
 71
             0
 72
             0
 73
             0
 74
             0
 75
             0
 76
             0
 77
             1
 78
             8
140
10.0
141
0.09
142
0.0
143
25.4
144
1.0
145
0.0
146
1.0
147
0.625
170
             0
171
             2
172
             1
173
             1
174
             0
175
             0
176
             4
177
             4
178
             1
270
             2
271
             2
272
             4
273
             2
274
             2
275
             0
280
             0
281
             0
282
             0
283
             1
284
             0
285
             0
286
             0
287
             3
288
             0
340
2D3
  0
DIMSTYLE
105
302
100
AcDbSymbolTableRecord
100
AcDbDimStyleTableRecord
  2
ME10_DIM_4
 70
             0
  3

  4

  5

  6

  7

 40
1.0
 41
10.0
 42
0.0
 43
0.38
 44
2.0
 45
0.0
 46
0.0
 47
0.0
 48
0.0
 71
             0
 72
             0
 73
             0
 74
             0
 75
             0
 76
             0
 77
             1
 78
             8
140
10.0
141
0.09
142
0.0
143
25.4
144
1.0
145
0.0
146
1.0
147
0.625
170
             0
171
             2
172
             1
173
             1
174
             0
175
             0
176
             4
177
             4
178
             1
270
             2
271
             2
272
             4
273
             2
274
             2
275
             0
280
             0
281
             0
282
             0
283
             1
284
             0
285
             0
286
             0
287
             3
288
             0
340
2D3
  0
DIMSTYLE
105
30D
100
AcDbSymbolTableRecord
100
AcDbDimStyleTableRecord
  2
ME10_DIM_5
 70
             0
  3
12-<>
  4

  5

  6

  7

 40
1.0
 41
10.0
 42
0.0
 43
0.38
 44
2.0
 45
0.0
 46
0.0
 47
0.0
 48
0.0
 71
             0
 72
             0
 73
             0
 74
             0
 75
             0
 76
             0
 77
             1
 78
             8
140
10.0
141
0.09
142
0.0
143
25.4
144
1.0
145
0.0
146
1.0
147
0.625
170
             0
171
             2
172
             1
173
             1
174
             0
175
             0
176
             4
177
             4
178
             1
270
             2
271
             2
272
             4
273
             2
274
             2
275
             0
280
             0
281
             0
282
             0
283
             1
284
             0
285
             0
286
             0
287
             3
288
             0
340
2D3
  0
DIMSTYLE
105
318
100
AcDbSymbolTableRecord
100
AcDbDimStyleTableRecord
  2
ME10_DIM_6
 70
             0
  3
Ø<>
  4

  5

  6

  7

 40
1.0
 41
10.0
 42
0.0
 43
0.38
 44
2.0
 45
0.0
 46
0.0
 47
0.0
 48
0.0
 71
             0
 72
             0
 73
             0
 74
             0
 75
             0
 76
             0
 77
             1
 78
             8
140
10.0
141
0.09
142
0.0
143
25.4
144
1.0
145
0.0
146
1.0
147
0.625
170
             0
171
             2
172
             1
173
             1
174
             0
175
             0
176
             4
177
             4
178
             1
270
             2
271
             2
272
             4
273
             2
274
             2
275
             0
280
             0
281
             0
282
             0
283
             1
284
             0
285
             0
286
             0
287
             3
288
             0
340
2D3
  0
ENDTAB
  0
TABLE
  2
BLOCK_RECORD
  5
1
100
AcDbSymbolTable
 70
            16
  0
BLOCK_RECORD
  5
A
100
AcDbSymbolTableRecord
100
AcDbBlockTableRecord
  2
*MODEL_SPACE
  0
BLOCK_RECORD
  5
B
100
AcDbSymbolTableRecord
100
AcDbBlockTableRecord
  2
*PAPER_SPACE
  0
BLOCK_RECORD
  5
2C
100
AcDbSymbolTableRecord
100
AcDbBlockTableRecord
  2
062B_2E_AUFSATZRAHMEN__1
  0
BLOCK_RECORD
  5
2E
100
AcDbSymbolTableRecord
100
AcDbBlockTableRecord
  2
062B_2E_AUFSATZRAHMEN__2
  0
BLOCK_RECORD
  5
31
100
AcDbSymbolTableRecord
100
AcDbBlockTableRecord
  2
HL_62_1_7_DACHABLAUF__3
  0
BLOCK_RECORD
  5
34
100
AcDbSymbolTableRecord
100
AcDbBlockTableRecord
  2
062_1E_LAUBFANGKORB
  0
BLOCK_RECORD
  5
36
100
AcDbSymbolTableRecord
100
AcDbBlockTableRecord
  2
HL62_1_1
  0
BLOCK_RECORD
  5
3A
100
AcDbSymbolTableRecord
100
AcDbBlockTableRecord
  2
HL_62_1B_1_FLACHDACHAB0__4
  0
BLOCK_RECORD
  5
3D
100
AcDbSymbolTableRecord
100
AcDbBlockTableRecord
  2
HL_62_1B_1_FLACHDACHAB0__5
  0
BLOCK_RECORD
  5
40
100
AcDbSymbolTableRecord
100
AcDbBlockTableRecord
  2
HL_62_1_7_DACHABLAUF__6
  0
BLOCK_RECORD
  5
42
100
AcDbSymbolTableRecord
100
AcDbBlockTableRecord
  2
HL62_1_2
  0
BLOCK_RECORD
  5
2CC
100
AcDbSymbolTableRecord
100
AcDbBlockTableRecord
  2
*D9
  0
BLOCK_RECORD
  5
2D8
100
AcDbSymbolTableRecord
100
AcDbBlockTableRecord
  2
*D10
  0
BLOCK_RECORD
  5
2E3
100
AcDbSymbolTableRecord
100
AcDbBlockTableRecord
  2
*D11
  0
BLOCK_RECORD
  5
2EE
100
AcDbSymbolTableRecord
100
AcDbBlockTableRecord
  2
*D12
  0
BLOCK_RECORD
  5
2F9
100
AcDbSymbolTableRecord
100
AcDbBlockTableRecord
  2
*D13
  0
BLOCK_RECORD
  5
304
100
AcDbSymbolTableRecord
100
AcDbBlockTableRecord
  2
*D14
  0
BLOCK_RECORD
  5
30F
100
AcDbSymbolTableRecord
100
AcDbBlockTableRecord
  2
*D15
  0
ENDTAB
  0
ENDSEC
  0
SECTION
  2
BLOCKS
  0
BLOCK
  5
D
100
AcDbEntity
  8
0
100
AcDbBlockBegin
  2
*MODEL_SPACE
 70
             0
 10
0.0
 20
0.0
 30
0.0
  3
*MODEL_SPACE
  1

  0
ENDBLK
  5
E
100
AcDbEntity
  8
0
100
AcDbBlockEnd
  0
BLOCK
  5
F
100
AcDbEntity
 67
             1
  8
0
100
AcDbBlockBegin
  2
*PAPER_SPACE
 70
             0
 10
0.0
 20
0.0
 30
0.0
  3
*PAPER_SPACE
  1

  0
ENDBLK
  5
10
100
AcDbEntity
 67
             1
  8
0
100
AcDbBlockEnd
  0
BLOCK
  5
2D
100
AcDbEntity
  8
0
100
AcDbBlockBegin
  2
062B_2E_AUFSATZRAHMEN__1
 70
             0
 10
-145.58155212704011
 20
-345.81524596351062
 30
0.0
  3
062B_2E_AUFSATZRAHMEN__1
  1

  0
ARC
  5
106
100
AcDbEntity
  8
LC-009-002-RND-0
  6
CONTINUOUS
 62
             7
100
AcDbCircle
 10
-72.00000000000108
 20
6.99941019396351
 40
0.5
100
AcDbArc
 50
180.0
 51
-90.0
  0
ARC
  5
105
100
AcDbEntity
  8
LC-009-002-RND-0
  6
CONTINUOUS
 62
             7
100
AcDbCircle
 10
-72.00000000000108
 20
3.49941019396351
 40
0.5
100
AcDbArc
 50
90.0
 51
180.0
  0
ARC
  5
104
100
AcDbEntity
  8
LC-003-002-----0
  6
CONTINUOUS
 62
             7
100
AcDbCircle
 10
-72.00000000000108
 20
5.24941019396351
 40
1.25
100
AcDbArc
 50
-90.0
 51
90.0
  0
ARC
  5
103
100
AcDbEntity
  8
LC-009-002-RND-0
  6
CONTINUOUS
 62
             7
100
AcDbCircle
 10
71.99999999999892
 20
6.99941019396351
 40
0.5
100
AcDbArc
 50
-90.0
 51
0.0
  0
ARC
  5
102
100
AcDbEntity
  8
LC-009-002-RND-0
  6
CONTINUOUS
 62
             7
100
AcDbCircle
 10
71.99999999999892
 20
3.49941019396351
 40
0.5
100
AcDbArc
 50
0.0
 51
90.0
  0
ARC
  5
101
100
AcDbEntity
  8
LC-003-002-----0
  6
CONTINUOUS
 62
             7
100
AcDbCircle
 10
71.99999999999892
 20
5.24941019396351
 40
1.25
100
AcDbArc
 50
90.0
 51
-90.0
  0
ARC
  5
100
100
AcDbEntity
  8
LC-003-002-----0
  6
CONTINUOUS
 62
             7
100
AcDbCircle
 10
71.99999999999892
 20
9.74941019396351
 40
1.25
100
AcDbArc
 50
90.0
 51
-90.0
  0
ARC
  5
FF
100
AcDbEntity
  8
LC-009-002-RND-0
  6
CONTINUOUS
 62
             7
100
AcDbCircle
 10
71.99999999999892
 20
7.99941019396351
 40
0.5
100
AcDbArc
 50
0.0
 51
90.0
  0
ARC
  5
FE
100
AcDbEntity
  8
LC-003-002-----0
  6
CONTINUOUS
 62
             7
100
AcDbCircle
 10
-72.00000000000108
 20
9.74941019396351
 40
1.25
100
AcDbArc
 50
-90.0
 51
90.0
  0
ARC
  5
FD
100
AcDbEntity
  8
LC-009-002-RND-0
  6
CONTINUOUS
 62
             7
100
AcDbCircle
 10
-72.00000000000108
 20
7.99941019396351
 40
0.5
100
AcDbArc
 50
90.0
 51
180.0
  0
ARC
  5
FC
100
AcDbEntity
  8
LC-003-002-----0
  6
CONTINUOUS
 62
             7
100
AcDbCircle
 10
-72.00000000000108
 20
14.24941019396351
 40
1.25
100
AcDbArc
 50
-90.0
 51
90.0
  0
ARC
  5
FB
100
AcDbEntity
  8
LC-003-002-----0
  6
CONTINUOUS
 62
             7
100
AcDbCircle
 10
-72.00000000000108
 20
18.74941019396351
 40
1.25
100
AcDbArc
 50
-90.0
 51
90.0
  0
ARC
  5
FA
100
AcDbEntity
  8
LC-003-002-----0
  6
CONTINUOUS
 62
             7
100
AcDbCircle
 10
-72.00000000000108
 20
23.24941019396351
 40
1.25
100
AcDbArc
 50
-90.0
 51
90.0
  0
ARC
  5
F9
100
AcDbEntity
  8
LC-003-002-----0
  6
CONTINUOUS
 62
             7
100
AcDbCircle
 10
-72.00000000000108
 20
27.74941019396351
 40
1.25
100
AcDbArc
 50
-90.0
 51
90.0
  0
ARC
  5
F8
100
AcDbEntity
  8
LC-003-002-----0
  6
CONTINUOUS
 62
             7
100
AcDbCircle
 10
-72.00000000000108
 20
32.24941019396351
 40
1.25
100
AcDbArc
 50
-90.0
 51
90.0
  0
ARC
  5
F7
100
AcDbEntity
  8
LC-003-002-----0
  6
CONTINUOUS
 62
             7
100
AcDbCircle
 10
-72.00000000000108
 20
36.74941019396351
 40
1.25
100
AcDbArc
 50
-90.0
 51
90.0
  0
ARC
  5
F6
100
AcDbEntity
  8
LC-003-002-----0
  6
CONTINUOUS
 62
             7
100
AcDbCircle
 10
-72.00000000000108
 20
41.24941019396351
 40
1.25
100
AcDbArc
 50
-90.0
 51
90.0
  0
ARC
  5
F5
100
AcDbEntity
  8
LC-003-002-----0
  6
CONTINUOUS
 62
             7
100
AcDbCircle
 10
-72.00000000000108
 20
45.74941019396351
 40
1.25
100
AcDbArc
 50
-90.0
 51
90.0
  0
ARC
  5
F4
100
AcDbEntity
  8
LC-009-002-RND-0
  6
CONTINUOUS
 62
             7
100
AcDbCircle
 10
-72.00000000000108
 20
12.49941019396351
 40
0.5
100
AcDbArc
 50
90.0
 51
180.0
  0
ARC
  5
F3
100
AcDbEntity
  8
LC-009-002-RND-0
  6
CONTINUOUS
 62
             7
100
AcDbCircle
 10
-72.00000000000108
 20
16.99941019396351
 40
0.5
100
AcDbArc
 50
90.0
 51
180.0
  0
ARC
  5
F2
100
AcDbEntity
  8
LC-009-002-RND-0
  6
CONTINUOUS
 62
             7
100
AcDbCircle
 10
-72.00000000000108
 20
21.49941019396351
 40
0.5
100
AcDbArc
 50
90.0
 51
180.0
  0
ARC
  5
F1
100
AcDbEntity
  8
LC-009-002-RND-0
  6
CONTINUOUS
 62
             7
100
AcDbCircle
 10
-72.00000000000108
 20
25.99941019396351
 40
0.5
100
AcDbArc
 50
90.0
 51
180.0
  0
ARC
  5
F0
100
AcDbEntity
  8
LC-009-002-RND-0
  6
CONTINUOUS
 62
             7
100
AcDbCircle
 10
-72.00000000000108
 20
30.49941019396351
 40
0.5
100
AcDbArc
 50
90.0
 51
180.0
  0
ARC
  5
EF
100
AcDbEntity
  8
LC-009-002-RND-0
  6
CONTINUOUS
 62
             7
100
AcDbCircle
 10
-72.00000000000108
 20
34.99941019396351
 40
0.5
100
AcDbArc
 50
90.0
 51
180.0
  0
ARC
  5
EE
100
AcDbEntity
  8
LC-009-002-RND-0
  6
CONTINUOUS
 62
             7
100
AcDbCircle
 10
-72.00000000000108
 20
39.49941019396351
 40
0.5
100
AcDbArc
 50
90.0
 51
180.0
  0
ARC
  5
ED
100
AcDbEntity
  8
LC-009-002-RND-0
  6
CONTINUOUS
 62
             7
100
AcDbCircle
 10
-72.00000000000108
 20
43.99941019396351
 40
0.5
100
AcDbArc
 50
90.0
 51
180.0
  0
ARC
  5
EC
100
AcDbEntity
  8
LC-009-002-RND-0
  6
CONTINUOUS
 62
             7
100
AcDbCircle
 10
-72.00000000000108
 20
47.49941019396351
 40
0.5
100
AcDbArc
 50
180.0
 51
-90.0
  0
ARC
  5
EB
100
AcDbEntity
  8
LC-009-002-RND-0
  6
CONTINUOUS
 62
             7
100
AcDbCircle
 10
-72.00000000000108
 20
42.99941019396351
 40
0.5
100
AcDbArc
 50
180.0
 51
-90.0
  0
ARC
  5
EA
100
AcDbEntity
  8
LC-009-002-RND-0
  6
CONTINUOUS
 62
             7
100
AcDbCircle
 10
-72.00000000000108
 20
38.49941019396351
 40
0.5
100
AcDbArc
 50
180.0
 51
-90.0
  0
ARC
  5
E9
100
AcDbEntity
  8
LC-009-002-RND-0
  6
CONTINUOUS
 62
             7
100
AcDbCircle
 10
-72.00000000000108
 20
33.99941019396351
 40
0.5
100
AcDbArc
 50
180.0
 51
-90.0
  0
ARC
  5
E8
100
AcDbEntity
  8
LC-009-002-RND-0
  6
CONTINUOUS
 62
             7
100
AcDbCircle
 10
-72.00000000000108
 20
29.49941019396351
 40
0.5
100
AcDbArc
 50
180.0
 51
-90.0
  0
ARC
  5
E7
100
AcDbEntity
  8
LC-009-002-RND-0
  6
CONTINUOUS
 62
             7
100
AcDbCircle
 10
-72.00000000000108
 20
24.99941019396351
 40
0.5
100
AcDbArc
 50
180.0
 51
-90.0
  0
ARC
  5
E6
100
AcDbEntity
  8
LC-009-002-RND-0
  6
CONTINUOUS
 62
             7
100
AcDbCircle
 10
-72.00000000000108
 20
15.99941019396351
 40
0.5
100
AcDbArc
 50
180.0
 51
-90.0
  0
ARC
  5
E5
100
AcDbEntity
  8
LC-009-002-RND-0
  6
CONTINUOUS
 62
             7
100
AcDbCircle
 10
-72.00000000000108
 20
20.49941019396351
 40
0.5
100
AcDbArc
 50
180.0
 51
-90.0
  0
ARC
  5
E4
100
AcDbEntity
  8
LC-009-002-RND-0
  6
CONTINUOUS
 62
             7
100
AcDbCircle
 10
-72.00000000000108
 20
11.49941019396351
 40
0.5
100
AcDbArc
 50
180.0
 51
-90.0
  0
ARC
  5
E3
100
AcDbEntity
  8
LC-003-002-----0
  6
CONTINUOUS
 62
             7
100
AcDbCircle
 10
71.99999999999892
 20
14.24941019396351
 40
1.25
100
AcDbArc
 50
90.0
 51
-90.0
  0
ARC
  5
E2
100
AcDbEntity
  8
LC-003-002-----0
  6
CONTINUOUS
 62
             7
100
AcDbCircle
 10
71.99999999999892
 20
18.74941019396351
 40
1.25
100
AcDbArc
 50
90.0
 51
-90.0
  0
ARC
  5
E1
100
AcDbEntity
  8
LC-003-002-----0
  6
CONTINUOUS
 62
             7
100
AcDbCircle
 10
71.99999999999892
 20
23.24941019396351
 40
1.25
100
AcDbArc
 50
90.0
 51
-90.0
  0
ARC
  5
E0
100
AcDbEntity
  8
LC-003-002-----0
  6
CONTINUOUS
 62
             7
100
AcDbCircle
 10
71.99999999999892
 20
27.74941019396351
 40
1.25
100
AcDbArc
 50
90.0
 51
-90.0
  0
ARC
  5
DF
100
AcDbEntity
  8
LC-003-002-----0
  6
CONTINUOUS
 62
             7
100
AcDbCircle
 10
71.99999999999892
 20
32.24941019396351
 40
1.25
100
AcDbArc
 50
90.0
 51
-90.0
  0
ARC
  5
DE
100
AcDbEntity
  8
LC-003-002-----0
  6
CONTINUOUS
 62
             7
100
AcDbCircle
 10
71.99999999999892
 20
36.74941019396351
 40
1.25
100
AcDbArc
 50
90.0
 51
-90.0
  0
ARC
  5
DD
100
AcDbEntity
  8
LC-003-002-----0
  6
CONTINUOUS
 62
             7
100
AcDbCircle
 10
71.99999999999892
 20
41.24941019396351
 40
1.25
100
AcDbArc
 50
90.0
 51
-90.0
  0
ARC
  5
DC
100
AcDbEntity
  8
LC-003-002-----0
  6
CONTINUOUS
 62
             7
100
AcDbCircle
 10
71.99999999999892
 20
45.74941019396351
 40
1.25
100
AcDbArc
 50
90.0
 51
-90.0
  0
ARC
  5
DB
100
AcDbEntity
  8
LC-009-002-RND-0
  6
CONTINUOUS
 62
             7
100
AcDbCircle
 10
71.99999999999892
 20
12.49941019396351
 40
0.5
100
AcDbArc
 50
0.0
 51
90.0
  0
ARC
  5
DA
100
AcDbEntity
  8
LC-009-002-RND-0
  6
CONTINUOUS
 62
             7
100
AcDbCircle
 10
71.99999999999892
 20
16.99941019396351
 40
0.5
100
AcDbArc
 50
0.0
 51
90.0
  0
ARC
  5
D9
100
AcDbEntity
  8
LC-009-002-RND-0
  6
CONTINUOUS
 62
             7
100
AcDbCircle
 10
71.99999999999892
 20
21.49941019396351
 40
0.5
100
AcDbArc
 50
0.0
 51
90.0
  0
ARC
  5
D8
100
AcDbEntity
  8
LC-009-002-RND-0
  6
CONTINUOUS
 62
             7
100
AcDbCircle
 10
71.99999999999892
 20
25.99941019396351
 40
0.5
100
AcDbArc
 50
0.0
 51
90.0
  0
ARC
  5
D7
100
AcDbEntity
  8
LC-009-002-RND-0
  6
CONTINUOUS
 62
             7
100
AcDbCircle
 10
71.99999999999892
 20
30.49941019396351
 40
0.5
100
AcDbArc
 50
0.0
 51
90.0
  0
ARC
  5
D6
100
AcDbEntity
  8
LC-009-002-RND-0
  6
CONTINUOUS
 62
             7
100
AcDbCircle
 10
71.99999999999892
 20
34.99941019396351
 40
0.5
100
AcDbArc
 50
0.0
 51
90.0
  0
ARC
  5
D5
100
AcDbEntity
  8
LC-009-002-RND-0
  6
CONTINUOUS
 62
             7
100
AcDbCircle
 10
71.99999999999892
 20
39.49941019396351
 40
0.5
100
AcDbArc
 50
0.0
 51
90.0
  0
ARC
  5
D4
100
AcDbEntity
  8
LC-009-002-RND-0
  6
CONTINUOUS
 62
             7
100
AcDbCircle
 10
71.99999999999892
 20
43.99941019396351
 40
0.5
100
AcDbArc
 50
0.0
 51
90.0
  0
ARC
  5
D3
100
AcDbEntity
  8
LC-009-002-RND-0
  6
CONTINUOUS
 62
             7
100
AcDbCircle
 10
71.99999999999892
 20
47.49941019396351
 40
0.5
100
AcDbArc
 50
-90.0
 51
0.0
  0
ARC
  5
D2
100
AcDbEntity
  8
LC-009-002-RND-0
  6
CONTINUOUS
 62
             7
100
AcDbCircle
 10
71.99999999999892
 20
42.99941019396351
 40
0.5
100
AcDbArc
 50
-90.0
 51
0.0
  0
ARC
  5
D1
100
AcDbEntity
  8
LC-009-002-RND-0
  6
CONTINUOUS
 62
             7
100
AcDbCircle
 10
71.99999999999892
 20
38.49941019396351
 40
0.5
100
AcDbArc
 50
-90.0
 51
0.0
  0
ARC
  5
D0
100
AcDbEntity
  8
LC-009-002-RND-0
  6
CONTINUOUS
 62
             7
100
AcDbCircle
 10
71.99999999999892
 20
33.99941019396351
 40
0.5
100
AcDbArc
 50
-90.0
 51
0.0
  0
ARC
  5
CF
100
AcDbEntity
  8
LC-009-002-RND-0
  6
CONTINUOUS
 62
             7
100
AcDbCircle
 10
71.99999999999892
 20
29.49941019396351
 40
0.5
100
AcDbArc
 50
-90.0
 51
0.0
  0
ARC
  5
CE
100
AcDbEntity
  8
LC-009-002-RND-0
  6
CONTINUOUS
 62
             7
100
AcDbCircle
 10
71.99999999999892
 20
24.99941019396351
 40
0.5
100
AcDbArc
 50
-90.0
 51
0.0
  0
ARC
  5
CD
100
AcDbEntity
  8
LC-009-002-RND-0
  6
CONTINUOUS
 62
             7
100
AcDbCircle
 10
71.99999999999892
 20
15.99941019396351
 40
0.5
100
AcDbArc
 50
-90.0
 51
0.0
  0
ARC
  5
CC
100
AcDbEntity
  8
LC-009-002-RND-0
  6
CONTINUOUS
 62
             7
100
AcDbCircle
 10
71.99999999999892
 20
20.49941019396351
 40
0.5
100
AcDbArc
 50
-90.0
 51
0.0
  0
ARC
  5
CB
100
AcDbEntity
  8
LC-009-002-RND-0
  6
CONTINUOUS
 62
             7
100
AcDbCircle
 10
71.99999999999892
 20
11.49941019396351
 40
0.5
100
AcDbArc
 50
-90.0
 51
0.0
  0
LINE
  5
CA
100
AcDbEntity
  8
1
  6
CONTINUOUS
 62
             7
100
AcDbLine
 10
43.930272
 20
12.99941019396351
 11
41.08282780890858
 21
12.99941019396351
  0
LINE
  5
C9
100
AcDbEntity
  8
1
  6
CONTINUOUS
 62
             7
100
AcDbLine
 10
41.67634069063178
 20
10.99941019396351
 11
43.930272
 21
10.99941019396351
  0
LINE
  5
C8
100
AcDbEntity
  8
1
  6
CONTINUOUS
 62
             7
100
AcDbLine
 10
49.930272
 20
10.99941019396351
 11
52.18647045983602
 21
10.99941019396351
  0
LINE
  5
C7
100
AcDbEntity
  8
1
  6
CONTINUOUS
 62
             7
100
AcDbLine
 10
52.77998369318738
 20
12.99941019396351
 11
49.930272
 21
12.99941019396351
  0
LINE
  5
C6
100
AcDbEntity
  8
1
  6
CONTINUOUS
 62
             7
100
AcDbLine
 10
49.52773380603651
 20
15.49941019396351
 11
53.52187523487658
 21
15.49941019396351
  0
LINE
  5
C5
100
AcDbEntity
  8
1
  6
CONTINUOUS
 62
             7
100
AcDbLine
 10
40.34093670675463
 20
15.49941019396351
 11
44.3328101939635
 21
15.49941019396351
  0
LINE
  5
C4
100
AcDbEntity
  8
1
  6
CONTINUOUS
 62
             7
100
AcDbLine
 10
38.78351778328079
 20
17.49941019396351
 11
55.08147421671953
 21
17.49941019396351
  0
LINE
  5
C3
100
AcDbEntity
  8
1
  6
CONTINUOUS
 62
             7
100
AcDbLine
 10
59.92480595436837
 20
17.49941019396351
 11
71.99999999999892
 21
17.49941019396351
  0
LINE
  5
C2
100
AcDbEntity
  8
1
  6
CONTINUOUS
 62
             7
100
AcDbLine
 10
61.98270905911096
 20
15.49941019396351
 11
71.99999999999892
 21
15.49941019396351
  0
LINE
  5
C1
100
AcDbEntity
  8
1
  6
CONTINUOUS
 62
             7
100
AcDbLine
 10
62.37455513852962
 20
12.99941019396351
 11
71.99999999999892
 21
12.99941019396351
  0
LINE
  5
C0
100
AcDbEntity
  8
1
  6
CONTINUOUS
 62
             7
100
AcDbLine
 10
71.99999999999892
 20
10.99941019396351
 11
61.38056559587426
 21
10.99941019396351
  0
LINE
  5
BF
100
AcDbEntity
  8
1
  6
CONTINUOUS
 62
             7
100
AcDbLine
 10
-32.48442740412583
 20
10.99941019396351
 11
32.48442640412605
 21
10.99941019396351
  0
LINE
  5
BE
100
AcDbEntity
  8
1
  6
CONTINUOUS
 62
             7
100
AcDbLine
 10
59.23869157770201
 20
8.49941019396351
 11
71.99999999999892
 21
8.49941019396351
  0
LINE
  5
BD
100
AcDbEntity
  8
1
  6
CONTINUOUS
 62
             7
100
AcDbLine
 10
57.52348801686941
 20
6.49941019396351
 11
71.99999999999892
 21
6.49941019396351
  0
LINE
  5
BC
100
AcDbEntity
  8
1
  6
CONTINUOUS
 62
             7
100
AcDbLine
 10
55.37948356582871
 20
3.99941019396351
 11
71.99999999999892
 21
3.99941019396351
  0
LINE
  5
BB
100
AcDbEntity
  8
1
  6
CONTINUOUS
 62
             7
100
AcDbLine
 10
-43.930273
 20
10.99941019396351
 11
-41.67634169063177
 21
10.99941019396351
  0
LINE
  5
BA
100
AcDbEntity
  8
1
  6
CONTINUOUS
 62
             7
100
AcDbLine
 10
-43.930273
 20
12.99941019396351
 11
-41.08282880890857
 21
12.99941019396351
  0
LINE
  5
B9
100
AcDbEntity
  8
1
  6
CONTINUOUS
 62
             7
100
AcDbLine
 10
-40.34093770675469
 20
15.49941019396351
 11
-44.33281119396344
 21
15.49941019396351
  0
LINE
  5
B8
100
AcDbEntity
  8
1
  6
CONTINUOUS
 62
             7
100
AcDbLine
 10
-55.08147521671918
 20
17.49941019396351
 11
-38.7835187832805
 21
17.49941019396351
  0
LINE
  5
B7
100
AcDbEntity
  8
1
  6
CONTINUOUS
 62
             7
100
AcDbLine
 10
-53.52187623487652
 20
15.49941019396351
 11
-49.52773480603656
 21
15.49941019396351
  0
LINE
  5
B6
100
AcDbEntity
  8
1
  6
CONTINUOUS
 62
             7
100
AcDbLine
 10
-52.77998469318737
 20
12.99941019396351
 11
-49.930273
 21
12.99941019396351
  0
LINE
  5
B5
100
AcDbEntity
  8
1
  6
CONTINUOUS
 62
             7
100
AcDbLine
 10
-52.1864714598359
 20
10.99941019396351
 11
-49.930273
 21
10.99941019396351
  0
LINE
  5
B4
100
AcDbEntity
  8
1
  6
CONTINUOUS
 62
             7
100
AcDbLine
 10
-33.93574004563163
 20
17.49941019396351
 11
33.93573904563158
 21
17.49941019396351
  0
LINE
  5
B3
100
AcDbEntity
  8
1
  6
CONTINUOUS
 62
             7
100
AcDbLine
 10
-31.88228394088912
 20
15.49941019396351
 11
31.8822829408893
 21
15.49941019396351
  0
LINE
  5
B2
100
AcDbEntity
  8
1
  6
CONTINUOUS
 62
             7
100
AcDbLine
 10
-31.49043786147047
 20
12.99941019396351
 11
31.49043686147064
 21
12.99941019396351
  0
LINE
  5
B1
100
AcDbEntity
  8
1
  6
CONTINUOUS
 62
             7
100
AcDbLine
 10
-72.00000000000108
 20
10.99941019396351
 11
-61.38056659587397
 21
10.99941019396351
  0
LINE
  5
B0
100
AcDbEntity
  8
1
  6
CONTINUOUS
 62
             7
100
AcDbLine
 10
-34.62193947556955
 20
8.49941019396351
 11
34.62193847556955
 21
8.49941019396351
  0
LINE
  5
AF
100
AcDbEntity
  8
1
  6
CONTINUOUS
 62
             7
100
AcDbLine
 10
-36.33932407707488
 20
6.49941019396351
 11
36.33714207707487
 21
6.49941019396351
  0
LINE
  5
AE
100
AcDbEntity
  8
1
  6
CONTINUOUS
 62
             7
100
AcDbLine
 10
-38.48114757895661
 20
3.99941019396351
 11
38.48114657895656
 21
3.99941019396351
  0
LINE
  5
AD
100
AcDbEntity
  8
1
  6
CONTINUOUS
 62
             7
100
AcDbLine
 10
72.49999999999892
 20
3.49941019396351
 11
72.49999999999892
 21
2.99902784627278
  0
LINE
  5
AC
100
AcDbEntity
  8
1
  6
CONTINUOUS
 62
             7
100
AcDbLine
 10
-72.50000000000108
 20
3.49941019396351
 11
-72.50000000000108
 21
2.99902784627648
  0
LINE
  5
AB
100
AcDbEntity
  8
1
  6
PHANTOM
 62
             2
100
AcDbLine
 10
-0.00000000000108
 20
70.62107344680361
 11
-0.00000000000108
 21
46.20823601338357
  0
LINE
  5
AA
100
AcDbEntity
  8
LC-003-002-----0
  6
CONTINUOUS
 62
             7
100
AcDbLine
 10
-72.00000000000108
 20
6.49941019396351
 11
-72.00000000000108
 21
6.49941019396351
  0
LINE
  5
A9
100
AcDbEntity
  8
LC-003-002-----0
  6
CONTINUOUS
 62
             7
100
AcDbLine
 10
-72.00000000000108
 20
3.99941019396351
 11
-72.00000000000108
 21
3.99941019396351
  0
LINE
  5
A8
100
AcDbEntity
  8
LC-003-002-----0
  6
CONTINUOUS
 62
             7
100
AcDbLine
 10
71.99999999999892
 20
6.49941019396351
 11
71.99999999999892
 21
6.49941019396351
  0
LINE
  5
A7
100
AcDbEntity
  8
LC-003-002-----0
  6
CONTINUOUS
 62
             7
100
AcDbLine
 10
71.99999999999892
 20
3.99941019396351
 11
71.99999999999892
 21
3.99941019396351
  0
LINE
  5
A6
100
AcDbEntity
  8
1
  6
CONTINUOUS
 62
             7
100
AcDbLine
 10
-72.00000000000108
 20
3.99941019396351
 11
-55.38166556582877
 21
3.99941019396351
  0
LINE
  5
A5
100
AcDbEntity
  8
1
  6
CONTINUOUS
 62
             7
100
AcDbLine
 10
-72.00000000000108
 20
8.49941019396351
 11
-59.24087357770208
 21
8.49941019396351
  0
LINE
  5
A4
100
AcDbEntity
  8
1
  6
CONTINUOUS
 62
             7
100
AcDbLine
 10
-72.00000000000108
 20
6.49941019396351
 11
-57.52567001686947
 21
6.49941019396351
  0
LINE
  5
A3
100
AcDbEntity
  8
LC-003-002-----0
  6
CONTINUOUS
 62
             7
100
AcDbLine
 10
71.99999999999892
 20
8.49941019396351
 11
71.99999999999892
 21
8.49941019396351
  0
LINE
  5
A2
100
AcDbEntity
  8
LC-003-002-----0
  6
CONTINUOUS
 62
             7
100
AcDbLine
 10
72.49999999999892
 20
7.99941019396351
 11
72.49999999999892
 21
6.99941019396351
  0
LINE
  5
A1
100
AcDbEntity
  8
LC-003-002-----0
  6
CONTINUOUS
 62
             7
100
AcDbLine
 10
-72.00000000000108
 20
8.49941019396351
 11
-72.00000000000108
 21
8.49941019396351
  0
LINE
  5
A0
100
AcDbEntity
  8
LC-003-002-----0
  6
CONTINUOUS
 62
             7
100
AcDbLine
 10
-72.50000000000108
 20
7.99941019396351
 11
-72.50000000000108
 21
6.99941019396351
  0
LINE
  5
9F
100
AcDbEntity
  8
1
  6
CONTINUOUS
 62
             7
100
AcDbLine
 10
-72.00000000000108
 20
12.99941019396351
 11
-62.37455613852939
 21
12.99941019396351
  0
LINE
  5
9E
100
AcDbEntity
  8
1
  6
CONTINUOUS
 62
             7
100
AcDbLine
 10
-72.00000000000108
 20
15.49941019396351
 11
-61.98271005911073
 21
15.49941019396351
  0
LINE
  5
9D
100
AcDbEntity
  8
1
  6
CONTINUOUS
 62
             7
100
AcDbLine
 10
-72.00000000000108
 20
17.49941019396351
 11
-59.92480695436842
 21
17.49941019396351
  0
LINE
  5
9C
100
AcDbEntity
  8
1
  6
CONTINUOUS
 62
             7
100
AcDbLine
 10
-72.00000000000108
 20
19.99941019396351
 11
71.99999999999892
 21
19.99941019396351
  0
LINE
  5
9B
100
AcDbEntity
  8
1
  6
CONTINUOUS
 62
             7
100
AcDbLine
 10
-72.00000000000108
 20
21.99941019396351
 11
71.99999999999892
 21
21.99941019396351
  0
LINE
  5
9A
100
AcDbEntity
  8
1
  6
CONTINUOUS
 62
             7
100
AcDbLine
 10
-72.00000000000108
 20
24.49941019396351
 11
71.99999999999892
 21
24.49941019396351
  0
LINE
  5
99
100
AcDbEntity
  8
1
  6
CONTINUOUS
 62
             7
100
AcDbLine
 10
-72.00000000000108
 20
26.49941019396351
 11
71.99999999999892
 21
26.49941019396351
  0
LINE
  5
98
100
AcDbEntity
  8
1
  6
CONTINUOUS
 62
             7
100
AcDbLine
 10
-72.00000000000108
 20
28.99941019396351
 11
71.99999999999892
 21
28.99941019396351
  0
LINE
  5
97
100
AcDbEntity
  8
1
  6
CONTINUOUS
 62
             7
100
AcDbLine
 10
-72.00000000000108
 20
30.99941019396351
 11
71.99999999999892
 21
30.99941019396351
  0
LINE
  5
96
100
AcDbEntity
  8
1
  6
CONTINUOUS
 62
             7
100
AcDbLine
 10
-72.00000000000108
 20
33.49941019396351
 11
71.99999999999892
 21
33.49941019396351
  0
LINE
  5
95
100
AcDbEntity
  8
1
  6
CONTINUOUS
 62
             7
100
AcDbLine
 10
-72.00000000000108
 20
35.49941019396351
 11
71.99999999999892
 21
35.49941019396351
  0
LINE
  5
94
100
AcDbEntity
  8
1
  6
CONTINUOUS
 62
             7
100
AcDbLine
 10
-72.00000000000108
 20
37.99941019396351
 11
71.99999999999892
 21
37.99941019396351
  0
LINE
  5
93
100
AcDbEntity
  8
1
  6
CONTINUOUS
 62
             7
100
AcDbLine
 10
-72.00000000000108
 20
39.99941019396351
 11
71.99999999999892
 21
39.99941019396351
  0
LINE
  5
92
100
AcDbEntity
  8
1
  6
CONTINUOUS
 62
             7
100
AcDbLine
 10
-72.00000000000108
 20
42.49941019396351
 11
71.99999999999892
 21
42.49941019396351
  0
LINE
  5
91
100
AcDbEntity
  8
1
  6
CONTINUOUS
 62
             7
100
AcDbLine
 10
-72.00000000000108
 20
44.49941019396351
 11
71.99999999999892
 21
44.49941019396351
  0
LINE
  5
90
100
AcDbEntity
  8
1
  6
CONTINUOUS
 62
             7
100
AcDbLine
 10
71.99999999999892
 20
46.99941019396351
 11
-72.00000000000108
 21
46.99941019396351
  0
LINE
  5
8F
100
AcDbEntity
  8
1
  6
CONTINUOUS
 62
             7
100
AcDbLine
 10
-72.50000000000108
 20
49.99941019396351
 11
72.49999999999892
 21
49.99941019396351
  0
LINE
  5
8E
100
AcDbEntity
  8
1
  6
CONTINUOUS
 62
             7
100
AcDbLine
 10
-72.50000000000108
 20
51.99941019396351
 11
72.49999999999892
 21
51.99941019396351
  0
LINE
  5
8D
100
AcDbEntity
  8
1
  6
CONTINUOUS
 62
             7
100
AcDbLine
 10
-72.50000000000108
 20
54.49941019396351
 11
72.49999999999892
 21
54.49941019396351
  0
LINE
  5
8C
100
AcDbEntity
  8
LC-003-002-----0
  6
CONTINUOUS
 62
             7
100
AcDbLine
 10
-73.50000000000108
 20
67.99941019396351
 11
-73.50000000000108
 21
54.49941019396351
  0
LINE
  5
8B
100
AcDbEntity
  8
LC-003-002-----0
  6
CONTINUOUS
 62
             7
100
AcDbLine
 10
-73.00000000000108
 20
51.99941019396351
 11
-72.50000000000108
 21
51.99941019396351
  0
LINE
  5
8A
100
AcDbEntity
  8
LC-003-002-----0
  6
CONTINUOUS
 62
             7
100
AcDbLine
 10
-72.50000000000108
 20
54.49941019396351
 11
-73.50000000000108
 21
54.49941019396351
  0
LINE
  5
89
100
AcDbEntity
  8
LC-003-002-----0
  6
CONTINUOUS
 62
             7
100
AcDbLine
 10
-73.00000000000108
 20
49.99941019396351
 11
-72.50000000000108
 21
49.99941019396351
  0
LINE
  5
88
100
AcDbEntity
  8
LC-003-002-----0
  6
CONTINUOUS
 62
             7
100
AcDbLine
 10
-73.00000000000108
 20
51.99941019396351
 11
-73.00000000000108
 21
49.99941019396351
  0
LINE
  5
87
100
AcDbEntity
  8
LC-003-002-----0
  6
CONTINUOUS
 62
             7
100
AcDbLine
 10
-72.50000000000108
 20
49.99941019396351
 11
-72.50000000000108
 21
47.49941019396351
  0
LINE
  5
86
100
AcDbEntity
  8
LC-003-002-----0
  6
CONTINUOUS
 62
             7
100
AcDbLine
 10
-72.00000000000108
 20
10.99941019396351
 11
-72.00000000000108
 21
10.99941019396351
  0
LINE
  5
85
100
AcDbEntity
  8
LC-003-002-----0
  6
CONTINUOUS
 62
             7
100
AcDbLine
 10
-72.00000000000108
 20
15.49941019396351
 11
-72.00000000000108
 21
15.49941019396351
  0
LINE
  5
84
100
AcDbEntity
  8
LC-003-002-----0
  6
CONTINUOUS
 62
             7
100
AcDbLine
 10
-72.00000000000108
 20
19.99941019396351
 11
-72.00000000000108
 21
19.99941019396351
  0
LINE
  5
83
100
AcDbEntity
  8
LC-003-002-----0
  6
CONTINUOUS
 62
             7
100
AcDbLine
 10
-72.00000000000108
 20
24.49941019396351
 11
-72.00000000000108
 21
24.49941019396351
  0
LINE
  5
82
100
AcDbEntity
  8
LC-003-002-----0
  6
CONTINUOUS
 62
             7
100
AcDbLine
 10
-72.00000000000108
 20
28.99941019396351
 11
-72.00000000000108
 21
28.99941019396351
  0
LINE
  5
81
100
AcDbEntity
  8
LC-003-002-----0
  6
CONTINUOUS
 62
             7
100
AcDbLine
 10
-72.00000000000108
 20
33.49941019396351
 11
-72.00000000000108
 21
33.49941019396351
  0
LINE
  5
80
100
AcDbEntity
  8
LC-003-002-----0
  6
CONTINUOUS
 62
             7
100
AcDbLine
 10
-72.00000000000108
 20
37.99941019396351
 11
-72.00000000000108
 21
37.99941019396351
  0
LINE
  5
7F
100
AcDbEntity
  8
LC-003-002-----0
  6
CONTINUOUS
 62
             7
100
AcDbLine
 10
-72.00000000000108
 20
42.49941019396351
 11
-72.00000000000108
 21
42.49941019396351
  0
LINE
  5
7E
100
AcDbEntity
  8
LC-003-002-----0
  6
CONTINUOUS
 62
             7
100
AcDbLine
 10
-72.00000000000108
 20
46.99941019396351
 11
-72.00000000000108
 21
46.99941019396351
  0
LINE
  5
7D
100
AcDbEntity
  8
LC-003-002-----0
  6
CONTINUOUS
 62
             7
100
AcDbLine
 10
-72.00000000000108
 20
12.99941019396351
 11
-72.00000000000108
 21
12.99941019396351
  0
LINE
  5
7C
100
AcDbEntity
  8
LC-003-002-----0
  6
CONTINUOUS
 62
             7
100
AcDbLine
 10
-72.00000000000108
 20
17.49941019396351
 11
-72.00000000000108
 21
17.49941019396351
  0
LINE
  5
7B
100
AcDbEntity
  8
LC-003-002-----0
  6
CONTINUOUS
 62
             7
100
AcDbLine
 10
-72.00000000000108
 20
21.99941019396351
 11
-72.00000000000108
 21
21.99941019396351
  0
LINE
  5
7A
100
AcDbEntity
  8
LC-003-002-----0
  6
CONTINUOUS
 62
             7
100
AcDbLine
 10
-72.00000000000108
 20
26.49941019396351
 11
-72.00000000000108
 21
26.49941019396351
  0
LINE
  5
79
100
AcDbEntity
  8
LC-003-002-----0
  6
CONTINUOUS
 62
             7
100
AcDbLine
 10
-72.00000000000108
 20
30.99941019396351
 11
-72.00000000000108
 21
30.99941019396351
  0
LINE
  5
78
100
AcDbEntity
  8
LC-003-002-----0
  6
CONTINUOUS
 62
             7
100
AcDbLine
 10
-72.00000000000108
 20
35.49941019396351
 11
-72.00000000000108
 21
35.49941019396351
  0
LINE
  5
77
100
AcDbEntity
  8
LC-003-002-----0
  6
CONTINUOUS
 62
             7
100
AcDbLine
 10
-72.00000000000108
 20
39.99941019396351
 11
-72.00000000000108
 21
39.99941019396351
  0
LINE
  5
76
100
AcDbEntity
  8
LC-003-002-----0
  6
CONTINUOUS
 62
             7
100
AcDbLine
 10
-72.00000000000108
 20
44.49941019396351
 11
-72.00000000000108
 21
44.49941019396351
  0
LINE
  5
75
100
AcDbEntity
  8
LC-003-002-----0
  6
CONTINUOUS
 62
             7
100
AcDbLine
 10
-72.50000000000108
 20
12.49941019396351
 11
-72.50000000000108
 21
11.49941019396351
  0
LINE
  5
74
100
AcDbEntity
  8
LC-003-002-----0
  6
CONTINUOUS
 62
             7
100
AcDbLine
 10
-72.50000000000108
 20
16.99941019396351
 11
-72.50000000000108
 21
15.99941019396351
  0
LINE
  5
73
100
AcDbEntity
  8
LC-003-002-----0
  6
CONTINUOUS
 62
             7
100
AcDbLine
 10
-72.50000000000108
 20
21.49941019396351
 11
-72.50000000000108
 21
20.49941019396351
  0
LINE
  5
72
100
AcDbEntity
  8
LC-003-002-----0
  6
CONTINUOUS
 62
             7
100
AcDbLine
 10
-72.50000000000108
 20
25.99941019396351
 11
-72.50000000000108
 21
24.99941019396351
  0
LINE
  5
71
100
AcDbEntity
  8
LC-003-002-----0
  6
CONTINUOUS
 62
             7
100
AcDbLine
 10
-72.50000000000108
 20
30.49941019396351
 11
-72.50000000000108
 21
29.49941019396351
  0
LINE
  5
70
100
AcDbEntity
  8
LC-003-002-----0
  6
CONTINUOUS
 62
             7
100
AcDbLine
 10
-72.50000000000108
 20
34.99941019396351
 11
-72.50000000000108
 21
33.99941019396351
  0
LINE
  5
6F
100
AcDbEntity
  8
LC-003-002-----0
  6
CONTINUOUS
 62
             7
100
AcDbLine
 10
-72.50000000000108
 20
39.49941019396351
 11
-72.50000000000108
 21
38.49941019396351
  0
LINE
  5
6E
100
AcDbEntity
  8
LC-003-002-----0
  6
CONTINUOUS
 62
             7
100
AcDbLine
 10
-72.50000000000108
 20
43.99941019396351
 11
-72.50000000000108
 21
42.99941019396351
  0
LINE
  5
6D
100
AcDbEntity
  8
LC-003-002-----0
  6
CONTINUOUS
 62
             7
100
AcDbLine
 10
-72.50000000000108
 20
54.49941019396351
 11
-72.50000000000108
 21
51.99941019396351
  0
LINE
  5
6C
100
AcDbEntity
  8
LC-003-002-----0
  6
CONTINUOUS
 62
             7
100
AcDbLine
 10
73.49999999999892
 20
67.99941019396351
 11
-73.50000000000108
 21
67.99941019396351
  0
LINE
  5
6B
100
AcDbEntity
  8
LC-003-002-----0
  6
CONTINUOUS
 62
             7
100
AcDbLine
 10
73.49999999999892
 20
67.99941019396351
 11
73.49999999999892
 21
54.49941019396351
  0
LINE
  5
6A
100
AcDbEntity
  8
LC-003-002-----0
  6
CONTINUOUS
 62
             7
100
AcDbLine
 10
72.99999999999892
 20
51.99941019396351
 11
72.49999999999892
 21
51.99941019396351
  0
LINE
  5
69
100
AcDbEntity
  8
LC-003-002-----0
  6
CONTINUOUS
 62
             7
100
AcDbLine
 10
72.49999999999892
 20
54.49941019396351
 11
73.49999999999892
 21
54.49941019396351
  0
LINE
  5
68
100
AcDbEntity
  8
LC-003-002-----0
  6
CONTINUOUS
 62
             7
100
AcDbLine
 10
72.99999999999892
 20
49.99941019396351
 11
72.49999999999892
 21
49.99941019396351
  0
LINE
  5
67
100
AcDbEntity
  8
LC-003-002-----0
  6
CONTINUOUS
 62
             7
100
AcDbLine
 10
72.99999999999892
 20
51.99941019396351
 11
72.99999999999892
 21
49.99941019396351
  0
LINE
  5
66
100
AcDbEntity
  8
LC-003-002-----0
  6
CONTINUOUS
 62
             7
100
AcDbLine
 10
72.49999999999892
 20
49.99941019396351
 11
72.49999999999892
 21
47.49941019396351
  0
LINE
  5
65
100
AcDbEntity
  8
LC-003-002-----0
  6
CONTINUOUS
 62
             7
100
AcDbLine
 10
71.99999999999892
 20
10.99941019396351
 11
71.99999999999892
 21
10.99941019396351
  0
LINE
  5
64
100
AcDbEntity
  8
LC-003-002-----0
  6
CONTINUOUS
 62
             7
100
AcDbLine
 10
71.99999999999892
 20
15.49941019396351
 11
71.99999999999892
 21
15.49941019396351
  0
LINE
  5
63
100
AcDbEntity
  8
LC-003-002-----0
  6
CONTINUOUS
 62
             7
100
AcDbLine
 10
71.99999999999892
 20
19.99941019396351
 11
71.99999999999892
 21
19.99941019396351
  0
LINE
  5
62
100
AcDbEntity
  8
LC-003-002-----0
  6
CONTINUOUS
 62
             7
100
AcDbLine
 10
71.99999999999892
 20
24.49941019396351
 11
71.99999999999892
 21
24.49941019396351
  0
LINE
  5
61
100
AcDbEntity
  8
LC-003-002-----0
  6
CONTINUOUS
 62
             7
100
AcDbLine
 10
71.99999999999892
 20
28.99941019396351
 11
71.99999999999892
 21
28.99941019396351
  0
LINE
  5
60
100
AcDbEntity
  8
LC-003-002-----0
  6
CONTINUOUS
 62
             7
100
AcDbLine
 10
71.99999999999892
 20
33.49941019396351
 11
71.99999999999892
 21
33.49941019396351
  0
LINE
  5
5F
100
AcDbEntity
  8
LC-003-002-----0
  6
CONTINUOUS
 62
             7
100
AcDbLine
 10
71.99999999999892
 20
37.99941019396351
 11
71.99999999999892
 21
37.99941019396351
  0
LINE
  5
5E
100
AcDbEntity
  8
LC-003-002-----0
  6
CONTINUOUS
 62
             7
100
AcDbLine
 10
71.99999999999892
 20
42.49941019396351
 11
71.99999999999892
 21
42.49941019396351
  0
LINE
  5
5D
100
AcDbEntity
  8
LC-003-002-----0
  6
CONTINUOUS
 62
             7
100
AcDbLine
 10
71.99999999999892
 20
46.99941019396351
 11
71.99999999999892
 21
46.99941019396351
  0
LINE
  5
5C
100
AcDbEntity
  8
LC-003-002-----0
  6
CONTINUOUS
 62
             7
100
AcDbLine
 10
71.99999999999892
 20
12.99941019396351
 11
71.99999999999892
 21
12.99941019396351
  0
LINE
  5
5B
100
AcDbEntity
  8
LC-003-002-----0
  6
CONTINUOUS
 62
             7
100
AcDbLine
 10
71.99999999999892
 20
17.49941019396351
 11
71.99999999999892
 21
17.49941019396351
  0
LINE
  5
5A
100
AcDbEntity
  8
LC-003-002-----0
  6
CONTINUOUS
 62
             7
100
AcDbLine
 10
71.99999999999892
 20
21.99941019396351
 11
71.99999999999892
 21
21.99941019396351
  0
LINE
  5
59
100
AcDbEntity
  8
LC-003-002-----0
  6
CONTINUOUS
 62
             7
100
AcDbLine
 10
71.99999999999892
 20
26.49941019396351
 11
71.99999999999892
 21
26.49941019396351
  0
LINE
  5
58
100
AcDbEntity
  8
LC-003-002-----0
  6
CONTINUOUS
 62
             7
100
AcDbLine
 10
71.99999999999892
 20
30.99941019396351
 11
71.99999999999892
 21
30.99941019396351
  0
LINE
  5
57
100
AcDbEntity
  8
LC-003-002-----0
  6
CONTINUOUS
 62
             7
100
AcDbLine
 10
71.99999999999892
 20
35.49941019396351
 11
71.99999999999892
 21
35.49941019396351
  0
LINE
  5
56
100
AcDbEntity
  8
LC-003-002-----0
  6
CONTINUOUS
 62
             7
100
AcDbLine
 10
71.99999999999892
 20
39.99941019396351
 11
71.99999999999892
 21
39.99941019396351
  0
LINE
  5
55
100
AcDbEntity
  8
LC-003-002-----0
  6
CONTINUOUS
 62
             7
100
AcDbLine
 10
71.99999999999892
 20
44.49941019396351
 11
71.99999999999892
 21
44.49941019396351
  0
LINE
  5
54
100
AcDbEntity
  8
LC-003-002-----0
  6
CONTINUOUS
 62
             7
100
AcDbLine
 10
72.49999999999892
 20
12.49941019396351
 11
72.49999999999892
 21
11.49941019396351
  0
LINE
  5
53
100
AcDbEntity
  8
LC-003-002-----0
  6
CONTINUOUS
 62
             7
100
AcDbLine
 10
72.49999999999892
 20
16.99941019396351
 11
72.49999999999892
 21
15.99941019396351
  0
LINE
  5
52
100
AcDbEntity
  8
LC-003-002-----0
  6
CONTINUOUS
 62
             7
100
AcDbLine
 10
72.49999999999892
 20
21.49941019396351
 11
72.49999999999892
 21
20.49941019396351
  0
LINE
  5
51
100
AcDbEntity
  8
LC-003-002-----0
  6
CONTINUOUS
 62
             7
100
AcDbLine
 10
72.49999999999892
 20
25.99941019396351
 11
72.49999999999892
 21
24.99941019396351
  0
LINE
  5
50
100
AcDbEntity
  8
LC-003-002-----0
  6
CONTINUOUS
 62
             7
100
AcDbLine
 10
72.49999999999892
 20
30.49941019396351
 11
72.49999999999892
 21
29.49941019396351
  0
LINE
  5
4F
100
AcDbEntity
  8
LC-003-002-----0
  6
CONTINUOUS
 62
             7
100
AcDbLine
 10
72.49999999999892
 20
34.99941019396351
 11
72.49999999999892
 21
33.99941019396351
  0
LINE
  5
4E
100
AcDbEntity
  8
LC-003-002-----0
  6
CONTINUOUS
 62
             7
100
AcDbLine
 10
72.49999999999892
 20
39.49941019396351
 11
72.49999999999892
 21
38.49941019396351
  0
LINE
  5
4D
100
AcDbEntity
  8
LC-003-002-----0
  6
CONTINUOUS
 62
             7
100
AcDbLine
 10
72.49999999999892
 20
43.99941019396351
 11
72.49999999999892
 21
42.99941019396351
  0
LINE
  5
4C
100
AcDbEntity
  8
LC-003-002-----0
  6
CONTINUOUS
 62
             7
100
AcDbLine
 10
72.49999999999892
 20
54.49941019396351
 11
72.49999999999892
 21
51.99941019396351
  0
POINT
  5
4B
100
AcDbEntity
  8
0
 62
             7
100
AcDbPoint
 10
-73.50000000000108
 20
67.99941019396351
  0
POINT
  5
4A
100
AcDbEntity
  8
0
 62
             7
100
AcDbPoint
 10
73.49999999999892
 20
67.99941019396351
  0
POINT
  5
49
100
AcDbEntity
  8
0
 62
             7
100
AcDbPoint
 10
73.49999999999892
 20
67.99941019396351
  0
ENDBLK
  5
107
100
AcDbEntity
  8
0
100
AcDbBlockEnd
  0
BLOCK
  5
2F
100
AcDbEntity
  8
0
100
AcDbBlockBegin
  2
062B_2E_AUFSATZRAHMEN__2
 70
             0
 10
-145.58155212703971
 20
-246.98393288344761
 30
0.0
  3
062B_2E_AUFSATZRAHMEN__2
  1

  0
INSERT
  5
30
100
AcDbEntity
  8
1
100
AcDbBlockReference
  2
062B_2E_AUFSATZRAHMEN__1
 10
-145.58155212704011
 20
-345.81524596351062
  0
ENDBLK
  5
108
100
AcDbEntity
  8
0
100
AcDbBlockEnd
  0
BLOCK
  5
32
100
AcDbEntity
  8
0
100
AcDbBlockBegin
  2
HL_62_1_7_DACHABLAUF__3
 70
             0
 10
-50.00768829565681
 20
65.70638732602299
 30
0.0
  3
HL_62_1_7_DACHABLAUF__3
  1

  0
ARC
  5
190
100
AcDbEntity
  8
LC-002-002-RND-0
  6
CONTINUOUS
 62
             7
100
AcDbCircle
 10
-104.30697499999999
 20
14.36450500000001
 40
3.92500000000016
100
AcDbArc
 50
24.10589500000442
 51
90.12740999999978
  0
ARC
  5
18F
100
AcDbEntity
  8
LC-002-002-RND-0
  6
CONTINUOUS
 62
             7
100
AcDbCircle
 10
-82.42803099999998
 20
13.819997
 40
3.92499999999979
100
AcDbArc
 50
-44.49581399999722
 51
40.08825099999822
  0
ARC
  5
18E
100
AcDbEntity
  8
LC-002-002-RND-0
  6
CONTINUOUS
 62
             7
100
AcDbCircle
 10
-83.70004299999999
 20
14.36450500000001
 40
3.92500000000036
100
AcDbArc
 50
89.87259000000063
 51
155.89410499999573
  0
ARC
  5
18D
100
AcDbEntity
  8
LC-001-002-----0
  6
CONTINUOUS
 62
             7
100
AcDbCircle
 10
-83.69121799999999
 20
12.7567380000001
 40
5.57610900000019
100
AcDbArc
 50
40.08825100000176
 51
90.09138399999961
  0
ARC
  5
18C
100
AcDbEntity
  8
LC-002-002-RND-0
  6
CONTINUOUS
 62
             7
100
AcDbCircle
 10
101.999928
 20
-12.16370499999999
 40
0.49999999999972
100
AcDbArc
 50
110.00035900006701
 51
-179.99964099999733
  0
ARC
  5
18B
100
AcDbEntity
  8
LC-002-002-RND-0
  6
CONTINUOUS
 62
             7
100
AcDbCircle
 10
-83.70222299999995
 20
14.36450500000001
 40
3.92500000000036
100
AcDbArc
 50
89.87259000000063
 51
155.89410499999573
  0
ARC
  5
18A
100
AcDbEntity
  8
LC-001-002-----0
  6
CONTINUOUS
 62
             7
100
AcDbCircle
 10
-83.69339899999994
 20
12.7567380000001
 40
5.5761090000001
100
AcDbArc
 50
40.08825100000252
 51
90.09138400000079
  0
ARC
  5
189
100
AcDbEntity
  8
LC-002-002-RND-0
  6
CONTINUOUS
 62
             7
100
AcDbCircle
 10
-82.43021199999993
 20
13.819997
 40
3.92499999999979
100
AcDbArc
 50
-44.49581399999722
 51
40.08825099999929
  0
ARC
  5
188
100
AcDbEntity
  8
LC-002-002-RND-0
  6
CONTINUOUS
 62
             7
100
AcDbCircle
 10
-105.58116699999999
 20
13.819997
 40
3.9249999999999
100
AcDbArc
 50
139.91174900000087
 51
-135.50418600000293
  0
ARC
  5
187
100
AcDbEntity
  8
LC-002-002-RND-0
  6
CONTINUOUS
 62
             7
100
AcDbCircle
 10
-102.000005
 20
-12.16434399999997
 40
0.5
100
AcDbArc
 50
0.0
 51
70.00000000000443
  0
ARC
  5
186
100
AcDbEntity
  8
LC-002-002-RND-0
  6
CONTINUOUS
 62
             7
100
AcDbCircle
 10
-104.309156
 20
14.36450500000001
 40
3.92500000000018
100
AcDbArc
 50
24.10589500000434
 51
90.12740999999959
  0
ARC
  5
185
100
AcDbEntity
  8
LC-002-002-RND-0
  6
CONTINUOUS
 62
             7
100
AcDbCircle
 10
105.581166
 20
13.819997
 40
3.92499999999987
100
AcDbArc
 50
-44.49581399999605
 51
40.08825100000289
  0
ARC
  5
184
100
AcDbEntity
  8
LC-001-002-----0
  6
CONTINUOUS
 62
             7
100
AcDbCircle
 10
104.31797899999999
 20
12.7567380000001
 40
5.57610900000005
100
AcDbArc
 50
40.08825100000298
 51
90.09138399999975
  0
ARC
  5
183
100
AcDbEntity
  8
LC-002-002-RND-0
  6
CONTINUOUS
 62
             7
100
AcDbCircle
 10
83.70222200000001
 20
14.36450500000001
 40
3.92500000000045
100
AcDbArc
 50
24.10589500000256
 51
90.12740999999937
  0
ARC
  5
182
100
AcDbEntity
  8
LC-001-002-----0
  6
CONTINUOUS
 62
             7
100
AcDbCircle
 10
83.693398
 20
12.7567380000001
 40
5.57610900000012
100
AcDbArc
 50
89.90861600000039
 51
139.91174899999825
  0
ARC
  5
181
100
AcDbEntity
  8
LC-002-002-RND-0
  6
CONTINUOUS
 62
             7
100
AcDbCircle
 10
82.43021099999999
 20
13.819997
 40
3.92499999999993
100
AcDbArc
 50
139.91174900000127
 51
-135.50418600000279
  0
ARC
  5
180
100
AcDbEntity
  8
LC-002-002-RND-0
  6
CONTINUOUS
 62
             7
100
AcDbCircle
 10
104.31175
 20
14.36267700000002
 40
3.92499999999947
100
AcDbArc
 50
89.86242599999731
 51
155.88394099999434
  0
ARC
  5
17F
100
AcDbEntity
  8
LC-001-002-----0
  6
CONTINUOUS
 62
             7
100
AcDbCircle
 10
-104.315713
 20
12.7567380000001
 40
5.57610900000012
100
AcDbArc
 50
89.90861600000025
 51
139.91174899999825
  0
ARC
  5
17E
100
AcDbEntity
  8
LC-001-002-----0
  6
CONTINUOUS
 62
             7
100
AcDbCircle
 10
174.99999800000001
 20
0.99935299999999
 40
2.0
100
AcDbArc
 50
0.0
 51
90.0
  0
ARC
  5
17D
100
AcDbEntity
  8
LC-001-002-----0
  6
CONTINUOUS
 62
             7
100
AcDbCircle
 10
-174.99999299999999
 20
0.99864899999989
 40
1.99999999999988
100
AcDbArc
 50
90.00021199999952
 51
-179.99975200000532
  0
ARC
  5
17C
100
AcDbEntity
  8
LC-002-002-RND-0
  6
CONTINUOUS
 62
             7
100
AcDbCircle
 10
-36.62684999999999
 20
14.21858600000002
 40
3.9250000000003
100
AcDbArc
 50
89.87259000000063
 51
155.89410499999769
  0
ARC
  5
17B
100
AcDbEntity
  8
LC-001-002-----0
  6
CONTINUOUS
 62
             7
100
AcDbCircle
 10
-36.61802599999999
 20
12.61081799999994
 40
5.57610900000023
100
AcDbArc
 50
40.08825100000223
 51
90.09138399999954
  0
ARC
  5
17A
100
AcDbEntity
  8
LC-002-002-RND-0
  6
CONTINUOUS
 62
             7
100
AcDbCircle
 10
-36.629031
 20
14.21858600000002
 40
3.9250000000003
100
AcDbArc
 50
89.8725899999998
 51
155.89410499999735
  0
ARC
  5
179
100
AcDbEntity
  8
LC-001-002-----0
  6
CONTINUOUS
 62
             7
100
AcDbCircle
 10
-36.620206
 20
12.61081799999994
 40
5.57610900000023
100
AcDbArc
 50
40.08825100000223
 51
90.09138399999954
  0
ARC
  5
178
100
AcDbEntity
  8
LC-002-002-RND-0
  6
CONTINUOUS
 62
             7
100
AcDbCircle
 10
-35.35701899999998
 20
13.6740769999999
 40
3.92499999999979
100
AcDbArc
 50
-44.49581399999732
 51
40.08825100000053
  0
ARC
  5
177
100
AcDbEntity
  8
LC-002-002-RND-0
  6
CONTINUOUS
 62
             7
100
AcDbCircle
 10
-58.50797499999993
 20
13.6740769999999
 40
3.92500000000013
100
AcDbArc
 50
139.91174900000161
 51
-135.5041860000027
  0
ARC
  5
176
100
AcDbEntity
  8
LC-002-002-RND-0
  6
CONTINUOUS
 62
             7
100
AcDbCircle
 10
-57.23596300000003
 20
14.21858600000002
 40
3.92500000000013
100
AcDbArc
 50
24.10589500000269
 51
90.12740999999949
  0
ARC
  5
175
100
AcDbEntity
  8
LC-001-002-----0
  6
CONTINUOUS
 62
             7
100
AcDbCircle
 10
-57.24252100000007
 20
12.61081799999994
 40
5.57610900000018
100
AcDbArc
 50
89.90861599999923
 51
139.91174899999706
  0
ARC
  5
174
100
AcDbEntity
  8
LC-002-002-RND-0
  6
CONTINUOUS
 62
             7
100
AcDbCircle
 10
36.62684899999999
 20
14.21858600000002
 40
3.92500000000013
100
AcDbArc
 50
24.10589500000269
 51
90.12740999999927
  0
ARC
  5
173
100
AcDbEntity
  8
LC-001-002-----0
  6
CONTINUOUS
 62
             7
100
AcDbCircle
 10
36.61802499999999
 20
12.61081799999994
 40
5.57610900000018
100
AcDbArc
 50
89.90861599999981
 51
139.91174899999777
  0
ARC
  5
172
100
AcDbEntity
  8
LC-002-002-RND-0
  6
CONTINUOUS
 62
             7
100
AcDbCircle
 10
36.62903
 20
14.21858600000002
 40
3.92500000000014
100
AcDbArc
 50
24.10589500000265
 51
90.12740999999939
  0
ARC
  5
171
100
AcDbEntity
  8
LC-001-002-----0
  6
CONTINUOUS
 62
             7
100
AcDbCircle
 10
36.620205
 20
12.61081799999994
 40
5.57610900000018
100
AcDbArc
 50
89.90861599999981
 51
139.91174899999777
  0
ARC
  5
170
100
AcDbEntity
  8
LC-002-002-RND-0
  6
CONTINUOUS
 62
             7
100
AcDbCircle
 10
35.35701799999998
 20
13.6740769999999
 40
3.925
100
AcDbArc
 50
139.91174899999999
 51
-135.5041860000027
  0
ARC
  5
16F
100
AcDbEntity
  8
LC-002-002-RND-0
  6
CONTINUOUS
 62
             7
100
AcDbCircle
 10
58.50797399999999
 20
13.6740769999999
 40
3.92499999999983
100
AcDbArc
 50
-44.49581399999673
 51
40.08825099999947
  0
ARC
  5
16E
100
AcDbEntity
  8
LC-002-002-RND-0
  6
CONTINUOUS
 62
             7
100
AcDbCircle
 10
57.23596200000003
 20
14.21858600000002
 40
3.9250000000003
100
AcDbArc
 50
89.87259000000063
 51
155.89410499999735
  0
ARC
  5
16D
100
AcDbEntity
  8
LC-001-002-----0
  6
CONTINUOUS
 62
             7
100
AcDbCircle
 10
57.24252000000001
 20
12.61081799999994
 40
5.57610900000023
100
AcDbArc
 50
40.08825100000219
 51
90.09138399999961
  0
LINE
  5
16C
100
AcDbEntity
  8
LC-001-002-----0
  6
CONTINUOUS
 62
             7
100
AcDbLine
 10
-89.00350900000007
 20
10.28949599999999
 11
-99.00350900000007
 21
10.28949599999999
  0
LINE
  5
16B
100
AcDbEntity
  8
LC-001-002-----0
  6
CONTINUOUS
 62
             7
100
AcDbLine
 10
-100.69140899999999
 20
15.97732200000002
 11
-99.00350900000007
 21
10.28949599999999
  0
LINE
  5
16A
100
AcDbEntity
  8
LC-001-002-----0
  6
CONTINUOUS
 62
             7
100
AcDbLine
 10
-88.19345100000004
 20
2.99896999999999
 11
-89.00350900000007
 21
10.28949599999999
  0
LINE
  5
169
100
AcDbEntity
  8
LC-001-002-----0
  6
CONTINUOUS
 62
             7
100
AcDbLine
 10
-99.00350900000007
 20
10.28949599999999
 11
-99.81357199999997
 21
2.99892700000004
  0
LINE
  5
168
100
AcDbEntity
  8
LC-001-002-----0
  6
CONTINUOUS
 62
             7
100
AcDbLine
 10
-87.31560899999994
 20
15.97732200000002
 11
-89.00350900000007
 21
10.28949599999999
  0
LINE
  5
167
100
AcDbEntity
  8
LC-001-002-----0
  6
CONTINUOUS
 62
             7
100
AcDbLine
 10
-79.44862499999994
 20
11.2648529999999
 11
-86.53745599999996
 21
2.99897600000003
  0
LINE
  5
166
100
AcDbEntity
  8
LC-001-002-----0
  6
CONTINUOUS
 62
             7
100
AcDbLine
 10
-108.558393
 20
11.2648529999999
 11
-101.4695149999999
 21
2.99892
  0
LINE
  5
165
100
AcDbEntity
  8
LC-001-002-----0
  6
CONTINUOUS
 62
             7
100
AcDbLine
 10
84.30672700000002
 20
2.99935299999999
 11
82.66054700000001
 21
7.52215699999999
  0
LINE
  5
164
100
AcDbEntity
  8
LC-001-002-----0
  6
CONTINUOUS
 62
             7
100
AcDbLine
 10
-84.30679299999991
 20
2.99898400000001
 11
-82.66045099999991
 21
7.52226999999999
  0
LINE
  5
163
100
AcDbEntity
  8
LC-001-002-----0
  6
CONTINUOUS
 62
             7
100
AcDbLine
 10
124.999932
 20
-3.26013499999999
 11
101.82891499999999
 21
-11.69386000000003
  0
LINE
  5
162
100
AcDbEntity
  8
LC-001-002-----0
  6
CONTINUOUS
 62
             7
100
AcDbLine
 10
-99.00569000000002
 20
10.28949599999999
 11
-89.00569000000002
 21
10.28949599999999
  0
LINE
  5
161
100
AcDbEntity
  8
LC-001-002-----0
  6
CONTINUOUS
 62
             7
100
AcDbLine
 10
124.999932
 20
-3.26013499999999
 11
124.657906
 21
-2.32044500000001
  0
LINE
  5
160
100
AcDbEntity
  8
LC-001-002-----0
  6
CONTINUOUS
 62
             7
100
AcDbLine
 10
-87.31779
 20
15.97732200000002
 11
-89.00569000000002
 21
10.28949599999999
  0
LINE
  5
15F
100
AcDbEntity
  8
LC-001-002-----0
  6
CONTINUOUS
 62
             7
100
AcDbLine
 10
-125.00006500000001
 20
-3.260918
 11
-124.658044
 21
-2.32122599999997
  0
LINE
  5
15E
100
AcDbEntity
  8
LC-001-002-----0
  6
CONTINUOUS
 62
             7
100
AcDbLine
 10
-99.81575300000003
 20
2.99892700000004
 11
-99.00569000000002
 21
10.28949599999999
  0
LINE
  5
15D
100
AcDbEntity
  8
LC-001-002-----0
  6
CONTINUOUS
 62
             7
100
AcDbLine
 10
-89.00569000000002
 20
10.28949599999999
 11
-88.19563099999999
 21
2.99896999999999
  0
LINE
  5
15C
100
AcDbEntity
  8
LC-001-002-----0
  6
CONTINUOUS
 62
             7
100
AcDbLine
 10
-100.693589
 20
15.97732200000002
 11
-99.00569000000002
 21
10.28949599999999
  0
LINE
  5
15B
100
AcDbEntity
  8
LC-001-002-----0
  6
CONTINUOUS
 62
             7
100
AcDbLine
 10
-108.560574
 20
11.2648529999999
 11
-101.471695
 21
2.99892
  0
LINE
  5
15A
100
AcDbEntity
  8
LC-001-002-----0
  6
CONTINUOUS
 62
             7
100
AcDbLine
 10
-79.450806
 20
11.2648529999999
 11
-86.53963700000003
 21
2.99897600000003
  0
LINE
  5
159
100
AcDbEntity
  8
LC-001-002-----0
  6
CONTINUOUS
 62
             7
100
AcDbLine
 10
-125.00006500000001
 20
-3.260918
 11
-101.82899500000001
 21
-11.69449800000001
  0
LINE
  5
158
100
AcDbEntity
  8
LC-001-002-----0
  6
CONTINUOUS
 62
             7
100
AcDbLine
 10
99.81570500000004
 20
2.99935299999999
 11
99.00568900000002
 21
10.28949599999999
  0
LINE
  5
157
100
AcDbEntity
  8
LC-001-002-----0
  6
CONTINUOUS
 62
             7
100
AcDbLine
 10
108.56057300000001
 20
11.2648529999999
 11
101.472065
 21
2.99935299999999
  0
LINE
  5
156
100
AcDbEntity
  8
LC-001-002-----0
  6
CONTINUOUS
 62
             7
100
AcDbLine
 10
100.69358800000001
 20
15.97732200000002
 11
99.00568900000002
 21
10.28949599999999
  0
LINE
  5
155
100
AcDbEntity
  8
LC-001-002-----0
  6
CONTINUOUS
 62
             7
100
AcDbLine
 10
99.00568900000002
 20
10.28949599999999
 11
89.00568900000002
 21
10.28949599999999
  0
LINE
  5
154
100
AcDbEntity
  8
LC-001-002-----0
  6
CONTINUOUS
 62
             7
100
AcDbLine
 10
87.31778900000001
 20
15.97732200000002
 11
89.00568900000002
 21
10.28949599999999
  0
LINE
  5
153
100
AcDbEntity
  8
LC-001-002-----0
  6
CONTINUOUS
 62
             7
100
AcDbLine
 10
79.450805
 20
11.2648529999999
 11
86.539312
 21
2.99935299999999
  0
LINE
  5
152
100
AcDbEntity
  8
LC-001-002-----0
  6
CONTINUOUS
 62
             7
100
AcDbLine
 10
89.00568900000002
 20
10.28949599999999
 11
88.195673
 21
2.99935299999999
  0
LINE
  5
151
100
AcDbEntity
  8
LC-001-002-----0
  6
CONTINUOUS
 62
             7
100
AcDbLine
 10
-96.50346600000006
 20
15.7427909999999
 11
-91.50346600000006
 21
15.7427909999999
  0
LINE
  5
150
100
AcDbEntity
  8
LC-001-002-----0
  6
CONTINUOUS
 62
             7
100
AcDbLine
 10
-96.50346600000006
 20
15.7427909999999
 11
-97.00346600000006
 21
15.2427909999999
  0
LINE
  5
14F
100
AcDbEntity
  8
LC-001-002-----0
  6
CONTINUOUS
 62
             7
100
AcDbLine
 10
-91.50346600000006
 20
15.7427909999999
 11
-91.00346600000006
 21
15.2427909999999
  0
LINE
  5
14E
100
AcDbEntity
  8
LC-001-002-----0
  6
CONTINUOUS
 62
             7
100
AcDbLine
 10
-97.00346600000006
 20
15.2427909999999
 11
-91.00346600000006
 21
15.2427909999999
  0
LINE
  5
14D
100
AcDbEntity
  8
LC-001-002-----0
  6
CONTINUOUS
 62
             7
100
AcDbLine
 10
-97.00346600000006
 20
10.28949599999999
 11
-97.00346600000006
 21
15.2427909999999
  0
LINE
  5
14C
100
AcDbEntity
  8
LC-001-002-----0
  6
CONTINUOUS
 62
             7
100
AcDbLine
 10
-91.00346600000006
 20
10.28949599999999
 11
-91.00346600000006
 21
15.2427909999999
  0
LINE
  5
14B
100
AcDbEntity
  8
LC-004-003-----0
  6
CONTINUOUS
 62
             2
100
AcDbLine
 10
-91.50346600000006
 20
10.28949599999999
 11
-91.50346600000006
 21
15.7427909999999
  0
LINE
  5
14A
100
AcDbEntity
  8
LC-004-003-----0
  6
CONTINUOUS
 62
             2
100
AcDbLine
 10
-96.50346600000006
 20
10.28949599999999
 11
-96.50346600000006
 21
15.7427909999999
  0
LINE
  5
149
100
AcDbEntity
  8
LC-001-002-----0
  6
CONTINUOUS
 62
             7
100
AcDbLine
 10
96.50346500000001
 20
15.7427909999999
 11
91.50346500000001
 21
15.7427909999999
  0
LINE
  5
148
100
AcDbEntity
  8
LC-001-002-----0
  6
CONTINUOUS
 62
             7
100
AcDbLine
 10
96.50346500000001
 20
15.7427909999999
 11
97.00346500000001
 21
15.2427909999999
  0
LINE
  5
147
100
AcDbEntity
  8
LC-001-002-----0
  6
CONTINUOUS
 62
             7
100
AcDbLine
 10
91.50346500000001
 20
15.7427909999999
 11
91.00346500000001
 21
15.2427909999999
  0
LINE
  5
146
100
AcDbEntity
  8
LC-001-002-----0
  6
CONTINUOUS
 62
             7
100
AcDbLine
 10
97.00346500000001
 20
15.2427909999999
 11
91.00346500000001
 21
15.2427909999999
  0
LINE
  5
145
100
AcDbEntity
  8
LC-001-002-----0
  6
CONTINUOUS
 62
             7
100
AcDbLine
 10
-176.99999299999999
 20
0.99864000000008
 11
-176.999989
 21
-0.0092489999999
  0
LINE
  5
144
100
AcDbEntity
  8
LC-001-002-----0
  6
CONTINUOUS
 62
             7
100
AcDbLine
 10
-128.014825
 20
-0.00117799999992
 11
-121.64046
 21
-2.32122599999997
  0
LINE
  5
143
100
AcDbEntity
  8
LC-001-002-----0
  6
CONTINUOUS
 62
             7
100
AcDbLine
 10
-174.99999999999989
 20
2.99864899999989
 11
-86.53745599999996
 21
2.99897600000003
  0
LINE
  5
142
100
AcDbEntity
  8
LC-001-002-----0
  6
CONTINUOUS
 62
             7
100
AcDbLine
 10
176.99999800000001
 20
0.99935299999999
 11
176.99999800000001
 21
0.00025099999999
  0
LINE
  5
141
100
AcDbEntity
  8
LC-001-002-----0
  6
CONTINUOUS
 62
             7
100
AcDbLine
 10
128.01296099999999
 20
0.000182
 11
121.632963
 21
-2.32122599999997
  0
LINE
  5
140
100
AcDbEntity
  8
LC-001-002-----0
  6
CONTINUOUS
 62
             7
100
AcDbLine
 10
-176.999987
 20
-0.00135900000009
 11
0.0
 21
-0.00070499999998
  0
LINE
  5
13F
100
AcDbEntity
  8
LC-001-002-----0
  6
CONTINUOUS
 62
             7
100
AcDbLine
 10
176.9998150000001
 20
0.00025099999999
 11
0.0
 21
0.0
  0
LINE
  5
13E
100
AcDbEntity
  8
LC-001-002-----0
  6
CONTINUOUS
 62
             7
100
AcDbLine
 10
84.30672700000002
 20
2.99935299999999
 11
86.539312
 21
2.99935299999999
  0
LINE
  5
13D
100
AcDbEntity
  8
LC-001-002-----0
  6
CONTINUOUS
 62
             7
100
AcDbLine
 10
-86.53745599999996
 20
2.99897600000003
 11
84.30672700000002
 21
2.99960700000003
  0
LINE
  5
13C
100
AcDbEntity
  8
LC-001-002-----0
  6
CONTINUOUS
 62
             7
100
AcDbLine
 10
86.539312
 20
2.99935299999999
 11
174.99999800000001
 21
2.99935299999999
  0
LINE
  5
13B
100
AcDbEntity
  8
LC-001-002-----0
  6
CONTINUOUS
 62
             7
100
AcDbLine
 10
-124.658044
 20
-2.32122599999997
 11
124.657906
 21
-2.32122599999997
  0
LINE
  5
13A
100
AcDbEntity
  8
LC-001-002-----0
  6
CONTINUOUS
 62
             7
100
AcDbLine
 10
124.999932
 20
-3.26013499999999
 11
-125.00006500000001
 21
-3.26013499999999
  0
LINE
  5
139
100
AcDbEntity
  8
LC-001-002-----0
  6
CONTINUOUS
 62
             7
100
AcDbLine
 10
-101.82899500000001
 20
-11.69449800000001
 11
101.999928
 21
-11.69449800000001
  0
LINE
  5
138
100
AcDbEntity
  8
LC-001-002-----0
  6
CONTINUOUS
 62
             7
100
AcDbLine
 10
91.00346500000001
 20
10.28949599999999
 11
91.00346500000001
 21
15.2427909999999
  0
LINE
  5
137
100
AcDbEntity
  8
LC-004-003-----0
  6
CONTINUOUS
 62
             2
100
AcDbLine
 10
91.50346500000001
 20
10.28949599999999
 11
91.50346500000001
 21
15.7427909999999
  0
LINE
  5
136
100
AcDbEntity
  8
LC-004-003-----0
  6
CONTINUOUS
 62
             2
100
AcDbLine
 10
96.50346500000001
 20
10.28949599999999
 11
96.50346500000001
 21
15.7427909999999
  0
LINE
  5
135
100
AcDbEntity
  8
LC-001-002-----0
  6
CONTINUOUS
 62
             7
100
AcDbLine
 10
97.00346500000001
 20
10.28949599999999
 11
97.00346500000001
 21
15.2427909999999
  0
LINE
  5
134
100
AcDbEntity
  8
LC-001-002-----0
  6
CONTINUOUS
 62
             7
100
AcDbLine
 10
-41.93031600000001
 20
10.143576
 11
-51.93031600000001
 21
10.143576
  0
LINE
  5
133
100
AcDbEntity
  8
LC-001-002-----0
  6
CONTINUOUS
 62
             7
100
AcDbLine
 10
-41.12025799999998
 20
2.85305
 11
-41.93031600000001
 21
10.143576
  0
LINE
  5
132
100
AcDbEntity
  8
LC-001-002-----0
  6
CONTINUOUS
 62
             7
100
AcDbLine
 10
-40.24241699999999
 20
15.83140200000008
 11
-41.93031600000001
 21
10.143576
  0
LINE
  5
131
100
AcDbEntity
  8
LC-001-002-----0
  6
CONTINUOUS
 62
             7
100
AcDbLine
 10
-32.37543199999999
 20
11.11893300000003
 11
-39.46426300000002
 21
2.85305599999998
  0
LINE
  5
130
100
AcDbEntity
  8
LC-001-002-----0
  6
CONTINUOUS
 62
             7
100
AcDbLine
 10
-61.48520000000002
 20
11.11893300000003
 11
-54.396322
 21
2.85300100000001
  0
LINE
  5
12F
100
AcDbEntity
  8
LC-001-002-----0
  6
CONTINUOUS
 62
             7
100
AcDbLine
 10
-51.93249699999996
 20
10.143576
 11
-41.93249700000007
 21
10.143576
  0
LINE
  5
12E
100
AcDbEntity
  8
LC-001-002-----0
  6
CONTINUOUS
 62
             7
100
AcDbLine
 10
-40.24459699999994
 20
15.83140200000008
 11
-41.93249700000007
 21
10.143576
  0
LINE
  5
12D
100
AcDbEntity
  8
LC-001-002-----0
  6
CONTINUOUS
 62
             7
100
AcDbLine
 10
-52.74255999999997
 20
2.85300699999999
 11
-51.93249699999996
 21
10.143576
  0
LINE
  5
12C
100
AcDbEntity
  8
LC-001-002-----0
  6
CONTINUOUS
 62
             7
100
AcDbLine
 10
-41.93249700000007
 20
10.143576
 11
-41.12243900000004
 21
2.85305
  0
LINE
  5
12B
100
AcDbEntity
  8
LC-001-002-----0
  6
CONTINUOUS
 62
             7
100
AcDbLine
 10
-53.62039699999997
 20
15.83140200000008
 11
-51.93249699999996
 21
10.143576
  0
LINE
  5
12A
100
AcDbEntity
  8
LC-001-002-----0
  6
CONTINUOUS
 62
             7
100
AcDbLine
 10
-61.48738099999997
 20
11.11893300000003
 11
-54.39850300000006
 21
2.85300100000001
  0
LINE
  5
129
100
AcDbEntity
  8
LC-001-002-----0
  6
CONTINUOUS
 62
             7
100
AcDbLine
 10
-32.377613
 20
11.11893300000003
 11
-39.46644399999997
 21
2.85305599999998
  0
LINE
  5
128
100
AcDbEntity
  8
LC-001-002-----0
  6
CONTINUOUS
 62
             7
100
AcDbLine
 10
-49.430273
 20
15.59687200000002
 11
-44.430273
 21
15.59687200000002
  0
LINE
  5
127
100
AcDbEntity
  8
LC-001-002-----0
  6
CONTINUOUS
 62
             7
100
AcDbLine
 10
-49.430273
 20
15.59687200000002
 11
-49.930273
 21
15.09687200000002
  0
LINE
  5
126
100
AcDbEntity
  8
LC-001-002-----0
  6
CONTINUOUS
 62
             7
100
AcDbLine
 10
-44.430273
 20
15.59687200000002
 11
-43.930273
 21
15.09687200000002
  0
LINE
  5
125
100
AcDbEntity
  8
LC-001-002-----0
  6
CONTINUOUS
 62
             7
100
AcDbLine
 10
-49.930273
 20
15.09687200000002
 11
-43.930273
 21
15.09687200000002
  0
LINE
  5
124
100
AcDbEntity
  8
LC-001-002-----0
  6
CONTINUOUS
 62
             7
100
AcDbLine
 10
-49.930273
 20
10.143576
 11
-49.930273
 21
15.09687200000002
  0
LINE
  5
123
100
AcDbEntity
  8
LC-001-002-----0
  6
CONTINUOUS
 62
             7
100
AcDbLine
 10
-43.930273
 20
10.143576
 11
-43.930273
 21
15.09687200000002
  0
LINE
  5
122
100
AcDbEntity
  8
LC-004-003-----0
  6
CONTINUOUS
 62
             2
100
AcDbLine
 10
-44.430273
 20
10.143576
 11
-44.430273
 21
15.59687200000002
  0
LINE
  5
121
100
AcDbEntity
  8
LC-004-003-----0
  6
CONTINUOUS
 62
             2
100
AcDbLine
 10
-49.430273
 20
10.143576
 11
-49.430273
 21
15.59687200000002
  0
LINE
  5
120
100
AcDbEntity
  8
LC-001-002-----0
  6
CONTINUOUS
 62
             7
100
AcDbLine
 10
86.53745500000002
 20
2.99897600000003
 11
-84.30672799999996
 21
2.99960700000003
  0
LINE
  5
11F
100
AcDbEntity
  8
LC-001-002-----0
  6
CONTINUOUS
 62
             7
100
AcDbLine
 10
41.93031500000001
 20
10.143576
 11
51.93031500000001
 21
10.143576
  0
LINE
  5
11E
100
AcDbEntity
  8
LC-001-002-----0
  6
CONTINUOUS
 62
             7
100
AcDbLine
 10
41.12025699999998
 20
2.85305
 11
41.93031500000001
 21
10.143576
  0
LINE
  5
11D
100
AcDbEntity
  8
LC-001-002-----0
  6
CONTINUOUS
 62
             7
100
AcDbLine
 10
40.24241599999999
 20
15.83140200000008
 11
41.93031500000001
 21
10.143576
  0
LINE
  5
11C
100
AcDbEntity
  8
LC-001-002-----0
  6
CONTINUOUS
 62
             7
100
AcDbLine
 10
32.37543099999999
 20
11.11893300000003
 11
39.46426200000002
 21
2.85305599999998
  0
LINE
  5
11B
100
AcDbEntity
  8
LC-001-002-----0
  6
CONTINUOUS
 62
             7
100
AcDbLine
 10
61.48519900000002
 20
11.11893300000003
 11
54.396321
 21
2.85300100000001
  0
LINE
  5
11A
100
AcDbEntity
  8
LC-001-002-----0
  6
CONTINUOUS
 62
             7
100
AcDbLine
 10
51.93249600000002
 20
10.143576
 11
41.93249600000002
 21
10.143576
  0
LINE
  5
119
100
AcDbEntity
  8
LC-001-002-----0
  6
CONTINUOUS
 62
             7
100
AcDbLine
 10
40.244596
 20
15.83140200000008
 11
41.93249600000002
 21
10.143576
  0
LINE
  5
118
100
AcDbEntity
  8
LC-001-002-----0
  6
CONTINUOUS
 62
             7
100
AcDbLine
 10
52.74255900000003
 20
2.85300699999999
 11
51.93249600000002
 21
10.143576
  0
LINE
  5
117
100
AcDbEntity
  8
LC-001-002-----0
  6
CONTINUOUS
 62
             7
100
AcDbLine
 10
41.93249600000002
 20
10.143576
 11
41.12243799999999
 21
2.85305
  0
LINE
  5
116
100
AcDbEntity
  8
LC-001-002-----0
  6
CONTINUOUS
 62
             7
100
AcDbLine
 10
53.62039600000003
 20
15.83140200000008
 11
51.93249600000002
 21
10.143576
  0
LINE
  5
115
100
AcDbEntity
  8
LC-001-002-----0
  6
CONTINUOUS
 62
             7
100
AcDbLine
 10
61.48738000000003
 20
11.11893300000003
 11
54.39850200000001
 21
2.85300100000001
  0
LINE
  5
114
100
AcDbEntity
  8
LC-001-002-----0
  6
CONTINUOUS
 62
             7
100
AcDbLine
 10
32.377612
 20
11.11893300000003
 11
39.46644300000003
 21
2.85305599999998
  0
LINE
  5
113
100
AcDbEntity
  8
LC-001-002-----0
  6
CONTINUOUS
 62
             7
100
AcDbLine
 10
49.430272
 20
15.59687200000002
 11
44.430272
 21
15.59687200000002
  0
LINE
  5
112
100
AcDbEntity
  8
LC-001-002-----0
  6
CONTINUOUS
 62
             7
100
AcDbLine
 10
49.430272
 20
15.59687200000002
 11
49.930272
 21
15.09687200000002
  0
LINE
  5
111
100
AcDbEntity
  8
LC-001-002-----0
  6
CONTINUOUS
 62
             7
100
AcDbLine
 10
44.430272
 20
15.59687200000002
 11
43.930272
 21
15.09687200000002
  0
LINE
  5
110
100
AcDbEntity
  8
LC-001-002-----0
  6
CONTINUOUS
 62
             7
100
AcDbLine
 10
49.930272
 20
15.09687200000002
 11
43.930272
 21
15.09687200000002
  0
LINE
  5
10F
100
AcDbEntity
  8
LC-001-002-----0
  6
CONTINUOUS
 62
             7
100
AcDbLine
 10
49.930272
 20
10.143576
 11
49.930272
 21
15.09687200000002
  0
LINE
  5
10E
100
AcDbEntity
  8
LC-001-002-----0
  6
CONTINUOUS
 62
             7
100
AcDbLine
 10
43.930272
 20
10.143576
 11
43.930272
 21
15.09687200000002
  0
LINE
  5
10D
100
AcDbEntity
  8
LC-004-003-----0
  6
CONTINUOUS
 62
             2
100
AcDbLine
 10
44.430272
 20
10.143576
 11
44.430272
 21
15.59687200000002
  0
LINE
  5
10C
100
AcDbEntity
  8
LC-004-003-----0
  6
CONTINUOUS
 62
             2
100
AcDbLine
 10
49.430272
 20
10.143576
 11
49.430272
 21
15.59687200000002
  0
POINT
  5
10B
100
AcDbEntity
  8
LC-004-003-----0
 62
             7
100
AcDbPoint
 10
-176.999989
 20
-0.0092489999999
  0
POINT
  5
10A
100
AcDbEntity
  8
LC-004-003-----0
 62
             7
100
AcDbPoint
 10
176.9998150000001
 20
0.00025099999999
  0
POINT
  5
109
100
AcDbEntity
  8
LC-004-003-----0
 62
             7
100
AcDbPoint
 10
-176.999989
 20
-0.0092489999999
  0
INSERT
  5
33
100
AcDbEntity
  8
1
100
AcDbBlockReference
  2
062B_2E_AUFSATZRAHMEN__2
 10
-145.58155212703971
 20
-246.98393288344761
  0
ENDBLK
  5
191
100
AcDbEntity
  8
0
100
AcDbBlockEnd
  0
BLOCK
  5
35
100
AcDbEntity
  8
0
100
AcDbBlockBegin
  2
062_1E_LAUBFANGKORB
 70
             0
 10
-159.3234902984606
 20
-491.19747851649612
 30
0.0
  3
062_1E_LAUBFANGKORB
  1

  0
LINE
  5
192
100
AcDbEntity
  8
LC-001-002-----0
  6
DASHDOT
 62
             2
100
AcDbLine
 10
0.0
 20
46.20823601338356
 11
0.0
 21
-162.25745955691741
  0
ENDBLK
  5
193
100
AcDbEntity
  8
0
100
AcDbBlockEnd
  0
BLOCK
  5
37
100
AcDbEntity
  8
0
100
AcDbBlockBegin
  2
HL62_1_1
 70
             0
 10
-79.87763229846064
 20
-334.19535451649602
 30
0.0
  3
HL62_1_1
  1

  0
INSERT
  5
38
100
AcDbEntity
  8
0
100
AcDbBlockReference
  2
HL_62_1_7_DACHABLAUF__3
 10
-50.00768829565681
 20
65.70638732602299
  0
INSERT
  5
39
100
AcDbEntity
  8
1
100
AcDbBlockReference
  2
062_1E_LAUBFANGKORB
 10
-159.3234902984606
 20
-491.19747851649612
  0
ENDBLK
  5
194
100
AcDbEntity
  8
0
100
AcDbBlockEnd
  0
BLOCK
  5
3B
100
AcDbEntity
  8
0
100
AcDbBlockBegin
  2
HL_62_1B_1_FLACHDACHAB0__4
 70
             0
 10
-483.24484056904657
 20
-474.66505440261398
 30
0.0
  3
HL_62_1B_1_FLACHDACHAB0__4
  1

  0
INSERT
  5
3C
100
AcDbEntity
  8
0
100
AcDbBlockReference
  2
HL62_1_1
 10
-79.87763229846064
 20
-334.19535451649602
  0
ENDBLK
  5
195
100
AcDbEntity
  8
0
100
AcDbBlockEnd
  0
BLOCK
  5
3E
100
AcDbEntity
  8
0
100
AcDbBlockBegin
  2
HL_62_1B_1_FLACHDACHAB0__5
 70
             0
 10
-474.80038401790301
 20
6.80924814628696
 30
0.0
  3
HL_62_1B_1_FLACHDACHAB0__5
  1

  0
INSERT
  5
3F
100
AcDbEntity
  8
0
100
AcDbBlockReference
  2
HL_62_1B_1_FLACHDACHAB0__4
 10
-483.24484056904657
 20
-474.66505440261398
  0
ENDBLK
  5
196
100
AcDbEntity
  8
0
100
AcDbBlockEnd
  0
BLOCK
  5
41
100
AcDbEntity
  8
0
100
AcDbBlockBegin
  2
HL_62_1_7_DACHABLAUF__6
 70
             0
 10
-444.93044001509918
 20
407.18019998880601
 30
0.0
  3
HL_62_1_7_DACHABLAUF__6
  1

  0
ARC
  5
2C8
100
AcDbEntity
  8
LC-001-002-----0
  6
CONTINUOUS
 62
             7
100
AcDbCircle
 10
42.59385500000002
 20
-27.18167699999998
 40
2.95226100000043
100
AcDbArc
 50
-100.65910999999772
 51
-89.87792499999951
  0
ARC
  5
2C7
100
AcDbEntity
  8
LC-001-002-----0
  6
CONTINUOUS
 62
             7
100
AcDbCircle
 10
42.41187500000001
 20
-28.079231
 40
2.0365740000001
100
AcDbArc
 50
-114.12327600000049
 51
-100.29833299999854
  0
ARC
  5
2C6
100
AcDbEntity
  8
LC-001-002-----0
  6
CONTINUOUS
 62
             7
100
AcDbCircle
 10
41.95781399999999
 20
-29.05868500000003
 40
0.95718600000006
100
AcDbArc
 50
-136.22722199999416
 51
-113.27904600000844
  0
ARC
  5
2C5
100
AcDbEntity
  8
LC-001-002-----0
  6
CONTINUOUS
 62
             7
100
AcDbCircle
 10
41.54172
 20
-29.45123400000006
 40
0.38519000000001
100
AcDbArc
 50
-177.98132199996448
 51
-135.57293499999324
  0
ARC
  5
2C4
100
AcDbEntity
  8
LC-001-002-----0
  6
CONTINUOUS
 62
             7
100
AcDbCircle
 10
46.92245800000001
 20
-18.27354000000009
 40
11.86047600000037
100
AcDbArc
 50
-94.95027199999974
 51
-89.49289499999989
  0
ARC
  5
2C3
100
AcDbEntity
  8
LC-001-002-----0
  6
CONTINUOUS
 62
             7
100
AcDbCircle
 10
46.52589
 20
-22.46078800000004
 40
7.65470200000038
100
AcDbArc
 50
-102.01390099999912
 51
-94.69753199999953
  0
ARC
  5
2C2
100
AcDbEntity
  8
LC-001-002-----0
  6
CONTINUOUS
 62
             7
100
AcDbCircle
 10
45.43891400000001
 20
-27.344132
 40
2.65247499999995
100
AcDbArc
 50
-115.90883000000267
 51
-101.00498000000235
  0
ARC
  5
2C1
100
AcDbEntity
  8
LC-001-002-----0
  6
CONTINUOUS
 62
             7
100
AcDbCircle
 10
44.39805000000001
 20
-29.38509599999992
 40
0.364574
100
AcDbArc
 50
-166.44764699997543
 51
-108.9028589999934
  0
ARC
  5
2C0
100
AcDbEntity
  8
LC-001-002-----0
  6
CONTINUOUS
 62
             7
100
AcDbCircle
 10
51.24578700000001
 20
-27.26189599999992
 40
2.87172799999953
100
AcDbArc
 50
-102.02148400000324
 51
-91.4632320000004
  0
ARC
  5
2BF
100
AcDbEntity
  8
LC-001-002-----0
  6
CONTINUOUS
 62
             7
100
AcDbCircle
 10
51.03728999999999
 20
-28.18476900000002
 40
1.92570500000027
100
AcDbArc
 50
-115.47056899999738
 51
-101.6730880000013
  0
ARC
  5
2BE
100
AcDbEntity
  8
LC-001-002-----0
  6
CONTINUOUS
 62
             7
100
AcDbCircle
 10
50.58772500000003
 20
-29.09915300000006
 40
0.90694700000012
100
AcDbArc
 50
-137.53956599999313
 51
-114.67191599999576
  0
ARC
  5
2BD
100
AcDbEntity
  8
LC-001-002-----0
  6
CONTINUOUS
 62
             7
100
AcDbCircle
 10
50.19640299999998
 20
-29.45273200000003
 40
0.37957099999995
100
AcDbArc
 50
-178.17767000002038
 51
-137.03794100004347
  0
ARC
  5
2BC
100
AcDbEntity
  8
LC-001-002-----0
  6
CONTINUOUS
 62
             7
100
AcDbCircle
 10
42.61952200000002
 20
-27.76782500000008
 40
2.83334599999987
100
AcDbArc
 50
77.4315159999987
 51
87.83803500000103
  0
ARC
  5
2BB
100
AcDbEntity
  8
LC-001-002-----0
  6
CONTINUOUS
 62
             7
100
AcDbCircle
 10
42.83632499999999
 20
-26.84620100000001
 40
1.88666099999999
100
AcDbArc
 50
64.10450699999721
 51
77.76727599999686
  0
ARC
  5
2BA
100
AcDbEntity
  8
LC-001-002-----0
  6
CONTINUOUS
 62
             7
100
AcDbCircle
 10
43.27919900000001
 20
-25.96112199999999
 40
0.89711299999973
100
AcDbArc
 50
42.36569199997747
 51
64.86233100000639
  0
ARC
  5
2B9
100
AcDbEntity
  8
LC-001-002-----0
  6
CONTINUOUS
 62
             7
100
AcDbCircle
 10
43.66201599999999
 20
-25.61631099999994
 40
0.38192400000006
100
AcDbArc
 50
2.84829199996071
 51
42.8454130000131
  0
ARC
  5
2B8
100
AcDbEntity
  8
LC-001-002-----0
  6
CONTINUOUS
 62
             7
100
AcDbCircle
 10
46.96139499999998
 20
-36.29251300000006
 40
11.35831100000039
100
AcDbArc
 50
84.04884400000002
 51
89.43490399999982
  0
ARC
  5
2B7
100
AcDbEntity
  8
LC-001-002-----0
  6
CONTINUOUS
 62
             7
100
AcDbCircle
 10
47.45894500000003
 20
-31.82485500000002
 40
6.86321699999952
100
AcDbArc
 50
76.7671179999996
 51
84.31313699999996
  0
ARC
  5
2B6
100
AcDbEntity
  8
LC-001-002-----0
  6
CONTINUOUS
 62
             7
100
AcDbCircle
 10
48.55467199999998
 20
-27.35524500000003
 40
2.26188200000019
100
AcDbArc
 50
61.97031500000106
 51
77.86899000000159
  0
ARC
  5
2B5
100
AcDbEntity
  8
LC-001-002-----0
  6
CONTINUOUS
 62
             7
100
AcDbCircle
 10
49.50335999999999
 20
-25.65419000000003
 40
0.31682899999991
100
AcDbArc
 50
8.23989699991721
 51
68.86547599998167
  0
ARC
  5
2B4
100
AcDbEntity
  8
LC-001-002-----0
  6
CONTINUOUS
 62
             7
100
AcDbCircle
 10
51.26668899999999
 20
-27.88618600000001
 40
2.95226100000005
100
AcDbArc
 50
79.34089500000083
 51
90.12207500000051
  0
ARC
  5
2B3
100
AcDbEntity
  8
LC-001-002-----0
  6
CONTINUOUS
 62
             7
100
AcDbCircle
 10
51.448669
 20
-26.988632
 40
2.03657500000019
100
AcDbArc
 50
65.87673800000181
 51
79.70167200000246
  0
ARC
  5
2B2
100
AcDbEntity
  8
LC-001-002-----0
  6
CONTINUOUS
 62
             7
100
AcDbCircle
 10
51.90272999999996
 20
-26.00917799999997
 40
0.95718699999991
100
AcDbArc
 50
43.77281699998652
 51
66.72096599999888
  0
ARC
  5
2B1
100
AcDbEntity
  8
LC-001-002-----0
  6
CONTINUOUS
 62
             7
100
AcDbCircle
 10
52.31882400000001
 20
-25.61662900000005
 40
0.38519
100
AcDbArc
 50
2.01876900001379
 51
44.42710699998704
  0
ARC
  5
2B0
100
AcDbEntity
  8
LC-001-002-----0
  6
CONTINUOUS
 62
             7
100
AcDbCircle
 10
49.48922699999997
 20
-29.40345700000006
 40
0.33348700000003
100
AcDbArc
 50
-69.4085699999882
 51
-10.60006500005162
  0
ARC
  5
2AF
100
AcDbEntity
  8
LC-001-002-----0
  6
CONTINUOUS
 62
             7
100
AcDbCircle
 10
48.51925399999999
 20
-27.61622200000005
 40
2.36425199999973
100
AcDbArc
 50
-78.12677299999922
 51
-62.62092800000183
  0
ARC
  5
2AE
100
AcDbEntity
  8
LC-001-002-----0
  6
CONTINUOUS
 62
             7
100
AcDbCircle
 10
47.42977500000001
 20
-23.06636100000009
 40
7.04212699999957
100
AcDbArc
 50
-84.52087599999918
 51
-77.06860899999906
  0
ARC
  5
2AD
100
AcDbEntity
  8
LC-001-002-----0
  6
CONTINUOUS
 62
             7
100
AcDbCircle
 10
46.95533899999998
 20
-18.66123699999997
 40
11.47254200000012
100
AcDbArc
 50
-89.63836400000001
 51
-84.26291000000016
  0
ARC
  5
2AC
100
AcDbEntity
  8
LC-001-002-----0
  6
CONTINUOUS
 62
             7
100
AcDbCircle
 10
44.34374500000001
 20
-25.64767699999999
 40
0.30262800000041
100
AcDbArc
 50
112.85759199996545
 51
172.61628899997214
  0
ARC
  5
2AB
100
AcDbEntity
  8
LC-001-002-----0
  6
CONTINUOUS
 62
             7
100
AcDbCircle
 10
45.22856300000001
 20
-27.16005100000001
 40
2.05262700000037
100
AcDbArc
 50
102.9844779999985
 51
119.23126300000007
  0
ARC
  5
2AA
100
AcDbEntity
  8
LC-001-002-----0
  6
CONTINUOUS
 62
             7
100
AcDbCircle
 10
46.30540300000001
 20
-31.283932
 40
6.31420999999951
100
AcDbArc
 50
96.45651500000021
 51
104.09815199999912
  0
ARC
  5
2A9
100
AcDbEntity
  8
LC-001-002-----0
  6
CONTINUOUS
 62
             7
100
AcDbCircle
 10
46.86808400000001
 20
-35.80680200000001
 40
10.87178399999992
100
AcDbArc
 50
91.41077699999993
 51
96.7227570000001
  0
ARC
  5
2A8
100
AcDbEntity
  8
LC-001-002-----0
  6
CONTINUOUS
 62
             7
100
AcDbCircle
 10
52.31882400000001
 20
-29.45123400000006
 40
0.38518899999987
100
AcDbArc
 50
-44.42704499998404
 51
-2.01867499990611
  0
ARC
  5
2A7
100
AcDbEntity
  8
LC-001-002-----0
  6
CONTINUOUS
 62
             7
100
AcDbCircle
 10
51.90273099999996
 20
-29.05868600000003
 40
0.95718600000009
100
AcDbArc
 50
-66.72093499999572
 51
-43.7727599999838
  0
ARC
  5
2A6
100
AcDbEntity
  8
LC-001-002-----0
  6
CONTINUOUS
 62
             7
100
AcDbCircle
 10
51.44866999999999
 20
-28.07923299999999
 40
2.03657299999988
100
AcDbArc
 50
-79.70164799999868
 51
-65.87670500000057
  0
ARC
  5
2A5
100
AcDbEntity
  8
LC-001-002-----0
  6
CONTINUOUS
 62
             7
100
AcDbCircle
 10
51.26668899999999
 20
-27.18167799999998
 40
2.95226000000038
100
AcDbArc
 50
-90.12205300000144
 51
-79.34087099999888
  0
ARC
  5
2A4
100
AcDbEntity
  8
LC-001-002-----0
  6
CONTINUOUS
 62
             7
100
AcDbCircle
 10
43.65767
 20
-29.45033299999995
 40
0.38632599999979
100
AcDbArc
 50
-43.97614199996615
 51
-2.99596000000267
  0
ARC
  5
2A3
100
AcDbEntity
  8
LC-001-002-----0
  6
CONTINUOUS
 62
             7
100
AcDbCircle
 10
43.25578200000001
 20
-29.07596899999993
 40
0.93552899999961
100
AcDbArc
 50
-65.95924399999269
 51
-43.38502600002619
  0
ARC
  5
2A2
100
AcDbEntity
  8
LC-001-002-----0
  6
CONTINUOUS
 62
             7
100
AcDbCircle
 10
42.808337
 20
-28.13997999999998
 40
1.97279799999988
100
AcDbArc
 50
-78.84917200000041
 51
-65.16570300000473
  0
ARC
  5
2A1
100
AcDbEntity
  8
LC-001-002-----0
  6
CONTINUOUS
 62
             7
100
AcDbCircle
 10
42.61134899999996
 20
-27.23100399999993
 40
2.90276399999985
100
AcDbArc
 50
-89.06955199999923
 51
-78.50413399999843
  0
ARC
  5
2A0
100
AcDbEntity
  8
LC-001-002-----0
  6
CONTINUOUS
 62
             7
100
AcDbCircle
 10
41.541721
 20
-25.61662900000005
 40
0.38519099999984
100
AcDbArc
 50
135.5728030000233
 51
177.98109099994562
  0
ARC
  5
29F
100
AcDbEntity
  8
LC-001-002-----0
  6
CONTINUOUS
 62
             7
100
AcDbCircle
 10
41.95781600000004
 20
-26.00917999999996
 40
0.95719000000033
100
AcDbArc
 50
113.27898899998985
 51
136.22710099999549
  0
ARC
  5
29E
100
AcDbEntity
  8
LC-001-002-----0
  6
CONTINUOUS
 62
             7
100
AcDbCircle
 10
42.41187600000001
 20
-26.98863499999999
 40
2.03657799999997
100
AcDbArc
 50
100.29829600000059
 51
114.12321599999842
  0
ARC
  5
29D
100
AcDbEntity
  8
LC-001-002-----0
  6
CONTINUOUS
 62
             7
100
AcDbCircle
 10
42.59385500000002
 20
-27.88618700000001
 40
2.95226199999981
100
AcDbArc
 50
89.87789500000065
 51
100.65907200000088
  0
ARC
  5
29C
100
AcDbEntity
  8
LC-001-002-----0
  6
CONTINUOUS
 62
             7
100
AcDbCircle
 10
50.19059899999996
 20
-25.61307499999993
 40
0.37354699999992
100
AcDbArc
 50
137.96979800001031
 51
179.34244100004744
  0
ARC
  5
29B
100
AcDbEntity
  8
LC-001-002-----0
  6
CONTINUOUS
 62
             7
100
AcDbCircle
 10
50.57287700000001
 20
-25.94896699999998
 40
0.88241000000011
100
AcDbArc
 50
115.21390100000112
 51
138.38834200000787
  0
ARC
  5
29A
100
AcDbEntity
  8
LC-001-002-----0
  6
CONTINUOUS
 62
             7
100
AcDbCircle
 10
51.02451200000002
 20
-26.845801
 40
1.88638099999975
100
AcDbArc
 50
102.10181700000244
 51
116.02050099999873
  0
ARC
  5
299
100
AcDbEntity
  8
LC-001-002-----0
  6
CONTINUOUS
 62
             7
100
AcDbCircle
 10
51.24265800000001
 20
-27.77962100000008
 40
2.84523600000049
100
AcDbArc
 50
91.88440500000149
 51
102.45466900000193
  0
ARC
  5
298
100
AcDbEntity
  8
LC-001-002-----0
  6
CONTINUOUS
 62
             7
100
AcDbCircle
 10
-41.541721
 20
-29.45123400000006
 40
0.38519000000006
100
AcDbArc
 50
-44.42706500000605
 51
-2.01867800003549
  0
ARC
  5
297
100
AcDbEntity
  8
LC-001-002-----0
  6
CONTINUOUS
 62
             7
100
AcDbCircle
 10
-41.95781500000004
 20
-29.05868500000003
 40
0.95718599999962
100
AcDbArc
 50
-66.72095399999236
 51
-43.77277800000409
  0
ARC
  5
296
100
AcDbEntity
  8
LC-001-002-----0
  6
CONTINUOUS
 62
             7
100
AcDbCircle
 10
-42.41187599999995
 20
-28.079231
 40
2.03657400000018
100
AcDbArc
 50
-79.70166700000324
 51
-65.87672400000244
  0
ARC
  5
295
100
AcDbEntity
  8
LC-001-002-----0
  6
CONTINUOUS
 62
             7
100
AcDbCircle
 10
-42.59385600000002
 20
-27.18167699999998
 40
2.95226099999977
100
AcDbArc
 50
-90.12207500000051
 51
-79.34089000000242
  0
ARC
  5
294
100
AcDbEntity
  8
LC-001-002-----0
  6
CONTINUOUS
 62
             7
100
AcDbCircle
 10
-44.39805099999995
 20
-29.38509599999992
 40
0.36457400000007
100
AcDbArc
 50
-71.09714100001401
 51
-13.55235300002615
  0
ARC
  5
293
100
AcDbEntity
  8
LC-001-002-----0
  6
CONTINUOUS
 62
             7
100
AcDbCircle
 10
-45.43891500000001
 20
-27.344132
 40
2.65247499999979
100
AcDbArc
 50
-78.99501999999886
 51
-64.09116999999735
  0
ARC
  5
292
100
AcDbEntity
  8
LC-001-002-----0
  6
CONTINUOUS
 62
             7
100
AcDbCircle
 10
-46.52589100000006
 20
-22.46078800000004
 40
7.65470200000029
100
AcDbArc
 50
-85.30246799999958
 51
-77.98609900000042
  0
ARC
  5
291
100
AcDbEntity
  8
LC-001-002-----0
  6
CONTINUOUS
 62
             7
100
AcDbCircle
 10
-46.92245899999995
 20
-18.27354000000009
 40
11.86047599999994
100
AcDbArc
 50
-90.50710500000047
 51
-85.04972800000083
  0
ARC
  5
290
100
AcDbEntity
  8
LC-001-002-----0
  6
CONTINUOUS
 62
             7
100
AcDbCircle
 10
-50.19640399999997
 20
-29.45273200000003
 40
0.37957099999965
100
AcDbArc
 50
-42.96205899995725
 51
-1.82232999997993
  0
ARC
  5
28F
100
AcDbEntity
  8
LC-001-002-----0
  6
CONTINUOUS
 62
             7
100
AcDbCircle
 10
-50.58772600000003
 20
-29.09915300000006
 40
0.90694700000017
100
AcDbArc
 50
-65.32808400000343
 51
-42.46043400000686
  0
ARC
  5
28E
100
AcDbEntity
  8
LC-001-002-----0
  6
CONTINUOUS
 62
             7
100
AcDbCircle
 10
-51.03729100000004
 20
-28.18476900000002
 40
1.92570499999984
100
AcDbArc
 50
-78.32691199999724
 51
-64.5294310000013
  0
ARC
  5
28D
100
AcDbEntity
  8
LC-001-002-----0
  6
CONTINUOUS
 62
             7
100
AcDbCircle
 10
-51.24578800000001
 20
-27.26189599999992
 40
2.87172799999973
100
AcDbArc
 50
-88.53676800000073
 51
-77.9785159999976
  0
ARC
  5
28C
100
AcDbEntity
  8
LC-001-002-----0
  6
CONTINUOUS
 62
             7
100
AcDbCircle
 10
-43.66201700000005
 20
-25.61631099999994
 40
0.38192400000006
100
AcDbArc
 50
137.15458699997967
 51
177.15170800003841
  0
ARC
  5
28B
100
AcDbEntity
  8
LC-001-002-----0
  6
CONTINUOUS
 62
             7
100
AcDbCircle
 10
-43.2792
 20
-25.96112199999999
 40
0.89711300000027
100
AcDbArc
 50
115.13766899999156
 51
137.63430800002499
  0
ARC
  5
28A
100
AcDbEntity
  8
LC-001-002-----0
  6
CONTINUOUS
 62
             7
100
AcDbCircle
 10
-42.83632600000004
 20
-26.84620100000001
 40
1.88666099999965
100
AcDbArc
 50
102.23272400000124
 51
115.89549300000122
  0
ARC
  5
289
100
AcDbEntity
  8
LC-001-002-----0
  6
CONTINUOUS
 62
             7
100
AcDbCircle
 10
-42.61952300000002
 20
-27.76782500000008
 40
2.83334599999976
100
AcDbArc
 50
92.16196499999883
 51
102.56848400000118
  0
ARC
  5
288
100
AcDbEntity
  8
LC-001-002-----0
  6
CONTINUOUS
 62
             7
100
AcDbCircle
 10
-49.50336099999998
 20
-25.65419000000003
 40
0.31682899999963
100
AcDbArc
 50
111.13452400001833
 51
171.76010300008463
  0
ARC
  5
287
100
AcDbEntity
  8
LC-001-002-----0
  6
CONTINUOUS
 62
             7
100
AcDbCircle
 10
-48.55467300000004
 20
-27.35524500000003
 40
2.2618820000004
100
AcDbArc
 50
102.13100999999683
 51
118.02968499999673
  0
ARC
  5
286
100
AcDbEntity
  8
LC-001-002-----0
  6
CONTINUOUS
 62
             7
100
AcDbCircle
 10
-47.45894600000003
 20
-31.82485500000002
 40
6.86321699999952
100
AcDbArc
 50
95.68686300000006
 51
103.23288200000034
  0
ARC
  5
285
100
AcDbEntity
  8
LC-001-002-----0
  6
CONTINUOUS
 62
             7
100
AcDbCircle
 10
-46.96139599999998
 20
-36.29251300000006
 40
11.35831099999977
100
AcDbArc
 50
90.56509600000021
 51
95.95115599999998
  0
ARC
  5
284
100
AcDbEntity
  8
LC-001-002-----0
  6
CONTINUOUS
 62
             7
100
AcDbCircle
 10
-52.318825
 20
-25.61662900000005
 40
0.38518999999991
100
AcDbArc
 50
135.57289300001372
 51
177.981230999986
  0
ARC
  5
283
100
AcDbEntity
  8
LC-001-002-----0
  6
CONTINUOUS
 62
             7
100
AcDbCircle
 10
-51.90273099999996
 20
-26.00917799999997
 40
0.95718699999994
100
AcDbArc
 50
113.27903400000112
 51
136.2271830000135
  0
ARC
  5
282
100
AcDbEntity
  8
LC-001-002-----0
  6
CONTINUOUS
 62
             7
100
AcDbCircle
 10
-51.44867000000005
 20
-26.988632
 40
2.03657500000044
100
AcDbArc
 50
100.29832799999461
 51
114.12326199999691
  0
ARC
  5
281
100
AcDbEntity
  8
LC-001-002-----0
  6
CONTINUOUS
 62
             7
100
AcDbCircle
 10
-51.26668999999998
 20
-27.88618600000001
 40
2.95226099999965
100
AcDbArc
 50
89.87792500000171
 51
100.65910500000027
  0
ARC
  5
280
100
AcDbEntity
  8
LC-001-002-----0
  6
CONTINUOUS
 62
             7
100
AcDbCircle
 10
-46.95534000000004
 20
-18.66123699999997
 40
11.47254200000045
100
AcDbArc
 50
-95.73708999999954
 51
-90.36163599999968
  0
ARC
  5
27F
100
AcDbEntity
  8
LC-001-002-----0
  6
CONTINUOUS
 62
             7
100
AcDbCircle
 10
-47.429776
 20
-23.06636100000009
 40
7.04212699999949
100
AcDbArc
 50
-102.931391000001
 51
-95.47912400000089
  0
ARC
  5
27E
100
AcDbEntity
  8
LC-001-002-----0
  6
CONTINUOUS
 62
             7
100
AcDbCircle
 10
-48.51925499999999
 20
-27.61622200000005
 40
2.3642520000001
100
AcDbArc
 50
-117.37907199999819
 51
-101.87322700000196
  0
ARC
  5
27D
100
AcDbEntity
  8
LC-001-002-----0
  6
CONTINUOUS
 62
             7
100
AcDbCircle
 10
-49.48922799999997
 20
-29.40345700000006
 40
0.33348700000012
100
AcDbArc
 50
-169.39993499994816
 51
-110.59143000001181
  0
ARC
  5
27C
100
AcDbEntity
  8
LC-001-002-----0
  6
CONTINUOUS
 62
             7
100
AcDbCircle
 10
-46.86808500000001
 20
-35.80680200000001
 40
10.87178399999962
100
AcDbArc
 50
83.27724299999962
 51
88.58922300000037
  0
ARC
  5
27B
100
AcDbEntity
  8
LC-001-002-----0
  6
CONTINUOUS
 62
             7
100
AcDbCircle
 10
-46.30540400000001
 20
-31.283932
 40
6.31421000000037
100
AcDbArc
 50
75.9018480000009
 51
83.54348499999973
  0
ARC
  5
27A
100
AcDbEntity
  8
LC-001-002-----0
  6
CONTINUOUS
 62
             7
100
AcDbCircle
 10
-45.22856400000006
 20
-27.16005100000001
 40
2.05262700000015
100
AcDbArc
 50
60.76873699999854
 51
77.0155220000015
  0
ARC
  5
279
100
AcDbEntity
  8
LC-001-002-----0
  6
CONTINUOUS
 62
             7
100
AcDbCircle
 10
-44.34374599999995
 20
-25.64767699999999
 40
0.30262799999993
100
AcDbArc
 50
7.38371100003063
 51
67.14240800004322
  0
ARC
  5
278
100
AcDbEntity
  8
LC-001-002-----0
  6
CONTINUOUS
 62
             7
100
AcDbCircle
 10
-51.26668999999998
 20
-27.18167799999998
 40
2.95225999999983
100
AcDbArc
 50
-100.65912900000221
 51
-89.8779469999987
  0
ARC
  5
277
100
AcDbEntity
  8
LC-001-002-----0
  6
CONTINUOUS
 62
             7
100
AcDbCircle
 10
-51.44867100000005
 20
-28.07923299999999
 40
2.03657300000003
100
AcDbArc
 50
-114.12329499999798
 51
-100.29835199999975
  0
ARC
  5
276
100
AcDbEntity
  8
LC-001-002-----0
  6
CONTINUOUS
 62
             7
100
AcDbCircle
 10
-51.90273199999996
 20
-29.05868600000003
 40
0.95718599999981
100
AcDbArc
 50
-136.22724000001622
 51
-113.27906500000428
  0
ARC
  5
275
100
AcDbEntity
  8
LC-001-002-----0
  6
CONTINUOUS
 62
             7
100
AcDbCircle
 10
-52.318825
 20
-29.45123400000006
 40
0.38518899999999
100
AcDbArc
 50
-177.98132500009396
 51
-135.57295500002334
  0
ARC
  5
274
100
AcDbEntity
  8
LC-001-002-----0
  6
CONTINUOUS
 62
             7
100
AcDbCircle
 10
-42.61134999999996
 20
-27.23100399999993
 40
2.90276399999986
100
AcDbArc
 50
-101.49586600000254
 51
-90.93044800000077
  0
ARC
  5
273
100
AcDbEntity
  8
LC-001-002-----0
  6
CONTINUOUS
 62
             7
100
AcDbCircle
 10
-42.80833799999999
 20
-28.13997999999998
 40
1.9727980000003
100
AcDbArc
 50
-114.83429699999677
 51
-101.15082800000121
  0
ARC
  5
272
100
AcDbEntity
  8
LC-001-002-----0
  6
CONTINUOUS
 62
             7
100
AcDbCircle
 10
-43.25578300000001
 20
-29.07596899999993
 40
0.93552900000041
100
AcDbArc
 50
-136.61497399997381
 51
-114.0407560000077
  0
ARC
  5
271
100
AcDbEntity
  8
LC-001-002-----0
  6
CONTINUOUS
 62
             7
100
AcDbCircle
 10
-43.65767099999999
 20
-29.45033299999995
 40
0.38632600000001
100
AcDbArc
 50
-177.00403999999739
 51
-136.02385800003458
  0
ARC
  5
270
100
AcDbEntity
  8
LC-001-002-----0
  6
CONTINUOUS
 62
             7
100
AcDbCircle
 10
-42.59385600000002
 20
-27.88618700000001
 40
2.95226200000023
100
AcDbArc
 50
79.34092799999912
 51
90.12210499999949
  0
ARC
  5
26F
100
AcDbEntity
  8
LC-001-002-----0
  6
CONTINUOUS
 62
             7
100
AcDbCircle
 10
-42.41187699999995
 20
-26.98863499999999
 40
2.03657800000015
100
AcDbArc
 50
65.87678400000306
 51
79.7017040000008
  0
ARC
  5
26E
100
AcDbEntity
  8
LC-001-002-----0
  6
CONTINUOUS
 62
             7
100
AcDbCircle
 10
-41.95781700000003
 20
-26.00917999999996
 40
0.95719000000018
100
AcDbArc
 50
43.77289900000453
 51
66.72101100001095
  0
ARC
  5
26D
100
AcDbEntity
  8
LC-001-002-----0
  6
CONTINUOUS
 62
             7
100
AcDbCircle
 10
-41.54172199999999
 20
-25.61662900000005
 40
0.385191
100
AcDbArc
 50
2.01890900005443
 51
44.42719699997821
  0
ARC
  5
26C
100
AcDbEntity
  8
LC-001-002-----0
  6
CONTINUOUS
 62
             7
100
AcDbCircle
 10
-51.24265800000006
 20
-27.77962100000008
 40
2.84523599999997
100
AcDbArc
 50
77.54533099999711
 51
88.11559499999996
  0
ARC
  5
26B
100
AcDbEntity
  8
LC-001-002-----0
  6
CONTINUOUS
 62
             7
100
AcDbCircle
 10
-51.02451300000001
 20
-26.845801
 40
1.88638100000021
100
AcDbArc
 50
63.97949900000108
 51
77.89818299999757
  0
ARC
  5
26A
100
AcDbEntity
  8
LC-001-002-----0
  6
CONTINUOUS
 62
             7
100
AcDbCircle
 10
-50.572878
 20
-25.94896699999998
 40
0.88240999999987
100
AcDbArc
 50
41.61165799999061
 51
64.78609900000306
  0
ARC
  5
269
100
AcDbEntity
  8
LC-001-002-----0
  6
CONTINUOUS
 62
             7
100
AcDbCircle
 10
-50.19059999999996
 20
-25.61307499999993
 40
0.37354699999998
100
AcDbArc
 50
0.65755899995258
 51
42.03020199998896
  0
ARC
  5
268
100
AcDbEntity
  8
LC-001-002-----0
  6
CONTINUOUS
 62
             7
100
AcDbCircle
 10
89.66704799999997
 20
-27.03575799999993
 40
2.95226100000034
100
AcDbArc
 50
-100.65910999998906
 51
-89.8779249999929
  0
ARC
  5
267
100
AcDbEntity
  8
LC-001-002-----0
  6
CONTINUOUS
 62
             7
100
AcDbCircle
 10
89.48506700000002
 20
-27.93331200000006
 40
2.036574
100
AcDbArc
 50
-114.12327600000175
 51
-100.29833300000676
  0
ARC
  5
266
100
AcDbEntity
  8
LC-001-002-----0
  6
CONTINUOUS
 62
             7
100
AcDbCircle
 10
89.03100599999999
 20
-28.91276599999998
 40
0.95718600000001
100
AcDbArc
 50
-136.22722199999166
 51
-113.27904600003019
  0
ARC
  5
265
100
AcDbEntity
  8
LC-001-002-----0
  6
CONTINUOUS
 62
             7
100
AcDbCircle
 10
88.614913
 20
-29.30531400000001
 40
0.3851900000003
100
AcDbArc
 50
-177.98132199994961
 51
-135.57293500002282
  0
ARC
  5
264
100
AcDbEntity
  8
LC-001-002-----0
  6
CONTINUOUS
 62
             7
100
AcDbCircle
 10
93.99565000000001
 20
-18.12762100000004
 40
11.86047599999947
100
AcDbArc
 50
-94.95027200000065
 51
-89.49289499999847
  0
ARC
  5
263
100
AcDbEntity
  8
LC-001-002-----0
  6
CONTINUOUS
 62
             7
100
AcDbCircle
 10
93.59908300000001
 20
-22.31486799999999
 40
7.65470200000026
100
AcDbArc
 50
-102.01390099999892
 51
-94.69753200000207
  0
ARC
  5
262
100
AcDbEntity
  8
LC-001-002-----0
  6
CONTINUOUS
 62
             7
100
AcDbCircle
 10
92.51210699999996
 20
-27.19821199999996
 40
2.65247500000019
100
AcDbArc
 50
-115.90883000000824
 51
-101.00498000000356
  0
ARC
  5
261
100
AcDbEntity
  8
LC-001-002-----0
  6
CONTINUOUS
 62
             7
100
AcDbCircle
 10
91.47124200000002
 20
-29.23917599999999
 40
0.36457400000028
100
AcDbArc
 50
-166.4476469999878
 51
-108.90285900000292
  0
ARC
  5
260
100
AcDbEntity
  8
LC-001-002-----0
  6
CONTINUOUS
 62
             7
100
AcDbCircle
 10
98.31897899999996
 20
-27.11597699999999
 40
2.87172800000046
100
AcDbArc
 50
-102.02148399999346
 51
-91.46323200000381
  0
ARC
  5
25F
100
AcDbEntity
  8
LC-001-002-----0
  6
CONTINUOUS
 62
             7
100
AcDbCircle
 10
98.11048299999999
 20
-28.03885000000008
 40
1.92570500000033
100
AcDbArc
 50
-115.47056900000011
 51
-101.67308799999945
  0
ARC
  5
25E
100
AcDbEntity
  8
LC-001-002-----0
  6
CONTINUOUS
 62
             7
100
AcDbCircle
 10
97.66091799999998
 20
-28.95323300000001
 40
0.90694700000038
100
AcDbArc
 50
-137.53956600000799
 51
-114.6719159999935
  0
ARC
  5
25D
100
AcDbEntity
  8
LC-001-002-----0
  6
CONTINUOUS
 62
             7
100
AcDbCircle
 10
97.26959600000004
 20
-29.30681299999998
 40
0.379571
100
AcDbArc
 50
-178.17767000002115
 51
-137.03794100004814
  0
ARC
  5
25C
100
AcDbEntity
  8
LC-001-002-----0
  6
CONTINUOUS
 62
             7
100
AcDbCircle
 10
89.69271399999997
 20
-27.62190500000003
 40
2.83334599999984
100
AcDbArc
 50
77.43151600000206
 51
87.83803499999405
  0
ARC
  5
25B
100
AcDbEntity
  8
LC-001-002-----0
  6
CONTINUOUS
 62
             7
100
AcDbCircle
 10
89.90951699999999
 20
-26.70028100000008
 40
1.88666100000022
100
AcDbArc
 50
64.10450699999102
 51
77.76727600000626
  0
ARC
  5
25A
100
AcDbEntity
  8
LC-001-002-----0
  6
CONTINUOUS
 62
             7
100
AcDbCircle
 10
90.35239200000001
 20
-25.81520300000006
 40
0.89711299999943
100
AcDbArc
 50
42.36569200000519
 51
64.86233099998943
  0
ARC
  5
259
100
AcDbEntity
  8
LC-001-002-----0
  6
CONTINUOUS
 62
             7
100
AcDbCircle
 10
90.735209
 20
-25.47039100000001
 40
0.38192400000011
100
AcDbArc
 50
2.84829199996039
 51
42.84541299999805
  0
ARC
  5
258
100
AcDbEntity
  8
LC-001-002-----0
  6
CONTINUOUS
 62
             7
100
AcDbCircle
 10
94.03458799999999
 20
-36.14659400000001
 40
11.35831100000041
100
AcDbArc
 50
84.04884399999858
 51
89.43490400000097
  0
ARC
  5
257
100
AcDbEntity
  8
LC-001-002-----0
  6
CONTINUOUS
 62
             7
100
AcDbCircle
 10
94.53213799999998
 20
-31.67893500000008
 40
6.86321699999944
100
AcDbArc
 50
76.76711800000238
 51
84.31313700000287
  0
ARC
  5
256
100
AcDbEntity
  8
LC-001-002-----0
  6
CONTINUOUS
 62
             7
100
AcDbCircle
 10
95.62786399999999
 20
-27.20932499999998
 40
2.26188200000014
100
AcDbArc
 50
61.97031500000345
 51
77.86899000001095
  0
ARC
  5
255
100
AcDbEntity
  8
LC-001-002-----0
  6
CONTINUOUS
 62
             7
100
AcDbCircle
 10
96.57655299999999
 20
-25.50826999999998
 40
0.31682900000055
100
AcDbArc
 50
8.23989700006718
 51
68.86547599998458
  0
ARC
  5
254
100
AcDbEntity
  8
LC-001-002-----0
  6
CONTINUOUS
 62
             7
100
AcDbCircle
 10
98.33988199999999
 20
-27.74026599999997
 40
2.95226100000017
100
AcDbArc
 50
79.34089499999003
 51
90.12207500000602
  0
ARC
  5
253
100
AcDbEntity
  8
LC-001-002-----0
  6
CONTINUOUS
 62
             7
100
AcDbCircle
 10
98.521862
 20
-26.84271200000007
 40
2.03657500000024
100
AcDbArc
 50
65.87673799999875
 51
79.70167199999499
  0
ARC
  5
252
100
AcDbEntity
  8
LC-001-002-----0
  6
CONTINUOUS
 62
             7
100
AcDbCircle
 10
98.97592300000002
 20
-25.86325900000003
 40
0.95718699999991
100
AcDbArc
 50
43.77281699998652
 51
66.72096599998012
  0
ARC
  5
251
100
AcDbEntity
  8
LC-001-002-----0
  6
CONTINUOUS
 62
             7
100
AcDbCircle
 10
99.39201700000001
 20
-25.470709
 40
0.38518999999978
100
AcDbArc
 50
2.01876900001389
 51
44.42710699998013
  0
ARC
  5
250
100
AcDbEntity
  8
LC-001-002-----0
  6
CONTINUOUS
 62
             7
100
AcDbCircle
 10
96.56242000000003
 20
-29.25753700000002
 40
0.33348700000006
100
AcDbArc
 50
-69.40857000003142
 51
-10.60006500006779
  0
ARC
  5
24F
100
AcDbEntity
  8
LC-001-002-----0
  6
CONTINUOUS
 62
             7
100
AcDbCircle
 10
95.592446
 20
-27.47030200000001
 40
2.36425199999967
100
AcDbArc
 50
-78.12677300000473
 51
-62.62092800000183
  0
ARC
  5
24E
100
AcDbEntity
  8
LC-001-002-----0
  6
CONTINUOUS
 62
             7
100
AcDbCircle
 10
94.50296800000001
 20
-22.92044200000004
 40
7.04212699999954
100
AcDbArc
 50
-84.52087600000193
 51
-77.06860900000224
  0
ARC
  5
24D
100
AcDbEntity
  8
LC-001-002-----0
  6
CONTINUOUS
 62
             7
100
AcDbCircle
 10
94.02853199999998
 20
-18.51531700000004
 40
11.47254199999989
100
AcDbArc
 50
-89.63836400000199
 51
-84.26291000000219
  0
ARC
  5
24C
100
AcDbEntity
  8
LC-001-002-----0
  6
CONTINUOUS
 62
             7
100
AcDbCircle
 10
91.41693800000002
 20
-25.50175800000005
 40
0.30262800000029
100
AcDbArc
 50
112.8575919999179
 51
172.61628899995145
  0
ARC
  5
24B
100
AcDbEntity
  8
LC-001-002-----0
  6
CONTINUOUS
 62
             7
100
AcDbCircle
 10
92.30175600000001
 20
-27.01413100000008
 40
2.05262700000065
100
AcDbArc
 50
102.98447800000325
 51
119.23126300000963
  0
ARC
  5
24A
100
AcDbEntity
  8
LC-001-002-----0
  6
CONTINUOUS
 62
             7
100
AcDbCircle
 10
93.37859599999996
 20
-31.13801299999995
 40
6.31420999999946
100
AcDbArc
 50
96.45651499999617
 51
104.09815200000112
  0
ARC
  5
249
100
AcDbEntity
  8
LC-001-002-----0
  6
CONTINUOUS
 62
             7
100
AcDbCircle
 10
93.94127599999996
 20
-35.66088200000007
 40
10.8717839999999
100
AcDbArc
 50
91.41077699999903
 51
96.72275700000158
  0
ARC
  5
248
100
AcDbEntity
  8
LC-001-002-----0
  6
CONTINUOUS
 62
             7
100
AcDbCircle
 10
99.39201700000001
 20
-29.30531400000001
 40
0.3851889999998
100
AcDbArc
 50
-44.42704499999627
 51
-2.01867499992313
  0
ARC
  5
247
100
AcDbEntity
  8
LC-001-002-----0
  6
CONTINUOUS
 62
             7
100
AcDbCircle
 10
98.97592400000002
 20
-28.91276599999998
 40
0.95718600000014
100
AcDbArc
 50
-66.7209350000045
 51
-43.77275999997208
  0
ARC
  5
246
100
AcDbEntity
  8
LC-001-002-----0
  6
CONTINUOUS
 62
             7
100
AcDbCircle
 10
98.521863
 20
-27.93331299999994
 40
2.03657299999997
100
AcDbArc
 50
-79.70164799998615
 51
-65.87670500000215
  0
ARC
  5
245
100
AcDbEntity
  8
LC-001-002-----0
  6
CONTINUOUS
 62
             7
100
AcDbCircle
 10
98.33988199999999
 20
-27.03575900000004
 40
2.95226000000026
100
AcDbArc
 50
-90.1220529999969
 51
-79.34087099999674
  0
ARC
  5
244
100
AcDbEntity
  8
LC-001-002-----0
  6
CONTINUOUS
 62
             7
100
AcDbCircle
 10
90.730863
 20
-29.30441300000001
 40
0.38632599999951
100
AcDbArc
 50
-43.97614199998294
 51
-2.99595999998851
  0
ARC
  5
243
100
AcDbEntity
  8
LC-001-002-----0
  6
CONTINUOUS
 62
             7
100
AcDbCircle
 10
90.32897399999996
 20
-28.930049
 40
0.93552899999951
100
AcDbArc
 50
-65.95924399998994
 51
-43.38502600003503
  0
ARC
  5
242
100
AcDbEntity
  8
LC-001-002-----0
  6
CONTINUOUS
 62
             7
100
AcDbCircle
 10
89.88153
 20
-27.99406100000005
 40
1.97279799999996
100
AcDbArc
 50
-78.84917199998908
 51
-65.1657030000091
  0
ARC
  5
241
100
AcDbEntity
  8
LC-001-002-----0
  6
CONTINUOUS
 62
             7
100
AcDbCircle
 10
89.68454100000002
 20
-27.085084
 40
2.90276399999974
100
AcDbArc
 50
-89.0695520000037
 51
-78.50413400000187
  0
ARC
  5
240
100
AcDbEntity
  8
LC-001-002-----0
  6
CONTINUOUS
 62
             7
100
AcDbCircle
 10
88.614914
 20
-25.470709
 40
0.38519099999979
100
AcDbArc
 50
135.57280300004129
 51
177.98109099996412
  0
ARC
  5
23F
100
AcDbEntity
  8
LC-001-002-----0
  6
CONTINUOUS
 62
             7
100
AcDbCircle
 10
89.03100799999999
 20
-25.86326100000003
 40
0.95719000000046
100
AcDbArc
 50
113.27898900000822
 51
136.22710099999054
  0
ARC
  5
23E
100
AcDbEntity
  8
LC-001-002-----0
  6
CONTINUOUS
 62
             7
100
AcDbCircle
 10
89.48506900000001
 20
-26.84271499999994
 40
2.03657799999992
100
AcDbArc
 50
100.29829599999292
 51
114.12321599998666
  0
ARC
  5
23D
100
AcDbEntity
  8
LC-001-002-----0
  6
CONTINUOUS
 62
             7
100
AcDbCircle
 10
89.66704799999997
 20
-27.74026700000008
 40
2.95226199999993
100
AcDbArc
 50
89.87789499998964
 51
100.65907200000304
  0
ARC
  5
23C
100
AcDbEntity
  8
LC-001-002-----0
  6
CONTINUOUS
 62
             7
100
AcDbCircle
 10
97.26379200000002
 20
-25.46715599999999
 40
0.37354700000034
100
AcDbArc
 50
137.96979800004561
 51
179.34244100003068
  0
ARC
  5
23B
100
AcDbEntity
  8
LC-001-002-----0
  6
CONTINUOUS
 62
             7
100
AcDbCircle
 10
97.64606900000001
 20
-25.80304700000005
 40
0.88240999999993
100
AcDbArc
 50
115.21390099997731
 51
138.38834200003126
  0
ARC
  5
23A
100
AcDbEntity
  8
LC-001-002-----0
  6
CONTINUOUS
 62
             7
100
AcDbCircle
 10
98.09770499999996
 20
-26.69988200000006
 40
1.88638099999982
100
AcDbArc
 50
102.10181699999842
 51
116.02050099998814
  0
ARC
  5
239
100
AcDbEntity
  8
LC-001-002-----0
  6
CONTINUOUS
 62
             7
100
AcDbCircle
 10
98.31585000000001
 20
-27.63370200000003
 40
2.84523600000038
100
AcDbArc
 50
91.88440500000242
 51
102.45466900000973
  0
ARC
  5
238
100
AcDbEntity
  8
LC-001-002-----0
  6
CONTINUOUS
 62
             7
100
AcDbCircle
 10
-88.61491400000006
 20
-29.30531400000001
 40
0.38519000000014
100
AcDbArc
 50
-44.42706499999495
 51
-2.0186780000519
  0
ARC
  5
237
100
AcDbEntity
  8
LC-001-002-----0
  6
CONTINUOUS
 62
             7
100
AcDbCircle
 10
-89.03100699999999
 20
-28.91276599999998
 40
0.95718599999973
100
AcDbArc
 50
-66.72095399999482
 51
-43.77277800000364
  0
ARC
  5
236
100
AcDbEntity
  8
LC-001-002-----0
  6
CONTINUOUS
 62
             7
100
AcDbCircle
 10
-89.48506800000001
 20
-27.93331200000006
 40
2.03657400000009
100
AcDbArc
 50
-79.70166699999955
 51
-65.87672400000118
  0
ARC
  5
235
100
AcDbEntity
  8
LC-001-002-----0
  6
CONTINUOUS
 62
             7
100
AcDbCircle
 10
-89.66704899999996
 20
-27.03575799999993
 40
2.95226099999977
100
AcDbArc
 50
-90.12207500000051
 51
-79.34089000000228
  0
ARC
  5
234
100
AcDbEntity
  8
LC-001-002-----0
  6
CONTINUOUS
 62
             7
100
AcDbCircle
 10
-91.47124300000002
 20
-29.23917599999999
 40
0.36457400000007
100
AcDbArc
 50
-71.09714100001401
 51
-13.55235300002059
  0
ARC
  5
233
100
AcDbEntity
  8
LC-001-002-----0
  6
CONTINUOUS
 62
             7
100
AcDbCircle
 10
-92.51210799999996
 20
-27.19821199999996
 40
2.65247499999979
100
AcDbArc
 50
-78.99501999999886
 51
-64.09117000000059
  0
ARC
  5
232
100
AcDbEntity
  8
LC-001-002-----0
  6
CONTINUOUS
 62
             7
100
AcDbCircle
 10
-93.59908400000001
 20
-22.31486799999999
 40
7.65470200000028
100
AcDbArc
 50
-85.30246800000047
 51
-77.98609900000025
  0
ARC
  5
231
100
AcDbEntity
  8
LC-001-002-----0
  6
CONTINUOUS
 62
             7
100
AcDbCircle
 10
-93.99565100000001
 20
-18.12762100000004
 40
11.86047599999994
100
AcDbArc
 50
-90.50710499999988
 51
-85.04972799999989
  0
ARC
  5
230
100
AcDbEntity
  8
LC-001-002-----0
  6
CONTINUOUS
 62
             7
100
AcDbCircle
 10
-97.26959700000003
 20
-29.30681299999998
 40
0.37957099999981
100
AcDbArc
 50
-42.96205899995772
 51
-1.82232999997885
  0
ARC
  5
22F
100
AcDbEntity
  8
LC-001-002-----0
  6
CONTINUOUS
 62
             7
100
AcDbCircle
 10
-97.66091899999998
 20
-28.95323300000001
 40
0.90694700000023
100
AcDbArc
 50
-65.32808400001304
 51
-42.46043400000656
  0
ARC
  5
22E
100
AcDbEntity
  8
LC-001-002-----0
  6
CONTINUOUS
 62
             7
100
AcDbCircle
 10
-98.11048399999999
 20
-28.03885000000008
 40
1.92570499999982
100
AcDbArc
 50
-78.32691200000056
 51
-64.52943100000448
  0
ARC
  5
22D
100
AcDbEntity
  8
LC-001-002-----0
  6
CONTINUOUS
 62
             7
100
AcDbCircle
 10
-98.31898000000007
 20
-27.11597699999999
 40
2.87172799999973
100
AcDbArc
 50
-88.53676799999847
 51
-77.97851599999989
  0
ARC
  5
22C
100
AcDbEntity
  8
LC-001-002-----0
  6
CONTINUOUS
 62
             7
100
AcDbCircle
 10
-90.73521
 20
-25.47039100000001
 40
0.38192400000013
100
AcDbArc
 50
137.15458699996717
 51
177.15170800003921
  0
ARC
  5
22B
100
AcDbEntity
  8
LC-001-002-----0
  6
CONTINUOUS
 62
             7
100
AcDbCircle
 10
-90.35239299999995
 20
-25.81520300000006
 40
0.89711300000033
100
AcDbArc
 50
115.13766899999744
 51
137.63430800001439
  0
ARC
  5
22A
100
AcDbEntity
  8
LC-001-002-----0
  6
CONTINUOUS
 62
             7
100
AcDbCircle
 10
-89.90951799999999
 20
-26.70028100000008
 40
1.88666099999976
100
AcDbArc
 50
102.23272400000049
 51
115.89549299999968
  0
ARC
  5
229
100
AcDbEntity
  8
LC-001-002-----0
  6
CONTINUOUS
 62
             7
100
AcDbCircle
 10
-89.69271499999996
 20
-27.62190500000003
 40
2.83334599999964
100
AcDbArc
 50
92.16196500000136
 51
102.56848400000132
  0
ARC
  5
228
100
AcDbEntity
  8
LC-001-002-----0
  6
CONTINUOUS
 62
             7
100
AcDbCircle
 10
-96.57655400000004
 20
-25.50826999999998
 40
0.31682899999952
100
AcDbArc
 50
111.13452400002501
 51
171.7601029999181
  0
ARC
  5
227
100
AcDbEntity
  8
LC-001-002-----0
  6
CONTINUOUS
 62
             7
100
AcDbCircle
 10
-95.62786499999999
 20
-27.20932499999998
 40
2.26188200000028
100
AcDbArc
 50
102.13100999999749
 51
118.02968499999909
  0
ARC
  5
226
100
AcDbEntity
  8
LC-001-002-----0
  6
CONTINUOUS
 62
             7
100
AcDbCircle
 10
-94.53213899999997
 20
-31.67893500000008
 40
6.86321699999963
100
AcDbArc
 50
95.68686299999996
 51
103.23288200000133
  0
ARC
  5
225
100
AcDbEntity
  8
LC-001-002-----0
  6
CONTINUOUS
 62
             7
100
AcDbCircle
 10
-94.03458900000004
 20
-36.14659400000001
 40
11.35831099999976
100
AcDbArc
 50
90.56509599999961
 51
95.95115599999942
  0
ARC
  5
224
100
AcDbEntity
  8
LC-001-002-----0
  6
CONTINUOUS
 62
             7
100
AcDbCircle
 10
-99.39201800000006
 20
-25.470709
 40
0.38518999999982
100
AcDbArc
 50
135.5728930000258
 51
177.98123099998699
  0
ARC
  5
223
100
AcDbEntity
  8
LC-001-002-----0
  6
CONTINUOUS
 62
             7
100
AcDbCircle
 10
-98.97592400000002
 20
-25.86325900000003
 40
0.95718699999994
100
AcDbArc
 50
113.27903400000112
 51
136.22718300000878
  0
ARC
  5
222
100
AcDbEntity
  8
LC-001-002-----0
  6
CONTINUOUS
 62
             7
100
AcDbCircle
 10
-98.521863
 20
-26.84271200000007
 40
2.03657500000058
100
AcDbArc
 50
100.29832799999716
 51
114.12326199999688
  0
ARC
  5
221
100
AcDbEntity
  8
LC-001-002-----0
  6
CONTINUOUS
 62
             7
100
AcDbCircle
 10
-98.33988300000004
 20
-27.74026599999997
 40
2.95226099999954
100
AcDbArc
 50
89.87792499999949
 51
100.65910499999805
  0
ARC
  5
220
100
AcDbEntity
  8
LC-001-002-----0
  6
CONTINUOUS
 62
             7
100
AcDbCircle
 10
-94.02853299999998
 20
-18.51531700000004
 40
11.47254199999944
100
AcDbArc
 50
-95.73709000000065
 51
-90.36163600000029
  0
ARC
  5
21F
100
AcDbEntity
  8
LC-001-002-----0
  6
CONTINUOUS
 62
             7
100
AcDbCircle
 10
-94.50296899999995
 20
-22.92044200000004
 40
7.0421269999995
100
AcDbArc
 50
-102.93139100000093
 51
-95.47912400000084
  0
ARC
  5
21E
100
AcDbEntity
  8
LC-001-002-----0
  6
CONTINUOUS
 62
             7
100
AcDbCircle
 10
-95.59244700000005
 20
-27.47030200000001
 40
2.3642520000002
100
AcDbArc
 50
-117.37907199999697
 51
-101.87322699999932
  0
ARC
  5
21D
100
AcDbEntity
  8
LC-001-002-----0
  6
CONTINUOUS
 62
             7
100
AcDbCircle
 10
-96.56242100000003
 20
-29.25753700000002
 40
0.33348700000001
100
AcDbArc
 50
-169.39993499994659
 51
-110.59142999998689
  0
ARC
  5
21C
100
AcDbEntity
  8
LC-001-002-----0
  6
CONTINUOUS
 62
             7
100
AcDbCircle
 10
-93.94127699999996
 20
-35.66088200000007
 40
10.87178399999961
100
AcDbArc
 50
83.2772430000002
 51
88.58922300000037
  0
ARC
  5
21B
100
AcDbEntity
  8
LC-001-002-----0
  6
CONTINUOUS
 62
             7
100
AcDbCircle
 10
-93.37859699999996
 20
-31.13801299999995
 40
6.31421000000035
100
AcDbArc
 50
75.90184800000191
 51
83.54348500000076
  0
ARC
  5
21A
100
AcDbEntity
  8
LC-001-002-----0
  6
CONTINUOUS
 62
             7
100
AcDbCircle
 10
-92.30175700000001
 20
-27.01413100000008
 40
2.0526270000001
100
AcDbArc
 50
60.76873700000146
 51
77.01552200000295
  0
ARC
  5
219
100
AcDbEntity
  8
LC-001-002-----0
  6
CONTINUOUS
 62
             7
100
AcDbCircle
 10
-91.41693900000001
 20
-25.50175800000005
 40
0.30262800000006
100
AcDbArc
 50
7.38371100004854
 51
67.14240800002261
  0
ARC
  5
218
100
AcDbEntity
  8
LC-001-002-----0
  6
CONTINUOUS
 62
             7
100
AcDbCircle
 10
-98.33988300000004
 20
-27.03575900000004
 40
2.95225999999981
100
AcDbArc
 50
-100.65912900000002
 51
-89.8779470000009
  0
ARC
  5
217
100
AcDbEntity
  8
LC-001-002-----0
  6
CONTINUOUS
 62
             7
100
AcDbCircle
 10
-98.52186399999999
 20
-27.93331299999994
 40
2.03657300000004
100
AcDbArc
 50
-114.12329499999785
 51
-100.2983519999997
  0
ARC
  5
216
100
AcDbEntity
  8
LC-001-002-----0
  6
CONTINUOUS
 62
             7
100
AcDbCircle
 10
-98.97592500000002
 20
-28.91276599999998
 40
0.9571859999998
100
AcDbArc
 50
-136.22724000000673
 51
-113.27906499999551
  0
ARC
  5
215
100
AcDbEntity
  8
LC-001-002-----0
  6
CONTINUOUS
 62
             7
100
AcDbCircle
 10
-99.39201800000006
 20
-29.30531400000001
 40
0.38518899999999
100
AcDbArc
 50
-177.98132500007597
 51
-135.57295500000967
  0
ARC
  5
214
100
AcDbEntity
  8
LC-001-002-----0
  6
CONTINUOUS
 62
             7
100
AcDbCircle
 10
-89.68454200000002
 20
-27.085084
 40
2.90276399999984
100
AcDbArc
 50
-101.49586600000033
 51
-90.93044799999856
  0
ARC
  5
213
100
AcDbEntity
  8
LC-001-002-----0
  6
CONTINUOUS
 62
             7
100
AcDbCircle
 10
-89.88153100000005
 20
-27.99406100000005
 40
1.97279800000015
100
AcDbArc
 50
-114.8342969999954
 51
-101.1508280000012
  0
ARC
  5
212
100
AcDbEntity
  8
LC-001-002-----0
  6
CONTINUOUS
 62
             7
100
AcDbCircle
 10
-90.32897499999996
 20
-28.930049
 40
0.93552900000033
100
AcDbArc
 50
-136.61497399998888
 51
-114.04075600001642
  0
ARC
  5
211
100
AcDbEntity
  8
LC-001-002-----0
  6
CONTINUOUS
 62
             7
100
AcDbCircle
 10
-90.73086399999994
 20
-29.30441300000001
 40
0.38632600000012
100
AcDbArc
 50
-177.00404000001458
 51
-136.02385800005803
  0
ARC
  5
210
100
AcDbEntity
  8
LC-001-002-----0
  6
CONTINUOUS
 62
             7
100
AcDbCircle
 10
-89.66704899999996
 20
-27.74026700000008
 40
2.95226200000021
100
AcDbArc
 50
79.34092800000131
 51
90.12210500000155
  0
ARC
  5
20F
100
AcDbEntity
  8
LC-001-002-----0
  6
CONTINUOUS
 62
             7
100
AcDbCircle
 10
-89.48507000000001
 20
-26.84271499999994
 40
2.03657800000004
100
AcDbArc
 50
65.87678400000166
 51
79.7017040000008
  0
ARC
  5
20E
100
AcDbEntity
  8
LC-001-002-----0
  6
CONTINUOUS
 62
             7
100
AcDbCircle
 10
-89.03100899999998
 20
-25.86326100000003
 40
0.95719000000019
100
AcDbArc
 50
43.77289900001416
 51
66.72101100001055
  0
ARC
  5
20D
100
AcDbEntity
  8
LC-001-002-----0
  6
CONTINUOUS
 62
             7
100
AcDbCircle
 10
-88.61491499999994
 20
-25.470709
 40
0.385191
100
AcDbArc
 50
2.01890900003648
 51
44.42719699997647
  0
ARC
  5
20C
100
AcDbEntity
  8
LC-001-002-----0
  6
CONTINUOUS
 62
             7
100
AcDbCircle
 10
-98.31585100000001
 20
-27.63370200000003
 40
2.84523599999995
100
AcDbArc
 50
77.54533099999922
 51
88.11559499999989
  0
ARC
  5
20B
100
AcDbEntity
  8
LC-001-002-----0
  6
CONTINUOUS
 62
             7
100
AcDbCircle
 10
-98.09770600000007
 20
-26.69988200000006
 40
1.88638100000029
100
AcDbArc
 50
63.97949900000255
 51
77.89818299999821
  0
ARC
  5
20A
100
AcDbEntity
  8
LC-001-002-----0
  6
CONTINUOUS
 62
             7
100
AcDbCircle
 10
-97.64607000000007
 20
-25.80304700000005
 40
0.88240999999989
100
AcDbArc
 50
41.61165799999081
 51
64.78609899999597
  0
ARC
  5
209
100
AcDbEntity
  8
LC-001-002-----0
  6
CONTINUOUS
 62
             7
100
AcDbCircle
 10
-97.26379300000002
 20
-25.46715599999999
 40
0.37354699999999
100
AcDbArc
 50
0.65755899996891
 51
42.0302020000011
  0
ARC
  5
208
100
AcDbEntity
  8
LC-001-002-----0
  6
CONTINUOUS
 62
             7
100
AcDbCircle
 10
85.00000599999999
 20
-26.76736199999999
 40
1.49999999999955
100
AcDbArc
 50
-89.99976599999947
 51
0.00035899999765
  0
ARC
  5
207
100
AcDbEntity
  8
LC-001-002-----0
  6
CONTINUOUS
 62
             7
100
AcDbCircle
 10
87.00000399999999
 20
-25.28776299999999
 40
0.49999999999982
100
AcDbArc
 50
90.00035899999574
 51
-179.99964099999855
  0
ARC
  5
206
100
AcDbEntity
  8
LC-001-002-----0
  6
CONTINUOUS
 62
             7
100
AcDbCircle
 10
-84.99998899999997
 20
-26.76789400000002
 40
1.5
100
AcDbArc
 50
180.0
 51
-89.99987500000479
  0
ARC
  5
205
100
AcDbEntity
  8
LC-001-002-----0
  6
CONTINUOUS
 62
             7
100
AcDbCircle
 10
-86.99998899999997
 20
-25.28830800000009
 40
0.5
100
AcDbArc
 50
0.0
 51
90.0
  0
ARC
  5
204
100
AcDbEntity
  8
LC-001-002-----0
  6
CONTINUOUS
 62
             7
100
AcDbCircle
 10
-100.000005
 20
-23.28830800000009
 40
1.5
100
AcDbArc
 50
180.0
 51
-90.0
  0
ARC
  5
203
100
AcDbEntity
  8
LC-001-002-----0
  6
CONTINUOUS
 62
             7
100
AcDbCircle
 10
100.00000799999999
 20
-23.28768099999997
 40
1.50000000000045
100
AcDbArc
 50
-89.99964100000045
 51
0.00035899999805
  0
ARC
  5
202
100
AcDbEntity
  8
LC-002-002-RND-0
  6
CONTINUOUS
 62
             7
100
AcDbCircle
 10
72.499956
 20
-92.53291400000006
 40
8.00000000000004
100
AcDbArc
 50
-90.0
 51
0.0
  0
ARC
  5
201
100
AcDbEntity
  8
LC-002-002-RND-0
  6
CONTINUOUS
 62
             7
100
AcDbCircle
 10
-72.50004399999995
 20
-92.53291400000006
 40
8.0
100
AcDbArc
 50
180.0
 51
-90.0
  0
LINE
  5
200
100
AcDbEntity
  8
1
  6
CONTINUOUS
 62
             7
100
AcDbLine
 10
-62.50004399999995
 20
-153.03291400000009
 11
62.5
 21
-153.03291400000009
  0
LINE
  5
1FF
100
AcDbEntity
  8
LC-001-002-----0
  6
CONTINUOUS
 62
             7
100
AcDbLine
 10
41.15677
 20
-28.26737799999995
 11
-41.15677
 21
-28.26737799999995
  0
LINE
  5
1FE
100
AcDbEntity
  8
LC-001-002-----0
  6
DASHDOT
 62
             2
100
AcDbLine
 10
47.00987000000004
 20
16.06608199999999
 11
47.08736600000003
 21
-33.93391800000001
  0
LINE
  5
1FD
100
AcDbEntity
  8
LC-004-003-----0
  6
CONTINUOUS
 62
             2
100
AcDbLine
 10
44.430272
 20
-33.93391800000001
 11
44.430272
 21
-30.13393100000002
  0
LINE
  5
1FC
100
AcDbEntity
  8
LC-004-003-----0
  6
CONTINUOUS
 62
             2
100
AcDbLine
 10
49.430272
 20
-33.93391800000001
 11
49.430272
 21
-30.13393100000002
  0
LINE
  5
1FB
100
AcDbEntity
  8
LC-001-002-----0
  6
CONTINUOUS
 62
             7
100
AcDbLine
 10
43.930272
 20
-33.43391800000001
 11
49.930272
 21
-33.43391800000001
  0
LINE
  5
1FA
100
AcDbEntity
  8
LC-001-002-----0
  6
CONTINUOUS
 62
             7
100
AcDbLine
 10
49.430272
 20
-33.93391800000001
 11
49.930272
 21
-33.43391800000001
  0
LINE
  5
1F9
100
AcDbEntity
  8
LC-001-002-----0
  6
CONTINUOUS
 62
             7
100
AcDbLine
 10
44.430272
 20
-33.93391800000001
 11
43.930272
 21
-33.43391800000001
  0
LINE
  5
1F8
100
AcDbEntity
  8
LC-001-002-----0
  6
CONTINUOUS
 62
             7
100
AcDbLine
 10
43.930272
 20
-33.43391800000001
 11
43.930272
 21
-30.13393100000002
  0
LINE
  5
1F7
100
AcDbEntity
  8
LC-001-002-----0
  6
CONTINUOUS
 62
             7
100
AcDbLine
 10
44.430272
 20
-33.93391800000001
 11
49.430272
 21
-33.93391800000001
  0
LINE
  5
1F6
100
AcDbEntity
  8
LC-001-002-----0
  6
CONTINUOUS
 62
             7
100
AcDbLine
 10
49.930272
 20
-33.43391800000001
 11
49.930272
 21
-30.13393100000002
  0
LINE
  5
1F5
100
AcDbEntity
  8
LC-001-002-----0
  6
CONTINUOUS
 62
             7
100
AcDbLine
 10
44.043521
 20
-29.46480400000002
 11
44.043521
 21
-25.60308700000002
  0
LINE
  5
1F4
100
AcDbEntity
  8
LC-001-002-----0
  6
CONTINUOUS
 62
             7
100
AcDbLine
 10
49.817024
 20
-29.464855
 11
49.817024
 21
-25.597331
  0
LINE
  5
1F3
100
AcDbEntity
  8
LC-001-002-----0
  6
CONTINUOUS
 62
             7
100
AcDbLine
 10
41.15677
 20
-25.60306000000009
 11
41.15677
 21
-29.46480200000002
  0
LINE
  5
1F2
100
AcDbEntity
  8
LC-001-002-----0
  6
CONTINUOUS
 62
             7
100
AcDbLine
 10
52.70377500000001
 20
-25.60306000000009
 11
52.70377500000001
 21
-29.46480200000002
  0
LINE
  5
1F1
100
AcDbEntity
  8
LC-001-002-----0
  6
CONTINUOUS
 62
             7
100
AcDbLine
 10
51.2604
 20
-30.13393100000002
 11
42.600146
 21
-30.13393100000002
  0
LINE
  5
1F0
100
AcDbEntity
  8
LC-001-002-----0
  6
CONTINUOUS
 62
             7
100
AcDbLine
 10
-52.70377600000001
 20
-28.26737799999995
 11
-81.49998499999998
 21
-28.26737799999995
  0
LINE
  5
1EF
100
AcDbEntity
  8
LC-004-003-----0
  6
CONTINUOUS
 62
             2
100
AcDbLine
 10
-44.430273
 20
-33.93391800000001
 11
-44.430273
 21
-30.13393100000002
  0
LINE
  5
1EE
100
AcDbEntity
  8
LC-004-003-----0
  6
CONTINUOUS
 62
             2
100
AcDbLine
 10
-49.430273
 20
-33.93391800000001
 11
-49.430273
 21
-30.13393100000002
  0
LINE
  5
1ED
100
AcDbEntity
  8
LC-001-002-----0
  6
CONTINUOUS
 62
             7
100
AcDbLine
 10
-43.930273
 20
-33.43391800000001
 11
-49.930273
 21
-33.43391800000001
  0
LINE
  5
1EC
100
AcDbEntity
  8
LC-001-002-----0
  6
CONTINUOUS
 62
             7
100
AcDbLine
 10
-49.430273
 20
-33.93391800000001
 11
-49.930273
 21
-33.43391800000001
  0
LINE
  5
1EB
100
AcDbEntity
  8
LC-001-002-----0
  6
CONTINUOUS
 62
             7
100
AcDbLine
 10
-44.430273
 20
-33.93391800000001
 11
-43.930273
 21
-33.43391800000001
  0
LINE
  5
1EA
100
AcDbEntity
  8
LC-001-002-----0
  6
CONTINUOUS
 62
             7
100
AcDbLine
 10
-43.930273
 20
-33.43391800000001
 11
-43.930273
 21
-30.13393100000002
  0
LINE
  5
1E9
100
AcDbEntity
  8
LC-001-002-----0
  6
CONTINUOUS
 62
             7
100
AcDbLine
 10
-44.430273
 20
-33.93391800000001
 11
-49.430273
 21
-33.93391800000001
  0
LINE
  5
1E8
100
AcDbEntity
  8
LC-001-002-----0
  6
CONTINUOUS
 62
             7
100
AcDbLine
 10
-49.930273
 20
-33.43391800000001
 11
-49.930273
 21
-30.13393100000002
  0
LINE
  5
1E7
100
AcDbEntity
  8
LC-001-002-----0
  6
CONTINUOUS
 62
             7
100
AcDbLine
 10
-44.043522
 20
-29.46480400000002
 11
-44.043522
 21
-25.60308700000002
  0
LINE
  5
1E6
100
AcDbEntity
  8
LC-001-002-----0
  6
CONTINUOUS
 62
             7
100
AcDbLine
 10
-49.817025
 20
-29.464855
 11
-49.817025
 21
-25.597331
  0
LINE
  5
1E5
100
AcDbEntity
  8
LC-001-002-----0
  6
CONTINUOUS
 62
             7
100
AcDbLine
 10
-41.15677
 20
-25.60306000000009
 11
-41.15677
 21
-29.46480200000002
  0
LINE
  5
1E4
100
AcDbEntity
  8
LC-001-002-----0
  6
CONTINUOUS
 62
             7
100
AcDbLine
 10
-52.70377600000001
 20
-25.60306000000009
 11
-52.70377600000001
 21
-29.46480200000002
  0
LINE
  5
1E3
100
AcDbEntity
  8
LC-001-002-----0
  6
CONTINUOUS
 62
             7
100
AcDbLine
 10
-51.26040100000006
 20
-30.13393100000002
 11
-42.60014600000005
 21
-30.13393100000002
  0
LINE
  5
1E2
100
AcDbEntity
  8
LC-001-002-----0
  6
DASHDOT
 62
             2
100
AcDbLine
 10
-47.00987100000003
 20
16.06608199999999
 11
-47.08736700000003
 21
-33.93391800000001
  0
LINE
  5
1E1
100
AcDbEntity
  8
LC-001-002-----0
  6
CONTINUOUS
 62
             7
100
AcDbLine
 10
81.500632
 20
-28.26737799999995
 11
52.70377500000001
 21
-28.26737799999995
  0
LINE
  5
1E0
100
AcDbEntity
  8
LC-001-002-----0
  6
CONTINUOUS
 62
             7
100
AcDbLine
 10
-86.64643499999994
 20
-24.93475499999994
 11
86.64644900000002
 21
-24.93475499999994
  0
LINE
  5
1DF
100
AcDbEntity
  8
LC-001-002-----0
  6
CONTINUOUS
 62
             7
100
AcDbLine
 10
67.492548
 20
-100.5329140000001
 11
-67.49263600000001
 21
-100.5329140000001
  0
LINE
  5
1DE
100
AcDbEntity
  8
LC-001-002-----0
  6
CONTINUOUS
 62
             7
100
AcDbLine
 10
-57.49134699999996
 20
-103.0329140000001
 11
57.49126000000001
 21
-103.0329140000001
  0
LINE
  5
1DD
100
AcDbEntity
  8
LC-001-002-----0
  6
CONTINUOUS
 62
             7
100
AcDbLine
 10
-80.00000000000006
 20
-28.26737799999995
 11
-80.00000000000006
 21
-90.53291400000006
  0
LINE
  5
1DC
100
AcDbEntity
  8
LC-001-002-----0
  6
CONTINUOUS
 62
             7
100
AcDbLine
 10
-62.50000000000006
 20
-153.03291400000009
 11
-61.56217799999996
 21
-156.53291400000009
  0
LINE
  5
1DB
100
AcDbEntity
  8
LC-001-002-----0
  6
CONTINUOUS
 62
             7
100
AcDbLine
 10
62.5
 20
-153.03291400000009
 11
61.56217699999996
 21
-156.53291400000009
  0
LINE
  5
1DA
100
AcDbEntity
  8
LC-001-002-----0
  6
CONTINUOUS
 62
             7
100
AcDbLine
 10
80.0
 20
-28.26737799999995
 11
80.0
 21
-90.53291400000006
  0
LINE
  5
1D9
100
AcDbEntity
  8
LC-001-002-----0
  6
CONTINUOUS
 62
             7
100
AcDbLine
 10
62.5
 20
-103.0329140000001
 11
62.5
 21
-153.03291400000009
  0
LINE
  5
1D8
100
AcDbEntity
  8
LC-001-002-----0
  6
CONTINUOUS
 62
             7
100
AcDbLine
 10
0.0
 20
-156.53291400000009
 11
61.56217699999996
 21
-156.53291400000009
  0
LINE
  5
1D7
100
AcDbEntity
  8
LC-001-002-----0
  6
CONTINUOUS
 62
             7
100
AcDbLine
 10
-61.56217799999996
 20
-156.53291400000009
 11
0.0
 21
-156.53291400000009
  0
LINE
  5
1D6
100
AcDbEntity
  8
LC-001-002-----0
  6
CONTINUOUS
 62
             7
100
AcDbLine
 10
-80.00000000000006
 20
-90.53291400000006
 11
77.499956
 21
-90.53291400000006
  0
LINE
  5
1D5
100
AcDbEntity
  8
LC-001-002-----0
  6
CONTINUOUS
 62
             7
100
AcDbLine
 10
-62.50000000000006
 20
-103.0329140000001
 11
-62.50000000000006
 21
-153.03291400000009
  0
LINE
  5
1D4
100
AcDbEntity
  8
LC-001-002-----0
  6
CONTINUOUS
 62
             7
100
AcDbLine
 10
91.116713
 20
-29.31888399999997
 11
91.116713
 21
-25.45716699999997
  0
LINE
  5
1D3
100
AcDbEntity
  8
LC-001-002-----0
  6
CONTINUOUS
 62
             7
100
AcDbLine
 10
96.89021600000001
 20
-29.31893499999996
 11
96.89021600000001
 21
-25.45141200000006
  0
LINE
  5
1D2
100
AcDbEntity
  8
LC-001-002-----0
  6
CONTINUOUS
 62
             7
100
AcDbLine
 10
88.229962
 20
-25.45713999999993
 11
88.229962
 21
-29.31888300000009
  0
LINE
  5
1D1
100
AcDbEntity
  8
LC-001-002-----0
  6
CONTINUOUS
 62
             7
100
AcDbLine
 10
99.77696699999996
 20
-25.45713999999993
 11
99.77696699999996
 21
-29.31888300000009
  0
LINE
  5
1D0
100
AcDbEntity
  8
LC-001-002-----0
  6
CONTINUOUS
 62
             7
100
AcDbLine
 10
98.33359300000001
 20
-24.78801199999993
 11
89.673339
 21
-24.78801199999993
  0
LINE
  5
1CF
100
AcDbEntity
  8
LC-001-002-----0
  6
CONTINUOUS
 62
             7
100
AcDbLine
 10
98.33359300000001
 20
-29.98801199999997
 11
89.673338
 21
-29.98801199999997
  0
LINE
  5
1CE
100
AcDbEntity
  8
LC-010-006-MLN-0
  6
DASHDOT
 62
             2
100
AcDbLine
 10
94.00346500000001
 20
26.21200099999993
 11
94.00346500000001
 21
-43.78799900000007
  0
LINE
  5
1CD
100
AcDbEntity
  8
LC-004-003-----0
  6
CONTINUOUS
 62
             2
100
AcDbLine
 10
91.50346500000001
 20
-24.78801199999993
 11
91.50346500000001
 21
-24.78773500000006
  0
LINE
  5
1CC
100
AcDbEntity
  8
LC-004-003-----0
  6
CONTINUOUS
 62
             2
100
AcDbLine
 10
91.50346500000001
 20
-33.78799900000007
 11
91.50346500000001
 21
-29.98801199999997
  0
LINE
  5
1CB
100
AcDbEntity
  8
LC-004-003-----0
  6
CONTINUOUS
 62
             2
100
AcDbLine
 10
96.50346500000001
 20
-33.78799900000007
 11
96.50346500000001
 21
-29.98801199999997
  0
LINE
  5
1CA
100
AcDbEntity
  8
LC-001-002-----0
  6
CONTINUOUS
 62
             7
100
AcDbLine
 10
91.00346500000001
 20
-33.28799900000007
 11
97.00346500000001
 21
-33.28799900000007
  0
LINE
  5
1C9
100
AcDbEntity
  8
LC-001-002-----0
  6
CONTINUOUS
 62
             7
100
AcDbLine
 10
96.50346500000001
 20
-33.78799900000007
 11
97.00346500000001
 21
-33.28799900000007
  0
LINE
  5
1C8
100
AcDbEntity
  8
LC-001-002-----0
  6
CONTINUOUS
 62
             7
100
AcDbLine
 10
91.50346500000001
 20
-33.78799900000007
 11
91.00346500000001
 21
-33.28799900000007
  0
LINE
  5
1C7
100
AcDbEntity
  8
LC-001-002-----0
  6
CONTINUOUS
 62
             7
100
AcDbLine
 10
91.00346500000001
 20
-24.78801199999993
 11
91.00346500000001
 21
-24.78773799999994
  0
LINE
  5
1C6
100
AcDbEntity
  8
LC-001-002-----0
  6
CONTINUOUS
 62
             7
100
AcDbLine
 10
91.00346500000001
 20
-33.28799900000007
 11
91.00346500000001
 21
-29.98801199999997
  0
LINE
  5
1C5
100
AcDbEntity
  8
LC-001-002-----0
  6
CONTINUOUS
 62
             7
100
AcDbLine
 10
91.50346500000001
 20
-33.78799900000007
 11
96.50346500000001
 21
-33.78799900000007
  0
LINE
  5
1C4
100
AcDbEntity
  8
LC-001-002-----0
  6
CONTINUOUS
 62
             7
100
AcDbLine
 10
97.00346500000001
 20
-24.78801199999993
 11
97.00346500000001
 21
-24.78770000000003
  0
LINE
  5
1C3
100
AcDbEntity
  8
LC-001-002-----0
  6
CONTINUOUS
 62
             7
100
AcDbLine
 10
97.00346500000001
 20
-33.28799900000007
 11
97.00346500000001
 21
-29.98801199999997
  0
LINE
  5
1C2
100
AcDbEntity
  8
LC-010-006-MLN-0
  6
DASHDOT
 62
             2
100
AcDbLine
 10
-94.00346599999995
 20
26.21200099999993
 11
-94.00346599999995
 21
-43.78799900000007
  0
LINE
  5
1C1
100
AcDbEntity
  8
LC-004-003-----0
  6
CONTINUOUS
 62
             2
100
AcDbLine
 10
-91.50346599999995
 20
-33.78799900000007
 11
-91.50346599999995
 21
-29.98801199999997
  0
LINE
  5
1C0
100
AcDbEntity
  8
LC-004-003-----0
  6
CONTINUOUS
 62
             2
100
AcDbLine
 10
-96.50346599999995
 20
-33.78799900000007
 11
-96.50346599999995
 21
-29.98801199999997
  0
LINE
  5
1BF
100
AcDbEntity
  8
LC-001-002-----0
  6
CONTINUOUS
 62
             7
100
AcDbLine
 10
-91.00346599999995
 20
-33.28799900000007
 11
-97.00346599999995
 21
-33.28799900000007
  0
LINE
  5
1BE
100
AcDbEntity
  8
LC-001-002-----0
  6
CONTINUOUS
 62
             7
100
AcDbLine
 10
-96.50346599999995
 20
-33.78799900000007
 11
-97.00346599999995
 21
-33.28799900000007
  0
LINE
  5
1BD
100
AcDbEntity
  8
LC-001-002-----0
  6
CONTINUOUS
 62
             7
100
AcDbLine
 10
-91.50346599999995
 20
-33.78799900000007
 11
-91.00346599999995
 21
-33.28799900000007
  0
LINE
  5
1BC
100
AcDbEntity
  8
LC-001-002-----0
  6
CONTINUOUS
 62
             7
100
AcDbLine
 10
-91.00346599999995
 20
-33.28799900000007
 11
-91.00346599999995
 21
-29.98801199999997
  0
LINE
  5
1BB
100
AcDbEntity
  8
LC-001-002-----0
  6
CONTINUOUS
 62
             7
100
AcDbLine
 10
-91.50346599999995
 20
-33.78799900000007
 11
-96.50346599999995
 21
-33.78799900000007
  0
LINE
  5
1BA
100
AcDbEntity
  8
LC-001-002-----0
  6
CONTINUOUS
 62
             7
100
AcDbLine
 10
-97.00346599999995
 20
-33.28799900000007
 11
-97.00346599999995
 21
-29.98801199999997
  0
LINE
  5
1B9
100
AcDbEntity
  8
LC-001-002-----0
  6
CONTINUOUS
 62
             7
100
AcDbLine
 10
-91.11671400000006
 20
-29.31888399999997
 11
-91.11671400000006
 21
-25.45716699999997
  0
LINE
  5
1B8
100
AcDbEntity
  8
LC-001-002-----0
  6
CONTINUOUS
 62
             7
100
AcDbLine
 10
-96.89021699999995
 20
-29.31893499999996
 11
-96.89021699999995
 21
-25.45141200000006
  0
LINE
  5
1B7
100
AcDbEntity
  8
LC-001-002-----0
  6
CONTINUOUS
 62
             7
100
AcDbLine
 10
-88.22996300000006
 20
-25.45713999999993
 11
-88.22996300000006
 21
-29.31888300000009
  0
LINE
  5
1B6
100
AcDbEntity
  8
LC-001-002-----0
  6
CONTINUOUS
 62
             7
100
AcDbLine
 10
-99.77696799999995
 20
-25.45713999999993
 11
-99.77696799999995
 21
-29.31888300000009
  0
LINE
  5
1B5
100
AcDbEntity
  8
LC-001-002-----0
  6
CONTINUOUS
 62
             7
100
AcDbLine
 10
-98.33359400000001
 20
-24.78801199999993
 11
-89.67334
 21
-24.78801199999993
  0
LINE
  5
1B4
100
AcDbEntity
  8
LC-001-002-----0
  6
CONTINUOUS
 62
             7
100
AcDbLine
 10
-98.33359400000001
 20
-29.98801199999997
 11
-89.673339
 21
-29.98801199999997
  0
LINE
  5
1B3
100
AcDbEntity
  8
LC-001-002-----0
  6
CONTINUOUS
 62
             7
100
AcDbLine
 10
85.00001300000002
 20
-28.26736199999999
 11
81.500632
 21
-28.26737799999995
  0
LINE
  5
1B2
100
AcDbEntity
  8
LC-001-002-----0
  6
CONTINUOUS
 62
             7
100
AcDbLine
 10
86.50000399999999
 20
-25.28776599999998
 11
86.50000599999999
 21
-26.76735200000002
  0
LINE
  5
1B1
100
AcDbEntity
  8
LC-001-002-----0
  6
CONTINUOUS
 62
             7
100
AcDbLine
 10
-84.99998599999998
 20
-28.26789400000002
 11
-81.49998499999998
 21
-28.26788699999992
  0
LINE
  5
1B0
100
AcDbEntity
  8
LC-001-002-----0
  6
CONTINUOUS
 62
             7
100
AcDbLine
 10
-86.49998899999997
 20
-25.28830800000009
 11
-86.49998899999997
 21
-26.76789400000002
  0
LINE
  5
1AF
100
AcDbEntity
  8
LC-001-002-----0
  6
CONTINUOUS
 62
             7
100
AcDbLine
 10
90.50000900000003
 20
-24.78774100000004
 11
87.000001
 21
-24.78776299999999
  0
LINE
  5
1AE
100
AcDbEntity
  8
LC-001-002-----0
  6
CONTINUOUS
 62
             7
100
AcDbLine
 10
-101.500005
 20
-11.695134
 11
-101.500005
 21
-23.28830800000009
  0
LINE
  5
1AD
100
AcDbEntity
  8
LC-001-002-----0
  6
CONTINUOUS
 62
             7
100
AcDbLine
 10
97.50000900000003
 20
-24.78769699999993
 11
96.75351900000004
 21
-24.78770200000003
  0
LINE
  5
1AC
100
AcDbEntity
  8
LC-001-002-----0
  6
CONTINUOUS
 62
             7
100
AcDbLine
 10
100.000017
 20
-24.78768099999997
 11
97.50000900000003
 21
-24.78769699999993
  0
LINE
  5
1AB
100
AcDbEntity
  8
LC-001-002-----0
  6
CONTINUOUS
 62
             7
100
AcDbLine
 10
101.499928
 20
-11.69449800000001
 11
101.50000799999999
 21
-23.28767199999999
  0
LINE
  5
1AA
100
AcDbEntity
  8
LC-001-002-----0
  6
CONTINUOUS
 62
             7
100
AcDbLine
 10
-89.66750899999994
 20
-24.78830800000009
 11
-86.99998899999997
 21
-24.78830800000009
  0
LINE
  5
1A9
100
AcDbEntity
  8
LC-001-002-----0
  6
CONTINUOUS
 62
             7
100
AcDbLine
 10
67.492548
 20
-100.5329140000001
 11
72.499956
 21
-100.5329140000001
  0
LINE
  5
1A8
100
AcDbEntity
  8
LC-001-002-----0
  6
CONTINUOUS
 62
             7
100
AcDbLine
 10
67.492548
 20
-103.0329140000001
 11
67.492548
 21
-100.5329140000001
  0
LINE
  5
1A7
100
AcDbEntity
  8
LC-001-002-----0
  6
CONTINUOUS
 62
             7
100
AcDbLine
 10
57.49126000000001
 20
-103.0329140000001
 11
67.492548
 21
-103.0329140000001
  0
LINE
  5
1A6
100
AcDbEntity
  8
LC-001-002-----0
  6
CONTINUOUS
 62
             7
100
AcDbLine
 10
-67.49263600000001
 20
-103.0329140000001
 11
-57.49134699999996
 21
-103.0329140000001
  0
LINE
  5
1A5
100
AcDbEntity
  8
LC-001-002-----0
  6
CONTINUOUS
 62
             7
100
AcDbLine
 10
-67.49263600000001
 20
-100.5329140000001
 11
-67.49263600000001
 21
-103.0329140000001
  0
LINE
  5
1A4
100
AcDbEntity
  8
LC-001-002-----0
  6
CONTINUOUS
 62
             7
100
AcDbLine
 10
-72.50004399999995
 20
-100.5329140000001
 11
-67.49263600000001
 21
-100.5329140000001
  0
LINE
  5
1A3
100
AcDbEntity
  8
LC-001-002-----0
  6
CONTINUOUS
 62
             7
100
AcDbLine
 10
-100.000005
 20
-24.78830800000009
 11
-98.33942400000007
 21
-24.78830800000009
  0
LINE
  5
1A2
100
AcDbEntity
  8
LC-001-002-----0
  6
CONTINUOUS
 62
             7
100
AcDbLine
 10
80.499956
 20
-90.53291400000006
 11
77.499956
 21
-90.53291400000006
  0
LINE
  5
1A1
100
AcDbEntity
  8
LC-001-002-----0
  6
CONTINUOUS
 62
             7
100
AcDbLine
 10
80.499956
 20
-92.53291400000006
 11
80.499956
 21
-90.53291400000006
  0
LINE
  5
1A0
100
AcDbEntity
  8
LC-001-002-----0
  6
CONTINUOUS
 62
             7
100
AcDbLine
 10
-80.50004399999995
 20
-92.53291400000006
 11
-80.50004399999995
 21
-90.53291400000006
  0
LINE
  5
19F
100
AcDbEntity
  8
LC-001-002-----0
  6
CONTINUOUS
 62
             7
100
AcDbLine
 10
-80.50004399999995
 20
-90.53291400000006
 11
-77.50004399999995
 21
-90.53291400000006
  0
LINE
  5
19E
100
AcDbEntity
  8
LC-001-002-----0
  6
CONTINUOUS
 62
             7
100
AcDbLine
 10
96.75351900000004
 20
-24.78770200000003
 11
90.50000900000003
 21
-24.78774100000004
  0
POINT
  5
19D
100
AcDbEntity
  8
LC-004-003-----0
 62
             7
100
AcDbPoint
 10
101.499968
 20
-17.49108500000006
  0
POINT
  5
19C
100
AcDbEntity
  8
LC-004-003-----0
 62
             7
100
AcDbPoint
 10
-101.500005
 20
-17.49172100000004
  0
POINT
  5
19B
100
AcDbEntity
  8
LC-004-003-----0
 62
             7
100
AcDbPoint
 10
-72.50004399999995
 20
-100.5329140000001
  0
POINT
  5
19A
100
AcDbEntity
  8
LC-004-003-----0
 62
             7
100
AcDbPoint
 10
79.999956
 20
-90.53291400000006
  0
POINT
  5
199
100
AcDbEntity
  8
LC-004-003-----0
 62
             7
100
AcDbPoint
 10
-80.00004399999995
 20
-88.13359800000006
  0
POINT
  5
198
100
AcDbEntity
  8
LC-004-003-----0
 62
             7
100
AcDbPoint
 10
62.499956
 20
-153.03291400000009
  0
POINT
  5
197
100
AcDbEntity
  8
LC-004-003-----0
 62
             7
100
AcDbPoint
 10
-62.50004399999995
 20
-153.03291400000009
  0
ENDBLK
  5
2C9
100
AcDbEntity
  8
0
100
AcDbBlockEnd
  0
BLOCK
  5
43
100
AcDbEntity
  8
0
100
AcDbBlockBegin
  2
HL62_1_2
 70
             0
 10
-474.80038401790301
 20
7.27845814628699
 30
0.0
  3
HL62_1_2
  1

  0
INSERT
  5
44
100
AcDbEntity
  8
0
100
AcDbBlockReference
  2
HL_62_1_7_DACHABLAUF__6
 10
-444.93044001509918
 20
407.18019998880601
  0
ENDBLK
  5
2CA
100
AcDbEntity
  8
0
100
AcDbBlockEnd
  0
BLOCK
  5
2CD
100
AcDbEntity
  8
0
100
AcDbBlockBegin
  2
*D9
 70
             1
 10
0.0
 20
0.0
 30
0.0
  3
*D9
  1

  0
LINE
  5
2CE
100
AcDbEntity
  8
0
  6
CONTINUOUS
 62
             4
100
AcDbLine
 10
-73.50000000000108
 20
85.26985486553303
 11
73.49999999999892
 21
85.26985486553303
  0
LINE
  5
2CF
100
AcDbEntity
  8
0
  6
CONTINUOUS
 62
             4
100
AcDbLine
 10
-73.50000000000108
 20
67.99941019396351
 11
-73.50000000000108
 21
87.26985486553303
  0
LINE
  5
2D0
100
AcDbEntity
  8
0
  6
CONTINUOUS
 62
             4
100
AcDbLine
 10
73.49999999999892
 20
67.99941019396351
 11
73.49999999999892
 21
87.26985486553303
  0
SOLID
  5
2D1
100
AcDbEntity
  8
0
 62
             4
100
AcDbTrace
 10
-63.50000000000108
 20
86.586379841407
 11
-63.50000000000108
 21
83.95332988965907
 12
-73.50000000000108
 22
85.26985486553303
 13
-73.50000000000108
 23
85.26985486553303
  0
SOLID
  5
2D2
100
AcDbEntity
  8
0
 62
             4
100
AcDbTrace
 10
63.49999999999892
 20
83.95332988965907
 11
63.49999999999892
 21
86.586379841407
 12
73.49999999999892
 22
85.26985486553303
 13
73.49999999999892
 23
85.26985486553303
  0
MTEXT
  5
2D4
100
AcDbEntity
  8
0
 62
             1
100
AcDbMText
 10
-28.604532857582
 20
87.26985486553303
 30
0.0
 40
10.0
 41
0.0
 71
             7
 72
             1
  1
150x150
  7
CONVERTER_1
 11
0.99999999999706
 21
0.00000242406841
 31
0.0
  0
ENDBLK
  5
2D5
100
AcDbEntity
  8
0
100
AcDbBlockEnd
  0
BLOCK
  5
2D9
100
AcDbEntity
  8
0
100
AcDbBlockBegin
  2
*D10
 70
             1
 10
0.0
 20
0.0
 30
0.0
  3
*D10
  1

  0
LINE
  5
2DA
100
AcDbEntity
  8
0
  6
CONTINUOUS
 62
             4
100
AcDbLine
 10
-101.50000500000004
 20
-230.99202971822399
 11
101.50000799999999
 21
-230.99202971822399
  0
LINE
  5
2DB
100
AcDbEntity
  8
0
  6
CONTINUOUS
 62
             4
100
AcDbLine
 10
101.50000799999999
 20
-23.28767199999999
 11
101.50000799999999
 21
-232.99202971822399
  0
LINE
  5
2DC
100
AcDbEntity
  8
0
  6
CONTINUOUS
 62
             4
100
AcDbLine
 10
-101.50000500000004
 20
-23.28830800000009
 11
-101.50000500000004
 21
-232.99202971822399
  0
SOLID
  5
2DD
100
AcDbEntity
  8
0
 62
             4
100
AcDbTrace
 10
-91.50000500000004
 20
-229.67550474235003
 11
-91.50000500000004
 21
-232.30855469409795
 12
-101.50000500000004
 22
-230.99202971822399
 13
-101.50000500000004
 23
-230.99202971822399
  0
SOLID
  5
2DE
100
AcDbEntity
  8
0
 62
             4
100
AcDbTrace
 10
91.50000799999999
 20
-232.30855469409795
 11
91.50000799999999
 21
-229.67550474235003
 12
101.50000799999999
 22
-230.99202971822399
 13
101.50000799999999
 23
-230.99202971822399
  0
MTEXT
  5
2DF
100
AcDbEntity
  8
0
 62
             1
100
AcDbMText
 10
-17.88614334082191
 20
-228.99204959558492
 30
0.0
 40
10.0
 41
0.0
 71
             7
 72
             1
  1
\C1;Ø\C1;203
  7
CONVERTER_1
 11
0.99999999999706
 21
0.00000242406841
 31
0.0
  0
ENDBLK
  5
2E0
100
AcDbEntity
  8
0
100
AcDbBlockEnd
  0
BLOCK
  5
2E4
100
AcDbEntity
  8
0
100
AcDbBlockBegin
  2
*D11
 70
             1
 10
0.0
 20
0.0
 30
0.0
  3
*D11
  1

  0
LINE
  5
2E5
100
AcDbEntity
  8
0
  6
CONTINUOUS
 62
             4
100
AcDbLine
 10
-80.50004399999995
 20
-206.01270391905501
 11
80.499956
 21
-206.01270391905501
  0
LINE
  5
2E6
100
AcDbEntity
  8
0
  6
CONTINUOUS
 62
             4
100
AcDbLine
 10
80.499956
 20
-92.53291400000012
 11
80.499956
 21
-208.01270391905501
  0
LINE
  5
2E7
100
AcDbEntity
  8
0
  6
CONTINUOUS
 62
             4
100
AcDbLine
 10
-80.50004399999995
 20
-92.53291400000012
 11
-80.50004399999995
 21
-208.01270391905501
  0
SOLID
  5
2E8
100
AcDbEntity
  8
0
 62
             4
100
AcDbTrace
 10
-70.50004399999995
 20
-204.69617894318105
 11
-70.50004399999995
 21
-207.32922889492897
 12
-80.50004399999995
 22
-206.01270391905501
 13
-80.50004399999995
 23
-206.01270391905501
  0
SOLID
  5
2E9
100
AcDbEntity
  8
0
 62
             4
100
AcDbTrace
 10
70.499956
 20
-207.32922889492897
 11
70.499956
 21
-204.69617894318105
 12
80.499956
 22
-206.01270391905501
 13
80.499956
 23
-206.01270391905501
  0
MTEXT
  5
2EA
100
AcDbEntity
  8
0
 62
             1
100
AcDbMText
 10
-16.38614334082191
 20
-204.01272379641594
 30
0.0
 40
10.0
 41
0.0
 71
             7
 72
             1
  1
\C1;Ø\C1;160
  7
CONVERTER_1
 11
0.99999999999706
 21
0.00000242406841
 31
0.0
  0
ENDBLK
  5
2EB
100
AcDbEntity
  8
0
100
AcDbBlockEnd
  0
BLOCK
  5
2EF
100
AcDbEntity
  8
0
100
AcDbBlockBegin
  2
*D12
 70
             1
 10
0.0
 20
0.0
 30
0.0
  3
*D12
  1

  0
LINE
  5
2F0
100
AcDbEntity
  8
0
  6
CONTINUOUS
 62
             4
100
AcDbLine
 10
-62.50000000000006
 20
-180.33950795879801
 11
62.5
 21
-180.33950795879801
  0
LINE
  5
2F1
100
AcDbEntity
  8
0
  6
CONTINUOUS
 62
             4
100
AcDbLine
 10
62.5
 20
-153.03291400000012
 11
62.5
 21
-182.33950795879801
  0
LINE
  5
2F2
100
AcDbEntity
  8
0
  6
CONTINUOUS
 62
             4
100
AcDbLine
 10
-62.50000000000006
 20
-153.03291400000012
 11
-62.50000000000006
 21
-182.33950795879801
  0
SOLID
  5
2F3
100
AcDbEntity
  8
0
 62
             4
100
AcDbTrace
 10
-52.50000000000006
 20
-179.02298298292405
 11
-52.50000000000006
 21
-181.65603293467197
 12
-62.50000000000006
 22
-180.33950795879801
 13
-62.50000000000006
 23
-180.33950795879801
  0
SOLID
  5
2F4
100
AcDbEntity
  8
0
 62
             4
100
AcDbTrace
 10
52.5
 20
-181.65603293467197
 11
52.5
 21
-179.02298298292405
 12
62.5
 22
-180.33950795879801
 13
62.5
 23
-180.33950795879801
  0
MTEXT
  5
2F5
100
AcDbEntity
  8
0
 62
             1
100
AcDbMText
 10
-16.81066269644582
 20
-178.33954771351986
 30
0.0
 40
10.0
 41
0.0
 71
             7
 72
             1
  1
\C1;DN\C1;125
  7
CONVERTER_1
 11
0.99999999999706
 21
0.00000242406841
 31
0.0
  0
ENDBLK
  5
2F6
100
AcDbEntity
  8
0
100
AcDbBlockEnd
  0
BLOCK
  5
2FA
100
AcDbEntity
  8
0
100
AcDbBlockBegin
  2
*D13
 70
             1
 10
0.0
 20
0.0
 30
0.0
  3
*D13
  1

  0
LINE
  5
2FB
100
AcDbEntity
  8
0
  6
CONTINUOUS
 62
             4
100
AcDbLine
 10
-186.999989
 20
-100.53291400000006
 11
-186.999989
 21
-0.0092489999999
  0
LINE
  5
2FC
100
AcDbEntity
  8
0
  6
CONTINUOUS
 62
             4
100
AcDbLine
 10
-176.999989
 20
-0.0092489999999
 11
-188.999989
 21
-0.0092489999999
  0
LINE
  5
2FD
100
AcDbEntity
  8
0
  6
CONTINUOUS
 62
             4
100
AcDbLine
 10
-72.500044
 20
-100.53291400000006
 11
-188.999989
 21
-100.53291400000006
  0
SOLID
  5
2FE
100
AcDbEntity
  8
0
 62
             4
100
AcDbTrace
 10
-188.31651397587396
 20
-90.53291400000006
 11
-185.68346402412604
 21
-90.53291400000006
 12
-186.999989
 22
-100.53291400000006
 13
-186.999989
 23
-100.53291400000006
  0
SOLID
  5
2FF
100
AcDbEntity
  8
0
 62
             4
100
AcDbTrace
 10
-185.68346402412604
 20
-10.0092489999999
 11
-188.31651397587396
 21
-10.0092489999999
 12
-186.999989
 22
-0.0092489999999
 13
-186.999989
 23
-0.0092489999999
  0
MTEXT
  5
300
100
AcDbEntity
  8
0
 62
             1
100
AcDbMText
 10
-188.999989
 20
-59.63674912404106
 30
0.0
 40
10.0
 41
0.0
 71
             7
 72
             1
  1
100
  7
CONVERTER_1
 11
0.0
 21
1.0
 31
0.0
  0
ENDBLK
  5
301
100
AcDbEntity
  8
0
100
AcDbBlockEnd
  0
BLOCK
  5
305
100
AcDbEntity
  8
0
100
AcDbBlockBegin
  2
*D14
 70
             1
 10
0.0
 20
0.0
 30
0.0
  3
*D14
  1

  0
LINE
  5
306
100
AcDbEntity
  8
0
  6
CONTINUOUS
 62
             4
100
AcDbLine
 10
-187.500437640054
 20
2.99864899999988
 11
-187.500437640054
 21
67.99941019396351
  0
LINE
  5
307
100
AcDbEntity
  8
0
  6
CONTINUOUS
 62
             4
100
AcDbLine
 10
-174.99999999999989
 20
2.99864899999988
 11
-189.500437640054
 21
2.99864899999988
  0
LINE
  5
308
100
AcDbEntity
  8
0
  6
CONTINUOUS
 62
             4
100
AcDbLine
 10
-73.50000000000111
 20
67.99941019396351
 11
-189.500437640054
 21
67.99941019396351
  0
SOLID
  5
309
100
AcDbEntity
  8
0
 62
             4
100
AcDbTrace
 10
-188.81696261592796
 20
12.99864899999988
 11
-186.18391266418004
 21
12.99864899999988
 12
-187.500437640054
 22
2.99864899999988
 13
-187.500437640054
 23
2.99864899999988
  0
SOLID
  5
30A
100
AcDbEntity
  8
0
 62
             4
100
AcDbTrace
 10
-186.18391266418004
 20
57.99941019396351
 11
-188.81696261592796
 21
57.99941019396351
 12
-187.500437640054
 22
67.99941019396351
 13
-187.500437640054
 23
67.99941019396351
  0
MTEXT
  5
30B
100
AcDbEntity
  8
0
 62
             1
100
AcDbMText
 10
-189.500437640054
 20
17.45866123564663
 30
0.0
 40
10.0
 41
0.0
 71
             7
 72
             1
  1
\C1;12-\C1;65
  7
CONVERTER_1
 11
0.0
 21
1.0
 31
0.0
  0
ENDBLK
  5
30C
100
AcDbEntity
  8
0
100
AcDbBlockEnd
  0
BLOCK
  5
310
100
AcDbEntity
  8
0
100
AcDbBlockBegin
  2
*D15
 70
             1
 10
0.0
 20
0.0
 30
0.0
  3
*D15
  1

  0
LINE
  5
311
100
AcDbEntity
  8
0
  6
CONTINUOUS
 62
             4
100
AcDbLine
 10
-176.99999299998098
 20
106.841394334611
 11
176.99999800000001
 21
106.841394334611
  0
LINE
  5
312
100
AcDbEntity
  8
0
  6
CONTINUOUS
 62
             4
100
AcDbLine
 10
-176.99999299998098
 20
0.998640343167
 11
-176.99999299998098
 21
108.841394334611
  0
LINE
  5
313
100
AcDbEntity
  8
0
  6
CONTINUOUS
 62
             4
100
AcDbLine
 10
176.99999800000001
 20
0.00025099999999
 11
176.99999800000001
 21
108.841394334611
  0
SOLID
  5
314
100
AcDbEntity
  8
0
 62
             4
100
AcDbTrace
 10
-166.99999299998098
 20
108.15791931048496
 11
-166.99999299998098
 21
105.52486935873704
 12
-176.99999299998098
 22
106.841394334611
 13
-176.99999299998098
 23
106.841394334611
  0
SOLID
  5
315
100
AcDbEntity
  8
0
 62
             4
100
AcDbTrace
 10
166.99999800000001
 20
105.52486935873704
 11
166.99999800000001
 21
108.15791931048496
 12
176.99999800000001
 22
106.841394334611
 13
176.99999800000001
 23
106.841394334611
  0
MTEXT
  5
316
100
AcDbEntity
  8
0
 62
             1
100
AcDbMText
 10
-16.02449981264899
 20
108.84137445725007
 30
0.0
 40
10.0
 41
0.0
 71
             7
 72
             1
  1
\C1;Ø\C1;354
  7
CONVERTER_1
 11
0.99999999999706
 21
0.00000242406841
 31
0.0
  0
ENDBLK
  5
317
100
AcDbEntity
  8
0
100
AcDbBlockEnd
  0
ENDSEC
  0
SECTION
  2
ENTITIES
  0
DIMENSION
  5
319
100
AcDbEntity
  8
1
100
AcDbDimension
  2
*D15
 10
-176.99999299998098
 20
106.841394334611
 11
-1.82449981267308
 21
113.841394334611
 31
0.0
 53
180.0
  1
<>
  3
ME10_DIM_6
100
AcDbAlignedDimension
 13
176.99999800000001
 23
0.00025099999999
 14
-176.999992999981
 24
0.99864034316698
 50
180.0
100
AcDbRotatedDimension
  0
DIMENSION
  5
30E
100
AcDbEntity
  8
1
100
AcDbDimension
  2
*D14
 10
-187.500437640054
 20
2.99864899999988
 11
-194.500437640054
 21
37.05866123564663
 31
0.0
 53
90.0
  1
<>
  3
ME10_DIM_5
100
AcDbAlignedDimension
 13
-73.50000000000108
 23
67.99941019396351
 14
-174.99999999999989
 24
2.99864899999989
 50
90.0
100
AcDbRotatedDimension
  0
DIMENSION
  5
303
100
AcDbEntity
  8
1
100
AcDbDimension
  2
*D13
 10
-186.999989
 20
-100.53291400000006
 11
-193.999989
 21
-49.13674912404106
 31
0.0
 53
90.0
  1
100
  3
ME10_DIM_4
100
AcDbAlignedDimension
 13
-176.999989
 23
-0.0092489999999
 14
-72.50004399999995
 24
-100.5329140000001
 50
90.0
100
AcDbRotatedDimension
  0
DIMENSION
  5
2F8
100
AcDbEntity
  8
1
100
AcDbDimension
  2
*D12
 10
-62.50000000000006
 20
-180.33950795879801
 11
-0.910662696494
 21
-173.33950795879801
 31
0.0
 53
180.0
  1
<>
  3
ME10_DIM_3
100
AcDbAlignedDimension
 13
62.5
 23
-153.03291400000009
 14
-62.50000000000006
 24
-153.03291400000009
 50
180.0
100
AcDbRotatedDimension
  0
DIMENSION
  5
2ED
100
AcDbEntity
  8
1
100
AcDbDimension
  2
*D11
 10
-80.50004399999995
 20
-206.01270391905501
 11
-3.686143340846
 21
-199.01270391905501
 31
0.0
 53
180.0
  1
Ø160
  3
ME10_DIM_2
100
AcDbAlignedDimension
 13
80.499956
 23
-92.53291400000006
 14
-80.50004399999995
 24
-92.53291400000006
 50
180.0
100
AcDbRotatedDimension
  0
DIMENSION
  5
2E2
100
AcDbEntity
  8
1
100
AcDbDimension
  2
*D10
 10
-101.50000500000004
 20
-230.99202971822399
 11
-3.686143340846
 21
-223.99202971822399
 31
0.0
 53
180.0
  1
<>
  3
ME10_DIM_1
100
AcDbAlignedDimension
 13
101.50000799999999
 23
-23.28767199999999
 14
-101.500005
 24
-23.28830800000009
 50
180.0
100
AcDbRotatedDimension
  0
DIMENSION
  5
2D7
100
AcDbEntity
  8
1
100
AcDbDimension
  2
*D9
 10
-73.50000000000108
 20
85.26985486553303
 11
-1.604532857582
 21
92.26985486553303
 31
0.0
 53
180.0
  1
150x150
  3
ME10_DIM_0
100
AcDbAlignedDimension
 13
73.49999999999892
 23
67.99941019396351
 14
-73.50000000000108
 24
67.99941019396351
 50
180.0
100
AcDbRotatedDimension
  0
INSERT
  5
47
100
AcDbEntity
  8
0
100
AcDbBlockReference
  2
HL_62_1B_1_FLACHDACHAB0__5
 10
-474.80038401790301
 20
6.80924814628696
  0
INSERT
  5
48
100
AcDbEntity
  8
0
100
AcDbBlockReference
  2
HL62_1_2
 10
-474.80038401790301
 20
7.27845814628699
  0
ENDSEC
  0
SECTION
  2
OBJECTS
  0
DICTIONARY
  5
19
100
AcDbDictionary
  3
ACAD_GROUP
350
1A
  3
ACAD_MLINESTYLE
350
1B
  0
DICTIONARY
  5
1A
102
{ACAD_REACTORS
330
19
102
}
100
AcDbDictionary
  0
DICTIONARY
  5
1B
102
{ACAD_REACTORS
330
19
102
}
100
AcDbDictionary
  3
STANDARD
350
1C
  0
MLINESTYLE
  5
1C
102
{ACAD_REACTORS
330
1B
102
}
100
AcDbMlineStyle
  2
STANDARD
 70
             0
  3

 62
             0
 51
90.0
 52
90.0
 71
             2
 49
0.5
 62
           256
  6
BYLAYER
 49
-0.5
 62
           256
  6
BYLAYER
  0
ENDSEC
  0
EOF
