  0
SECTION
  2
HEADER
  9
$ACADVER
  1
AC1015
  9
$ACADMAINTVER
 70
     6
  9
$DWGCODEPAGE
  3
ANSI_1252
  9
$INSBASE
 10
0.0
 20
0.0
 30
0.0
  9
$EXTMIN
 10
241.035476920099
 20
-119.5902911179444
 30
0.0
  9
$EXTMAX
 10
651.6832745814951
 20
269.527824727332
 30
0.0
  9
$LIMMIN
 10
0.0
 20
0.0
  9
$LIMMAX
 10
12.0
 20
9.0
  9
$ORTHOMODE
 70
     0
  9
$REGENMODE
 70
     1
  9
$FILLMODE
 70
     1
  9
$QTEXTMODE
 70
     0
  9
$MIRRTEXT
 70
     1
  9
$LTSCALE
 40
1.0
  9
$ATTMODE
 70
     1
  9
$TEXTSIZE
 40
0.2
  9
$TRACEWID
 40
0.05
  9
$TEXTSTYLE
  7
Standard
  9
$CLAYER
  8
0
  9
$CELTYPE
  6
ByLayer
  9
$CECOLOR
 62
   256
  9
$CELTSCALE
 40
1.0
  9
$DISPSILH
 70
     0
  9
$DIMSCALE
 40
1.0
  9
$DIMASZ
 40
0.18
  9
$DIMEXO
 40
0.0625
  9
$DIMDLI
 40
0.38
  9
$DIMRND
 40
0.0
  9
$DIMDLE
 40
0.0
  9
$DIMEXE
 40
0.18
  9
$DIMTP
 40
0.0
  9
$DIMTM
 40
0.0
  9
$DIMTXT
 40
0.18
  9
$DIMCEN
 40
0.09
  9
$DIMTSZ
 40
0.0
  9
$DIMTOL
 70
     0
  9
$DIMLIM
 70
     0
  9
$DIMTIH
 70
     1
  9
$DIMTOH
 70
     1
  9
$DIMSE1
 70
     0
  9
$DIMSE2
 70
     0
  9
$DIMTAD
 70
     0
  9
$DIMZIN
 70
     0
  9
$DIMBLK
  1

  9
$DIMASO
 70
     1
  9
$DIMSHO
 70
     1
  9
$DIMPOST
  1

  9
$DIMAPOST
  1

  9
$DIMALT
 70
     0
  9
$DIMALTD
 70
     2
  9
$DIMALTF
 40
25.4
  9
$DIMLFAC
 40
1.0
  9
$DIMTOFL
 70
     0
  9
$DIMTVP
 40
0.0
  9
$DIMTIX
 70
     0
  9
$DIMSOXD
 70
     0
  9
$DIMSAH
 70
     0
  9
$DIMBLK1
  1

  9
$DIMBLK2
  1

  9
$DIMSTYLE
  2
Standard
  9
$DIMCLRD
 70
     0
  9
$DIMCLRE
 70
     0
  9
$DIMCLRT
 70
     0
  9
$DIMTFAC
 40
1.0
  9
$DIMGAP
 40
0.09
  9
$DIMJUST
 70
     0
  9
$DIMSD1
 70
     0
  9
$DIMSD2
 70
     0
  9
$DIMTOLJ
 70
     1
  9
$DIMTZIN
 70
     0
  9
$DIMALTZ
 70
     0
  9
$DIMALTTZ
 70
     0
  9
$DIMUPT
 70
     0
  9
$DIMDEC
 70
     4
  9
$DIMTDEC
 70
     4
  9
$DIMALTU
 70
     2
  9
$DIMALTTD
 70
     2
  9
$DIMTXSTY
  7
Standard
  9
$DIMAUNIT
 70
     0
  9
$DIMADEC
 70
     0
  9
$DIMALTRND
 40
0.0
  9
$DIMAZIN
 70
     0
  9
$DIMDSEP
 70
    46
  9
$DIMATFIT
 70
     3
  9
$DIMFRAC
 70
     0
  9
$DIMLDRBLK
  1

  9
$DIMLUNIT
 70
     2
  9
$DIMLWD
 70
    -2
  9
$DIMLWE
 70
    -2
  9
$DIMTMOVE
 70
     0
  9
$LUNITS
 70
     2
  9
$LUPREC
 70
     4
  9
$SKETCHINC
 40
0.1
  9
$FILLETRAD
 40
0.5
  9
$AUNITS
 70
     0
  9
$AUPREC
 70
     0
  9
$MENU
  1
.
  9
$ELEVATION
 40
0.0
  9
$PELEVATION
 40
0.0
  9
$THICKNESS
 40
0.0
  9
$LIMCHECK
 70
     0
  9
$CHAMFERA
 40
0.5
  9
$CHAMFERB
 40
0.5
  9
$CHAMFERC
 40
1.0
  9
$CHAMFERD
 40
0.0
  9
$SKPOLY
 70
     0
  9
$TDCREATE
 40
2455386.30456794
  9
$TDUCREATE
 40
2455386.221234607
  9
$TDUPDATE
 40
2455386.304567951
  9
$TDUUPDATE
 40
2455386.221234618
  9
$TDINDWG
 40
0.0000000116
  9
$TDUSRTIMER
 40
0.0000000116
  9
$USRTIMER
 70
     1
  9
$ANGBASE
 50
0.0
  9
$ANGDIR
 70
     0
  9
$PDMODE
 70
     0
  9
$PDSIZE
 40
0.0
  9
$PLINEWID
 40
0.0
  9
$SPLFRAME
 70
     0
  9
$SPLINETYPE
 70
     6
  9
$SPLINESEGS
 70
     8
  9
$HANDSEED
  5
29D
  9
$SURFTAB1
 70
     6
  9
$SURFTAB2
 70
     6
  9
$SURFTYPE
 70
     6
  9
$SURFU
 70
     6
  9
$SURFV
 70
     6
  9
$UCSBASE
  2

  9
$UCSNAME
  2

  9
$UCSORG
 10
0.0
 20
0.0
 30
0.0
  9
$UCSXDIR
 10
1.0
 20
0.0
 30
0.0
  9
$UCSYDIR
 10
0.0
 20
1.0
 30
0.0
  9
$UCSORTHOREF
  2

  9
$UCSORTHOVIEW
 70
     0
  9
$UCSORGTOP
 10
0.0
 20
0.0
 30
0.0
  9
$UCSORGBOTTOM
 10
0.0
 20
0.0
 30
0.0
  9
$UCSORGLEFT
 10
0.0
 20
0.0
 30
0.0
  9
$UCSORGRIGHT
 10
0.0
 20
0.0
 30
0.0
  9
$UCSORGFRONT
 10
0.0
 20
0.0
 30
0.0
  9
$UCSORGBACK
 10
0.0
 20
0.0
 30
0.0
  9
$PUCSBASE
  2

  9
$PUCSNAME
  2

  9
$PUCSORG
 10
0.0
 20
0.0
 30
0.0
  9
$PUCSXDIR
 10
1.0
 20
0.0
 30
0.0
  9
$PUCSYDIR
 10
0.0
 20
1.0
 30
0.0
  9
$PUCSORTHOREF
  2

  9
$PUCSORTHOVIEW
 70
     0
  9
$PUCSORGTOP
 10
0.0
 20
0.0
 30
0.0
  9
$PUCSORGBOTTOM
 10
0.0
 20
0.0
 30
0.0
  9
$PUCSORGLEFT
 10
0.0
 20
0.0
 30
0.0
  9
$PUCSORGRIGHT
 10
0.0
 20
0.0
 30
0.0
  9
$PUCSORGFRONT
 10
0.0
 20
0.0
 30
0.0
  9
$PUCSORGBACK
 10
0.0
 20
0.0
 30
0.0
  9
$USERI1
 70
     0
  9
$USERI2
 70
     0
  9
$USERI3
 70
     0
  9
$USERI4
 70
     0
  9
$USERI5
 70
     0
  9
$USERR1
 40
16.5
  9
$USERR2
 40
0.0
  9
$USERR3
 40
0.0
  9
$USERR4
 40
0.0
  9
$USERR5
 40
0.0
  9
$WORLDVIEW
 70
     1
  9
$SHADEDGE
 70
     3
  9
$SHADEDIF
 70
    70
  9
$TILEMODE
 70
     1
  9
$MAXACTVP
 70
    64
  9
$PINSBASE
 10
0.0
 20
0.0
 30
0.0
  9
$PLIMCHECK
 70
     0
  9
$PEXTMIN
 10
1.00000000000000E+20
 20
1.00000000000000E+20
 30
1.00000000000000E+20
  9
$PEXTMAX
 10
-1.00000000000000E+20
 20
-1.00000000000000E+20
 30
-1.00000000000000E+20
  9
$PLIMMIN
 10
0.0
 20
0.0
  9
$PLIMMAX
 10
12.0
 20
9.0
  9
$UNITMODE
 70
     0
  9
$VISRETAIN
 70
     1
  9
$PLINEGEN
 70
     0
  9
$PSLTSCALE
 70
     1
  9
$TREEDEPTH
 70
  3020
  9
$CMLSTYLE
  2
Standard
  9
$CMLJUST
 70
     0
  9
$CMLSCALE
 40
1.0
  9
$PROXYGRAPHICS
 70
     1
  9
$MEASUREMENT
 70
     1
  9
$CELWEIGHT
370
    -1
  9
$ENDCAPS
280
     0
  9
$JOINSTYLE
280
     0
  9
$LWDISPLAY
290
     0
  9
$INSUNITS
 70
     1
  9
$HYPERLINKBASE
  1

  9
$STYLESHEET
  1

  9
$XEDIT
290
     1
  9
$CEPSNTYPE
380
     0
  9
$PSTYLEMODE
290
     1
  9
$FINGERPRINTGUID
  2
{621F36DE-7288-4E7A-86E2-19F5C78E5EF7}
  9
$VERSIONGUID
  2
{FAEB1C32-E019-11D5-929B-00C0DF256EC4}
  9
$EXTNAMES
290
     1
  9
$PSVPSCALE
 40
0.0
  9
$OLESTARTUP
290
     0
  0
ENDSEC
  0
SECTION
  2
CLASSES
  0
CLASS
  1
ACDBDICTIONARYWDFLT
  2
AcDbDictionaryWithDefault
  3
ObjectDBX Classes
 90
        0
280
     0
281
     0
  0
CLASS
  1
VISUALSTYLE
  2
AcDbVisualStyle
  3
ObjectDBX Classes
 90
     4095
280
     0
281
     0
  0
CLASS
  1
SCALE
  2
AcDbScale
  3
ObjectDBX Classes
 90
     1153
280
     0
281
     0
  0
CLASS
  1

  2
exOdDbPolyline
  3

 90
        0
280
     0
281
     1
  0
CLASS
  1

  2
exOdDbSpline
  3

 90
        0
280
     0
281
     1
  0
CLASS
  1
DICTIONARYVAR
  2
AcDbDictionaryVar
  3
ObjectDBX Classes
 90
        0
280
     0
281
     0
  0
CLASS
  1
ACDBPLACEHOLDER
  2
AcDbPlaceHolder
  3
ObjectDBX Classes
 90
        0
280
     0
281
     0
  0
CLASS
  1
LAYOUT
  2
AcDbLayout
  3
ObjectDBX Classes
 90
        0
280
     0
281
     0
  0
ENDSEC
  0
SECTION
  2
TABLES
  0
TABLE
  2
VPORT
  5
8
330
0
100
AcDbSymbolTable
 70
     1
  0
VPORT
  5
29
330
8
100
AcDbSymbolTableRecord
100
AcDbViewportTableRecord
  2
*Active
 70
     0
 10
0.0
 20
0.0
 11
1.0
 21
1.0
 12
446.359375750797
 22
74.96876680469381
 13
0.0
 23
0.0
 14
0.5
 24
0.5
 15
0.5
 25
0.5
 16
0.0
 26
0.0
 36
1.0
 17
0.0
 27
0.0
 37
0.0
 40
428.0299274298041
 41
1.60267857142857
 42
50.0
 43
0.0
 44
0.0
 50
0.0
 51
0.0
 71
     0
 72
   100
 73
     1
 74
     3
 75
     0
 76
     0
 77
     0
 78
     0
281
     0
 65
     1
110
0.0
120
0.0
130
0.0
111
1.0
121
0.0
131
0.0
112
0.0
122
1.0
132
0.0
 79
     0
146
0.0
  0
ENDTAB
  0
TABLE
  2
LTYPE
  5
5
330
0
100
AcDbSymbolTable
 70
     9
  0
LTYPE
  5
14
330
5
100
AcDbSymbolTableRecord
100
AcDbLinetypeTableRecord
  2
ByBlock
 70
     0
  3

 72
    65
 73
     0
 40
0.0
  0
LTYPE
  5
15
330
5
100
AcDbSymbolTableRecord
100
AcDbLinetypeTableRecord
  2
ByLayer
 70
     0
  3

 72
    65
 73
     0
 40
0.0
  0
LTYPE
  5
16
330
5
100
AcDbSymbolTableRecord
100
AcDbLinetypeTableRecord
  2
Continuous
 70
     0
  3
Solid line
 72
    65
 73
     0
 40
0.0
  0
LTYPE
  5
3B
330
5
100
AcDbSymbolTableRecord
100
AcDbLinetypeTableRecord
  2
DASHED
 70
     0
  3
Dashed
 72
    65
 73
     2
 40
15.0
 49
7.0
 74
     0
 49
-8.0
 74
     0
  0
LTYPE
  5
3C
330
5
100
AcDbSymbolTableRecord
100
AcDbLinetypeTableRecord
  2
DOTTED
 70
     0
  3
Dotted
 72
    65
 73
     2
 40
1.0
 49
0.0
 74
     0
 49
-1.0
 74
     0
  0
LTYPE
  5
3D
330
5
100
AcDbSymbolTableRecord
100
AcDbLinetypeTableRecord
  2
DOT_CENTER
 70
     0
  3
Dot_Center
 72
    65
 73
     4
 40
14.0
 49
12.0
 74
     0
 49
-1.0
 74
     0
 49
0.0
 74
     0
 49
-1.0
 74
     0
  0
LTYPE
  5
3E
330
5
100
AcDbSymbolTableRecord
100
AcDbLinetypeTableRecord
  2
LONG_DASHED
 70
     0
  3
Long_Dashed
 72
    65
 73
     2
 40
15.0
 49
10.0
 74
     0
 49
-5.0
 74
     0
  0
LTYPE
  5
3F
330
5
100
AcDbSymbolTableRecord
100
AcDbLinetypeTableRecord
  2
DASH_CENTER
 70
     0
  3
Dash_Center
 72
    65
 73
     4
 40
14.0
 49
11.0
 74
     0
 49
-1.0
 74
     0
 49
1.0
 74
     0
 49
-1.0
 74
     0
  0
LTYPE
  5
40
330
5
100
AcDbSymbolTableRecord
100
AcDbLinetypeTableRecord
  2
PHANTOM
 70
     0
  3
Phantom
 72
    65
 73
     6
 40
13.0
 49
10.0
 74
     0
 49
-1.0
 74
     0
 49
0.0
 74
     0
 49
-1.0
 74
     0
 49
0.0
 74
     0
 49
-1.0
 74
     0
  0
LTYPE
  5
41
330
5
100
AcDbSymbolTableRecord
100
AcDbLinetypeTableRecord
  2
CENTER_DASH_DASH
 70
     0
  3
Center_Dash_Dash
 72
    65
 73
     6
 40
14.0
 49
9.0
 74
     0
 49
-1.0
 74
     0
 49
1.0
 74
     0
 49
-1.0
 74
     0
 49
1.0
 74
     0
 49
-1.0
 74
     0
  0
LTYPE
  5
42
330
5
100
AcDbSymbolTableRecord
100
AcDbLinetypeTableRecord
  2
CENTERX2
 70
     0
  3
CENTERX2
 72
    65
 73
     4
 40
22.0
 49
13.0
 74
     0
 49
-3.0
 74
     0
 49
3.0
 74
     0
 49
-3.0
 74
     0
  0
ENDTAB
  0
TABLE
  2
LAYER
  5
2
330
0
100
AcDbSymbolTable
 70
     2
  0
LAYER
  5
10
330
2
100
AcDbSymbolTableRecord
100
AcDbLayerTableRecord
  2
0
 70
     0
 62
     7
  6
Continuous
370
    -3
390
F
  0
LAYER
  5
43
330
2
100
AcDbSymbolTableRecord
100
AcDbLayerTableRecord
  2
1
 70
     0
 62
     7
  6
Continuous
370
    -3
390
F
  0
ENDTAB
  0
TABLE
  2
STYLE
  5
3
330
0
100
AcDbSymbolTable
 70
     2
  0
STYLE
  5
11
330
3
100
AcDbSymbolTableRecord
100
AcDbTextStyleTableRecord
  2
Standard
 70
     0
 40
0.0
 41
1.0
 50
0.0
 71
     0
 42
0.2
  3
txt
  4

  0
STYLE
  5
25A
330
3
100
AcDbSymbolTableRecord
100
AcDbTextStyleTableRecord
  2
CONVERTER_11
 70
     0
 40
0.0
 41
0.9
 50
0.0
 71
     0
 42
0.2
  3
txt.shx
  4

  0
ENDTAB
  0
TABLE
  2
VIEW
  5
6
330
0
100
AcDbSymbolTable
 70
     0
  0
ENDTAB
  0
TABLE
  2
UCS
  5
7
330
0
100
AcDbSymbolTable
 70
     0
  0
ENDTAB
  0
TABLE
  2
APPID
  5
9
330
0
100
AcDbSymbolTable
 70
     1
  0
APPID
  5
12
330
9
100
AcDbSymbolTableRecord
100
AcDbRegAppTableRecord
  2
ACAD
 70
     0
  0
ENDTAB
  0
TABLE
  2
DIMSTYLE
  5
A
330
0
100
AcDbSymbolTable
 70
     6
100
AcDbDimStyleTable
  0
DIMSTYLE
105
27
330
A
100
AcDbSymbolTableRecord
100
AcDbDimStyleTableRecord
  2
Standard
 70
     0
340
11
  0
DIMSTYLE
105
25E
102
{ACAD_REACTORS
330
25F
102
}
330
A
100
AcDbSymbolTableRecord
100
AcDbDimStyleTableRecord
  2
ME10_DIM_10
 70
     0
  3
Ø<>
 41
10.0
 42
0.0
 44
2.0
 73
     0
 74
     0
 77
     1
 78
     8
140
10.0
147
2.0
172
     1
173
     1
176
     4
177
     4
178
     1
271
     2
340
25A
  0
DIMSTYLE
105
269
102
{ACAD_REACTORS
330
26A
102
}
330
A
100
AcDbSymbolTableRecord
100
AcDbDimStyleTableRecord
  2
ME10_DIM_11
 70
     0
  3
DN<>
 41
10.0
 42
0.0
 44
2.0
 73
     0
 74
     0
 77
     1
 78
     8
140
10.0
147
2.0
172
     1
173
     1
176
     4
177
     4
178
     1
271
     2
340
25A
  0
DIMSTYLE
105
274
102
{ACAD_REACTORS
330
275
102
}
330
A
100
AcDbSymbolTableRecord
100
AcDbDimStyleTableRecord
  2
ME10_DIM_12
 70
     0
  3
Ø<>
 41
10.0
 42
0.0
 44
2.0
 73
     0
 74
     0
 77
     1
 78
     8
140
10.0
147
2.0
172
     1
173
     1
176
     4
177
     4
178
     1
271
     0
340
25A
  0
DIMSTYLE
105
27F
102
{ACAD_REACTORS
330
280
102
}
330
A
100
AcDbSymbolTableRecord
100
AcDbDimStyleTableRecord
  2
ME10_DIM_13
 70
     0
 41
10.0
 42
0.0
 44
2.0
 73
     0
 74
     0
 77
     1
 78
     8
140
10.0
147
2.0
172
     1
173
     1
176
     4
177
     4
178
     1
271
     2
340
25A
  0
DIMSTYLE
105
28A
102
{ACAD_REACTORS
330
28B
102
}
330
A
100
AcDbSymbolTableRecord
100
AcDbDimStyleTableRecord
  2
ME10_DIM_14
 70
     0
 41
10.0
 42
0.0
 44
2.0
 73
     0
 74
     0
 77
     1
 78
     8
140
10.0
147
2.0
172
     1
173
     1
176
     4
177
     4
178
     1
271
     2
340
25A
  0
ENDTAB
  0
TABLE
  2
BLOCK_RECORD
  5
1
330
0
100
AcDbSymbolTable
 70
     8
  0
BLOCK_RECORD
  5
1F
330
1
100
AcDbSymbolTableRecord
100
AcDbBlockTableRecord
  2
*Model_Space
340
22
  0
BLOCK_RECORD
  5
1B
330
1
100
AcDbSymbolTableRecord
100
AcDbBlockTableRecord
  2
*Paper_Space
340
1E
  0
BLOCK_RECORD
  5
23
330
1
100
AcDbSymbolTableRecord
100
AcDbBlockTableRecord
  2
*Paper_Space0
340
26
  0
BLOCK_RECORD
  5
44
330
1
100
AcDbSymbolTableRecord
100
AcDbBlockTableRecord
  2
HL62_1P_1
340
0
102
{BLKREFS
331
6A
102
}
  0
BLOCK_RECORD
  5
47
330
1
100
AcDbSymbolTableRecord
100
AcDbBlockTableRecord
  2
HL_62_1P_1_DN110_Dachablauf
340
0
102
{BLKREFS
331
6D
102
}
  0
BLOCK_RECORD
  5
254
330
1
100
AcDbSymbolTableRecord
100
AcDbBlockTableRecord
  2
*D3
340
0
  0
BLOCK_RECORD
  5
260
330
1
100
AcDbSymbolTableRecord
100
AcDbBlockTableRecord
  2
*D4
340
0
  0
BLOCK_RECORD
  5
26B
330
1
100
AcDbSymbolTableRecord
100
AcDbBlockTableRecord
  2
*D5
340
0
  0
BLOCK_RECORD
  5
276
330
1
100
AcDbSymbolTableRecord
100
AcDbBlockTableRecord
  2
*D6
340
0
  0
BLOCK_RECORD
  5
281
330
1
100
AcDbSymbolTableRecord
100
AcDbBlockTableRecord
  2
*D7
340
0
  0
ENDTAB
  0
ENDSEC
  0
SECTION
  2
BLOCKS
  0
BLOCK
  5
20
330
1F
100
AcDbEntity
  8
0
100
AcDbBlockBegin
  2
*Model_Space
 70
     0
 10
0.0
 20
0.0
 30
0.0
  3
*Model_Space
  1

  0
ENDBLK
  5
21
330
1F
100
AcDbEntity
  8
0
100
AcDbBlockEnd
  0
BLOCK
  5
1C
330
1B
100
AcDbEntity
 67
     1
  8
0
100
AcDbBlockBegin
  2
*Paper_Space
 70
     0
 10
0.0
 20
0.0
 30
0.0
  3
*Paper_Space
  1

  0
ENDBLK
  5
1D
330
1B
100
AcDbEntity
 67
     1
  8
0
100
AcDbBlockEnd
  0
BLOCK
  5
24
330
23
100
AcDbEntity
  8
0
100
AcDbBlockBegin
  2
*Paper_Space0
 70
     0
 10
0.0
 20
0.0
 30
0.0
  3
*Paper_Space0
  1

  0
ENDBLK
  5
25
330
23
100
AcDbEntity
  8
0
100
AcDbBlockEnd
  0
BLOCK
  5
45
330
44
100
AcDbEntity
  8
0
100
AcDbBlockBegin
  2
HL62_1P_1
 70
     0
 10
446.359375750797
 20
74.96876680469379
 30
0.0
  3
HL62_1P_1
  1

  0
POINT
  5
6E
330
44
100
AcDbEntity
  8
0
 62
     7
100
AcDbPoint
 10
423.159692677695
 20
224.9846341289556
 30
0.0
  0
POINT
  5
6F
330
44
100
AcDbEntity
  8
0
 62
     7
100
AcDbPoint
 10
391.858277578995
 20
149.9846281289556
 30
0.0
  0
POINT
  5
70
330
44
100
AcDbEntity
  8
0
 62
     7
100
AcDbPoint
 10
291.608274581495
 20
146.4846980156556
 30
0.0
  0
POINT
  5
71
330
44
100
AcDbEntity
  8
0
 62
     7
100
AcDbPoint
 10
651.608274581495
 20
146.4846980156556
 30
0.0
  0
POINT
  5
72
330
44
100
AcDbEntity
  8
0
 62
     7
100
AcDbPoint
 10
416.608274581495
 20
-5.01529198434437
 30
0.0
  0
POINT
  5
73
330
44
100
AcDbEntity
  8
0
 62
     7
100
AcDbPoint
 10
526.608274581495
 20
-5.01529198434437
 30
0.0
  0
POINT
  5
74
330
44
100
AcDbEntity
  8
0
 62
     7
100
AcDbPoint
 10
309.608274581495
 20
149.9846281289556
 30
0.0
  0
POINT
  5
75
330
44
100
AcDbEntity
  8
0
 62
     7
100
AcDbPoint
 10
417.948020543595
 20
-10.01529198434437
 30
0.0
  0
POINT
  5
76
330
44
100
AcDbEntity
  8
0
 62
     7
100
AcDbPoint
 10
391.508274581495
 20
63.98471001565559
 30
0.0
  0
POINT
  5
77
330
44
100
AcDbEntity
  8
0
 62
     7
100
AcDbPoint
 10
551.7082745814951
 20
63.98471001565559
 30
0.0
  0
LWPOLYLINE
  5
78
330
44
100
AcDbEntity
  8
0
  6
Continuous
 62
     7
100
AcDbPolyline
 90
        2
 70
     0
 43
0.15
 10
406.901703156995
 20
56.48470979105559
 10
406.901703156995
 20
58.9847102008556
  0
LWPOLYLINE
  5
79
330
44
100
AcDbEntity
  8
0
  6
Continuous
 62
     7
100
AcDbPolyline
 90
        2
 70
     0
 43
0.15
 10
396.301702537195
 20
54.7000284485556
 10
396.301702537195
 20
33.98470982835562
  0
LWPOLYLINE
  5
7A
330
44
100
AcDbEntity
  8
0
  6
Continuous
 62
     7
100
AcDbPolyline
 90
        2
 70
     0
 43
0.15
 10
404.801704861695
 20
33.98470982835562
 10
404.801704861695
 20
51.48470990285563
  0
LWPOLYLINE
  5
7B
330
44
100
AcDbEntity
  8
0
  6
Continuous
 62
     7
100
AcDbPolyline
 90
        2
 70
     0
 43
0.15
 10
397.551701345095
 20
80.48470813705563
 10
397.551701345095
 20
57.03361082745562
  0
LWPOLYLINE
  5
7C
330
44
100
AcDbEntity
  8
0
  6
Continuous
 62
     7
100
AcDbPolyline
 90
        2
 70
     0
 43
0.15
 10
397.551701345095
 20
54.2535710326556
 10
397.551701345095
 20
-119.5152911179444
  0
LWPOLYLINE
  5
7D
330
44
100
AcDbEntity
  8
0
  6
Continuous
 62
     7
100
AcDbPolyline
 90
        2
 70
     0
 43
0.15
 10
403.551706053795
 20
-119.5152911179444
 10
403.551706053795
 20
51.48470990285563
  0
LWPOLYLINE
  5
7E
330
44
100
AcDbEntity
  8
0
  6
Continuous
 62
     7
100
AcDbPolyline
 90
        2
 70
     0
 43
0.15
 10
403.551706053795
 20
56.48470979105559
 10
403.551706053795
 20
80.48470813705563
  0
LWPOLYLINE
  5
7F
330
44
100
AcDbEntity
  8
0
  6
Continuous
 62
     7
100
AcDbPolyline
 90
        2
 70
     0
 43
0.15
 10
406.825371958795
 20
56.48470979105559
 10
406.825371958795
 20
58.9847102008556
  0
LWPOLYLINE
  5
80
330
44
100
AcDbEntity
  8
0
  6
Continuous
 62
     7
100
AcDbPolyline
 90
        2
 70
     0
 43
0.15
 10
394.278035440095
 20
58.9847102008556
 10
394.278035440095
 20
56.48470979105559
  0
LWPOLYLINE
  5
81
330
44
100
AcDbEntity
  8
0
  6
Continuous
 62
     7
100
AcDbPolyline
 90
        2
 70
     0
 43
0.15
 10
406.825371958795
 20
58.9847102008556
 10
406.901703156995
 20
58.9847102008556
  0
LWPOLYLINE
  5
82
330
44
100
AcDbEntity
  8
0
  6
Continuous
 62
     7
100
AcDbPolyline
 90
        2
 70
     0
 43
0.15
 10
404.686787106595
 20
33.98470982835562
 10
404.801704861695
 20
33.98470982835562
  0
LWPOLYLINE
  5
83
330
44
100
AcDbEntity
  8
0
  6
Continuous
 62
     7
100
AcDbPolyline
 90
        2
 70
     0
 43
0.15
 10
396.301702537195
 20
33.98470982835562
 10
396.416620292295
 20
33.98470982835562
  0
LWPOLYLINE
  5
84
330
44
100
AcDbEntity
  8
0
  6
Continuous
 62
     7
100
AcDbPolyline
 90
        2
 70
     0
 43
0.15
 10
404.686787106595
 20
33.98470982835562
 10
404.686787106595
 20
56.48470979105559
  0
LWPOLYLINE
  5
85
330
44
100
AcDbEntity
  8
0
  6
Continuous
 62
     7
100
AcDbPolyline
 90
        2
 70
     0
 43
0.15
 10
396.416620292295
 20
56.48470979105559
 10
396.416620292295
 20
33.98470982835562
  0
LWPOLYLINE
  5
86
330
44
100
AcDbEntity
  8
0
  6
Continuous
 62
     7
100
AcDbPolyline
 90
        2
 70
     0
 43
0.15
 10
403.9632910271951
 20
58.9847102008556
 10
403.9632910271951
 20
33.98470982835562
  0
LWPOLYLINE
  5
87
330
44
100
AcDbEntity
  8
0
  6
Continuous
 62
     7
100
AcDbPolyline
 90
        2
 70
     0
 43
0.15
 10
397.140116371695
 20
33.98470982835562
 10
397.140116371695
 20
58.9847102008556
  0
LWPOLYLINE
  5
88
330
44
100
AcDbEntity
  8
0
  6
Continuous
 62
     7
100
AcDbPolyline
 90
        2
 70
     0
 43
0.15
 10
403.9632910271951
 20
33.98470982835562
 10
403.551706053795
 20
33.98470982835562
  0
LWPOLYLINE
  5
89
330
44
100
AcDbEntity
  8
0
  6
Continuous
 62
     7
100
AcDbPolyline
 90
        2
 70
     0
 43
0.15
 10
397.551701345095
 20
33.98470982835562
 10
397.140116371695
 20
33.98470982835562
  0
LWPOLYLINE
  5
8A
330
44
100
AcDbEntity
  8
0
  6
Continuous
 62
     7
100
AcDbPolyline
 90
        2
 70
     0
 43
0.15
 10
403.9632910271951
 20
58.9847102008556
 10
403.551706053795
 20
58.9847102008556
  0
LWPOLYLINE
  5
8B
330
44
100
AcDbEntity
  8
0
  6
Continuous
 62
     7
100
AcDbPolyline
 90
        2
 70
     0
 43
0.15
 10
397.551701345095
 20
58.9847102008556
 10
397.140116371695
 20
58.9847102008556
  0
LWPOLYLINE
  5
8C
330
44
100
AcDbEntity
  8
0
  6
Continuous
 62
     7
100
AcDbPolyline
 90
        2
 70
     0
 43
0.15
 10
396.416620292295
 20
33.98470982835562
 10
397.140116371695
 20
33.98470982835562
  0
LWPOLYLINE
  5
8D
330
44
100
AcDbEntity
  8
0
  6
Continuous
 62
     7
100
AcDbPolyline
 90
        2
 70
     0
 43
0.15
 10
397.140116371695
 20
58.9847102008556
 10
394.278035440095
 20
58.9847102008556
  0
LWPOLYLINE
  5
8E
330
44
100
AcDbEntity
  8
0
  6
Continuous
 62
     7
100
AcDbPolyline
 90
        2
 70
     0
 43
0.15
 10
394.278035440095
 20
56.48470979105559
 10
396.416620292295
 20
56.48470979105559
  0
LWPOLYLINE
  5
8F
330
44
100
AcDbEntity
  8
0
  6
Continuous
 62
     7
100
AcDbPolyline
 90
        2
 70
     0
 43
0.15
 10
403.9632910271951
 20
33.98470982835562
 10
404.686787106595
 20
33.98470982835562
  0
LWPOLYLINE
  5
90
330
44
100
AcDbEntity
  8
0
  6
Continuous
 62
     7
100
AcDbPolyline
 90
        2
 70
     0
 43
0.15
 10
406.825371958795
 20
58.9847102008556
 10
403.9632910271951
 20
58.9847102008556
  0
LWPOLYLINE
  5
91
330
44
100
AcDbEntity
  8
0
  6
Continuous
 62
     7
100
AcDbPolyline
 90
        2
 70
     0
 43
0.15
 10
404.686787106595
 20
56.48470979105559
 10
406.825371958795
 20
56.48470979105559
  0
LWPOLYLINE
  5
92
330
44
100
AcDbEntity
  8
0
  6
Continuous
 62
     7
100
AcDbPolyline
 90
        2
 70
     0
 43
0.15
 10
546.608277537395
 20
82.4847084648556
 10
546.608277537395
 20
90.48470977615563
  0
LWPOLYLINE
  5
93
330
44
100
AcDbEntity
  8
0
  6
Continuous
 62
     7
100
AcDbPolyline
 90
        2
 70
     0
 43
0.15
 10
396.608271576995
 20
90.48470977615563
 10
396.608271576995
 20
82.4847084648556
  0
LWPOLYLINE
  5
94
330
44
100
AcDbEntity
  8
0
  6
Continuous
 62
     7
100
AcDbPolyline
 90
        2
 70
     0
 43
0.15
 10
540.608272828695
 20
80.48470813705563
 10
538.6082762260951
 20
80.48470813705563
  0
LWPOLYLINE
  5
95
330
44
100
AcDbEntity
  8
0
  6
Continuous
 62
     7
100
AcDbPolyline
 90
        2
 70
     0
 43
0.15
 10
404.608272888295
 20
80.48470813705563
 10
403.551706053795
 20
80.48470813705563
  0
LWPOLYLINE
  5
96
330
44
100
AcDbEntity
  8
0
  6
Continuous
 62
     7
100
AcDbPolyline
 90
        2
 70
     0
 43
0.15
 10
540.608272828695
 20
92.48470637865563
 10
538.6082762260951
 20
92.48470637865563
  0
LWPOLYLINE
  5
97
330
44
100
AcDbEntity
  8
0
  6
Continuous
 62
     7
100
AcDbPolyline
 90
        2
 70
     0
 43
0.15
 10
404.608272888295
 20
92.48470637865563
 10
402.608276285695
 20
92.48470637865563
  0
LWPOLYLINE
  5
98
330
44
100
AcDbEntity
  8
0
  6
Continuous
 62
     7
100
AcDbPolyline
 90
        2
 70
     0
 43
0.15
 10
538.6082762260951
 20
90.48470977615563
 10
538.6082762260951
 20
82.4847084648556
  0
LWPOLYLINE
  5
99
330
44
100
AcDbEntity
  8
0
  6
Continuous
 62
     7
100
AcDbPolyline
 90
        2
 70
     0
 43
0.15
 10
404.608272888295
 20
82.4847084648556
 10
404.608272888295
 20
90.48470977615563
  0
LWPOLYLINE
  5
9A
330
44
100
AcDbEntity
  8
0
  6
Continuous
 62
     7
100
AcDbPolyline
 90
        2
 70
     0
 43
0.15
 10
402.608276285695
 20
80.48470813705563
 10
403.386563934895
 20
80.48470813705563
  0
LWPOLYLINE
  5
9B
330
44
100
AcDbEntity
  8
0
  6
Continuous
 62
     7
100
AcDbPolyline
 90
        2
 70
     0
 43
0.15
 10
403.386563934895
 20
80.48470813705563
 10
403.386563934895
 20
-119.5152911179444
  0
LWPOLYLINE
  5
9C
330
44
100
AcDbEntity
  8
0
  6
Continuous
 62
     7
100
AcDbPolyline
 90
        2
 70
     0
 43
0.15
 10
397.716843463995
 20
-119.5152911179444
 10
403.386563934895
 20
-119.5152911179444
  0
LWPOLYLINE
  5
9D
330
44
100
AcDbEntity
  8
0
  6
Continuous
 62
     7
100
AcDbPolyline
 90
        2
 70
     0
 43
0.15
 10
397.716843463995
 20
-119.5152911179444
 10
397.716843463995
 20
80.48470813705563
  0
LWPOLYLINE
  5
9E
330
44
100
AcDbEntity
  8
0
  6
Continuous
 62
     7
100
AcDbPolyline
 90
        2
 70
     0
 43
0.15
 10
397.716843463995
 20
80.48470813705563
 10
398.608275630095
 20
80.48470813705563
  0
LWPOLYLINE
  5
9F
330
44
100
AcDbEntity
  8
0
  6
Continuous
 62
     7
100
AcDbPolyline
 90
        2
 70
     0
 43
0.15
 10
402.608276285695
 20
92.48470637865563
 10
398.608275630095
 20
92.48470637865563
  0
LWPOLYLINE
  5
A0
330
44
100
AcDbEntity
  8
0
  6
Continuous
 62
     7
100
AcDbPolyline
 90
        2
 70
     0
 43
0.15
 10
540.608272828695
 20
80.48470813705563
 10
544.6082734842951
 20
80.48470813705563
  0
LWPOLYLINE
  5
A1
330
44
100
AcDbEntity
  8
0
  6
Continuous
 62
     7
100
AcDbPolyline
 90
        2
 70
     0
 43
0.15
 10
544.6082734842951
 20
92.48470637865563
 10
540.608272828695
 20
92.48470637865563
  0
LWPOLYLINE
  5
A2
330
44
100
AcDbEntity
  8
0
  6
Continuous
 62
     7
100
AcDbPolyline
 90
        2
 70
     0
 43
0.15
 10
403.551706053795
 20
80.48470813705563
 10
403.386563934895
 20
80.48470813705563
  0
LWPOLYLINE
  5
A3
330
44
100
AcDbEntity
  8
0
  6
Continuous
 62
     7
100
AcDbPolyline
 90
        2
 70
     0
 43
0.15
 10
397.716843463995
 20
80.48470813705563
 10
397.551701345095
 20
80.48470813705563
  0
LWPOLYLINE
  5
A4
330
44
100
AcDbEntity
  8
0
  6
Continuous
 62
     7
100
AcDbPolyline
 90
        2
 70
     0
 43
0.15
 10
397.716843463995
 20
-119.5152911179444
 10
397.551701345095
 20
-119.5152911179444
  0
LWPOLYLINE
  5
A5
330
44
100
AcDbEntity
  8
0
  6
Continuous
 62
     7
100
AcDbPolyline
 90
        2
 70
     0
 43
0.15
 10
403.551706053795
 20
-119.5152911179444
 10
403.386563934895
 20
-119.5152911179444
  0
LWPOLYLINE
  5
A6
330
44
100
AcDbEntity
  8
0
  6
Continuous
 62
     7
100
AcDbPolyline
 90
        2
 70
     0
 43
0.15
 10
401.108645774895
 20
149.9846291906556
 10
403.451607503495
 20
149.9846291906556
  0
LWPOLYLINE
  5
A7
330
44
100
AcDbEntity
  8
0
  6
Continuous
 62
     7
100
AcDbPolyline
 90
        2
 70
     0
 43
0.15
 10
403.570123889095
 20
149.9846291906556
 10
410.4393282313951
 20
149.9846291906556
  0
LWPOLYLINE
  5
A8
330
44
100
AcDbEntity
  8
0
  6
Continuous
 62
     7
100
AcDbPolyline
 90
        2
 70
     0
 43
0.15
 10
410.668284573195
 20
149.9846291906556
 10
421.595615275695
 20
149.9846291906556
  0
LWPOLYLINE
  5
A9
330
44
100
AcDbEntity
  8
0
  6
Continuous
 62
     7
100
AcDbPolyline
 90
        2
 70
     0
 43
0.15
 10
421.919402607295
 20
149.9846291906556
 10
436.1601815898951
 20
149.9846291906556
  0
LWPOLYLINE
  5
AA
330
44
100
AcDbEntity
  8
0
  6
Continuous
 62
     7
100
AcDbPolyline
 90
        2
 70
     0
 43
0.15
 10
436.556738742195
 20
149.9846291906556
 10
453.140475728095
 20
149.9846291906556
  0
LWPOLYLINE
  5
AB
330
44
100
AcDbEntity
  8
0
  6
Continuous
 62
     7
100
AcDbPolyline
 90
        2
 70
     0
 43
0.15
 10
453.5827794452951
 20
149.9846291906556
 10
471.379321009395
 20
149.9846291906556
  0
LWPOLYLINE
  5
AC
330
44
100
AcDbEntity
  8
0
  6
Continuous
 62
     7
100
AcDbPolyline
 90
        2
 70
     0
 43
0.15
 10
471.837228104995
 20
149.9846291906556
 10
489.633768737795
 20
149.9846291906556
  0
LWPOLYLINE
  5
AD
330
44
100
AcDbEntity
  8
0
  6
Continuous
 62
     7
100
AcDbPolyline
 90
        2
 70
     0
 43
0.15
 10
490.076073386295
 20
149.9846291906556
 10
506.659808509595
 20
149.9846291906556
  0
LWPOLYLINE
  5
AE
330
44
100
AcDbEntity
  8
0
  6
Continuous
 62
     7
100
AcDbPolyline
 90
        2
 70
     0
 43
0.15
 10
507.056367524495
 20
149.9846291906556
 10
521.297146507095
 20
149.9846291906556
  0
LWPOLYLINE
  5
AF
330
44
100
AcDbEntity
  8
0
  6
Continuous
 62
     7
100
AcDbPolyline
 90
        2
 70
     0
 43
0.15
 10
521.620933838695
 20
149.9846291906556
 10
532.548268266495
 20
149.9846291906556
  0
LWPOLYLINE
  5
B0
330
44
100
AcDbEntity
  8
0
  6
Continuous
 62
     7
100
AcDbPolyline
 90
        2
 70
     0
 43
0.15
 10
532.777220882995
 20
149.9846291906556
 10
539.646428950595
 20
149.9846291906556
  0
LWPOLYLINE
  5
B1
330
44
100
AcDbEntity
  8
0
  6
Continuous
 62
     7
100
AcDbPolyline
 90
        2
 70
     0
 43
0.15
 10
539.7649453361951
 20
149.9846291906556
 10
542.107903339495
 20
149.9846291906556
  0
LWPOLYLINE
  5
B2
330
44
100
AcDbEntity
  8
0
  6
Continuous
 62
     7
100
AcDbPolyline
 90
        2
 70
     0
 43
0.15
 10
542.108275868495
 20
149.9846291906556
 10
542.108275868495
 20
142.2846255071556
  0
LWPOLYLINE
  5
B3
330
44
100
AcDbEntity
  8
0
  6
Continuous
 62
     7
100
AcDbPolyline
 90
        2
 70
     0
 43
0.15
 10
401.108273245895
 20
142.2846255071556
 10
542.108275868495
 20
142.2846255071556
  0
LWPOLYLINE
  5
B4
330
44
100
AcDbEntity
  8
0
  6
Continuous
 62
     7
100
AcDbPolyline
 90
        2
 70
     0
 43
0.15
 10
401.108273245895
 20
142.2846255071556
 10
401.108273245895
 20
149.9846291906556
  0
LWPOLYLINE
  5
B5
330
44
100
AcDbEntity
  8
0
  6
Continuous
 62
     7
100
AcDbPolyline
 90
        2
 70
     0
 43
0.15
 10
493.801438190595
 20
225.0846413142556
 10
493.801438190595
 20
224.9846396214556
  0
LWPOLYLINE
  5
B6
330
44
100
AcDbEntity
  8
0
  6
Continuous
 62
     7
100
AcDbPolyline
 90
        2
 70
     0
 43
0.15
 10
493.801439121895
 20
224.9846396214556
 10
493.801438190595
 20
225.0846413142556
  0
LWPOLYLINE
  5
B7
330
44
100
AcDbEntity
  8
0
  6
Continuous
 62
     7
100
AcDbPolyline
 90
        2
 70
     0
 43
0.15
 10
545.508273818095
 20
149.9846291906556
 10
545.508273818095
 20
122.9846266276556
  0
LWPOLYLINE
  5
B8
330
44
100
AcDbEntity
  8
0
  6
Continuous
 62
     7
100
AcDbPolyline
 90
        2
 70
     0
 43
0.15
 10
520.056855805695
 20
210.5693903930556
 10
520.056855805695
 20
210.1846275098556
  0
LWPOLYLINE
  5
B9
330
44
100
AcDbEntity
  8
0
  6
Continuous
 62
     7
100
AcDbPolyline
 90
        2
 70
     0
 43
0.15
 10
520.056855805695
 20
210.1846275098556
 10
423.159693308695
 20
210.1846275098556
  0
LWPOLYLINE
  5
BA
330
44
100
AcDbEntity
  8
0
  6
Continuous
 62
     7
100
AcDbPolyline
 90
        2
 70
     0
 43
0.15
 10
423.159693308695
 20
210.1846275098556
 10
423.159693308695
 20
210.5693903930556
  0
LWPOLYLINE
  5
BB
330
44
100
AcDbEntity
  8
0
  6
Continuous
 62
     7
100
AcDbPolyline
 90
        2
 70
     0
 43
0.15
 10
415.408276893695
 20
189.2725465066556
 10
415.408276893695
 20
184.5847007996556
  0
LWPOLYLINE
  5
BC
330
44
100
AcDbEntity
  8
0
  6
Continuous
 62
     7
100
AcDbPolyline
 90
        2
 70
     0
 43
0.15
 10
415.408276893695
 20
184.5847007996556
 10
413.702034332395
 20
184.5847007996556
  0
LWPOLYLINE
  5
BD
330
44
100
AcDbEntity
  8
0
  6
Continuous
 62
     7
100
AcDbPolyline
 90
        2
 70
     0
 43
0.15
 10
401.108645774895
 20
149.9846291906556
 10
401.108273245895
 20
149.9846291906556
  0
LWPOLYLINE
  5
BE
330
44
100
AcDbEntity
  8
0
  6
Continuous
 62
     7
100
AcDbPolyline
 90
        2
 70
     0
 43
0.15
 10
400.608272232595
 20
142.2846255071556
 10
401.108273245895
 20
142.2846255071556
  0
LWPOLYLINE
  5
BF
330
44
100
AcDbEntity
  8
0
  6
Continuous
 62
     7
100
AcDbPolyline
 90
        2
 70
     0
 43
0.15
 10
400.608272232595
 20
120.9846300251556
 10
400.608272232595
 20
142.2846255071556
  0
LWPOLYLINE
  5
C0
330
44
100
AcDbEntity
  8
0
  6
Continuous
 62
     7
100
AcDbPolyline
 90
        2
 70
     0
 43
0.15
 10
397.208274282995
 20
120.9846300251556
 10
400.608272232595
 20
120.9846300251556
  0
LWPOLYLINE
  5
C1
330
44
100
AcDbEntity
  8
0
  6
Continuous
 62
     7
100
AcDbPolyline
 90
        2
 70
     0
 43
0.15
 10
397.208274282995
 20
122.9846266276556
 10
397.708275296295
 20
122.9846266276556
  0
LWPOLYLINE
  5
C2
330
44
100
AcDbEntity
  8
0
  6
Continuous
 62
     7
100
AcDbPolyline
 90
        2
 70
     0
 43
0.15
 10
397.708275296295
 20
122.9846266276556
 10
397.708275296295
 20
149.9846291906556
  0
LWPOLYLINE
  5
C3
330
44
100
AcDbEntity
  8
0
  6
Continuous
 62
     7
100
AcDbPolyline
 90
        2
 70
     0
 43
0.15
 10
397.708275296295
 20
149.9846291906556
 10
389.215373374995
 20
149.9846291906556
  0
LWPOLYLINE
  5
C4
330
44
100
AcDbEntity
  8
0
  6
Continuous
 62
     7
100
AcDbPolyline
 90
        2
 70
     0
 43
0.15
 10
386.022807039795
 20
151.8089485533556
 10
389.215373374995
 20
149.9846291906556
  0
LWPOLYLINE
  5
C5
330
44
100
AcDbEntity
  8
0
  6
Continuous
 62
     7
100
AcDbPolyline
 90
        2
 70
     0
 43
0.15
 10
409.064301230495
 20
215.1149300105556
 10
386.022807039795
 20
151.8089485533556
  0
LWPOLYLINE
  5
C6
330
44
100
AcDbEntity
  8
0
  6
Continuous
 62
     7
100
AcDbPolyline
 90
        2
 70
     0
 43
0.15
 10
423.159693308695
 20
224.9846396214556
 10
483.410539046395
 20
224.9846396214556
  0
LWPOLYLINE
  5
C7
330
44
100
AcDbEntity
  8
0
  6
Continuous
 62
     7
100
AcDbPolyline
 90
        2
 70
     0
 43
0.15
 10
483.410539046395
 20
224.9846396214556
 10
483.410539046395
 20
225.0846413142556
  0
LWPOLYLINE
  5
C8
330
44
100
AcDbEntity
  8
0
  6
Continuous
 62
     7
100
AcDbPolyline
 90
        2
 70
     0
 43
0.15
 10
484.236593299095
 20
224.9846396214556
 10
484.236593299095
 20
225.0846413142556
  0
LWPOLYLINE
  5
C9
330
44
100
AcDbEntity
  8
0
  6
Continuous
 62
     7
100
AcDbPolyline
 90
        2
 70
     0
 43
0.15
 10
484.236593299095
 20
224.9846396214556
 10
484.814215857995
 20
224.9846396214556
  0
LWPOLYLINE
  5
CA
330
44
100
AcDbEntity
  8
0
  6
Continuous
 62
     7
100
AcDbPolyline
 90
        2
 70
     0
 43
0.15
 10
484.814215857995
 20
225.0846413142556
 10
484.814215857995
 20
224.9846396214556
  0
LWPOLYLINE
  5
CB
330
44
100
AcDbEntity
  8
0
  6
Continuous
 62
     7
100
AcDbPolyline
 90
        2
 70
     0
 43
0.15
 10
485.553317178595
 20
225.0846413142556
 10
485.553317178595
 20
224.9846396214556
  0
LWPOLYLINE
  5
CC
330
44
100
AcDbEntity
  8
0
  6
Continuous
 62
     7
100
AcDbPolyline
 90
        2
 70
     0
 43
0.15
 10
485.553317178595
 20
224.9846396214556
 10
485.932180133195
 20
224.9846396214556
  0
LWPOLYLINE
  5
CD
330
44
100
AcDbEntity
  8
0
  6
Continuous
 62
     7
100
AcDbPolyline
 90
        2
 70
     0
 43
0.15
 10
485.932180133195
 20
224.9846396214556
 10
485.932180133195
 20
225.0846413142556
  0
LWPOLYLINE
  5
CE
330
44
100
AcDbEntity
  8
0
  6
Continuous
 62
     7
100
AcDbPolyline
 90
        2
 70
     0
 43
0.15
 10
488.279913492995
 20
225.0846413142556
 10
485.932180133195
 20
225.0846413142556
  0
LWPOLYLINE
  5
CF
330
44
100
AcDbEntity
  8
0
  6
Continuous
 62
     7
100
AcDbPolyline
 90
        2
 70
     0
 43
0.15
 10
488.279913492995
 20
225.0846413142556
 10
488.279913492995
 20
224.9846396214556
  0
LWPOLYLINE
  5
D0
330
44
100
AcDbEntity
  8
0
  6
Continuous
 62
     7
100
AcDbPolyline
 90
        2
 70
     0
 43
0.15
 10
488.279913492995
 20
224.9846396214556
 10
488.714680016595
 20
224.9846396214556
  0
LWPOLYLINE
  5
D1
330
44
100
AcDbEntity
  8
0
  6
Continuous
 62
     7
100
AcDbPolyline
 90
        2
 70
     0
 43
0.15
 10
488.714680016595
 20
224.9846396214556
 10
488.714680016595
 20
225.0846413142556
  0
LWPOLYLINE
  5
D2
330
44
100
AcDbEntity
  8
0
  6
Continuous
 62
     7
100
AcDbPolyline
 90
        2
 70
     0
 43
0.15
 10
489.497258268795
 20
225.0846413142556
 10
489.497258268795
 20
224.9846396214556
  0
LWPOLYLINE
  5
D3
330
44
100
AcDbEntity
  8
0
  6
Continuous
 62
     7
100
AcDbPolyline
 90
        2
 70
     0
 43
0.15
 10
489.497258268795
 20
224.9846396214556
 10
490.584172249395
 20
224.9846396214556
  0
LWPOLYLINE
  5
D4
330
44
100
AcDbEntity
  8
0
  6
Continuous
 62
     7
100
AcDbPolyline
 90
        2
 70
     0
 43
0.15
 10
490.584172249395
 20
225.0846413142556
 10
491.366751432895
 20
225.0846413142556
  0
LWPOLYLINE
  5
D5
330
44
100
AcDbEntity
  8
0
  6
Continuous
 62
     7
100
AcDbPolyline
 90
        2
 70
     0
 43
0.15
 10
491.366751432895
 20
225.0846413142556
 10
491.366751432895
 20
224.9846396214556
  0
LWPOLYLINE
  5
D6
330
44
100
AcDbEntity
  8
0
  6
Continuous
 62
     7
100
AcDbPolyline
 90
        2
 70
     0
 43
0.15
 10
491.366751432895
 20
224.9846396214556
 10
492.453665413495
 20
224.9846396214556
  0
LWPOLYLINE
  5
D7
330
44
100
AcDbEntity
  8
0
  6
Continuous
 62
     7
100
AcDbPolyline
 90
        2
 70
     0
 43
0.15
 10
493.236242734395
 20
225.0846413142556
 10
492.453665413495
 20
225.0846413142556
  0
LWPOLYLINE
  5
D8
330
44
100
AcDbEntity
  8
0
  6
Continuous
 62
     7
100
AcDbPolyline
 90
        2
 70
     0
 43
0.15
 10
493.236242734395
 20
225.0846413142556
 10
493.236242734395
 20
224.9846396214556
  0
LWPOLYLINE
  5
D9
330
44
100
AcDbEntity
  8
0
  6
Continuous
 62
     7
100
AcDbPolyline
 90
        2
 70
     0
 43
0.15
 10
494.627493374595
 20
225.0846413142556
 10
493.801438190595
 20
225.0846413142556
  0
LWPOLYLINE
  5
DA
330
44
100
AcDbEntity
  8
0
  6
Continuous
 62
     7
100
AcDbPolyline
 90
        2
 70
     0
 43
0.15
 10
495.192688830695
 20
224.9846396214556
 10
495.192688830695
 20
225.0846413142556
  0
LWPOLYLINE
  5
DB
330
44
100
AcDbEntity
  8
0
  6
Continuous
 62
     7
100
AcDbPolyline
 90
        2
 70
     0
 43
0.15
 10
495.975266151595
 20
225.0846413142556
 10
495.192688830695
 20
225.0846413142556
  0
LWPOLYLINE
  5
DC
330
44
100
AcDbEntity
  8
0
  6
Continuous
 62
     7
100
AcDbPolyline
 90
        2
 70
     0
 43
0.15
 10
495.975266151595
 20
225.0846413142556
 10
495.975266151595
 20
224.9846396214556
  0
LWPOLYLINE
  5
DD
330
44
100
AcDbEntity
  8
0
  6
Continuous
 62
     7
100
AcDbPolyline
 90
        2
 70
     0
 43
0.15
 10
495.975266151595
 20
224.9846396214556
 10
496.323079742995
 20
224.9846396214556
  0
LWPOLYLINE
  5
DE
330
44
100
AcDbEntity
  8
0
  6
Continuous
 62
     7
100
AcDbPolyline
 90
        2
 70
     0
 43
0.15
 10
496.323079742995
 20
224.9846396214556
 10
496.323079742995
 20
225.0846413142556
  0
LWPOLYLINE
  5
DF
330
44
100
AcDbEntity
  8
0
  6
Continuous
 62
     7
100
AcDbPolyline
 90
        2
 70
     0
 43
0.15
 10
496.323079742995
 20
225.0846413142556
 10
498.236049838895
 20
225.0846413142556
  0
LWPOLYLINE
  5
E0
330
44
100
AcDbEntity
  8
0
  6
Continuous
 62
     7
100
AcDbPolyline
 90
        2
 70
     0
 43
0.15
 10
498.236049838895
 20
225.0846413142556
 10
498.236049838895
 20
224.9846396214556
  0
LWPOLYLINE
  5
E1
330
44
100
AcDbEntity
  8
0
  6
Continuous
 62
     7
100
AcDbPolyline
 90
        2
 70
     0
 43
0.15
 10
498.236049838895
 20
224.9846396214556
 10
498.714289568895
 20
224.9846396214556
  0
LWPOLYLINE
  5
E2
330
44
100
AcDbEntity
  8
0
  6
Continuous
 62
     7
100
AcDbPolyline
 90
        2
 70
     0
 43
0.15
 10
498.714289568895
 20
224.9846396214556
 10
498.714289568895
 20
225.0846413142556
  0
LWPOLYLINE
  5
E3
330
44
100
AcDbEntity
  8
0
  6
Continuous
 62
     7
100
AcDbPolyline
 90
        2
 70
     0
 43
0.15
 10
501.037356384595
 20
225.0846413142556
 10
501.037356384595
 20
224.9846396214556
  0
LWPOLYLINE
  5
E4
330
44
100
AcDbEntity
  8
0
  6
Continuous
 62
     7
100
AcDbPolyline
 90
        2
 70
     0
 43
0.15
 10
501.037356384595
 20
224.9846396214556
 10
520.056855805695
 20
224.9846396214556
  0
LWPOLYLINE
  5
E5
330
44
100
AcDbEntity
  8
0
  6
Continuous
 62
     7
100
AcDbPolyline
 90
        2
 70
     0
 43
0.15
 10
557.1937420745951
 20
151.8089485533556
 10
534.1522441585951
 20
215.1149300105556
  0
LWPOLYLINE
  5
E6
330
44
100
AcDbEntity
  8
0
  6
Continuous
 62
     7
100
AcDbPolyline
 90
        2
 70
     0
 43
0.15
 10
554.001175739395
 20
149.9846291906556
 10
557.1937420745951
 20
151.8089485533556
  0
LWPOLYLINE
  5
E7
330
44
100
AcDbEntity
  8
0
  6
Continuous
 62
     7
100
AcDbPolyline
 90
        2
 70
     0
 43
0.15
 10
554.001175739395
 20
149.9846291906556
 10
545.508273818095
 20
149.9846291906556
  0
LWPOLYLINE
  5
E8
330
44
100
AcDbEntity
  8
0
  6
Continuous
 62
     7
100
AcDbPolyline
 90
        2
 70
     0
 43
0.15
 10
545.508273818095
 20
122.9846266276556
 10
546.008274831395
 20
122.9846266276556
  0
LWPOLYLINE
  5
E9
330
44
100
AcDbEntity
  8
0
  6
Continuous
 62
     7
100
AcDbPolyline
 90
        2
 70
     0
 43
0.15
 10
542.6082768817951
 20
120.9846300251556
 10
546.008274831395
 20
120.9846300251556
  0
LWPOLYLINE
  5
EA
330
44
100
AcDbEntity
  8
0
  6
Continuous
 62
     7
100
AcDbPolyline
 90
        2
 70
     0
 43
0.15
 10
542.6082768817951
 20
142.2846255071556
 10
542.6082768817951
 20
120.9846300251556
  0
LWPOLYLINE
  5
EB
330
44
100
AcDbEntity
  8
0
  6
Continuous
 62
     7
100
AcDbPolyline
 90
        2
 70
     0
 43
0.15
 10
542.108275868495
 20
142.2846255071556
 10
542.6082768817951
 20
142.2846255071556
  0
LWPOLYLINE
  5
EC
330
44
100
AcDbEntity
  8
0
  6
Continuous
 62
     7
100
AcDbPolyline
 90
        2
 70
     0
 43
0.15
 10
542.108275868495
 20
149.9846291906556
 10
542.107903339495
 20
149.9846291906556
  0
LWPOLYLINE
  5
ED
330
44
100
AcDbEntity
  8
0
  6
Continuous
 62
     7
100
AcDbPolyline
 90
        2
 70
     0
 43
0.15
 10
529.5145110567951
 20
184.5847007996556
 10
527.8082759459951
 20
184.5847007996556
  0
LWPOLYLINE
  5
EE
330
44
100
AcDbEntity
  8
0
  6
Continuous
 62
     7
100
AcDbPolyline
 90
        2
 70
     0
 43
0.15
 10
527.8082759459951
 20
184.5847007996556
 10
527.8082759459951
 20
189.2725465066556
  0
LWPOLYLINE
  5
EF
330
44
100
AcDbEntity
  8
0
  6
Continuous
 62
     7
100
AcDbPolyline
 90
        2
 70
     0
 43
0.15
 10
488.714680016595
 20
225.0846413142556
 10
489.497258268795
 20
225.0846413142556
  0
LWPOLYLINE
  5
F0
330
44
100
AcDbEntity
  8
0
  6
Continuous
 62
     7
100
AcDbPolyline
 90
        2
 70
     0
 43
0.15
 10
501.037356384595
 20
225.0846413142556
 10
498.714289568895
 20
225.0846413142556
  0
LWPOLYLINE
  5
F1
330
44
100
AcDbEntity
  8
0
  6
Continuous
 62
     7
100
AcDbPolyline
 90
        2
 70
     0
 43
0.15
 10
484.236593299095
 20
225.0846413142556
 10
483.410539046395
 20
225.0846413142556
  0
LWPOLYLINE
  5
F2
330
44
100
AcDbEntity
  8
0
  6
Continuous
 62
     7
100
AcDbPolyline
 90
        2
 70
     0
 43
0.15
 10
485.553317178595
 20
225.0846413142556
 10
484.814215857995
 20
225.0846413142556
  0
LWPOLYLINE
  5
F3
330
44
100
AcDbEntity
  8
0
  6
Continuous
 62
     7
100
AcDbPolyline
 90
        2
 70
     0
 43
0.15
 10
490.584172249395
 20
224.9846396214556
 10
490.584172249395
 20
225.0846413142556
  0
LWPOLYLINE
  5
F4
330
44
100
AcDbEntity
  8
0
  6
Continuous
 62
     7
100
AcDbPolyline
 90
        2
 70
     0
 43
0.15
 10
413.702034332395
 20
184.5847007996556
 10
401.108645774895
 20
149.9846291906556
  0
LWPOLYLINE
  5
F5
330
44
100
AcDbEntity
  8
0
  6
Continuous
 62
     7
100
AcDbPolyline
 90
        2
 70
     0
 43
0.15
 10
527.8082759459951
 20
189.2725465066556
 10
520.056855805695
 20
210.5693903930556
  0
LWPOLYLINE
  5
F6
330
44
100
AcDbEntity
  8
0
  6
Continuous
 62
     7
100
AcDbPolyline
 90
        2
 70
     0
 43
0.15
 10
542.107903339495
 20
149.9846291906556
 10
529.5145110567951
 20
184.5847007996556
  0
LWPOLYLINE
  5
F7
330
44
100
AcDbEntity
  8
0
  6
Continuous
 62
     7
100
AcDbPolyline
 90
        2
 70
     0
 43
0.15
 10
493.236242734395
 20
224.9846396214556
 10
493.801439121895
 20
224.9846396214556
  0
LWPOLYLINE
  5
F8
330
44
100
AcDbEntity
  8
0
  6
Continuous
 62
     7
100
AcDbPolyline
 90
        2
 70
     0
 43
0.15
 10
494.627493374595
 20
224.9846396214556
 10
495.192688830695
 20
224.9846396214556
  0
LWPOLYLINE
  5
F9
330
44
100
AcDbEntity
  8
0
  6
Continuous
 62
     7
100
AcDbPolyline
 90
        2
 70
     0
 43
0.15
 10
494.627493374595
 20
225.0846413142556
 10
494.627493374595
 20
224.9846396214556
  0
LWPOLYLINE
  5
FA
330
44
100
AcDbEntity
  8
0
  6
Continuous
 62
     7
100
AcDbPolyline
 90
        2
 70
     0
 43
0.15
 10
423.159693308695
 20
210.5693903930556
 10
415.408276893695
 20
189.2725465066556
  0
LWPOLYLINE
  5
FB
330
44
100
AcDbEntity
  8
0
  6
Continuous
 62
     7
100
AcDbPolyline
 90
        2
 70
     0
 43
0.15
 10
492.453665413495
 20
224.9846396214556
 10
492.453665413495
 20
225.0846413142556
  0
LWPOLYLINE
  5
FC
330
44
100
AcDbEntity
  8
0
  6
Continuous
 62
     7
100
AcDbPolyline
 90
        2
 70
     0
 43
0.15
 10
501.062025256995
 20
225.0846413142556
 10
501.062025256995
 20
224.9846396214556
  0
LWPOLYLINE
  5
FD
330
44
100
AcDbEntity
  8
0
  6
Continuous
 62
     7
100
AcDbPolyline
 90
        2
 70
     0
 43
0.15
 10
501.037356384595
 20
225.0846413142556
 10
501.062025256995
 20
225.0846413142556
  0
LWPOLYLINE
  5
FE
330
44
100
AcDbEntity
  8
0
  6
Continuous
 62
     7
100
AcDbPolyline
 90
        2
 70
     0
 43
0.15
 10
541.620851435295
 20
120.9846300251556
 10
542.6082768817951
 20
120.9846300251556
  0
LWPOLYLINE
  5
FF
330
44
100
AcDbEntity
  8
0
  6
Continuous
 62
     7
100
AcDbPolyline
 90
        2
 70
     0
 43
0.15
 10
541.620851435295
 20
120.9846300251556
 10
541.620851435295
 20
141.2846309311556
  0
LWPOLYLINE
  5
100
330
44
100
AcDbEntity
  8
0
  6
Continuous
 62
     7
100
AcDbPolyline
 90
        2
 70
     0
 43
0.15
 10
401.595720030895
 20
141.2846309311556
 10
401.595720030895
 20
120.9846300251556
  0
LWPOLYLINE
  5
101
330
44
100
AcDbEntity
  8
0
  6
Continuous
 62
     7
100
AcDbPolyline
 90
        2
 70
     0
 43
0.15
 10
400.608272232595
 20
120.9846300251556
 10
401.595720030895
 20
120.9846300251556
  0
LWPOLYLINE
  5
102
330
44
100
AcDbEntity
  8
0
  6
Continuous
 62
     7
100
AcDbPolyline
 90
        2
 70
     0
 43
0.15
 10
417.036966361595
 20
189.8914066321556
 10
415.633522846295
 20
189.8914066321556
  0
LWPOLYLINE
  5
103
330
44
100
AcDbEntity
  8
0
  6
Continuous
 62
     7
100
AcDbPolyline
 90
        2
 70
     0
 43
0.15
 10
417.036966361595
 20
189.8914066321556
 10
417.036966361595
 20
189.3048671252556
  0
LWPOLYLINE
  5
104
330
44
100
AcDbEntity
  8
0
  6
Continuous
 62
     7
100
AcDbPolyline
 90
        2
 70
     0
 43
0.15
 10
422.3728374917951
 20
189.8914066321556
 10
417.838455118695
 20
189.8914066321556
  0
LWPOLYLINE
  5
105
330
44
100
AcDbEntity
  8
0
  6
Continuous
 62
     7
100
AcDbPolyline
 90
        2
 70
     0
 43
0.15
 10
422.3728374917951
 20
189.8914066321556
 10
422.3728374917951
 20
189.3048671252556
  0
LWPOLYLINE
  5
106
330
44
100
AcDbEntity
  8
0
  6
Continuous
 62
     7
100
AcDbPolyline
 90
        2
 70
     0
 43
0.15
 10
431.064021714495
 20
189.8914066321556
 10
423.707717039195
 20
189.8914066321556
  0
LWPOLYLINE
  5
107
330
44
100
AcDbEntity
  8
0
  6
Continuous
 62
     7
100
AcDbPolyline
 90
        2
 70
     0
 43
0.15
 10
431.064021714495
 20
189.8914066321556
 10
431.064021714495
 20
189.3048671252556
  0
LWPOLYLINE
  5
108
330
44
100
AcDbEntity
  8
0
  6
Continuous
 62
     7
100
AcDbPolyline
 90
        2
 70
     0
 43
0.15
 10
442.518227674595
 20
189.8914066321556
 10
432.841320462995
 20
189.8914066321556
  0
LWPOLYLINE
  5
109
330
44
100
AcDbEntity
  8
0
  6
Continuous
 62
     7
100
AcDbPolyline
 90
        2
 70
     0
 43
0.15
 10
442.518227674595
 20
189.8914066321556
 10
442.518227674595
 20
189.3048671252556
  0
LWPOLYLINE
  5
10A
330
44
100
AcDbEntity
  8
0
  6
Continuous
 62
     7
100
AcDbPolyline
 90
        2
 70
     0
 43
0.15
 10
455.954874806595
 20
189.8914066321556
 10
444.510088243095
 20
189.8914066321556
  0
LWPOLYLINE
  5
10B
330
44
100
AcDbEntity
  8
0
  6
Continuous
 62
     7
100
AcDbPolyline
 90
        2
 70
     0
 43
0.15
 10
455.954874806595
 20
189.8914066321556
 10
455.954874806595
 20
189.3048671252556
  0
LWPOLYLINE
  5
10C
330
44
100
AcDbEntity
  8
0
  6
Continuous
 62
     7
100
AcDbPolyline
 90
        2
 70
     0
 43
0.15
 10
470.458274648095
 20
189.8914066321556
 10
458.176503830195
 20
189.8914066321556
  0
LWPOLYLINE
  5
10D
330
44
100
AcDbEntity
  8
0
  6
Continuous
 62
     7
100
AcDbPolyline
 90
        2
 70
     0
 43
0.15
 10
485.040044818595
 20
189.8914066321556
 10
472.758274466295
 20
189.8914066321556
  0
LWPOLYLINE
  5
10E
330
44
100
AcDbEntity
  8
0
  6
Continuous
 62
     7
100
AcDbPolyline
 90
        2
 70
     0
 43
0.15
 10
487.261674307795
 20
189.8914066321556
 10
487.261674307795
 20
189.3048671252556
  0
LWPOLYLINE
  5
10F
330
44
100
AcDbEntity
  8
0
  6
Continuous
 62
     7
100
AcDbPolyline
 90
        2
 70
     0
 43
0.15
 10
498.706460871295
 20
189.8914066321556
 10
487.261674307795
 20
189.8914066321556
  0
LWPOLYLINE
  5
110
330
44
100
AcDbEntity
  8
0
  6
Continuous
 62
     7
100
AcDbPolyline
 90
        2
 70
     0
 43
0.15
 10
500.698319577195
 20
189.8914066321556
 10
500.698319577195
 20
189.3048671252556
  0
LWPOLYLINE
  5
111
330
44
100
AcDbEntity
  8
0
  6
Continuous
 62
     7
100
AcDbPolyline
 90
        2
 70
     0
 43
0.15
 10
510.375228651395
 20
189.8914066321556
 10
500.698319577195
 20
189.8914066321556
  0
LWPOLYLINE
  5
112
330
44
100
AcDbEntity
  8
0
  6
Continuous
 62
     7
100
AcDbPolyline
 90
        2
 70
     0
 43
0.15
 10
512.152527399895
 20
189.8914066321556
 10
512.152527399895
 20
189.3048671252556
  0
LWPOLYLINE
  5
113
330
44
100
AcDbEntity
  8
0
  6
Continuous
 62
     7
100
AcDbPolyline
 90
        2
 70
     0
 43
0.15
 10
519.508832075195
 20
189.8914066321556
 10
512.152527399895
 20
189.8914066321556
  0
LWPOLYLINE
  5
114
330
44
100
AcDbEntity
  8
0
  6
Continuous
 62
     7
100
AcDbPolyline
 90
        2
 70
     0
 43
0.15
 10
520.843711622595
 20
189.8914066321556
 10
520.843711622595
 20
189.3048671252556
  0
LWPOLYLINE
  5
115
330
44
100
AcDbEntity
  8
0
  6
Continuous
 62
     7
100
AcDbPolyline
 90
        2
 70
     0
 43
0.15
 10
525.378093995695
 20
189.8914066321556
 10
520.843711622595
 20
189.8914066321556
  0
LWPOLYLINE
  5
116
330
44
100
AcDbEntity
  8
0
  6
Continuous
 62
     7
100
AcDbPolyline
 90
        2
 70
     0
 43
0.15
 10
526.179582752795
 20
189.8914066321556
 10
526.179582752795
 20
189.3048671252556
  0
LWPOLYLINE
  5
117
330
44
100
AcDbEntity
  8
0
  6
Continuous
 62
     7
100
AcDbPolyline
 90
        2
 70
     0
 43
0.15
 10
527.583029993395
 20
189.8914066321556
 10
526.179582752795
 20
189.8914066321556
  0
LWPOLYLINE
  5
118
330
44
100
AcDbEntity
  8
0
  6
Continuous
 62
     7
100
AcDbPolyline
 90
        2
 70
     0
 43
0.15
 10
527.8082759459951
 20
184.5847007996556
 10
415.408276893695
 20
184.5847007996556
  0
LWPOLYLINE
  5
119
330
44
100
AcDbEntity
  8
0
  6
Continuous
 62
     7
100
AcDbPolyline
 90
        2
 70
     0
 43
0.15
 10
484.6837859940951
 20
225.0846413142556
 10
484.6837859940951
 20
224.9846396214556
  0
LWPOLYLINE
  5
11A
330
44
100
AcDbEntity
  8
0
  6
Continuous
 62
     7
100
AcDbPolyline
 90
        2
 70
     0
 43
0.15
 10
484.814215857995
 20
225.0846413142556
 10
484.6837859940951
 20
225.0846413142556
  0
LWPOLYLINE
  5
11B
330
44
100
AcDbEntity
  8
0
  6
Continuous
 62
     7
100
AcDbPolyline
 90
        2
 70
     0
 43
0.15
 10
494.714447238095
 20
225.0846413142556
 10
494.714447238095
 20
224.9846396214556
  0
LWPOLYLINE
  5
11C
330
44
100
AcDbEntity
  8
0
  6
Continuous
 62
     7
100
AcDbPolyline
 90
        2
 70
     0
 43
0.15
 10
494.627493374595
 20
225.0846413142556
 10
494.714447238095
 20
225.0846413142556
  0
LWPOLYLINE
  5
11D
330
44
100
AcDbEntity
  8
0
  6
Continuous
 62
     7
100
AcDbPolyline
 90
        2
 70
     0
 43
0.15
 10
493.714485258395
 20
225.0846413142556
 10
493.714485258395
 20
224.9846396214556
  0
LWPOLYLINE
  5
11E
330
44
100
AcDbEntity
  8
0
  6
Continuous
 62
     7
100
AcDbPolyline
 90
        2
 70
     0
 43
0.15
 10
493.714485258395
 20
225.0846413142556
 10
493.801438190595
 20
225.0846413142556
  0
LWPOLYLINE
  5
11F
330
44
100
AcDbEntity
  8
0
  6
Continuous
 62
     7
100
AcDbPolyline
 90
        2
 70
     0
 43
0.15
 10
493.3231965978951
 20
225.0846413142556
 10
493.3231965978951
 20
224.9846396214556
  0
LWPOLYLINE
  5
120
330
44
100
AcDbEntity
  8
0
  6
Continuous
 62
     7
100
AcDbPolyline
 90
        2
 70
     0
 43
0.15
 10
493.236242734395
 20
225.0846413142556
 10
493.3231965978951
 20
225.0846413142556
  0
LWPOLYLINE
  5
121
330
44
100
AcDbEntity
  8
0
  6
Continuous
 62
     7
100
AcDbPolyline
 90
        2
 70
     0
 43
0.15
 10
495.105734967195
 20
225.0846413142556
 10
495.105734967195
 20
224.9846396214556
  0
LWPOLYLINE
  5
122
330
44
100
AcDbEntity
  8
0
  6
Continuous
 62
     7
100
AcDbPolyline
 90
        2
 70
     0
 43
0.15
 10
495.105734967195
 20
225.0846413142556
 10
495.192688830695
 20
225.0846413142556
  0
LWPOLYLINE
  5
123
330
44
100
AcDbEntity
  8
0
  6
Continuous
 62
     7
100
AcDbPolyline
 90
        2
 70
     0
 43
0.15
 10
484.6837859940951
 20
225.0846413142556
 10
484.236593299095
 20
225.0846413142556
  0
LWPOLYLINE
  5
124
330
44
100
AcDbEntity
  8
0
  6
Continuous
 62
     7
100
AcDbPolyline
 90
        2
 70
     0
 43
0.15
 10
493.3231965978951
 20
225.0846413142556
 10
493.714485258395
 20
225.0846413142556
  0
LWPOLYLINE
  5
125
330
44
100
AcDbEntity
  8
0
  6
Continuous
 62
     7
100
AcDbPolyline
 90
        2
 70
     0
 43
0.15
 10
494.714447238095
 20
225.0846413142556
 10
495.105734967195
 20
225.0846413142556
  0
LWPOLYLINE
  5
126
330
44
100
AcDbEntity
  8
0
  6
Continuous
 62
     7
100
AcDbPolyline
 90
        2
 70
     0
 43
0.15
 10
512.152527399895
 20
189.3048671252556
 10
506.778792419095
 20
210.1846275098556
  0
LWPOLYLINE
  5
127
330
44
100
AcDbEntity
  8
0
  6
Continuous
 62
     7
100
AcDbPolyline
 90
        2
 70
     0
 43
0.15
 10
530.682024486895
 20
149.9846291906556
 10
531.802364565895
 20
150.8900013930556
  0
LWPOLYLINE
  5
128
330
44
100
AcDbEntity
  8
0
  6
Continuous
 62
     7
100
AcDbPolyline
 90
        2
 70
     0
 43
0.15
 10
522.272211440395
 20
149.9846291906556
 10
513.3673408408949
 20
184.5847007996556
  0
LWPOLYLINE
  5
129
330
44
100
AcDbEntity
  8
0
  6
Continuous
 62
     7
100
AcDbPolyline
 90
        2
 70
     0
 43
0.15
 10
412.534528352795
 20
149.9846291906556
 10
411.414184548495
 20
150.8900013930556
  0
LWPOLYLINE
  5
12A
330
44
100
AcDbEntity
  8
0
  6
Continuous
 62
     7
100
AcDbPolyline
 90
        2
 70
     0
 43
0.15
 10
431.064021714495
 20
189.3048671252556
 10
436.437756695395
 20
210.1846275098556
  0
LWPOLYLINE
  5
12B
330
44
100
AcDbEntity
  8
0
  6
Continuous
 62
     7
100
AcDbPolyline
 90
        2
 70
     0
 43
0.15
 10
420.9443376739951
 20
149.9846291906556
 10
429.849208273495
 20
184.5847007996556
  0
LWPOLYLINE
  5
12C
330
44
100
AcDbEntity
  8
0
  6
Continuous
 62
     7
100
AcDbPolyline
 90
        2
 70
     0
 43
0.15
 10
397.708275296295
 20
133.2846296198556
 10
395.5901944418951
 20
133.2846296198556
  0
LWPOLYLINE
  5
12D
330
44
100
AcDbEntity
  8
0
  6
Continuous
 62
     7
100
AcDbPolyline
 90
        2
 70
     0
 43
0.15
 10
395.5901944418951
 20
133.2846296198556
 10
395.5901944418951
 20
149.9846291906556
  0
LWPOLYLINE
  5
12E
330
44
100
AcDbEntity
  8
0
  6
Continuous
 62
     7
100
AcDbPolyline
 90
        2
 70
     0
 43
0.15
 10
417.036966361595
 20
189.3048671252556
 10
424.377628542995
 20
210.1846275098556
  0
LWPOLYLINE
  5
12F
330
44
100
AcDbEntity
  8
0
  6
Continuous
 62
     7
100
AcDbPolyline
 90
        2
 70
     0
 43
0.15
 10
403.213218726695
 20
149.9846291906556
 10
415.377505995795
 20
184.5847007996556
  0
LWPOLYLINE
  5
130
330
44
100
AcDbEntity
  8
0
  6
Continuous
 62
     7
100
AcDbPolyline
 90
        2
 70
     0
 43
0.15
 10
526.179582752795
 20
189.3048671252556
 10
518.838920571395
 20
210.1846275098556
  0
LWPOLYLINE
  5
131
330
44
100
AcDbEntity
  8
0
  6
Continuous
 62
     7
100
AcDbPolyline
 90
        2
 70
     0
 43
0.15
 10
547.626354672495
 20
133.2846296198556
 10
547.626354672495
 20
149.9846291906556
  0
LWPOLYLINE
  5
132
330
44
100
AcDbEntity
  8
0
  6
Continuous
 62
     7
100
AcDbPolyline
 90
        2
 70
     0
 43
0.15
 10
547.626354672495
 20
133.2846296198556
 10
545.508273818095
 20
133.2846296198556
  0
LWPOLYLINE
  5
133
330
44
100
AcDbEntity
  8
0
  6
Continuous
 62
     7
100
AcDbPolyline
 90
        2
 70
     0
 43
0.15
 10
540.003326662395
 20
149.9846291906556
 10
527.839046843895
 20
184.5847007996556
  0
LWPOLYLINE
  5
134
330
44
100
AcDbEntity
  8
0
  6
Continuous
 62
     7
100
AcDbPolyline
 90
        2
 70
     0
 43
0.15
 10
525.5842962642951
 20
189.3048671252556
 10
518.243637808195
 20
210.1846275098556
  0
LWPOLYLINE
  5
135
330
44
100
AcDbEntity
  8
0
  6
Continuous
 62
     7
100
AcDbPolyline
 90
        2
 70
     0
 43
0.15
 10
417.632252850095
 20
189.3048671252556
 10
424.972911306195
 20
210.1846275098556
  0
LWPOLYLINE
  5
136
330
44
100
AcDbEntity
  8
0
  6
Continuous
 62
     7
100
AcDbPolyline
 90
        2
 70
     0
 43
0.15
 10
457.808292411795
 20
141.2846309311556
 10
457.808292411795
 20
133.2846296198556
  0
LWPOLYLINE
  5
137
330
44
100
AcDbEntity
  8
0
  6
Continuous
 62
     7
100
AcDbPolyline
 90
        2
 70
     0
 43
0.15
 10
401.9623332996951
 20
133.2846296198556
 10
457.808292411795
 20
133.2846296198556
  0
LWPOLYLINE
  5
138
330
44
100
AcDbEntity
  8
0
  6
Continuous
 62
     7
100
AcDbPolyline
 90
        2
 70
     0
 43
0.15
 10
401.9623332996951
 20
133.2846296198556
 10
401.9623332996951
 20
141.2846309311556
  0
LWPOLYLINE
  5
139
330
44
100
AcDbEntity
  8
0
  6
Continuous
 62
     7
100
AcDbPolyline
 90
        2
 70
     0
 43
0.15
 10
541.254238166395
 20
141.2846309311556
 10
541.254238166395
 20
133.2846296198556
  0
LWPOLYLINE
  5
13A
330
44
100
AcDbEntity
  8
0
  6
Continuous
 62
     7
100
AcDbPolyline
 90
        2
 70
     0
 43
0.15
 10
485.408371720995
 20
133.2846296198556
 10
541.254238166395
 20
133.2846296198556
  0
LWPOLYLINE
  5
13B
330
44
100
AcDbEntity
  8
0
  6
Continuous
 62
     7
100
AcDbPolyline
 90
        2
 70
     0
 43
0.15
 10
485.408371720995
 20
133.2846296198556
 10
485.408371720995
 20
141.2846309311556
  0
LWPOLYLINE
  5
13C
330
44
100
AcDbEntity
  8
0
  6
Continuous
 62
     7
100
AcDbPolyline
 90
        2
 70
     0
 43
0.15
 10
541.254238166395
 20
133.2846296198556
 10
541.620851435295
 20
133.2846296198556
  0
LWPOLYLINE
  5
13D
330
44
100
AcDbEntity
  8
0
  6
Continuous
 62
     7
100
AcDbPolyline
 90
        2
 70
     0
 43
0.15
 10
401.595720030895
 20
133.2846296198556
 10
401.9623332996951
 20
133.2846296198556
  0
LWPOLYLINE
  5
13E
330
44
100
AcDbEntity
  8
0
  6
Continuous
 62
     7
100
AcDbPolyline
 90
        2
 70
     0
 43
0.15
 10
539.646428950595
 20
149.9846291906556
 10
539.7649453361951
 20
149.9846291906556
  0
LWPOLYLINE
  5
13F
330
44
100
AcDbEntity
  8
0
  6
Continuous
 62
     7
100
AcDbPolyline
 90
        2
 70
     0
 43
0.15
 10
539.408043899195
 20
149.9846291906556
 10
527.2437603552951
 20
184.5847007996556
  0
LWPOLYLINE
  5
140
330
44
100
AcDbEntity
  8
0
  6
Continuous
 62
     7
100
AcDbPolyline
 90
        2
 70
     0
 43
0.15
 10
403.451607503495
 20
149.9846291906556
 10
403.570123889095
 20
149.9846291906556
  0
LWPOLYLINE
  5
141
330
44
100
AcDbEntity
  8
0
  6
Continuous
 62
     7
100
AcDbPolyline
 90
        2
 70
     0
 43
0.15
 10
403.808505215295
 20
149.9846291906556
 10
415.972788759095
 20
184.5847007996556
  0
LWPOLYLINE
  5
142
330
44
100
AcDbEntity
  8
0
  6
Continuous
 62
     7
100
AcDbPolyline
 90
        2
 70
     0
 43
0.15
 10
520.843711622595
 20
189.3048671252556
 10
514.262256153395
 20
210.1846275098556
  0
LWPOLYLINE
  5
143
330
44
100
AcDbEntity
  8
0
  6
Continuous
 62
     7
100
AcDbPolyline
 90
        2
 70
     0
 43
0.15
 10
533.237744994995
 20
149.9846291906556
 10
522.3315478642951
 20
184.5847007996556
  0
LWPOLYLINE
  5
144
330
44
100
AcDbEntity
  8
0
  6
Continuous
 62
     7
100
AcDbPolyline
 90
        2
 70
     0
 43
0.15
 10
422.3728374917951
 20
189.3048671252556
 10
428.954292960995
 20
210.1846275098556
  0
LWPOLYLINE
  5
145
330
44
100
AcDbEntity
  8
0
  6
Continuous
 62
     7
100
AcDbPolyline
 90
        2
 70
     0
 43
0.15
 10
409.978807844695
 20
149.9846291906556
 10
420.885001250095
 20
184.5847007996556
  0
LWPOLYLINE
  5
146
330
44
100
AcDbEntity
  8
0
  6
Continuous
 62
     7
100
AcDbPolyline
 90
        2
 70
     0
 43
0.15
 10
519.693710782095
 20
189.3048671252556
 10
513.112255312995
 20
210.1846275098556
  0
LWPOLYLINE
  5
147
330
44
100
AcDbEntity
  8
0
  6
Continuous
 62
     7
100
AcDbPolyline
 90
        2
 70
     0
 43
0.15
 10
423.522838332295
 20
189.3048671252556
 10
430.104293801395
 20
210.1846275098556
  0
LWPOLYLINE
  5
148
330
44
100
AcDbEntity
  8
0
  6
Continuous
 62
     7
100
AcDbPolyline
 90
        2
 70
     0
 43
0.15
 10
532.548268266495
 20
149.9846291906556
 10
532.777220882995
 20
149.9846291906556
  0
LWPOLYLINE
  5
149
330
44
100
AcDbEntity
  8
0
  6
Continuous
 62
     7
100
AcDbPolyline
 90
        2
 70
     0
 43
0.15
 10
532.087744154495
 20
149.9846291906556
 10
521.1815470238951
 20
184.5847007996556
  0
LWPOLYLINE
  5
14A
330
44
100
AcDbEntity
  8
0
  6
Continuous
 62
     7
100
AcDbPolyline
 90
        2
 70
     0
 43
0.15
 10
410.4393282313951
 20
149.9846291906556
 10
410.668284573195
 20
149.9846291906556
  0
LWPOLYLINE
  5
14B
330
44
100
AcDbEntity
  8
0
  6
Continuous
 62
     7
100
AcDbPolyline
 90
        2
 70
     0
 43
0.15
 10
411.128804959895
 20
149.9846291906556
 10
422.035002090495
 20
184.5847007996556
  0
LWPOLYLINE
  5
14C
330
44
100
AcDbEntity
  8
0
  6
Continuous
 62
     7
100
AcDbPolyline
 90
        2
 70
     0
 43
0.15
 10
510.526181139595
 20
189.3048671252556
 10
505.1524461586951
 20
210.1846275098556
  0
LWPOLYLINE
  5
14D
330
44
100
AcDbEntity
  8
0
  6
Continuous
 62
     7
100
AcDbPolyline
 90
        2
 70
     0
 43
0.15
 10
432.690367974895
 20
189.3048671252556
 10
438.064102955695
 20
210.1846275098556
  0
LWPOLYLINE
  5
14E
330
44
100
AcDbEntity
  8
0
  6
Continuous
 62
     7
100
AcDbPolyline
 90
        2
 70
     0
 43
0.15
 10
500.698319577195
 20
189.3048671252556
 10
496.898514159495
 20
210.1846275098556
  0
LWPOLYLINE
  5
14F
330
44
100
AcDbEntity
  8
0
  6
Continuous
 62
     7
100
AcDbPolyline
 90
        2
 70
     0
 43
0.15
 10
515.396934874895
 20
151.8089485533556
 10
509.432238467495
 20
184.5847007996556
  0
LWPOLYLINE
  5
150
330
44
100
AcDbEntity
  8
0
  6
Continuous
 62
     7
100
AcDbPolyline
 90
        2
 70
     0
 43
0.15
 10
508.466497935895
 20
189.8914066321556
 10
504.773431398495
 20
210.1846275098556
  0
LWPOLYLINE
  5
151
330
44
100
AcDbEntity
  8
0
  6
Continuous
 62
     7
100
AcDbPolyline
 90
        2
 70
     0
 43
0.15
 10
513.800651707295
 20
149.9846291906556
 10
515.396934874895
 20
151.8089485533556
  0
LWPOLYLINE
  5
152
330
44
100
AcDbEntity
  8
0
  6
Continuous
 62
     7
100
AcDbPolyline
 90
        2
 70
     0
 43
0.15
 10
507.854017369995
 20
149.9846291906556
 10
501.557321228595
 20
184.5847007996556
  0
LWPOLYLINE
  5
153
330
44
100
AcDbEntity
  8
0
  6
Continuous
 62
     7
100
AcDbPolyline
 90
        2
 70
     0
 43
0.15
 10
429.415897407095
 20
149.9846291906556
 10
427.819614239495
 20
151.8089485533556
  0
LWPOLYLINE
  5
154
330
44
100
AcDbEntity
  8
0
  6
Continuous
 62
     7
100
AcDbPolyline
 90
        2
 70
     0
 43
0.15
 10
427.819614239495
 20
151.8089485533556
 10
433.7843106468951
 20
184.5847007996556
  0
LWPOLYLINE
  5
155
330
44
100
AcDbEntity
  8
0
  6
Continuous
 62
     7
100
AcDbPolyline
 90
        2
 70
     0
 43
0.15
 10
434.750051178495
 20
189.8914066321556
 10
438.443117715895
 20
210.1846275098556
  0
LWPOLYLINE
  5
156
330
44
100
AcDbEntity
  8
0
  6
Continuous
 62
     7
100
AcDbPolyline
 90
        2
 70
     0
 43
0.15
 10
442.518227674595
 20
189.3048671252556
 10
446.318034954895
 20
210.1846275098556
  0
LWPOLYLINE
  5
157
330
44
100
AcDbEntity
  8
0
  6
Continuous
 62
     7
100
AcDbPolyline
 90
        2
 70
     0
 43
0.15
 10
435.362529881795
 20
149.9846291906556
 10
441.659227885795
 20
184.5847007996556
  0
LWPOLYLINE
  5
158
330
44
100
AcDbEntity
  8
0
  6
Continuous
 62
     7
100
AcDbPolyline
 90
        2
 70
     0
 43
0.15
 10
498.706460871295
 20
189.3048671252556
 10
494.906657316295
 20
210.1846275098556
  0
LWPOLYLINE
  5
159
330
44
100
AcDbEntity
  8
0
  6
Continuous
 62
     7
100
AcDbPolyline
 90
        2
 70
     0
 43
0.15
 10
444.510088243095
 20
189.3048671252556
 10
448.309891798095
 20
210.1846275098556
  0
LWPOLYLINE
  5
15A
330
44
100
AcDbEntity
  8
0
  6
Continuous
 62
     7
100
AcDbPolyline
 90
        2
 70
     0
 43
0.15
 10
521.297146507095
 20
149.9846291906556
 10
521.620933838695
 20
149.9846291906556
  0
LWPOLYLINE
  5
15B
330
44
100
AcDbEntity
  8
0
  6
Continuous
 62
     7
100
AcDbPolyline
 90
        2
 70
     0
 43
0.15
 10
520.645865180095
 20
149.9846291906556
 10
511.740994580595
 20
184.5847007996556
  0
LWPOLYLINE
  5
15C
330
44
100
AcDbEntity
  8
0
  6
Continuous
 62
     7
100
AcDbPolyline
 90
        2
 70
     0
 43
0.15
 10
421.595615275695
 20
149.9846291906556
 10
421.919402607295
 20
149.9846291906556
  0
LWPOLYLINE
  5
15D
330
44
100
AcDbEntity
  8
0
  6
Continuous
 62
     7
100
AcDbPolyline
 90
        2
 70
     0
 43
0.15
 10
422.570683934295
 20
149.9846291906556
 10
431.4755545337951
 20
184.5847007996556
  0
LWPOLYLINE
  5
15E
330
44
100
AcDbEntity
  8
0
  6
Continuous
 62
     7
100
AcDbPolyline
 90
        2
 70
     0
 43
0.15
 10
487.261674307795
 20
189.3048671252556
 10
485.294749901195
 20
210.1846275098556
  0
LWPOLYLINE
  5
15F
330
44
100
AcDbEntity
  8
0
  6
Continuous
 62
     7
100
AcDbPolyline
 90
        2
 70
     0
 43
0.15
 10
494.870237015695
 20
151.8089485533556
 10
491.782682888695
 20
184.5847007996556
  0
LWPOLYLINE
  5
160
330
44
100
AcDbEntity
  8
0
  6
Continuous
 62
     7
100
AcDbPolyline
 90
        2
 70
     0
 43
0.15
 10
491.282778732995
 20
189.8914066321556
 10
489.371106900795
 20
210.1846275098556
  0
LWPOLYLINE
  5
161
330
44
100
AcDbEntity
  8
0
  6
Continuous
 62
     7
100
AcDbPolyline
 90
        2
 70
     0
 43
0.15
 10
494.0439396877951
 20
149.9846291906556
 10
494.870237015695
 20
151.8089485533556
  0
LWPOLYLINE
  5
162
330
44
100
AcDbEntity
  8
0
  6
Continuous
 62
     7
100
AcDbPolyline
 90
        2
 70
     0
 43
0.15
 10
490.965736039495
 20
149.9846291906556
 10
487.706325889095
 20
184.5847007996556
  0
LWPOLYLINE
  5
163
330
44
100
AcDbEntity
  8
0
  6
Continuous
 62
     7
100
AcDbPolyline
 90
        2
 70
     0
 43
0.15
 10
449.1726094265951
 20
149.9846291906556
 10
448.346312098695
 20
151.8089485533556
  0
LWPOLYLINE
  5
164
330
44
100
AcDbEntity
  8
0
  6
Continuous
 62
     7
100
AcDbPolyline
 90
        2
 70
     0
 43
0.15
 10
448.346312098695
 20
151.8089485533556
 10
451.4338662256951
 20
184.5847007996556
  0
LWPOLYLINE
  5
165
330
44
100
AcDbEntity
  8
0
  6
Continuous
 62
     7
100
AcDbPolyline
 90
        2
 70
     0
 43
0.15
 10
451.933770381395
 20
189.8914066321556
 10
453.845442213595
 20
210.1846275098556
  0
LWPOLYLINE
  5
166
330
44
100
AcDbEntity
  8
0
  6
Continuous
 62
     7
100
AcDbPolyline
 90
        2
 70
     0
 43
0.15
 10
455.954874806595
 20
189.3048671252556
 10
457.921798281895
 20
210.1846275098556
  0
LWPOLYLINE
  5
167
330
44
100
AcDbEntity
  8
0
  6
Continuous
 62
     7
100
AcDbPolyline
 90
        2
 70
     0
 43
0.15
 10
452.250813074895
 20
149.9846291906556
 10
455.510222293895
 20
184.5847007996556
  0
LWPOLYLINE
  5
168
330
44
100
AcDbEntity
  8
0
  6
Continuous
 62
     7
100
AcDbPolyline
 90
        2
 70
     0
 43
0.15
 10
485.040044818595
 20
189.3048671252556
 10
483.073120877695
 20
210.1846275098556
  0
LWPOLYLINE
  5
169
330
44
100
AcDbEntity
  8
0
  6
Continuous
 62
     7
100
AcDbPolyline
 90
        2
 70
     0
 43
0.15
 10
458.176503830195
 20
189.3048671252556
 10
460.1434291680951
 20
210.1846275098556
  0
LWPOLYLINE
  5
16A
330
44
100
AcDbEntity
  8
0
  6
Continuous
 62
     7
100
AcDbPolyline
 90
        2
 70
     0
 43
0.15
 10
470.458274648095
 20
189.3048671252556
 10
470.458274648095
 20
210.1846275098556
  0
LWPOLYLINE
  5
16B
330
44
100
AcDbEntity
  8
0
  6
Continuous
 62
     7
100
AcDbPolyline
 90
        2
 70
     0
 43
0.15
 10
472.758274466295
 20
189.3048671252556
 10
472.758274466295
 20
210.1846275098556
  0
LWPOLYLINE
  5
16C
330
44
100
AcDbEntity
  8
0
  6
Continuous
 62
     7
100
AcDbPolyline
 90
        2
 70
     0
 43
0.15
 10
506.659808509595
 20
149.9846291906556
 10
507.056367524495
 20
149.9846291906556
  0
LWPOLYLINE
  5
16D
330
44
100
AcDbEntity
  8
0
  6
Continuous
 62
     7
100
AcDbPolyline
 90
        2
 70
     0
 43
0.15
 10
505.862158664095
 20
149.9846291906556
 10
499.565464385395
 20
184.5847007996556
  0
LWPOLYLINE
  5
16E
330
44
100
AcDbEntity
  8
0
  6
Continuous
 62
     7
100
AcDbPolyline
 90
        2
 70
     0
 43
0.15
 10
436.1601815898951
 20
149.9846291906556
 10
436.556738742195
 20
149.9846291906556
  0
LWPOLYLINE
  5
16F
330
44
100
AcDbEntity
  8
0
  6
Continuous
 62
     7
100
AcDbPolyline
 90
        2
 70
     0
 43
0.15
 10
437.354390450295
 20
149.9846291906556
 10
443.651084728995
 20
184.5847007996556
  0
LWPOLYLINE
  5
170
330
44
100
AcDbEntity
  8
0
  6
Continuous
 62
     7
100
AcDbPolyline
 90
        2
 70
     0
 43
0.15
 10
489.633768737795
 20
149.9846291906556
 10
490.076073386295
 20
149.9846291906556
  0
LWPOLYLINE
  5
171
330
44
100
AcDbEntity
  8
0
  6
Continuous
 62
     7
100
AcDbPolyline
 90
        2
 70
     0
 43
0.15
 10
488.7441060845951
 20
149.9846291906556
 10
485.484696865595
 20
184.5847007996556
  0
LWPOLYLINE
  5
172
330
44
100
AcDbEntity
  8
0
  6
Continuous
 62
     7
100
AcDbPolyline
 90
        2
 70
     0
 43
0.15
 10
453.140475728095
 20
149.9846291906556
 10
453.5827794452951
 20
149.9846291906556
  0
LWPOLYLINE
  5
173
330
44
100
AcDbEntity
  8
0
  6
Continuous
 62
     7
100
AcDbPolyline
 90
        2
 70
     0
 43
0.15
 10
454.472442098495
 20
149.9846291906556
 10
457.731853180095
 20
184.5847007996556
  0
LWPOLYLINE
  5
174
330
44
100
AcDbEntity
  8
0
  6
Continuous
 62
     7
100
AcDbPolyline
 90
        2
 70
     0
 43
0.15
 10
471.379321009395
 20
149.9846291906556
 10
471.837228104995
 20
149.9846291906556
  0
LWPOLYLINE
  5
175
330
44
100
AcDbEntity
  8
0
  6
Continuous
 62
     7
100
AcDbPolyline
 90
        2
 70
     0
 43
0.15
 10
470.458274648095
 20
149.9846291906556
 10
470.458274648095
 20
184.5847007996556
  0
LWPOLYLINE
  5
176
330
44
100
AcDbEntity
  8
0
  6
Continuous
 62
     7
100
AcDbPolyline
 90
        2
 70
     0
 43
0.15
 10
472.758274466295
 20
149.9846291906556
 10
472.758274466295
 20
184.5847007996556
  0
LWPOLYLINE
  5
177
330
44
100
AcDbEntity
  8
0
  6
Continuous
 62
     7
100
AcDbPolyline
 90
        2
 70
     0
 43
0.15
 10
483.408371393095
 20
141.2846309311556
 10
483.408371393095
 20
120.9846300251556
  0
LWPOLYLINE
  5
178
330
44
100
AcDbEntity
  8
0
  6
Continuous
 62
     7
100
AcDbPolyline
 90
        2
 70
     0
 43
0.15
 10
459.808292739595
 20
120.9846300251556
 10
483.408371393095
 20
120.9846300251556
  0
LWPOLYLINE
  5
179
330
44
100
AcDbEntity
  8
0
  6
Continuous
 62
     7
100
AcDbPolyline
 90
        2
 70
     0
 43
0.15
 10
459.808292739595
 20
120.9846300251556
 10
459.808292739595
 20
141.2846309311556
  0
LWPOLYLINE
  5
17A
330
44
100
AcDbEntity
  8
0
  6
Continuous
 62
     7
100
AcDbPolyline
 90
        2
 70
     0
 43
0.15
 10
391.6082763452951
 20
63.98471008905563
 10
391.6082763452951
 20
61.9847097612556
  0
LWPOLYLINE
  5
17B
330
44
100
AcDbEntity
  8
0
  6
Continuous
 62
     7
100
AcDbPolyline
 90
        2
 70
     0
 43
0.15
 10
551.608272769095
 20
61.9847097612556
 10
551.608272769095
 20
63.98471008905563
  0
LWPOLYLINE
  5
17C
330
44
100
AcDbEntity
  8
0
  6
Continuous
 62
     7
100
AcDbPolyline
 90
        2
 70
     0
 43
0.15
 10
394.608274974395
 20
67.9847107447556
 10
394.608274974395
 20
63.98471008905563
  0
LWPOLYLINE
  5
17D
330
44
100
AcDbEntity
  8
0
  6
Continuous
 62
     7
100
AcDbPolyline
 90
        2
 70
     0
 43
0.15
 10
548.608274139995
 20
63.98471008905563
 10
548.608274139995
 20
67.9847107447556
  0
LWPOLYLINE
  5
17E
330
44
100
AcDbEntity
  8
0
  6
Continuous
 62
     7
100
AcDbPolyline
 90
        2
 70
     0
 43
0.15
 10
395.336211599895
 20
69.98470920995561
 10
394.608274974395
 20
67.9847107447556
  0
LWPOLYLINE
  5
17F
330
44
100
AcDbEntity
  8
0
  6
Continuous
 62
     7
100
AcDbPolyline
 90
        2
 70
     0
 43
0.15
 10
548.608274139995
 20
67.9847107447556
 10
547.8803375144951
 20
69.98470920995561
  0
LWPOLYLINE
  5
180
330
44
100
AcDbEntity
  8
0
  6
Continuous
 62
     7
100
AcDbPolyline
 90
        2
 70
     0
 43
0.15
 10
396.608271576995
 20
58.9847102008556
 10
396.608271576995
 20
69.98470920995561
  0
LWPOLYLINE
  5
181
330
44
100
AcDbEntity
  8
0
  6
Continuous
 62
     7
100
AcDbPolyline
 90
        2
 70
     0
 43
0.15
 10
546.608277537395
 20
69.98470920995561
 10
546.608277537395
 20
58.9847102008556
  0
LWPOLYLINE
  5
182
330
44
100
AcDbEntity
  8
0
  6
Continuous
 62
     7
100
AcDbPolyline
 90
        2
 70
     0
 43
0.15
 10
396.608271576995
 20
69.98470920995561
 10
397.551701345095
 20
69.98470920995561
  0
LWPOLYLINE
  5
183
330
44
100
AcDbEntity
  8
0
  6
Continuous
 62
     7
100
AcDbPolyline
 90
        2
 70
     0
 43
0.15
 10
403.551706053795
 20
69.98470920995561
 10
404.608272888295
 20
69.98470920995561
  0
LWPOLYLINE
  5
184
330
44
100
AcDbEntity
  8
0
  6
Continuous
 62
     7
100
AcDbPolyline
 90
        2
 70
     0
 43
0.15
 10
538.6082762260951
 20
69.98470920995561
 10
546.608277537395
 20
69.98470920995561
  0
LWPOLYLINE
  5
185
330
44
100
AcDbEntity
  8
0
  6
Continuous
 62
     7
100
AcDbPolyline
 90
        2
 70
     0
 43
0.15
 10
416.108273841995
 20
53.98471031255559
 10
416.108273841995
 20
56.48470979105559
  0
LWPOLYLINE
  5
186
330
44
100
AcDbEntity
  8
0
  6
Continuous
 62
     7
100
AcDbPolyline
 90
        2
 70
     0
 43
0.15
 10
527.108275272495
 20
56.48470979105559
 10
527.108275272495
 20
53.98471031255559
  0
LWPOLYLINE
  5
187
330
44
100
AcDbEntity
  8
0
  6
Continuous
 62
     7
100
AcDbPolyline
 90
        2
 70
     0
 43
0.15
 10
416.108273841995
 20
53.98471031255559
 10
416.608274855195
 20
53.98471031255559
  0
LWPOLYLINE
  5
188
330
44
100
AcDbEntity
  8
0
  6
Continuous
 62
     7
100
AcDbPolyline
 90
        2
 70
     0
 43
0.15
 10
526.608274259195
 20
53.98471031255559
 10
527.108275272495
 20
53.98471031255559
  0
LWPOLYLINE
  5
189
330
44
100
AcDbEntity
  8
0
  6
Continuous
 62
     7
100
AcDbPolyline
 90
        2
 70
     0
 43
0.15
 10
416.108273841995
 20
56.48470979105559
 10
416.608274855195
 20
56.48470979105559
  0
LWPOLYLINE
  5
18A
330
44
100
AcDbEntity
  8
0
  6
Continuous
 62
     7
100
AcDbPolyline
 90
        2
 70
     0
 43
0.15
 10
526.608274259195
 20
56.48470979105559
 10
527.108275272495
 20
56.48470979105559
  0
LWPOLYLINE
  5
18B
330
44
100
AcDbEntity
  8
0
  6
Continuous
 62
     7
100
AcDbPolyline
 90
        2
 70
     0
 43
0.15
 10
542.3582726498951
 20
51.48470990285563
 10
542.3582726498951
 20
53.98471031255559
  0
LWPOLYLINE
  5
18C
330
44
100
AcDbEntity
  8
0
  6
Continuous
 62
     7
100
AcDbPolyline
 90
        2
 70
     0
 43
0.15
 10
542.3582726498951
 20
51.48470990285563
 10
528.358274080395
 20
51.48470990285563
  0
LWPOLYLINE
  5
18D
330
44
100
AcDbEntity
  8
0
  6
Continuous
 62
     7
100
AcDbPolyline
 90
        2
 70
     0
 43
0.15
 10
528.358274080395
 20
53.98471031255559
 10
528.358274080395
 20
51.48470990285563
  0
LWPOLYLINE
  5
18E
330
44
100
AcDbEntity
  8
0
  6
Continuous
 62
     7
100
AcDbPolyline
 90
        2
 70
     0
 43
0.15
 10
527.108275272495
 20
53.98471031255559
 10
528.358274080395
 20
53.98471031255559
  0
LWPOLYLINE
  5
18F
330
44
100
AcDbEntity
  8
0
  6
Continuous
 62
     7
100
AcDbPolyline
 90
        2
 70
     0
 43
0.15
 10
542.3582726498951
 20
53.98471031255559
 10
543.608271457795
 20
53.98471031255559
  0
LWPOLYLINE
  5
190
330
44
100
AcDbEntity
  8
0
  6
Continuous
 62
     7
100
AcDbPolyline
 90
        2
 70
     0
 43
0.15
 10
544.108272470995
 20
56.48470979105559
 10
527.108275272495
 20
56.48470979105559
  0
LWPOLYLINE
  5
191
330
44
100
AcDbEntity
  8
0
  6
Continuous
 62
     7
100
AcDbPolyline
 90
        2
 70
     0
 43
0.15
 10
547.8803375144951
 20
69.98470920995561
 10
546.608277537395
 20
69.98470920995561
  0
LWPOLYLINE
  5
192
330
44
100
AcDbEntity
  8
0
  6
Continuous
 62
     7
100
AcDbPolyline
 90
        2
 70
     0
 43
0.15
 10
551.608272769095
 20
63.98471008905563
 10
548.608274139995
 20
63.98471008905563
  0
LWPOLYLINE
  5
193
330
44
100
AcDbEntity
  8
0
  6
Continuous
 62
     7
100
AcDbPolyline
 90
        2
 70
     0
 43
0.15
 10
414.858275033995
 20
51.48470990285563
 10
400.858276464595
 20
51.48470990285563
  0
LWPOLYLINE
  5
194
330
44
100
AcDbEntity
  8
0
  6
Continuous
 62
     7
100
AcDbPolyline
 90
        2
 70
     0
 43
0.15
 10
400.858276464595
 20
51.48470990285563
 10
400.858276464595
 20
53.98471031255559
  0
LWPOLYLINE
  5
195
330
44
100
AcDbEntity
  8
0
  6
Continuous
 62
     7
100
AcDbPolyline
 90
        2
 70
     0
 43
0.15
 10
414.858275033995
 20
51.48470990285563
 10
414.858275033995
 20
53.98471031255559
  0
LWPOLYLINE
  5
196
330
44
100
AcDbEntity
  8
0
  6
Continuous
 62
     7
100
AcDbPolyline
 90
        2
 70
     0
 43
0.15
 10
414.858275033995
 20
53.98471031255559
 10
416.108273841995
 20
53.98471031255559
  0
LWPOLYLINE
  5
197
330
44
100
AcDbEntity
  8
0
  6
Continuous
 62
     7
100
AcDbPolyline
 90
        2
 70
     0
 43
0.15
 10
399.608277656595
 20
53.98471031255559
 10
400.858276464595
 20
53.98471031255559
  0
LWPOLYLINE
  5
198
330
44
100
AcDbEntity
  8
0
  6
Continuous
 62
     7
100
AcDbPolyline
 90
        2
 70
     0
 43
0.15
 10
416.108273841995
 20
56.48470979105559
 10
399.108276643395
 20
56.48470979105559
  0
LWPOLYLINE
  5
199
330
44
100
AcDbEntity
  8
0
  6
Continuous
 62
     7
100
AcDbPolyline
 90
        2
 70
     0
 43
0.15
 10
396.608271576995
 20
69.98470920995561
 10
395.336211599895
 20
69.98470920995561
  0
LWPOLYLINE
  5
19A
330
44
100
AcDbEntity
  8
0
  6
Continuous
 62
     7
100
AcDbPolyline
 90
        2
 70
     0
 43
0.15
 10
394.608274974395
 20
63.98471008905563
 10
391.6082763452951
 20
63.98471008905563
  0
LWPOLYLINE
  5
19B
330
44
100
AcDbEntity
  8
0
  6
Continuous
 62
     7
100
AcDbPolyline
 90
        2
 70
     0
 43
0.15
 10
548.858270921295
 20
117.1861973769557
 10
547.7035724897951
 20
115.1862007744556
  0
LWPOLYLINE
  5
19C
330
44
100
AcDbEntity
  8
0
  6
Continuous
 62
     7
100
AcDbPolyline
 90
        2
 70
     0
 43
0.15
 10
395.512976624595
 20
115.1862007744556
 10
394.358278193095
 20
117.1861973769557
  0
LWPOLYLINE
  5
19D
330
44
100
AcDbEntity
  8
0
  6
Continuous
 62
     7
100
AcDbPolyline
 90
        2
 70
     0
 43
0.15
 10
394.358278193095
 20
117.1861973769557
 10
394.358278193095
 20
119.6862024433556
  0
LWPOLYLINE
  5
19E
330
44
100
AcDbEntity
  8
0
  6
Continuous
 62
     7
100
AcDbPolyline
 90
        2
 70
     0
 43
0.15
 10
548.858270921295
 20
119.6862024433556
 10
548.858270921295
 20
117.1861973769557
  0
LWPOLYLINE
  5
19F
330
44
100
AcDbEntity
  8
0
  6
Continuous
 62
     7
100
AcDbPolyline
 90
        2
 70
     0
 43
0.15
 10
406.858273722695
 20
117.6861983902556
 10
536.3582753916951
 20
117.6861983902556
  0
LWPOLYLINE
  5
1A0
330
44
100
AcDbEntity
  8
0
  6
Continuous
 62
     7
100
AcDbPolyline
 90
        2
 70
     0
 43
0.15
 10
404.858277120195
 20
119.6862024433556
 10
538.3582757194949
 20
119.6862024433556
  0
LWPOLYLINE
  5
1A1
330
44
100
AcDbEntity
  8
0
  6
Continuous
 62
     7
100
AcDbPolyline
 90
        2
 70
     0
 43
0.15
 10
536.3582753916951
 20
117.1861973769557
 10
536.3582753916951
 20
117.6861983902556
  0
LWPOLYLINE
  5
1A2
330
44
100
AcDbEntity
  8
0
  6
Continuous
 62
     7
100
AcDbPolyline
 90
        2
 70
     0
 43
0.15
 10
547.7035724897951
 20
115.1862007744556
 10
540.858277060595
 20
115.1862007744556
  0
LWPOLYLINE
  5
1A3
330
44
100
AcDbEntity
  8
0
  6
Continuous
 62
     7
100
AcDbPolyline
 90
        2
 70
     0
 43
0.15
 10
538.858273007495
 20
117.1861973769557
 10
536.3582753916951
 20
117.1861973769557
  0
LWPOLYLINE
  5
1A4
330
44
100
AcDbEntity
  8
0
  6
Continuous
 62
     7
100
AcDbPolyline
 90
        2
 70
     0
 43
0.15
 10
538.3582757194949
 20
119.6862024433556
 10
548.858270921295
 20
119.6862024433556
  0
LWPOLYLINE
  5
1A5
330
44
100
AcDbEntity
  8
0
  6
Continuous
 62
     7
100
AcDbPolyline
 90
        2
 70
     0
 43
0.15
 10
406.858273722695
 20
117.6861983902556
 10
406.858273722695
 20
117.1861973769557
  0
LWPOLYLINE
  5
1A6
330
44
100
AcDbEntity
  8
0
  6
Continuous
 62
     7
100
AcDbPolyline
 90
        2
 70
     0
 43
0.15
 10
406.858273722695
 20
117.1861973769557
 10
536.3582753916951
 20
117.1861973769557
  0
LWPOLYLINE
  5
1A7
330
44
100
AcDbEntity
  8
0
  6
Continuous
 62
     7
100
AcDbPolyline
 90
        2
 70
     0
 43
0.15
 10
402.358272053795
 20
115.1862007744556
 10
540.858277060595
 20
115.1862007744556
  0
LWPOLYLINE
  5
1A8
330
44
100
AcDbEntity
  8
0
  6
Continuous
 62
     7
100
AcDbPolyline
 90
        2
 70
     0
 43
0.15
 10
402.358272053795
 20
115.1862007744556
 10
395.512976624595
 20
115.1862007744556
  0
LWPOLYLINE
  5
1A9
330
44
100
AcDbEntity
  8
0
  6
Continuous
 62
     7
100
AcDbPolyline
 90
        2
 70
     0
 43
0.15
 10
406.858273722695
 20
117.1861973769557
 10
404.358276106895
 20
117.1861973769557
  0
LWPOLYLINE
  5
1AA
330
44
100
AcDbEntity
  8
0
  6
Continuous
 62
     7
100
AcDbPolyline
 90
        2
 70
     0
 43
0.15
 10
394.358278193095
 20
119.6862024433556
 10
404.858277120195
 20
119.6862024433556
  0
LWPOLYLINE
  5
1AB
330
44
100
AcDbEntity
  8
0
  6
Continuous
 62
     7
100
AcDbPolyline
 90
        2
 70
     0
 43
0.15
 10
639.608279742795
 20
146.4846966035556
 10
639.608279742795
 20
147.9846251375556
  0
LWPOLYLINE
  5
1AC
330
44
100
AcDbEntity
  8
0
  6
Continuous
 62
     7
100
AcDbPolyline
 90
        2
 70
     0
 43
0.15
 10
641.608268894795
 20
149.9846291906556
 10
639.608279742795
 20
147.9846251375556
  0
LWPOLYLINE
  5
1AD
330
44
100
AcDbEntity
  8
0
  6
Continuous
 62
     7
100
AcDbPolyline
 90
        2
 70
     0
 43
0.15
 10
649.6082702060951
 20
149.9846291906556
 10
641.608268894795
 20
149.9846291906556
  0
LWPOLYLINE
  5
1AE
330
44
100
AcDbEntity
  8
0
  6
Continuous
 62
     7
100
AcDbPolyline
 90
        2
 70
     0
 43
0.15
 10
651.608274259195
 20
146.4846966035556
 10
651.608274259195
 20
147.9846251375556
  0
LWPOLYLINE
  5
1AF
330
44
100
AcDbEntity
  8
0
  6
Continuous
 62
     7
100
AcDbPolyline
 90
        2
 70
     0
 43
0.15
 10
639.608279742795
 20
146.4846966035556
 10
651.608274259195
 20
146.4846966035556
  0
LWPOLYLINE
  5
1B0
330
44
100
AcDbEntity
  8
0
  6
Continuous
 62
     7
100
AcDbPolyline
 90
        2
 70
     0
 43
0.15
 10
635.608271636595
 20
147.9846251375556
 10
635.608271636595
 20
146.4846966035556
  0
LWPOLYLINE
  5
1B1
330
44
100
AcDbEntity
  8
0
  6
Continuous
 62
     7
100
AcDbPolyline
 90
        2
 70
     0
 43
0.15
 10
639.608279742795
 20
147.9846251375556
 10
635.608271636595
 20
147.9846251375556
  0
LWPOLYLINE
  5
1B2
330
44
100
AcDbEntity
  8
0
  6
Continuous
 62
     7
100
AcDbPolyline
 90
        2
 70
     0
 43
0.15
 10
635.608271636595
 20
146.4846966035556
 10
639.608279742795
 20
146.4846966035556
  0
LWPOLYLINE
  5
1B3
330
44
100
AcDbEntity
  8
0
  6
Continuous
 62
     7
100
AcDbPolyline
 90
        2
 70
     0
 43
0.15
 10
301.608280219595
 20
149.9846291906556
 10
293.608278908295
 20
149.9846291906556
  0
LWPOLYLINE
  5
1B4
330
44
100
AcDbEntity
  8
0
  6
Continuous
 62
     7
100
AcDbPolyline
 90
        2
 70
     0
 43
0.15
 10
303.608269371595
 20
147.9846251375556
 10
301.608280219595
 20
149.9846291906556
  0
LWPOLYLINE
  5
1B5
330
44
100
AcDbEntity
  8
0
  6
Continuous
 62
     7
100
AcDbPolyline
 90
        2
 70
     0
 43
0.15
 10
303.608269371595
 20
147.9846251375556
 10
303.608269371595
 20
146.4846966035556
  0
LWPOLYLINE
  5
1B6
330
44
100
AcDbEntity
  8
0
  6
Continuous
 62
     7
100
AcDbPolyline
 90
        2
 70
     0
 43
0.15
 10
291.608274855195
 20
147.9846251375556
 10
291.608274855195
 20
146.4846966035556
  0
LWPOLYLINE
  5
1B7
330
44
100
AcDbEntity
  8
0
  6
Continuous
 62
     7
100
AcDbPolyline
 90
        2
 70
     0
 43
0.15
 10
291.608274855195
 20
146.4846966035556
 10
303.608269371595
 20
146.4846966035556
  0
LWPOLYLINE
  5
1B8
330
44
100
AcDbEntity
  8
0
  6
Continuous
 62
     7
100
AcDbPolyline
 90
        2
 70
     0
 43
0.15
 10
307.608277477795
 20
147.9846251375556
 10
303.608269371595
 20
147.9846251375556
  0
LWPOLYLINE
  5
1B9
330
44
100
AcDbEntity
  8
0
  6
Continuous
 62
     7
100
AcDbPolyline
 90
        2
 70
     0
 43
0.15
 10
307.608277477795
 20
146.4846966035556
 10
307.608277477795
 20
147.9846251375556
  0
LWPOLYLINE
  5
1BA
330
44
100
AcDbEntity
  8
0
  6
Continuous
 62
     7
100
AcDbPolyline
 90
        2
 70
     0
 43
0.15
 10
303.608269371595
 20
146.4846966035556
 10
307.608277477795
 20
146.4846966035556
  0
LWPOLYLINE
  5
1BB
330
44
100
AcDbEntity
  8
0
  6
Continuous
 62
     7
100
AcDbPolyline
 90
        2
 70
     0
 43
0.15
 10
550.358273961195
 20
148.9846346147556
 10
550.358221807095
 20
133.2865369684556
  0
LWPOLYLINE
  5
1BC
330
44
100
AcDbEntity
  8
0
  6
Continuous
 62
     7
100
AcDbPolyline
 90
        2
 70
     0
 43
0.15
 10
550.358221807095
 20
133.2865369684556
 10
547.626354672495
 20
133.2865369684556
  0
LWPOLYLINE
  5
1BD
330
44
100
AcDbEntity
  8
0
  6
Continuous
 62
     7
100
AcDbPolyline
 90
        2
 70
     0
 43
0.15
 10
485.408371720995
 20
133.2865369684556
 10
483.408371393095
 20
133.2865369684556
  0
LWPOLYLINE
  5
1BE
330
44
100
AcDbEntity
  8
0
  6
Continuous
 62
     7
100
AcDbPolyline
 90
        2
 70
     0
 43
0.15
 10
459.808292739595
 20
133.2865369684556
 10
457.808292411795
 20
133.2865369684556
  0
LWPOLYLINE
  5
1BF
330
44
100
AcDbEntity
  8
0
  6
Continuous
 62
     7
100
AcDbPolyline
 90
        2
 70
     0
 43
0.15
 10
395.5901944418951
 20
133.2865369684556
 10
392.858327307295
 20
133.2865369684556
  0
LWPOLYLINE
  5
1C0
330
44
100
AcDbEntity
  8
0
  6
Continuous
 62
     7
100
AcDbPolyline
 90
        2
 70
     0
 43
0.15
 10
392.858327307295
 20
133.2865369684556
 10
392.858275153295
 20
148.9846346147556
  0
LWPOLYLINE
  5
1C1
330
44
100
AcDbEntity
  8
0
  6
Continuous
 62
     7
100
AcDbPolyline
 90
        2
 70
     0
 43
0.15
 10
548.608274139995
 20
119.7847065694556
 10
394.608274974395
 20
119.7847065694556
  0
LWPOLYLINE
  5
1C2
330
44
100
AcDbEntity
  8
0
  6
Continuous
 62
     7
100
AcDbPolyline
 90
        2
 70
     0
 43
0.15
 10
394.608274974395
 20
119.7847065694556
 10
396.108278014295
 20
120.7847085959556
  0
LWPOLYLINE
  5
1C3
330
44
100
AcDbEntity
  8
0
  6
Continuous
 62
     7
100
AcDbPolyline
 90
        2
 70
     0
 43
0.15
 10
547.108271100095
 20
120.7847085959556
 10
396.108278014295
 20
120.7847085959556
  0
LWPOLYLINE
  5
1C4
330
44
100
AcDbEntity
  8
0
  6
Continuous
 62
     7
100
AcDbPolyline
 90
        2
 70
     0
 43
0.15
 10
547.108271100095
 20
120.7847085959556
 10
548.608274139995
 20
119.7847065694556
  0
LWPOLYLINE
  5
1C5
330
44
100
AcDbEntity
  8
0
  6
Continuous
 62
     7
100
AcDbPolyline
 90
        2
 70
     0
 43
0.15
 10
550.358221807095
 20
133.2865369684556
 10
546.358362712495
 20
126.3847065336556
  0
LWPOLYLINE
  5
1C6
330
44
100
AcDbEntity
  8
0
  6
Continuous
 62
     7
100
AcDbPolyline
 90
        2
 70
     0
 43
0.15
 10
546.358362712495
 20
126.3847065336556
 10
545.508273818095
 20
126.3847065336556
  0
LWPOLYLINE
  5
1C7
330
44
100
AcDbEntity
  8
0
  6
Continuous
 62
     7
100
AcDbPolyline
 90
        2
 70
     0
 43
0.15
 10
541.620851435295
 20
126.3847065336556
 10
483.408371393095
 20
126.3847065336556
  0
LWPOLYLINE
  5
1C8
330
44
100
AcDbEntity
  8
0
  6
Continuous
 62
     7
100
AcDbPolyline
 90
        2
 70
     0
 43
0.15
 10
459.808292739595
 20
126.3847065336556
 10
401.595720030895
 20
126.3847065336556
  0
LWPOLYLINE
  5
1C9
330
44
100
AcDbEntity
  8
0
  6
Continuous
 62
     7
100
AcDbPolyline
 90
        2
 70
     0
 43
0.15
 10
397.708275296295
 20
126.3847065336556
 10
396.858186401895
 20
126.3847065336556
  0
LWPOLYLINE
  5
1CA
330
44
100
AcDbEntity
  8
0
  6
Continuous
 62
     7
100
AcDbPolyline
 90
        2
 70
     0
 43
0.15
 10
396.858186401895
 20
126.3847065336556
 10
392.858327307295
 20
133.2865369684556
  0
LWPOLYLINE
  5
1CB
330
44
100
AcDbEntity
  8
0
  6
Continuous
 62
     7
100
AcDbPolyline
 90
        2
 70
     0
 43
0.15
 10
523.108274616795
 20
66.4842588074556
 10
420.108274497595
 20
66.4842588074556
  0
LWPOLYLINE
  5
1CC
330
44
100
AcDbEntity
  8
0
  6
Continuous
 62
     7
100
AcDbPolyline
 90
        2
 70
     0
 43
0.15
 10
523.108274616795
 20
66.4842588074556
 10
523.108274616795
 20
-10.01529272724437
  0
LWPOLYLINE
  5
1CD
330
44
100
AcDbEntity
  8
0
  6
Continuous
 62
     7
100
AcDbPolyline
 90
        2
 70
     0
 43
0.15
 10
523.108274616795
 20
-10.01529272724437
 10
420.108274497595
 20
-10.01529272724437
  0
LWPOLYLINE
  5
1CE
330
44
100
AcDbEntity
  8
0
  6
Continuous
 62
     7
100
AcDbPolyline
 90
        2
 70
     0
 43
0.15
 10
420.108274497595
 20
-10.01529272724437
 10
420.108274497595
 20
66.4842588074556
  0
LWPOLYLINE
  5
1CF
330
44
100
AcDbEntity
  8
0
  6
Continuous
 62
     7
100
AcDbPolyline
 90
        2
 70
     0
 43
0.15
 10
551.7082744617951
 20
63.98471008905563
 10
551.7082744617951
 20
128.5847065217556
  0
LWPOLYLINE
  5
1D0
330
44
100
AcDbEntity
  8
0
  6
Continuous
 62
     7
100
AcDbPolyline
 90
        2
 70
     0
 43
0.15
 10
391.508274652595
 20
128.5847065217556
 10
391.508274652595
 20
63.98471008905563
  0
LWPOLYLINE
  5
1D1
330
44
100
AcDbEntity
  8
0
  6
Continuous
 62
     7
100
AcDbPolyline
 90
        2
 70
     0
 43
0.15
 10
551.7082744617951
 20
128.5847065217556
 10
553.858258702395
 20
132.3847112424556
  0
LWPOLYLINE
  5
1D2
330
44
100
AcDbEntity
  8
0
  6
Continuous
 62
     7
100
AcDbPolyline
 90
        2
 70
     0
 43
0.15
 10
389.358290411995
 20
132.3847112424556
 10
391.508274652595
 20
128.5847065217556
  0
LWPOLYLINE
  5
1D3
330
44
100
AcDbEntity
  8
0
  6
Continuous
 62
     7
100
AcDbPolyline
 90
        2
 70
     0
 43
0.15
 10
553.858258702395
 20
132.3847112424556
 10
553.858273603495
 20
146.4846966035556
  0
LWPOLYLINE
  5
1D4
330
44
100
AcDbEntity
  8
0
  6
Continuous
 62
     7
100
AcDbPolyline
 90
        2
 70
     0
 43
0.15
 10
389.3582755108951
 20
146.4846966035556
 10
389.358290411995
 20
132.3847112424556
  0
LWPOLYLINE
  5
1D5
330
44
100
AcDbEntity
  8
0
  6
Continuous
 62
     7
100
AcDbPolyline
 90
        2
 70
     0
 43
0.15
 10
546.358362712495
 20
126.3847065336556
 10
546.358362712495
 20
125.4847061998556
  0
LWPOLYLINE
  5
1D6
330
44
100
AcDbEntity
  8
0
  6
Continuous
 62
     7
100
AcDbPolyline
 90
        2
 70
     0
 43
0.15
 10
546.358362712495
 20
125.4847061998556
 10
545.508273818095
 20
125.4847061998556
  0
LWPOLYLINE
  5
1D7
330
44
100
AcDbEntity
  8
0
  6
Continuous
 62
     7
100
AcDbPolyline
 90
        2
 70
     0
 43
0.15
 10
541.620851435295
 20
125.4847061998556
 10
483.408371393095
 20
125.4847061998556
  0
LWPOLYLINE
  5
1D8
330
44
100
AcDbEntity
  8
0
  6
Continuous
 62
     7
100
AcDbPolyline
 90
        2
 70
     0
 43
0.15
 10
459.808292739595
 20
125.4847061998556
 10
401.595720030895
 20
125.4847061998556
  0
LWPOLYLINE
  5
1D9
330
44
100
AcDbEntity
  8
0
  6
Continuous
 62
     7
100
AcDbPolyline
 90
        2
 70
     0
 43
0.15
 10
397.708275296295
 20
125.4847061998556
 10
396.858186401895
 20
125.4847061998556
  0
LWPOLYLINE
  5
1DA
330
44
100
AcDbEntity
  8
0
  6
Continuous
 62
     7
100
AcDbPolyline
 90
        2
 70
     0
 43
0.15
 10
396.858186401895
 20
125.4847061998556
 10
396.858186401895
 20
126.3847065336556
  0
LWPOLYLINE
  5
1DB
330
44
100
AcDbEntity
  8
0
  6
Continuous
 62
     7
100
AcDbPolyline
 90
        2
 70
     0
 43
0.15
 10
547.108271100095
 20
125.0416276223556
 10
545.508273818095
 20
125.0416276223556
  0
LWPOLYLINE
  5
1DC
330
44
100
AcDbEntity
  8
0
  6
Continuous
 62
     7
100
AcDbPolyline
 90
        2
 70
     0
 43
0.15
 10
541.620851435295
 20
125.0416276223556
 10
483.408371393095
 20
125.0416276223556
  0
LWPOLYLINE
  5
1DD
330
44
100
AcDbEntity
  8
0
  6
Continuous
 62
     7
100
AcDbPolyline
 90
        2
 70
     0
 43
0.15
 10
459.808292739595
 20
125.0416276223556
 10
401.595720030895
 20
125.0416276223556
  0
LWPOLYLINE
  5
1DE
330
44
100
AcDbEntity
  8
0
  6
Continuous
 62
     7
100
AcDbPolyline
 90
        2
 70
     0
 43
0.15
 10
397.708275296295
 20
125.0416276223556
 10
396.108278014295
 20
125.0416276223556
  0
LWPOLYLINE
  5
1DF
330
44
100
AcDbEntity
  8
0
  6
Continuous
 62
     7
100
AcDbPolyline
 90
        2
 70
     0
 43
0.15
 10
396.108278014295
 20
125.0416276223556
 10
396.858186401895
 20
125.4847061998556
  0
LWPOLYLINE
  5
1E0
330
44
100
AcDbEntity
  8
0
  6
Continuous
 62
     7
100
AcDbPolyline
 90
        2
 70
     0
 43
0.15
 10
546.358362712495
 20
125.4847061998556
 10
547.108271100095
 20
125.0416276223556
  0
LWPOLYLINE
  5
1E1
330
44
100
AcDbEntity
  8
0
  6
Continuous
 62
     7
100
AcDbPolyline
 90
        2
 70
     0
 43
0.15
 10
547.108271100095
 20
125.0416276223556
 10
547.108271100095
 20
120.7847085959556
  0
LWPOLYLINE
  5
1E2
330
44
100
AcDbEntity
  8
0
  6
Continuous
 62
     7
100
AcDbPolyline
 90
        2
 70
     0
 43
0.15
 10
396.108278014295
 20
120.7847085959556
 10
396.108278014295
 20
125.0416276223556
  0
LWPOLYLINE
  5
1E3
330
44
100
AcDbEntity
  8
0
  6
Continuous
 62
     7
100
AcDbPolyline
 90
        2
 70
     0
 43
0.15
 10
548.608274139995
 20
119.7847065694556
 10
548.608274139995
 20
115.1862007744556
  0
LWPOLYLINE
  5
1E4
330
44
100
AcDbEntity
  8
0
  6
Continuous
 62
     7
100
AcDbPolyline
 90
        2
 70
     0
 43
0.15
 10
394.608274974395
 20
115.1862007744556
 10
394.608274974395
 20
119.7847065694556
  0
LWPOLYLINE
  5
1E5
330
44
100
AcDbEntity
  8
0
  6
Continuous
 62
     7
100
AcDbPolyline
 90
        2
 70
     0
 43
0.15
 10
535.108272858495
 20
104.9847093589556
 10
408.108272530595
 20
104.9847093589556
  0
LWPOLYLINE
  5
1E6
330
44
100
AcDbEntity
  8
0
  6
Continuous
 62
     7
100
AcDbPolyline
 90
        2
 70
     0
 43
0.15
 10
535.108272858495
 20
104.9847093589556
 10
535.108272858495
 20
66.4842588074556
  0
LWPOLYLINE
  5
1E7
330
44
100
AcDbEntity
  8
0
  6
Continuous
 62
     7
100
AcDbPolyline
 90
        2
 70
     0
 43
0.15
 10
408.108272530595
 20
66.4842588074556
 10
408.108272530595
 20
104.9847093589556
  0
LWPOLYLINE
  5
1E8
330
44
100
AcDbEntity
  8
0
  6
Continuous
 62
     7
100
AcDbPolyline
 90
        2
 70
     0
 43
0.15
 10
541.008272149195
 20
114.1861987478556
 10
402.208276965195
 20
114.1861987478556
  0
LWPOLYLINE
  5
1E9
330
44
100
AcDbEntity
  8
0
  6
Continuous
 62
     7
100
AcDbPolyline
 90
        2
 70
     0
 43
0.15
 10
402.208276965195
 20
106.9847096867556
 10
541.008272149195
 20
106.9847096867556
  0
LWPOLYLINE
  5
1EA
330
44
100
AcDbEntity
  8
0
  6
Continuous
 62
     7
100
AcDbPolyline
 90
        2
 70
     0
 43
0.15
 10
407.108277954695
 20
105.9847076601556
 10
536.108274884995
 20
105.9847076601556
  0
LWPOLYLINE
  5
1EB
330
44
100
AcDbEntity
  8
0
  6
Continuous
 62
     7
100
AcDbPolyline
 90
        2
 70
     0
 43
0.15
 10
525.2685294826949
 20
-10.01529272724437
 10
526.608274259195
 20
-5.01529377034439
  0
LWPOLYLINE
  5
1EC
330
44
100
AcDbEntity
  8
0
  6
Continuous
 62
     7
100
AcDbPolyline
 90
        2
 70
     0
 43
0.15
 10
416.608274855195
 20
-5.01529377034439
 10
417.9480196316951
 20
-10.01529272724437
  0
LWPOLYLINE
  5
1ED
330
44
100
AcDbEntity
  8
0
  6
Continuous
 62
     7
100
AcDbPolyline
 90
        2
 70
     0
 43
0.15
 10
309.608281530995
 20
149.9846291906556
 10
307.608277477795
 20
147.9846251375556
  0
LWPOLYLINE
  5
1EE
330
44
100
AcDbEntity
  8
0
  6
Continuous
 62
     7
100
AcDbPolyline
 90
        2
 70
     0
 43
0.15
 10
301.608280219595
 20
149.9846291906556
 10
309.608281530995
 20
149.9846291906556
  0
LWPOLYLINE
  5
1EF
330
44
100
AcDbEntity
  8
0
  6
Continuous
 62
     7
100
AcDbPolyline
 90
        2
 70
     0
 43
0.15
 10
526.608274259195
 20
-5.01529377034439
 10
526.608274259195
 20
62.73470755585561
  0
LWPOLYLINE
  5
1F0
330
44
100
AcDbEntity
  8
0
  6
Continuous
 62
     7
100
AcDbPolyline
 90
        2
 70
     0
 43
0.15
 10
416.608274855195
 20
62.73470755585561
 10
416.608274855195
 20
-5.01529377034439
  0
LWPOLYLINE
  5
1F1
330
44
100
AcDbEntity
  8
0
  6
Continuous
 62
     7
100
AcDbPolyline
 90
        2
 70
     0
 43
0.15
 10
526.608274259195
 20
62.73470755585561
 10
528.6082745869951
 20
62.98470992515564
  0
LWPOLYLINE
  5
1F2
330
44
100
AcDbEntity
  8
0
  6
Continuous
 62
     7
100
AcDbPolyline
 90
        2
 70
     0
 43
0.15
 10
414.608278252695
 20
62.98470992515564
 10
416.608274855195
 20
62.73470755585561
  0
LWPOLYLINE
  5
1F3
330
44
100
AcDbEntity
  8
0
  6
Continuous
 62
     7
100
AcDbPolyline
 90
        2
 70
     0
 43
0.15
 10
544.508271791595
 20
104.9847093589556
 10
544.508271791595
 20
111.6866481668556
  0
LWPOLYLINE
  5
1F4
330
44
100
AcDbEntity
  8
0
  6
Continuous
 62
     7
100
AcDbPolyline
 90
        2
 70
     0
 43
0.15
 10
398.708277322895
 20
111.6866481668556
 10
398.708277322895
 20
104.9847093589556
  0
LWPOLYLINE
  5
1F5
330
44
100
AcDbEntity
  8
0
  6
Continuous
 62
     7
100
AcDbPolyline
 90
        2
 70
     0
 43
0.15
 10
394.358278193095
 20
63.98471008905563
 10
395.0082742948951
 20
111.6866481668556
  0
LWPOLYLINE
  5
1F6
330
44
100
AcDbEntity
  8
0
  6
Continuous
 62
     7
100
AcDbPolyline
 90
        2
 70
     0
 43
0.15
 10
548.208274819495
 20
111.6866481668556
 10
548.858270921295
 20
63.98471008905563
  0
LWPOLYLINE
  5
1F7
330
44
100
AcDbEntity
  8
0
  6
Continuous
 62
     7
100
AcDbPolyline
 90
        2
 70
     0
 43
0.15
 10
635.608271636595
 20
147.9846251375556
 10
633.608267583495
 20
149.9846291906556
  0
LWPOLYLINE
  5
1F8
330
44
100
AcDbEntity
  8
0
  6
Continuous
 62
     7
100
AcDbPolyline
 90
        2
 70
     0
 43
0.15
 10
633.608267583495
 20
149.9846291906556
 10
641.608268894795
 20
149.9846291906556
  0
LWPOLYLINE
  5
1F9
330
44
100
AcDbEntity
  8
0
  6
Continuous
 62
     7
100
AcDbPolyline
 90
        2
 70
     0
 43
0.15
 10
538.6082762260951
 20
62.98470992515564
 10
538.6082762260951
 20
102.4847080178556
  0
LWPOLYLINE
  5
1FA
330
44
100
AcDbEntity
  8
0
  6
Continuous
 62
     7
100
AcDbPolyline
 90
        2
 70
     0
 43
0.15
 10
404.608272888295
 20
102.4847080178556
 10
404.608272888295
 20
62.98470992515564
  0
LWPOLYLINE
  5
1FB
330
44
100
AcDbEntity
  8
0
  6
Continuous
 62
     7
100
AcDbPolyline
 90
        2
 70
     0
 43
0.15
 10
544.508271791595
 20
111.6866481668556
 10
548.208274819495
 20
111.6866481668556
  0
LWPOLYLINE
  5
1FC
330
44
100
AcDbEntity
  8
0
  6
Continuous
 62
     7
100
AcDbPolyline
 90
        2
 70
     0
 43
0.15
 10
541.008272149195
 20
114.1861987478556
 10
541.008272149195
 20
106.9847096867556
  0
LWPOLYLINE
  5
1FD
330
44
100
AcDbEntity
  8
0
  6
Continuous
 62
     7
100
AcDbPolyline
 90
        2
 70
     0
 43
0.15
 10
548.858270921295
 20
63.98471008905563
 10
551.7082744617951
 20
63.98471008905563
  0
LWPOLYLINE
  5
1FE
330
44
100
AcDbEntity
  8
0
  6
Continuous
 62
     7
100
AcDbPolyline
 90
        2
 70
     0
 43
0.15
 10
538.6082762260951
 20
102.4847080178556
 10
542.0082741756951
 20
102.4847080178556
  0
LWPOLYLINE
  5
1FF
330
44
100
AcDbEntity
  8
0
  6
Continuous
 62
     7
100
AcDbPolyline
 90
        2
 70
     0
 43
0.15
 10
540.008273847895
 20
105.9847076601556
 10
536.108274884995
 20
105.9847076601556
  0
LWPOLYLINE
  5
200
330
44
100
AcDbEntity
  8
0
  6
Continuous
 62
     7
100
AcDbPolyline
 90
        2
 70
     0
 43
0.15
 10
528.6082745869951
 20
62.98470992515564
 10
538.6082762260951
 20
62.98470992515564
  0
LWPOLYLINE
  5
201
330
44
100
AcDbEntity
  8
0
  6
Continuous
 62
     7
100
AcDbPolyline
 90
        2
 70
     0
 43
0.15
 10
523.108274616795
 20
-10.01529272724437
 10
525.2685294826949
 20
-10.01529272724437
  0
LWPOLYLINE
  5
202
330
44
100
AcDbEntity
  8
0
  6
Continuous
 62
     7
100
AcDbPolyline
 90
        2
 70
     0
 43
0.15
 10
535.108272858495
 20
66.4842588074556
 10
523.108274616795
 20
66.4842588074556
  0
LWPOLYLINE
  5
203
330
44
100
AcDbEntity
  8
0
  6
Continuous
 62
     7
100
AcDbPolyline
 90
        2
 70
     0
 43
0.15
 10
548.608274139995
 20
115.1862007744556
 10
542.0082741756951
 20
115.1862007744556
  0
LWPOLYLINE
  5
204
330
44
100
AcDbEntity
  8
0
  6
Continuous
 62
     7
100
AcDbPolyline
 90
        2
 70
     0
 43
0.15
 10
633.608267583495
 20
149.9846291906556
 10
551.358268537095
 20
149.9846291906556
  0
LWPOLYLINE
  5
205
330
44
100
AcDbEntity
  8
0
  6
Continuous
 62
     7
100
AcDbPolyline
 90
        2
 70
     0
 43
0.15
 10
553.858273603495
 20
146.4846966035556
 10
635.608271636595
 20
146.4846966035556
  0
LWPOLYLINE
  5
206
330
44
100
AcDbEntity
  8
0
  6
Continuous
 62
     7
100
AcDbPolyline
 90
        2
 70
     0
 43
0.15
 10
402.208276965195
 20
106.9847096867556
 10
402.208276965195
 20
114.1861987478556
  0
LWPOLYLINE
  5
207
330
44
100
AcDbEntity
  8
0
  6
Continuous
 62
     7
100
AcDbPolyline
 90
        2
 70
     0
 43
0.15
 10
395.0082742948951
 20
111.6866481668556
 10
398.708277322895
 20
111.6866481668556
  0
LWPOLYLINE
  5
208
330
44
100
AcDbEntity
  8
0
  6
Continuous
 62
     7
100
AcDbPolyline
 90
        2
 70
     0
 43
0.15
 10
391.508274652595
 20
63.98471008905563
 10
394.358278193095
 20
63.98471008905563
  0
LWPOLYLINE
  5
209
330
44
100
AcDbEntity
  8
0
  6
Continuous
 62
     7
100
AcDbPolyline
 90
        2
 70
     0
 43
0.15
 10
401.208274938695
 20
102.4847080178556
 10
404.608272888295
 20
102.4847080178556
  0
LWPOLYLINE
  5
20A
330
44
100
AcDbEntity
  8
0
  6
Continuous
 62
     7
100
AcDbPolyline
 90
        2
 70
     0
 43
0.15
 10
407.108277954695
 20
105.9847076601556
 10
403.208271541195
 20
105.9847076601556
  0
LWPOLYLINE
  5
20B
330
44
100
AcDbEntity
  8
0
  6
Continuous
 62
     7
100
AcDbPolyline
 90
        2
 70
     0
 43
0.15
 10
404.608272888295
 20
62.98470992515564
 10
414.608278252695
 20
62.98470992515564
  0
LWPOLYLINE
  5
20C
330
44
100
AcDbEntity
  8
0
  6
Continuous
 62
     7
100
AcDbPolyline
 90
        2
 70
     0
 43
0.15
 10
417.9480196316951
 20
-10.01529272724437
 10
420.108274497595
 20
-10.01529272724437
  0
LWPOLYLINE
  5
20D
330
44
100
AcDbEntity
  8
0
  6
Continuous
 62
     7
100
AcDbPolyline
 90
        2
 70
     0
 43
0.15
 10
420.108274497595
 20
66.4842588074556
 10
408.108272530595
 20
66.4842588074556
  0
LWPOLYLINE
  5
20E
330
44
100
AcDbEntity
  8
0
  6
Continuous
 62
     7
100
AcDbPolyline
 90
        2
 70
     0
 43
0.15
 10
401.208274938695
 20
115.1862007744556
 10
394.608274974395
 20
115.1862007744556
  0
LWPOLYLINE
  5
20F
330
44
100
AcDbEntity
  8
0
  6
Continuous
 62
     7
100
AcDbPolyline
 90
        2
 70
     0
 43
0.15
 10
391.858280577295
 20
149.9846291906556
 10
309.608281530995
 20
149.9846291906556
  0
LWPOLYLINE
  5
210
330
44
100
AcDbEntity
  8
0
  6
Continuous
 62
     7
100
AcDbPolyline
 90
        2
 70
     0
 43
0.15
 10
307.608277477795
 20
146.4846966035556
 10
389.3582755108951
 20
146.4846966035556
  0
LWPOLYLINE
  5
211
330
44
100
AcDbEntity
  8
0
  6
Continuous
 62
     7
100
AcDbPolyline
 90
        2
 70
     0
 43
0.15
 10
459.808292739595
 20
130.8883887894556
 10
459.737819560395
 20
130.8973592884556
  0
LWPOLYLINE
  5
212
330
44
100
AcDbEntity
  8
0
  6
Continuous
 62
     7
100
AcDbPolyline
 90
        2
 70
     0
 43
0.15
 10
401.9623332996951
 20
141.2846309311556
 10
401.595720030895
 20
141.2846309311556
  0
LWPOLYLINE
  5
213
330
44
100
AcDbEntity
  8
0
  6
Continuous
 62
     7
100
AcDbPolyline
 90
        2
 70
     0
 43
0.15
 10
541.620851435295
 20
141.2846309311556
 10
541.254238166395
 20
141.2846309311556
  0
LWPOLYLINE
  5
214
330
44
100
AcDbEntity
  8
0
  6
Continuous
 62
     7
100
AcDbPolyline
 90
        2
 70
     0
 43
0.15
 10
406.825371958795
 20
58.9847102008556
 10
416.608274855195
 20
58.9847102008556
  0
LWPOLYLINE
  5
215
330
44
100
AcDbEntity
  8
0
  6
Continuous
 62
     7
100
AcDbPolyline
 90
        2
 70
     0
 43
0.15
 10
526.608274259195
 20
58.9847102008556
 10
546.608277537395
 20
58.9847102008556
  0
LWPOLYLINE
  5
216
330
44
100
AcDbEntity
  8
0
  6
Continuous
 62
     7
100
AcDbPolyline
 90
        2
 70
     0
 43
0.15
 10
550.358273961195
 20
148.9846346147556
 10
547.626354672495
 20
148.9846346147556
  0
LWPOLYLINE
  5
217
330
44
100
AcDbEntity
  8
0
  6
Continuous
 62
     7
100
AcDbPolyline
 90
        2
 70
     0
 43
0.15
 10
395.5901944418951
 20
148.9846346147556
 10
392.858275153295
 20
148.9846346147556
  0
LINE
  5
218
330
44
100
AcDbEntity
  8
0
  6
CENTERX2
 62
     7
100
AcDbLine
 10
471.608274581495
 20
229.6069528696556
 30
0.0
 11
471.608274581495
 21
-12.01529198434437
 31
0.0
  0
LWPOLYLINE
  5
219
330
44
100
AcDbEntity
  8
0
  6
Continuous
 62
     7
100
AcDbPolyline
 90
        2
 70
     0
 43
0.15
 10
493.801438190595
 20
225.0846413142556
 10
493.801438190595
 20
225.0846413142556
  0
LWPOLYLINE
  5
21A
330
44
100
AcDbEntity
  8
0
  6
Continuous
 62
     7
100
AcDbPolyline
 90
        2
 70
     0
 43
0.15
 10
546.608274581495
 20
90.4847080156556
 42
0.4142135623731
 10
544.608274581495
 20
92.4847080156556
 42
0.4142135623731
  0
LWPOLYLINE
  5
21B
330
44
100
AcDbEntity
  8
0
  6
Continuous
 62
     7
100
AcDbPolyline
 90
        2
 70
     0
 43
0.15
 10
398.608274581495
 20
92.4847080156556
 42
0.4142135623731
 10
396.608274581495
 20
90.4847080156556
 42
0.4142135623731
  0
LWPOLYLINE
  5
21C
330
44
100
AcDbEntity
  8
0
  6
Continuous
 62
     7
100
AcDbPolyline
 90
        2
 70
     0
 43
0.15
 10
544.608274581495
 20
80.4847080156556
 42
0.4142135623731
 10
546.608274581495
 20
82.4847080156556
 42
0.4142135623731
  0
LWPOLYLINE
  5
21D
330
44
100
AcDbEntity
  8
0
  6
Continuous
 62
     7
100
AcDbPolyline
 90
        2
 70
     0
 43
0.15
 10
396.608274581495
 20
82.4847080156556
 42
0.4142135623731
 10
398.608274581495
 20
80.4847080156556
 42
0.4142135623731
  0
LWPOLYLINE
  5
21E
330
44
100
AcDbEntity
  8
0
  6
Continuous
 62
     7
100
AcDbPolyline
 90
        2
 70
     0
 43
0.15
 10
538.608274581495
 20
82.4847080156556
 42
0.4142135623731
 10
540.608274581495
 20
80.4847080156556
 42
0.4142135623731
  0
LWPOLYLINE
  5
21F
330
44
100
AcDbEntity
  8
0
  6
Continuous
 62
     7
100
AcDbPolyline
 90
        2
 70
     0
 43
0.15
 10
402.608274581495
 20
80.4847080156556
 42
0.4142135623731
 10
404.608274581495
 20
82.4847080156556
 42
0.4142135623731
  0
LWPOLYLINE
  5
220
330
44
100
AcDbEntity
  8
0
  6
Continuous
 62
     7
100
AcDbPolyline
 90
        2
 70
     0
 43
0.15
 10
540.608274581495
 20
92.4847080156556
 42
0.4142135623731
 10
538.608274581495
 20
90.4847080156556
 42
0.4142135623731
  0
LWPOLYLINE
  5
221
330
44
100
AcDbEntity
  8
0
  6
Continuous
 62
     7
100
AcDbPolyline
 90
        2
 70
     0
 43
0.15
 10
404.608274581495
 20
90.4847080156556
 42
0.4142135623731
 10
402.608274581495
 20
92.4847080156556
 42
0.4142135623731
  0
LWPOLYLINE
  5
222
330
44
100
AcDbEntity
  8
0
  6
Continuous
 62
     7
100
AcDbPolyline
 90
        2
 70
     0
 43
0.15
 10
396.208274581495
 20
121.9846281289556
 42
0.4142135623731
 10
397.208274581495
 20
120.9846281289556
 42
0.4142135623731
  0
LWPOLYLINE
  5
223
330
44
100
AcDbEntity
  8
0
  6
Continuous
 62
     7
100
AcDbPolyline
 90
        2
 70
     0
 43
0.15
 10
397.208274581495
 20
122.9846281289556
 42
0.4142135623731
 10
396.208274581495
 20
121.9846281289556
 42
0.4142135623731
  0
LWPOLYLINE
  5
224
330
44
100
AcDbEntity
  8
0
  6
Continuous
 62
     7
100
AcDbPolyline
 90
        2
 70
     0
 43
0.15
 10
423.159692677695
 20
224.9846341289556
 42
0.31529878994921
 10
409.0643033459301
 20
215.1149362239556
 42
0.31529878994921
  0
LWPOLYLINE
  5
225
330
44
100
AcDbEntity
  8
0
  6
Continuous
 62
     7
100
AcDbPolyline
 90
        2
 70
     0
 43
0.15
 10
534.15224581696
 20
215.1149362239556
 42
0.31529878994921
 10
520.056856485195
 20
224.9846341289556
 42
0.31529878994921
  0
LWPOLYLINE
  5
226
330
44
100
AcDbEntity
  8
0
  6
Continuous
 62
     7
100
AcDbPolyline
 90
        2
 70
     0
 43
0.15
 10
547.008274581495
 20
121.9846281289556
 42
0.4142135623731
 10
546.008274581495
 20
122.9846281289556
 42
0.4142135623731
  0
LWPOLYLINE
  5
227
330
44
100
AcDbEntity
  8
0
  6
Continuous
 62
     7
100
AcDbPolyline
 90
        2
 70
     0
 43
0.15
 10
546.008274581495
 20
120.9846281289556
 42
0.4142135623731
 10
547.008274581495
 20
121.9846281289556
 42
0.4142135623731
  0
LWPOLYLINE
  5
228
330
44
100
AcDbEntity
  8
0
  6
Continuous
 62
     7
100
AcDbPolyline
 90
        2
 70
     0
 43
0.15
 10
391.608274581495
 20
61.98471001565559
 42
0.4142135623731
 10
399.608274581495
 20
53.98471001565559
 42
0.4142135623731
  0
LWPOLYLINE
  5
229
330
44
100
AcDbEntity
  8
0
  6
Continuous
 62
     7
100
AcDbPolyline
 90
        2
 70
     0
 43
0.15
 10
543.608274581495
 20
53.98471001565559
 42
0.4142135623731
 10
551.608274581495
 20
61.98471001565559
 42
0.4142135623731
  0
LWPOLYLINE
  5
22A
330
44
100
AcDbEntity
  8
0
  6
Continuous
 62
     7
100
AcDbPolyline
 90
        2
 70
     0
 43
0.15
 10
396.608274581495
 20
58.98471001565559
 42
0.4142135623731
 10
399.108274581495
 20
56.48471001565559
 42
0.4142135623731
  0
LWPOLYLINE
  5
22B
330
44
100
AcDbEntity
  8
0
  6
Continuous
 62
     7
100
AcDbPolyline
 90
        2
 70
     0
 43
0.15
 10
544.108274581495
 20
56.48471001565559
 42
0.4142135623731
 10
546.608274581495
 20
58.98471001565559
 42
0.4142135623731
  0
LWPOLYLINE
  5
22C
330
44
100
AcDbEntity
  8
0
  6
Continuous
 62
     7
100
AcDbPolyline
 90
        2
 70
     0
 43
0.15
 10
406.858274581495
 20
117.6861988872556
 42
0.4142135623731
 10
404.858274581495
 20
119.6861988872556
 42
0.4142135623731
  0
LWPOLYLINE
  5
22D
330
44
100
AcDbEntity
  8
0
  6
Continuous
 62
     7
100
AcDbPolyline
 90
        2
 70
     0
 43
0.15
 10
538.358274581495
 20
119.6861988872556
 42
0.4142135623731
 10
536.358274581495
 20
117.6861988872556
 42
0.4142135623731
  0
LWPOLYLINE
  5
22E
330
44
100
AcDbEntity
  8
0
  6
Continuous
 62
     7
100
AcDbPolyline
 90
        2
 70
     0
 43
0.15
 10
540.858274581495
 20
115.1861988872556
 42
0.4142135623731
 10
538.858274581495
 20
117.1861988872556
 42
0.4142135623731
  0
LWPOLYLINE
  5
22F
330
44
100
AcDbEntity
  8
0
  6
Continuous
 62
     7
100
AcDbPolyline
 90
        2
 70
     0
 43
0.15
 10
404.358274581495
 20
117.1861988872556
 42
0.4142135623731
 10
402.358274581495
 20
115.1861988872556
 42
0.4142135623731
  0
LWPOLYLINE
  5
230
330
44
100
AcDbEntity
  8
0
  6
Continuous
 62
     7
100
AcDbPolyline
 90
        2
 70
     0
 43
0.15
 10
651.608274581495
 20
147.9846281289556
 42
0.4142135623731
 10
649.608274581495
 20
149.9846281289556
 42
0.4142135623731
  0
LWPOLYLINE
  5
231
330
44
100
AcDbEntity
  8
0
  6
Continuous
 62
     7
100
AcDbPolyline
 90
        2
 70
     0
 43
0.15
 10
293.608274581495
 20
149.9846281289556
 42
0.4142135623731
 10
291.608274581495
 20
147.9846281289556
 42
0.4142135623731
  0
LWPOLYLINE
  5
232
330
44
100
AcDbEntity
  8
0
  6
Continuous
 62
     7
100
AcDbPolyline
 90
        2
 70
     0
 43
0.15
 10
551.358271583895
 20
149.9846281289556
 42
0.41421268438055
 10
550.3582715839
 20
148.9846311266106
 42
0.41421268438055
  0
LWPOLYLINE
  5
233
330
44
100
AcDbEntity
  8
0
  6
Continuous
 62
     7
100
AcDbPolyline
 90
        2
 70
     0
 43
0.15
 10
392.858277578991
 20
148.9846311266106
 42
0.41421268438055
 10
391.858277578995
 20
149.9846281289556
 42
0.41421268438055
  0
LWPOLYLINE
  5
234
330
44
100
AcDbEntity
  8
0
  6
Continuous
 62
     7
100
AcDbPolyline
 90
        2
 70
     0
 43
0.15
 10
542.008274581495
 20
115.1861988872556
 42
0.4142135623731
 10
541.008274581495
 20
114.1861988872556
 42
0.4142135623731
  0
LWPOLYLINE
  5
235
330
44
100
AcDbEntity
  8
0
  6
Continuous
 62
     7
100
AcDbPolyline
 90
        2
 70
     0
 43
0.15
 10
402.208274581495
 20
114.1861988872556
 42
0.4142135623731
 10
401.208274581495
 20
115.1861988872556
 42
0.4142135623731
  0
LWPOLYLINE
  5
236
330
44
100
AcDbEntity
  8
0
  6
Continuous
 62
     7
100
AcDbPolyline
 90
        2
 70
     0
 43
0.15
 10
540.008274581495
 20
105.9847080156556
 42
0.4142135623731
 10
541.008274581495
 20
106.9847080156556
 42
0.4142135623731
  0
LWPOLYLINE
  5
237
330
44
100
AcDbEntity
  8
0
  6
Continuous
 62
     7
100
AcDbPolyline
 90
        2
 70
     0
 43
0.15
 10
402.208274581495
 20
106.9847080156556
 42
0.4142135623731
 10
403.208274581495
 20
105.9847080156556
 42
0.4142135623731
  0
LWPOLYLINE
  5
238
330
44
100
AcDbEntity
  8
0
  6
Continuous
 62
     7
100
AcDbPolyline
 90
        2
 70
     0
 43
0.15
 10
536.108274581495
 20
105.9847080156556
 42
0.4142135623731
 10
535.108274581495
 20
104.9847080156556
 42
0.4142135623731
  0
LWPOLYLINE
  5
239
330
44
100
AcDbEntity
  8
0
  6
Continuous
 62
     7
100
AcDbPolyline
 90
        2
 70
     0
 43
0.15
 10
408.108274581495
 20
104.9847080156556
 42
0.4142135623731
 10
407.108274581495
 20
105.9847080156556
 42
0.4142135623731
  0
LWPOLYLINE
  5
23A
330
44
100
AcDbEntity
  8
0
  6
Continuous
 62
     7
100
AcDbPolyline
 90
        2
 70
     0
 43
0.15
 10
398.708274581495
 20
104.9847080156556
 42
0.4142135623731
 10
401.208274581495
 20
102.4847080156556
 42
0.4142135623731
  0
LWPOLYLINE
  5
23B
330
44
100
AcDbEntity
  8
0
  6
Continuous
 62
     7
100
AcDbPolyline
 90
        2
 70
     0
 43
0.15
 10
542.008274581495
 20
102.4847080156556
 42
0.4142135623731
 10
544.508274581495
 20
104.9847080156556
 42
0.4142135623731
  0
SPLINE
  5
23C
330
44
100
AcDbEntity
  8
0
  6
Continuous
 62
     7
100
AcDbSpline
210
0.0
220
0.0
230
1.0
 70
    24
 71
     3
 72
     9
 73
     5
 74
     3
 42
0.0000000001
 43
0.0000000001
 44
0.00000001
 40
0.0
 40
0.0
 40
0.0
 40
0.0
 40
0.2976419018993397
 40
0.5952838037979973
 40
0.5952838037979973
 40
0.5952838037979973
 40
0.5952838037979973
 10
417.0369675291651
 20
189.3048712785866
 30
0.0
 10
417.1361814964649
 20
189.3048712785833
 30
0.0
 10
417.3346094310642
 20
189.3048712785766
 30
0.0
 10
417.5330373656635
 20
189.3048712785699
 30
0.0
 10
417.6322513329631
 20
189.3048712785666
 30
0.0
 11
417.0369675291651
 21
189.3048712785866
 31
0.0
 11
417.3346094310645
 21
189.3048712785766
 31
0.0
 11
417.6322513329631
 21
189.3048712785666
 31
0.0
  0
SPLINE
  5
23D
330
44
100
AcDbEntity
  8
0
  6
Continuous
 62
     7
100
AcDbSpline
210
0.0
220
0.0
230
1.0
 70
    24
 71
     3
 72
     9
 73
     5
 74
     3
 42
0.0000000001
 43
0.0000000001
 44
0.00000001
 40
0.0
 40
0.0
 40
0.0
 40
0.0
 40
0.5749999998864155
 40
1.149999999772888
 40
1.149999999772888
 40
1.149999999772888
 40
1.149999999772888
 10
422.3728376227321
 20
189.3048712786526
 30
0.0
 10
422.5645042893609
 20
189.304871278665
 30
0.0
 10
422.9478376226185
 20
189.3048712786896
 30
0.0
 10
423.3311709558761
 20
189.3048712787142
 30
0.0
 10
423.522837622505
 20
189.3048712787266
 30
0.0
 11
422.3728376227321
 21
189.3048712786526
 31
0.0
 11
422.9478376226185
 21
189.3048712786896
 31
0.0
 11
423.522837622505
 21
189.3048712787266
 31
0.0
  0
SPLINE
  5
23E
330
44
100
AcDbEntity
  8
0
  6
Continuous
 62
     7
100
AcDbSpline
210
0.0
220
0.0
230
1.0
 70
    24
 71
     3
 72
     9
 73
     5
 74
     3
 42
0.0000000001
 43
0.0000000001
 44
0.00000001
 40
0.0
 40
0.0
 40
0.0
 40
0.0
 40
0.8131727984500685
 40
1.626345596900023
 40
1.626345596900023
 40
1.626345596900023
 40
1.626345596900023
 10
431.064021380192
 20
189.3048712785407
 30
0.0
 10
431.3350789796754
 20
189.3048712785328
 30
0.0
 10
431.8771941786419
 20
189.3048712785171
 30
0.0
 10
432.4193093776088
 20
189.3048712785014
 30
0.0
 10
432.690366977092
 20
189.3048712784936
 30
0.0
 11
431.064021380192
 21
189.3048712785407
 31
0.0
 11
431.8771941786421
 21
189.3048712785171
 31
0.0
 11
432.690366977092
 21
189.3048712784936
 31
0.0
  0
SPLINE
  5
23F
330
44
100
AcDbEntity
  8
0
  6
Continuous
 62
     7
100
AcDbSpline
210
0.0
220
0.0
230
1.0
 70
    24
 71
     3
 72
     9
 73
     5
 74
     3
 42
0.0000000001
 43
0.0000000001
 44
0.00000001
 40
0.0
 40
0.0
 40
0.0
 40
0.0
 40
0.9959292143660718
 40
1.99185842873203
 40
1.99185842873203
 40
1.99185842873203
 40
1.99185842873203
 10
442.518228990251
 20
189.3048712785866
 30
0.0
 10
442.8502053950397
 20
189.3048712785859
 30
0.0
 10
443.5141582046172
 20
189.3048712785847
 30
0.0
 10
444.1781110141943
 20
189.3048712785826
 30
0.0
 10
444.510087418983
 20
189.3048712785816
 30
0.0
 11
442.518228990251
 21
189.3048712785866
 31
0.0
 11
443.514158204617
 21
189.3048712785845
 31
0.0
 11
444.510087418983
 21
189.3048712785816
 31
0.0
  0
SPLINE
  5
240
330
44
100
AcDbEntity
  8
0
  6
Continuous
 62
     7
100
AcDbSpline
210
0.0
220
0.0
230
1.0
 70
    24
 71
     3
 72
     9
 73
     5
 74
     3
 42
0.0000000001
 43
0.0000000001
 44
0.00000001
 40
0.0
 40
0.0
 40
0.0
 40
0.0
 40
1.110814700162052
 40
2.221629400323991
 40
2.221629400323991
 40
2.221629400323991
 40
2.221629400323991
 10
455.954875133859
 20
189.3048712785986
 30
0.0
 10
456.3251467005797
 20
189.3048712786011
 30
0.0
 10
457.0656898340211
 20
189.304871278606
 30
0.0
 10
457.8062329674624
 20
189.3048712786117
 30
0.0
 10
458.176504534183
 20
189.3048712786146
 30
0.0
 11
455.954875133859
 21
189.3048712785986
 31
0.0
 11
457.065689834021
 21
189.3048712786062
 31
0.0
 11
458.176504534183
 21
189.3048712786146
 31
0.0
  0
SPLINE
  5
241
330
44
100
AcDbEntity
  8
0
  6
Continuous
 62
     7
100
AcDbSpline
210
0.0
220
0.0
230
1.0
 70
    24
 71
     3
 72
     9
 73
     5
 74
     3
 42
0.0000000001
 43
0.0000000001
 44
0.00000001
 40
0.0
 40
0.0
 40
0.0
 40
0.0
 40
1.150000000029195
 40
2.300000000059129
 40
2.300000000059129
 40
2.300000000059129
 40
2.300000000059129
 10
470.458274581467
 20
189.3048712785926
 30
0.0
 10
470.8416079148101
 20
189.3048712785926
 30
0.0
 10
471.6082745814965
 20
189.3048712785926
 30
0.0
 10
472.3749412481828
 20
189.3048712785925
 30
0.0
 10
472.7582745815261
 20
189.3048712785926
 30
0.0
 11
470.458274581467
 21
189.3048712785926
 31
0.0
 11
471.6082745814962
 21
189.3048712785926
 31
0.0
 11
472.7582745815261
 21
189.3048712785926
 31
0.0
  0
SPLINE
  5
242
330
44
100
AcDbEntity
  8
0
  6
Continuous
 62
     7
100
AcDbSpline
210
0.0
220
0.0
230
1.0
 70
    24
 71
     3
 72
     9
 73
     5
 74
     3
 42
0.0000000001
 43
0.0000000001
 44
0.00000001
 40
0.0
 40
0.0
 40
0.0
 40
0.0
 40
1.110814700162337
 40
2.221629400323991
 40
2.221629400323991
 40
2.221629400323991
 40
2.221629400323991
 10
485.040044628809
 20
189.3048712786136
 30
0.0
 10
485.4103161955298
 20
189.3048712786111
 30
0.0
 10
486.150859328971
 20
189.3048712786061
 30
0.0
 10
486.8914024624124
 20
189.3048712786011
 30
0.0
 10
487.261674029133
 20
189.3048712785986
 30
0.0
 11
485.040044628809
 21
189.3048712786136
 31
0.0
 11
486.1508593289714
 21
189.3048712786061
 31
0.0
 11
487.261674029133
 21
189.3048712785986
 31
0.0
  0
SPLINE
  5
243
330
44
100
AcDbEntity
  8
0
  6
Continuous
 62
     7
100
AcDbSpline
210
0.0
220
0.0
230
1.0
 70
    24
 71
     3
 72
     9
 73
     5
 74
     3
 42
0.0000000001
 43
0.0000000001
 44
0.00000001
 40
0.0
 40
0.0
 40
0.0
 40
0.0
 40
0.9959292143655034
 40
1.99185842873095
 40
1.99185842873095
 40
1.99185842873095
 40
1.99185842873095
 10
498.70646174401
 20
189.3048712785816
 30
0.0
 10
499.0384381487985
 20
189.3048712785826
 30
0.0
 10
499.7023909583755
 20
189.3048712785847
 30
0.0
 10
500.3663437679523
 20
189.3048712785859
 30
0.0
 10
500.698320172741
 20
189.3048712785866
 30
0.0
 11
498.70646174401
 21
189.3048712785816
 31
0.0
 11
499.7023909583755
 21
189.3048712785845
 31
0.0
 11
500.698320172741
 21
189.3048712785866
 31
0.0
  0
SPLINE
  5
244
330
44
100
AcDbEntity
  8
0
  6
Continuous
 62
     7
100
AcDbSpline
210
0.0
220
0.0
230
1.0
 70
    24
 71
     3
 72
     9
 73
     5
 74
     3
 42
0.0000000001
 43
0.0000000001
 44
0.00000001
 40
0.0
 40
0.0
 40
0.0
 40
0.0
 40
0.8131727984494432
 40
1.626345596899
 40
1.626345596899
 40
1.626345596899
 40
1.626345596899
 10
510.526182185901
 20
189.3048712784936
 30
0.0
 10
510.7972397853842
 20
189.3048712785015
 30
0.0
 10
511.3393549843504
 20
189.3048712785171
 30
0.0
 10
511.8814701833169
 20
189.3048712785328
 30
0.0
 10
512.1525277828
 20
189.3048712785407
 30
0.0
 11
510.526182185901
 21
189.3048712784936
 31
0.0
 11
511.3393549843505
 21
189.3048712785171
 31
0.0
 11
512.1525277828
 21
189.3048712785407
 31
0.0
  0
SPLINE
  5
245
330
44
100
AcDbEntity
  8
0
  6
Continuous
 62
     7
100
AcDbSpline
210
0.0
220
0.0
230
1.0
 70
    24
 71
     3
 72
     9
 73
     5
 74
     3
 42
0.0000000001
 43
0.0000000001
 44
0.00000001
 40
0.0
 40
0.0
 40
0.0
 40
0.0
 40
0.5749999998863586
 40
1.149999999772035
 40
1.149999999772035
 40
1.149999999772035
 40
1.149999999772035
 10
519.693711540488
 20
189.3048712787266
 30
0.0
 10
519.8853782071169
 20
189.3048712787143
 30
0.0
 10
520.2687115403742
 20
189.3048712786896
 30
0.0
 10
520.6520448736314
 20
189.3048712786649
 30
0.0
 10
520.8437115402601
 20
189.3048712786526
 30
0.0
 11
519.693711540488
 21
189.3048712787266
 31
0.0
 11
520.2687115403744
 21
189.3048712786896
 31
0.0
 11
520.8437115402601
 21
189.3048712786526
 31
0.0
  0
SPLINE
  5
246
330
44
100
AcDbEntity
  8
0
  6
Continuous
 62
     7
100
AcDbSpline
210
0.0
220
0.0
230
1.0
 70
    24
 71
     3
 72
     9
 73
     5
 74
     3
 42
0.0000000001
 43
0.0000000001
 44
0.00000001
 40
0.0
 40
0.0
 40
0.0
 40
0.0
 40
0.2976419018993965
 40
0.5952838037978836
 40
0.5952838037978836
 40
0.5952838037978836
 40
0.5952838037978836
 10
525.5842978300291
 20
189.3048712785656
 30
0.0
 10
525.683511797329
 20
189.3048712785695
 30
0.0
 10
525.881939731928
 20
189.3048712785771
 30
0.0
 10
526.0803676665275
 20
189.3048712785841
 30
0.0
 10
526.179581633827
 20
189.3048712785876
 30
0.0
 11
525.5842978300291
 21
189.3048712785656
 31
0.0
 11
525.8819397319285
 21
189.304871278577
 31
0.0
 11
526.179581633827
 21
189.3048712785876
 31
0.0
  0
DIMENSION
  5
25F
330
44
100
AcDbEntity
  8
1
100
AcDbDimension
  2
*D3
 10
291.6082754917381
 20
257.5278260542936
 30
0.0
 11
469.3014533137067
 21
264.527824577762
 31
0.0
 70
    33
  1
<>
 71
     5
 42
-1.0
 53
0.00013888888889
  3
ME10_DIM_10
100
AcDbAlignedDimension
 13
651.608274259195
 23
147.9846251375556
 33
0.0
 14
291.608274581495
 24
147.9846281289556
 34
0.0
  0
DIMENSION
  5
26A
330
44
100
AcDbEntity
  8
1
100
AcDbDimension
  2
*D4
 10
416.608274855195
 20
-40.0445865770184
 30
0.0
 11
472.736058255441
 21
-33.0445865770184
 31
0.0
 70
    33
  1
<>
 71
     5
 42
-1.0
 53
0.00013888888889
  3
ME10_DIM_11
100
AcDbAlignedDimension
 13
526.608274259195
 23
-5.01529377034439
 33
0.0
 14
416.608274855195
 24
-5.01529377034439
 34
0.0
  0
DIMENSION
  5
275
330
44
100
AcDbEntity
  8
1
100
AcDbDimension
  2
*D5
 10
391.508274652595
 20
-59.0558225658751
 30
0.0
 11
472.736058255441
 21
-52.0558225658751
 31
0.0
 70
    33
  1
<>
 71
     5
 42
-1.0
 53
0.00013888888889
  3
ME10_DIM_12
100
AcDbAlignedDimension
 13
551.7082744617951
 23
63.98471008905563
 33
0.0
 14
391.508274652595
 24
63.98471008905563
 34
0.0
  0
DIMENSION
  5
280
330
44
100
AcDbEntity
  8
1
100
AcDbDimension
  2
*D6
 10
253.035476920099
 20
149.9846291906556
 30
0.0
 11
246.035476920099
 21
73.3497060866389
 31
0.0
 70
    32
  1
<>
 71
     5
 42
-1.0
 53
90.0
  3
ME10_DIM_13
100
AcDbAlignedDimension
 13
420.108274497595
 23
-10.01529272724437
 33
0.0
 14
293.608278908295
 24
149.9846291906556
 34
0.0
 50
90.0
100
AcDbRotatedDimension
  0
DIMENSION
  5
28B
330
44
100
AcDbEntity
  8
1
100
AcDbDimension
  2
*D7
 10
276.430186963973
 20
149.9846291906556
 30
0.0
 11
269.430186963973
 21
102.314559413347
 31
0.0
 70
    32
  1
<>
 71
     5
 42
-1.0
 53
90.0
  3
ME10_DIM_14
100
AcDbAlignedDimension
 13
399.608277656595
 23
53.98471031255559
 33
0.0
 14
293.608278908295
 24
149.9846291906556
 34
0.0
 50
90.0
100
AcDbRotatedDimension
  0
HATCH
  5
28C
330
44
100
AcDbEntity
  8
0
  6
Continuous
 62
     7
100
AcDbHatch
 10
0.0
 20
0.0
 30
0.0
210
0.0
220
0.0
230
1.0
  2
CUSTOM0
 70
     0
 71
     0
 91
        1
 92
        1
 93
       13
 72
     1
 10
639.60827458145
 20
146.4846980156236
 11
651.608274581495
 21
146.4846980156556
 72
     1
 10
651.608274581495
 20
146.4846980156556
 11
651.608274581495
 21
147.9846281289556
 72
     1
 10
651.608274581495
 20
147.9846281289556
 11
651.5684077371329
 21
148.3819667905266
 72
     1
 10
651.5684077371329
 20
148.3819667905266
 11
651.450396569456
 21
148.7634648135536
 72
     1
 10
651.450396569456
 20
148.7634648135536
 11
651.25894581127
 21
149.1139130757266
 72
     1
 10
651.25894581127
 20
149.1139130757266
 11
651.001688000145
 21
149.4193403107356
 72
     1
 10
651.001688000145
 20
149.4193403107356
 11
650.688879193187
 21
149.6675700985516
 72
     1
 10
650.688879193187
 20
149.6675700985516
 11
650.332990090404
 21
149.8487063008706
 72
     1
 10
650.332990090404
 20
149.8487063008706
 11
649.948208867251
 21
149.9555275889126
 72
     1
 10
649.948208867251
 20
149.9555275889126
 11
649.608274581495
 21
149.9846281289556
 72
     1
 10
649.608274581495
 20
149.9846281289556
 11
641.60827458145
 21
149.9846281289356
 72
     1
 10
641.60827458145
 20
149.9846281289356
 11
639.60827458145
 21
147.9846281289356
 72
     1
 10
639.60827458145
 20
147.9846281289356
 11
639.60827458145
 21
146.4846980156236
 97
        0
 75
     1
 76
     2
 52
0.0
 41
1.0
 77
     0
 78
     4
 53
44.99999999999998
 43
0.0
 44
0.0
 45
-26.94076836320746
 46
0.0000000000000107
 79
     0
 53
44.99999999999998
 43
2.245064999999998
 44
-2.245064999999999
 45
-26.94076836320746
 46
0.0000000000000107
 79
     0
 53
44.99999999999998
 43
4.490129999999995
 44
-4.490129999999997
 45
-26.94076836320746
 46
0.0000000000000107
 79
     0
 53
44.99999999999998
 43
6.735199999999998
 44
-6.735200000000002
 45
-26.94076836320746
 46
0.0000000000000107
 79
     0
 98
        1
 10
0.0
 20
0.0
  0
HATCH
  5
28D
330
44
100
AcDbEntity
  8
0
  6
Continuous
 62
     7
100
AcDbHatch
 10
0.0
 20
0.0
 30
0.0
210
0.0
220
0.0
230
1.0
  2
CUSTOM1
 70
     0
 71
     0
 91
        1
 92
        1
 93
       71
 72
     1
 10
547.10827458145
 20
120.7847080156236
 11
548.60827458145
 21
119.7847080156236
 72
     1
 10
548.60827458145
 20
119.7847080156236
 11
548.60827458145
 21
115.1861988872816
 72
     1
 10
548.60827458145
 20
115.1861988872816
 11
542.008274581495
 21
115.1861988872556
 72
     1
 10
542.008274581495
 20
115.1861988872556
 11
541.8096052506551
 21
115.1662654651226
 72
     1
 10
541.8096052506551
 20
115.1662654651226
 11
541.618856239142
 21
115.1072598812836
 72
     1
 10
541.618856239142
 20
115.1072598812836
 11
541.443632108055
 21
115.0115345021906
 72
     1
 10
541.443632108055
 20
115.0115345021906
 11
541.290918490551
 21
114.8829055966286
 72
     1
 10
541.290918490551
 20
114.8829055966286
 11
541.166803596643
 21
114.7265011931496
 72
     1
 10
541.166803596643
 20
114.7265011931496
 11
541.0762354954829
 21
114.5485566417576
 72
     1
 10
541.0762354954829
 20
114.5485566417576
 11
541.022824851462
 21
114.3561660301816
 72
     1
 10
541.022824851462
 20
114.3561660301816
 11
541.008274581495
 21
114.1861988872556
 72
     1
 10
541.008274581495
 20
114.1861988872556
 11
541.008274581495
 21
106.9847080156556
 72
     1
 10
541.008274581495
 20
106.9847080156556
 11
540.9883411592921
 21
106.7860386848286
 72
     1
 10
540.9883411592921
 20
106.7860386848286
 11
540.929335575453
 21
106.5952896733146
 72
     1
 10
540.929335575453
 20
106.5952896733146
 11
540.83361019636
 21
106.4200655422286
 72
     1
 10
540.83361019636
 20
106.4200655422286
 11
540.7049812907981
 21
106.2673519247236
 72
     1
 10
540.7049812907981
 20
106.2673519247236
 11
540.5485768873191
 21
106.1432370308156
 72
     1
 10
540.5485768873191
 20
106.1432370308156
 11
540.370632335927
 21
106.0526689296556
 72
     1
 10
540.370632335927
 20
106.0526689296556
 11
540.178241724351
 21
105.9992582856346
 72
     1
 10
540.178241724351
 20
105.9992582856346
 11
540.008274581495
 21
105.9847080156556
 72
     1
 10
540.008274581495
 20
105.9847080156556
 11
536.108274581495
 21
105.9847080156556
 72
     1
 10
536.108274581495
 20
105.9847080156556
 11
535.909605250655
 21
105.9647745934646
 72
     1
 10
535.909605250655
 20
105.9647745934646
 11
535.718856239142
 21
105.9057690096266
 72
     1
 10
535.718856239142
 20
105.9057690096266
 11
535.543632108055
 21
105.8100436305326
 72
     1
 10
535.543632108055
 20
105.8100436305326
 11
535.390918490551
 21
105.6814147249706
 72
     1
 10
535.390918490551
 20
105.6814147249706
 11
535.2668035966431
 21
105.5250103214916
 72
     1
 10
535.2668035966431
 20
105.5250103214916
 11
535.1762354954831
 21
105.3470657700996
 72
     1
 10
535.1762354954831
 20
105.3470657700996
 11
535.122824851462
 21
105.1546751585236
 72
     1
 10
535.122824851462
 20
105.1546751585236
 11
535.108274581495
 21
104.9847080156556
 72
     1
 10
535.108274581495
 20
104.9847080156556
 11
535.10827458145
 21
66.48425845806963
 72
     1
 10
535.10827458145
 20
66.48425845806963
 11
523.10827458145
 21
66.48425845806963
 72
     1
 10
523.10827458145
 20
66.48425845806963
 11
523.10827458145
 21
-10.01529198437638
 72
     1
 10
523.10827458145
 20
-10.01529198437638
 11
525.268528619295
 21
-10.01529198437638
 72
     1
 10
525.268528619295
 20
-10.01529198437638
 11
526.608274581495
 21
-5.015291984344373
 72
     1
 10
526.608274581495
 20
-5.015291984344373
 11
526.60827458145
 21
62.7347080156236
 72
     1
 10
526.60827458145
 20
62.7347080156236
 11
528.60827458145
 21
62.98471001562359
 72
     1
 10
528.60827458145
 20
62.98471001562359
 11
538.60827458145
 21
62.98471001562359
 72
     1
 10
538.60827458145
 20
62.98471001562359
 11
538.60827458145
 21
102.4847080156236
 72
     1
 10
538.60827458145
 20
102.4847080156236
 11
542.008274581495
 21
102.4847080156556
 72
     1
 10
542.008274581495
 20
102.4847080156556
 11
542.504947908438
 21
102.5345415710206
 72
     1
 10
542.504947908438
 20
102.5345415710206
 11
542.981820437222
 21
102.6820555306166
 72
     1
 10
542.981820437222
 20
102.6820555306166
 11
543.419880764938
 21
102.9213689783486
 72
     1
 10
543.419880764938
 20
102.9213689783486
 11
543.801664808699
 21
103.2429412422556
 72
     1
 10
543.801664808699
 20
103.2429412422556
 11
544.11195204347
 21
103.6339522509526
 72
     1
 10
544.11195204347
 20
103.6339522509526
 11
544.338372296368
 21
104.0788136294316
 72
     1
 10
544.338372296368
 20
104.0788136294316
 11
544.471898906422
 21
104.5597901583726
 72
     1
 10
544.471898906422
 20
104.5597901583726
 11
544.508274581495
 21
104.9847080156556
 72
     1
 10
544.508274581495
 20
104.9847080156556
 11
544.50827458145
 21
111.6866500156236
 72
     1
 10
544.50827458145
 20
111.6866500156236
 11
548.20827458145
 21
111.6866500156236
 72
     1
 10
548.20827458145
 20
111.6866500156236
 11
548.85827458145
 21
63.98471001562359
 72
     1
 10
548.85827458145
 20
63.98471001562359
 11
551.7082745814951
 21
63.98471001565559
 72
     1
 10
551.7082745814951
 20
63.98471001565559
 11
551.70827458145
 21
128.5847080156236
 72
     1
 10
551.70827458145
 20
128.5847080156236
 11
553.8582555814501
 21
132.3847080156236
 72
     1
 10
553.8582555814501
 20
132.3847080156236
 11
553.85827458145
 21
146.4846980156236
 72
     1
 10
553.85827458145
 20
146.4846980156236
 11
635.60827458145
 21
146.4846980156236
 72
     1
 10
635.60827458145
 20
146.4846980156236
 11
635.60827458145
 21
147.9846281289356
 72
     1
 10
635.60827458145
 20
147.9846281289356
 11
633.60827458145
 21
149.9846281289356
 72
     1
 10
633.60827458145
 20
149.9846281289356
 11
551.358271583895
 21
149.9846281289556
 72
     1
 10
551.358271583895
 20
149.9846281289556
 11
551.159602253076
 21
149.9646947067776
 72
     1
 10
551.159602253076
 20
149.9646947067776
 11
550.968853241562
 21
149.9056891229386
 72
     1
 10
550.968853241562
 20
149.9056891229386
 11
550.793629110476
 21
149.8099637438456
 72
     1
 10
550.793629110476
 20
149.8099637438456
 11
550.6409154929711
 21
149.6813348382837
 72
     1
 10
550.6409154929711
 20
149.6813348382837
 11
550.516800599063
 21
149.5249304348046
 72
     1
 10
550.516800599063
 20
149.5249304348046
 11
550.426232497904
 21
149.3469858834126
 72
     1
 10
550.426232497904
 20
149.3469858834126
 11
550.372821853882
 21
149.1545952718366
 72
     1
 10
550.372821853882
 20
149.1545952718366
 11
550.3582715839
 21
148.9846311266106
 72
     1
 10
550.3582715839
 20
148.9846311266106
 11
550.35822452753
 21
133.2865404488976
 72
     1
 10
550.35822452753
 20
133.2865404488976
 11
546.358362945304
 21
126.3847080156236
 72
     1
 10
546.358362945304
 20
126.3847080156236
 11
546.358362945304
 21
125.4847080156236
 72
     1
 10
546.358362945304
 20
125.4847080156236
 11
547.10827458145
 21
125.0416268872816
 72
     1
 10
547.10827458145
 20
125.0416268872816
 11
547.10827458145
 21
120.7847080156236
 97
        0
 75
     1
 76
     2
 52
0.0
 41
1.0
 77
     0
 78
     4
 53
44.99999999999998
 43
0.0
 44
0.0
 45
-26.94076836320746
 46
0.0000000000000107
 79
     0
 53
44.99999999999998
 43
2.245064999999998
 44
-2.245064999999999
 45
-26.94076836320746
 46
0.0000000000000107
 79
     0
 53
44.99999999999998
 43
4.490129999999995
 44
-4.490129999999997
 45
-26.94076836320746
 46
0.0000000000000107
 79
     0
 53
44.99999999999998
 43
6.735199999999998
 44
-6.735200000000002
 45
-26.94076836320746
 46
0.0000000000000107
 79
     0
 98
        1
 10
0.0
 20
0.0
  0
HATCH
  5
28E
330
44
100
AcDbEntity
  8
0
  6
Continuous
 62
     7
100
AcDbHatch
 10
0.0
 20
0.0
 30
0.0
210
0.0
220
0.0
230
1.0
  2
CUSTOM2
 70
     0
 71
     0
 91
        1
 92
        1
 93
       71
 72
     1
 10
401.208274581495
 20
115.1861988872556
 11
394.60827458145
 21
115.1861988872816
 72
     1
 10
394.60827458145
 20
115.1861988872816
 11
394.60827458145
 21
119.7847080156236
 72
     1
 10
394.60827458145
 20
119.7847080156236
 11
396.10827458145
 21
120.7847080156236
 72
     1
 10
396.10827458145
 20
120.7847080156236
 11
396.10827458145
 21
125.0416268872816
 72
     1
 10
396.10827458145
 20
125.0416268872816
 11
396.858186217596
 21
125.4847080156236
 72
     1
 10
396.858186217596
 20
125.4847080156236
 11
396.858186217596
 21
126.3847080156236
 72
     1
 10
396.858186217596
 20
126.3847080156236
 11
392.858324635371
 21
133.2865404488976
 72
     1
 10
392.858324635371
 20
133.2865404488976
 11
392.858277578991
 21
148.9846311266106
 72
     1
 10
392.858277578991
 20
148.9846311266106
 11
392.838343561324
 21
149.1833003976326
 72
     1
 10
392.838343561324
 20
149.1833003976326
 11
392.779337405686
 21
149.3740492322666
 72
     1
 10
392.779337405686
 20
149.3740492322666
 11
392.6836115013321
 21
149.5492730764006
 72
     1
 10
392.6836115013321
 20
149.5492730764006
 11
392.5549821379871
 21
149.7019863083197
 72
     1
 10
392.5549821379871
 20
149.7019863083197
 11
392.398577362455
 21
149.8261007333806
 72
     1
 10
392.398577362455
 20
149.8261007333806
 11
392.220632539573
 21
149.9166683011226
 72
     1
 10
392.220632539573
 20
149.9166683011226
 11
392.02824176789
 21
149.9700783684236
 72
     1
 10
392.02824176789
 20
149.9700783684236
 11
391.858277578995
 21
149.9846281289556
 72
     1
 10
391.858277578995
 20
149.9846281289556
 11
309.608274581495
 21
149.9846281289556
 72
     1
 10
309.608274581495
 20
149.9846281289556
 11
307.6082745814504
 21
147.9846281289356
 72
     1
 10
307.6082745814504
 20
147.9846281289356
 11
307.6082745814504
 21
146.4846980156236
 72
     1
 10
307.6082745814504
 20
146.4846980156236
 11
389.35827458145
 21
146.4846980156236
 72
     1
 10
389.35827458145
 20
146.4846980156236
 11
389.35829358145
 21
132.3847080156236
 72
     1
 10
389.35829358145
 20
132.3847080156236
 11
391.50827458145
 21
128.5847080156236
 72
     1
 10
391.50827458145
 20
128.5847080156236
 11
391.508274581495
 21
63.98471001565559
 72
     1
 10
391.508274581495
 20
63.98471001565559
 11
394.35827458145
 21
63.98471001562359
 72
     1
 10
394.35827458145
 20
63.98471001562359
 11
395.00827458145
 21
111.6866500156236
 72
     1
 10
395.00827458145
 20
111.6866500156236
 11
398.70827458145
 21
111.6866500156236
 72
     1
 10
398.70827458145
 20
111.6866500156236
 11
398.708274581495
 21
104.9847080156556
 72
     1
 10
398.708274581495
 20
104.9847080156556
 11
398.758108136847
 21
104.4880346886356
 72
     1
 10
398.758108136847
 20
104.4880346886356
 11
398.905622096443
 21
104.0111621598516
 72
     1
 10
398.905622096443
 20
104.0111621598516
 11
399.144935544176
 21
103.5731018321356
 72
     1
 10
399.144935544176
 20
103.5731018321356
 11
399.466507808082
 21
103.1913177883747
 72
     1
 10
399.466507808082
 20
103.1913177883747
 11
399.85751881678
 21
102.8810305536036
 72
     1
 10
399.85751881678
 20
102.8810305536036
 11
400.3023801952591
 21
102.6546103007056
 72
     1
 10
400.3023801952591
 20
102.6546103007056
 11
400.7833567242
 21
102.5210836906526
 72
     1
 10
400.7833567242
 20
102.5210836906526
 11
401.208274581495
 21
102.4847080156556
 72
     1
 10
401.208274581495
 20
102.4847080156556
 11
404.60827458145
 21
102.4847080156236
 72
     1
 10
404.60827458145
 20
102.4847080156236
 11
404.60827458145
 21
62.98471001562359
 72
     1
 10
404.60827458145
 20
62.98471001562359
 11
414.60827458145
 21
62.98471001562359
 72
     1
 10
414.60827458145
 20
62.98471001562359
 11
416.60827458145
 21
62.7347080156236
 72
     1
 10
416.60827458145
 20
62.7347080156236
 11
416.608274581495
 21
-5.015291984344373
 72
     1
 10
416.608274581495
 20
-5.015291984344373
 11
417.948020543595
 21
-10.01529198434437
 72
     1
 10
417.948020543595
 20
-10.01529198434437
 11
420.10827458145
 21
-10.01529198437638
 72
     1
 10
420.10827458145
 20
-10.01529198437638
 11
420.10827458145
 21
66.48425845806963
 72
     1
 10
420.10827458145
 20
66.48425845806963
 11
408.10827458145
 21
66.48425845806963
 72
     1
 10
408.10827458145
 20
66.48425845806963
 11
408.108274581495
 21
104.9847080156556
 72
     1
 10
408.108274581495
 20
104.9847080156556
 11
408.088341159292
 21
105.1833773464186
 72
     1
 10
408.088341159292
 20
105.1833773464186
 11
408.0293355754531
 21
105.3741263579316
 72
     1
 10
408.0293355754531
 20
105.3741263579316
 11
407.93361019636
 21
105.5493504890186
 72
     1
 10
407.93361019636
 20
105.5493504890186
 11
407.804981290797
 21
105.7020641065226
 72
     1
 10
407.804981290797
 20
105.7020641065226
 11
407.648576887318
 21
105.8261790004316
 72
     1
 10
407.648576887318
 20
105.8261790004316
 11
407.470632335927
 21
105.9167471015906
 72
     1
 10
407.470632335927
 20
105.9167471015906
 11
407.278241724351
 21
105.9701577456116
 72
     1
 10
407.278241724351
 20
105.9701577456116
 11
407.108274581495
 21
105.9847080156556
 72
     1
 10
407.108274581495
 20
105.9847080156556
 11
403.208274581495
 21
105.9847080156556
 72
     1
 10
403.208274581495
 20
105.9847080156556
 11
403.009605250655
 21
106.0046414377816
 72
     1
 10
403.009605250655
 20
106.0046414377816
 11
402.818856239142
 21
106.0636470216206
 72
     1
 10
402.818856239142
 20
106.0636470216206
 11
402.643632108055
 21
106.1593724007136
 72
     1
 10
402.643632108055
 20
106.1593724007136
 11
402.4909184905511
 21
106.2880013062766
 72
     1
 10
402.4909184905511
 20
106.2880013062766
 11
402.366803596642
 21
106.4444057097556
 72
     1
 10
402.366803596642
 20
106.4444057097556
 11
402.276235495483
 21
106.6223502611466
 72
     1
 10
402.276235495483
 20
106.6223502611466
 11
402.222824851462
 21
106.8147408727226
 72
     1
 10
402.222824851462
 20
106.8147408727226
 11
402.208274581495
 21
106.9847080156556
 72
     1
 10
402.208274581495
 20
106.9847080156556
 11
402.208274581495
 21
114.1861988872556
 72
     1
 10
402.208274581495
 20
114.1861988872556
 11
402.188341159292
 21
114.3848682180766
 72
     1
 10
402.188341159292
 20
114.3848682180766
 11
402.129335575453
 21
114.5756172295896
 72
     1
 10
402.129335575453
 20
114.5756172295896
 11
402.03361019636
 21
114.7508413606767
 72
     1
 10
402.03361019636
 20
114.7508413606767
 11
401.904981290797
 21
114.9035549781806
 72
     1
 10
401.904981290797
 20
114.9035549781806
 11
401.748576887318
 21
115.0276698720886
 72
     1
 10
401.748576887318
 20
115.0276698720886
 11
401.570632335927
 21
115.1182379732486
 72
     1
 10
401.570632335927
 20
115.1182379732486
 11
401.378241724351
 21
115.1716486172696
 72
     1
 10
401.378241724351
 20
115.1716486172696
 11
401.208274581495
 21
115.1861988872556
 97
        0
 75
     1
 76
     2
 52
0.0
 41
1.0
 77
     0
 78
     4
 53
44.99999999999998
 43
0.0
 44
0.0
 45
-26.94076836320746
 46
0.0000000000000107
 79
     0
 53
44.99999999999998
 43
2.245064999999998
 44
-2.245064999999999
 45
-26.94076836320746
 46
0.0000000000000107
 79
     0
 53
44.99999999999998
 43
4.490129999999995
 44
-4.490129999999997
 45
-26.94076836320746
 46
0.0000000000000107
 79
     0
 53
44.99999999999998
 43
6.735199999999998
 44
-6.735200000000002
 45
-26.94076836320746
 46
0.0000000000000107
 79
     0
 98
        1
 10
0.0
 20
0.0
  0
HATCH
  5
28F
330
44
100
AcDbEntity
  8
0
  6
Continuous
 62
     7
100
AcDbHatch
 10
0.0
 20
0.0
 30
0.0
210
0.0
220
0.0
230
1.0
  2
CUSTOM3
 70
     0
 71
     0
 91
        1
 92
        1
 93
       13
 72
     1
 10
293.608274581495
 20
149.9846281289556
 11
293.2109359198602
 21
149.9447612846186
 72
     1
 10
293.2109359198602
 20
149.9447612846186
 11
292.8294378968331
 21
149.8267501169416
 72
     1
 10
292.8294378968331
 20
149.8267501169416
 11
292.4789896346603
 21
149.6352993587556
 72
     1
 10
292.4789896346603
 20
149.6352993587556
 11
292.1735623996513
 21
149.3780415476306
 72
     1
 10
292.1735623996513
 20
149.3780415476306
 11
291.9253326118346
 21
149.0652327406726
 72
     1
 10
291.9253326118346
 20
149.0652327406726
 11
291.7441964095159
 21
148.7093436378896
 72
     1
 10
291.7441964095159
 20
148.7093436378896
 11
291.6373751214734
 21
148.3245624147367
 72
     1
 10
291.6373751214734
 20
148.3245624147367
 11
291.608274581495
 21
147.9846281289556
 72
     1
 10
291.608274581495
 20
147.9846281289556
 11
291.608274581495
 21
146.4846980156556
 72
     1
 10
291.608274581495
 20
146.4846980156556
 11
303.6082745814503
 21
146.4846980156236
 72
     1
 10
303.6082745814503
 20
146.4846980156236
 11
303.6082745814503
 21
147.9846281289356
 72
     1
 10
303.6082745814503
 20
147.9846281289356
 11
301.6082745814503
 21
149.9846281289356
 72
     1
 10
301.6082745814503
 20
149.9846281289356
 11
293.608274581495
 21
149.9846281289556
 97
        0
 75
     1
 76
     2
 52
0.0
 41
1.0
 77
     0
 78
     4
 53
44.99999999999998
 43
0.0
 44
0.0
 45
-26.94076836320746
 46
0.0000000000000107
 79
     0
 53
44.99999999999998
 43
2.245064999999998
 44
-2.245064999999999
 45
-26.94076836320746
 46
0.0000000000000107
 79
     0
 53
44.99999999999998
 43
4.490129999999995
 44
-4.490129999999997
 45
-26.94076836320746
 46
0.0000000000000107
 79
     0
 53
44.99999999999998
 43
6.735199999999998
 44
-6.735200000000002
 45
-26.94076836320746
 46
0.0000000000000107
 79
     0
 98
        1
 10
0.0
 20
0.0
  0
HATCH
  5
290
330
44
100
AcDbEntity
  8
0
  6
Continuous
 62
     7
100
AcDbHatch
 10
0.0
 20
0.0
 30
0.0
210
0.0
220
0.0
230
1.0
  2
CUSTOM4
 70
     0
 71
     0
 91
        1
 92
        1
 93
       22
 72
     1
 10
536.35827458145
 20
117.1861988872816
 11
538.858274581495
 21
117.1861988872556
 72
     1
 10
538.858274581495
 20
117.1861988872556
 11
539.25561324304
 21
117.1463320429636
 72
     1
 10
539.25561324304
 20
117.1463320429636
 11
539.637111266068
 21
117.0283208752866
 72
     1
 10
539.637111266068
 20
117.0283208752866
 11
539.98755952824
 21
116.8368701171006
 72
     1
 10
539.98755952824
 20
116.8368701171006
 11
540.292986763249
 21
116.5796123059756
 72
     1
 10
540.292986763249
 20
116.5796123059756
 11
540.541216551066
 21
116.2668034990176
 72
     1
 10
540.541216551066
 20
116.2668034990176
 11
540.7223527533849
 21
115.9109143962346
 72
     1
 10
540.7223527533849
 20
115.9109143962346
 11
540.829174041427
 21
115.5261331730816
 72
     1
 10
540.829174041427
 20
115.5261331730816
 11
540.858274581495
 21
115.1861988872556
 72
     1
 10
540.858274581495
 20
115.1861988872556
 11
547.7035745814501
 21
115.1861988872816
 72
     1
 10
547.7035745814501
 20
115.1861988872816
 11
548.85827458145
 21
117.1861988872816
 72
     1
 10
548.85827458145
 20
117.1861988872816
 11
548.85827458145
 21
119.6861988872816
 72
     1
 10
548.85827458145
 20
119.6861988872816
 11
538.358274581495
 21
119.6861988872556
 72
     1
 10
538.358274581495
 20
119.6861988872556
 11
537.96093591986
 21
119.6463320429636
 72
     1
 10
537.96093591986
 20
119.6463320429636
 11
537.579437896833
 21
119.5283208752866
 72
     1
 10
537.579437896833
 20
119.5283208752866
 11
537.22898963466
 21
119.3368701171006
 72
     1
 10
537.22898963466
 20
119.3368701171006
 11
536.923562399651
 21
119.0796123059756
 72
     1
 10
536.923562399651
 20
119.0796123059756
 11
536.6753326118339
 21
118.7668034990176
 72
     1
 10
536.6753326118339
 20
118.7668034990176
 11
536.494196409516
 21
118.4109143962346
 72
     1
 10
536.494196409516
 20
118.4109143962346
 11
536.387375121473
 21
118.0261331730816
 72
     1
 10
536.387375121473
 20
118.0261331730816
 11
536.358274581495
 21
117.6861988872556
 72
     1
 10
536.358274581495
 20
117.6861988872556
 11
536.35827458145
 21
117.1861988872816
 97
        0
 75
     1
 76
     2
 52
0.0
 41
1.0
 77
     0
 78
     1
 53
44.99999999999998
 43
0.0
 44
0.0
 45
-4.490128060534577
 46
0.0000000000000018
 79
     0
 98
        1
 10
0.0
 20
0.0
  0
HATCH
  5
291
330
44
100
AcDbEntity
  8
0
  6
Continuous
 62
     7
100
AcDbHatch
 10
0.0
 20
0.0
 30
0.0
210
0.0
220
0.0
230
1.0
  2
CUSTOM5
 70
     0
 71
     0
 91
        1
 92
        1
 93
       22
 72
     1
 10
404.358274581495
 20
117.1861988872556
 11
406.85827458145
 21
117.1861988872816
 72
     1
 10
406.85827458145
 20
117.1861988872816
 11
406.858274581495
 21
117.6861988872556
 72
     1
 10
406.858274581495
 20
117.6861988872556
 11
406.818407737133
 21
118.0835375488716
 72
     1
 10
406.818407737133
 20
118.0835375488716
 11
406.700396569456
 21
118.4650355718986
 72
     1
 10
406.700396569456
 20
118.4650355718986
 11
406.50894581127
 21
118.8154838340716
 72
     1
 10
406.50894581127
 20
118.8154838340716
 11
406.251688000145
 21
119.1209110690806
 72
     1
 10
406.251688000145
 20
119.1209110690806
 11
405.938879193187
 21
119.3691408568966
 72
     1
 10
405.938879193187
 20
119.3691408568966
 11
405.582990090404
 21
119.5502770592156
 72
     1
 10
405.582990090404
 20
119.5502770592156
 11
405.198208867251
 21
119.6570983472576
 72
     1
 10
405.198208867251
 20
119.6570983472576
 11
404.858274581495
 21
119.6861988872556
 72
     1
 10
404.858274581495
 20
119.6861988872556
 11
394.35827458145
 21
119.6861988872816
 72
     1
 10
394.35827458145
 20
119.6861988872816
 11
394.35827458145
 21
117.1861988872816
 72
     1
 10
394.35827458145
 20
117.1861988872816
 11
395.51297458145
 21
115.1861988872816
 72
     1
 10
395.51297458145
 20
115.1861988872816
 11
402.358274581495
 21
115.1861988872556
 72
     1
 10
402.358274581495
 20
115.1861988872556
 11
402.398141425768
 21
115.5835375488716
 72
     1
 10
402.398141425768
 20
115.5835375488716
 11
402.516152593445
 21
115.9650355718986
 72
     1
 10
402.516152593445
 20
115.9650355718986
 11
402.707603351631
 21
116.3154838340716
 72
     1
 10
402.707603351631
 20
116.3154838340716
 11
402.9648611627561
 21
116.6209110690806
 72
     1
 10
402.9648611627561
 20
116.6209110690806
 11
403.277669969714
 21
116.8691408568966
 72
     1
 10
403.277669969714
 20
116.8691408568966
 11
403.633559072497
 21
117.0502770592156
 72
     1
 10
403.633559072497
 20
117.0502770592156
 11
404.01834029565
 21
117.1570983472576
 72
     1
 10
404.01834029565
 20
117.1570983472576
 11
404.358274581495
 21
117.1861988872556
 97
        0
 75
     1
 76
     2
 52
0.0
 41
1.0
 77
     0
 78
     1
 53
44.99999999999998
 43
0.0
 44
0.0
 45
-4.490128060534577
 46
0.0000000000000018
 79
     0
 98
        1
 10
0.0
 20
0.0
  0
HATCH
  5
292
330
44
100
AcDbEntity
  8
0
  6
Continuous
 62
     7
100
AcDbHatch
 10
0.0
 20
0.0
 30
0.0
210
0.0
220
0.0
230
1.0
  2
CUSTOM6
 70
     0
 71
     0
 91
        1
 92
        1
 93
       29
 72
     1
 10
527.10827458145
 20
56.48471001562359
 11
527.10827458145
 21
53.98471001562359
 72
     1
 10
527.10827458145
 20
53.98471001562359
 11
528.35827458145
 21
53.98471001562359
 72
     1
 10
528.35827458145
 20
53.98471001562359
 11
528.35827458145
 21
51.48471001562359
 72
     1
 10
528.35827458145
 20
51.48471001562359
 11
542.35827458145
 21
51.48471001562359
 72
     1
 10
542.35827458145
 20
51.48471001562359
 11
542.35827458145
 21
53.98471001562359
 72
     1
 10
542.35827458145
 20
53.98471001562359
 11
543.608274581495
 21
53.98471001565559
 72
     1
 10
543.608274581495
 20
53.98471001565559
 11
545.197629227811
 21
54.1441773928936
 72
     1
 10
545.197629227811
 20
54.1441773928936
 11
546.7236213199201
 21
54.61622206360062
 72
     1
 10
546.7236213199201
 20
54.61622206360062
 11
548.125414368611
 21
55.38202509634562
 72
     1
 10
548.125414368611
 20
55.38202509634562
 11
549.347123308647
 21
56.41105634084562
 72
     1
 10
549.347123308647
 20
56.41105634084562
 11
550.340042459914
 21
57.6622915686786
 72
     1
 10
550.340042459914
 20
57.6622915686786
 11
551.064587269188
 21
59.08584797980961
 72
     1
 10
551.064587269188
 20
59.08584797980961
 11
551.491872421358
 21
60.62497287242161
 72
     1
 10
551.491872421358
 20
60.62497287242161
 11
551.608274581495
 21
61.98471001565559
 72
     1
 10
551.608274581495
 20
61.98471001565559
 11
551.60827458145
 21
63.98471001562359
 72
     1
 10
551.60827458145
 20
63.98471001562359
 11
548.60827458145
 21
63.98471001562359
 72
     1
 10
548.60827458145
 20
63.98471001562359
 11
548.60827458145
 21
67.98471001562359
 72
     1
 10
548.60827458145
 20
67.98471001562359
 11
547.880334112918
 21
69.98471001562359
 72
     1
 10
547.880334112918
 20
69.98471001562359
 11
546.60827458145
 21
69.98471001562359
 72
     1
 10
546.60827458145
 20
69.98471001562359
 11
546.608274581495
 21
58.98471001565559
 72
     1
 10
546.608274581495
 20
58.98471001565559
 11
546.558441026054
 21
58.48803668863565
 72
     1
 10
546.558441026054
 20
58.48803668863565
 11
546.410927066458
 21
58.0111641598516
 72
     1
 10
546.410927066458
 20
58.0111641598516
 11
546.171613618725
 21
57.57310383213564
 72
     1
 10
546.171613618725
 20
57.57310383213564
 11
545.850041354818
 21
57.19131978837464
 72
     1
 10
545.850041354818
 20
57.19131978837464
 11
545.459030346121
 21
56.88103255360363
 72
     1
 10
545.459030346121
 20
56.88103255360363
 11
545.014168967642
 21
56.65461230070559
 72
     1
 10
545.014168967642
 20
56.65461230070559
 11
544.533192438701
 21
56.52108569065263
 72
     1
 10
544.533192438701
 20
56.52108569065263
 11
544.108274581495
 21
56.48471001565559
 72
     1
 10
544.108274581495
 20
56.48471001565559
 11
527.10827458145
 21
56.48471001562359
 97
        0
 75
     1
 76
     2
 52
0.0
 41
1.0
 77
     0
 78
     1
 53
44.99999999999998
 43
0.0
 44
0.0
 45
-4.490128060534577
 46
0.0000000000000018
 79
     0
 98
        1
 10
0.0
 20
0.0
  0
HATCH
  5
293
330
44
100
AcDbEntity
  8
0
  6
Continuous
 62
     7
100
AcDbHatch
 10
0.0
 20
0.0
 30
0.0
210
0.0
220
0.0
230
1.0
  2
CUSTOM7
 70
     0
 71
     0
 91
        1
 92
        1
 93
       29
 72
     1
 10
414.85827458145
 20
51.48471001562359
 11
414.85827458145
 21
53.98471001562359
 72
     1
 10
414.85827458145
 20
53.98471001562359
 11
416.10827458145
 21
53.98471001562359
 72
     1
 10
416.10827458145
 20
53.98471001562359
 11
416.10827458145
 21
56.48471001562359
 72
     1
 10
416.10827458145
 20
56.48471001562359
 11
399.108274581495
 21
56.48471001565559
 72
     1
 10
399.108274581495
 20
56.48471001565559
 11
398.611601254463
 21
56.53454357102061
 72
     1
 10
398.611601254463
 20
56.53454357102061
 11
398.134728725679
 21
56.68205753061562
 72
     1
 10
398.134728725679
 20
56.68205753061562
 11
397.696668397963
 21
56.92137097834859
 72
     1
 10
397.696668397963
 20
56.92137097834859
 11
397.314884354201
 21
57.24294324225559
 72
     1
 10
397.314884354201
 20
57.24294324225559
 11
397.004597119431
 21
57.63395425095263
 72
     1
 10
397.004597119431
 20
57.63395425095263
 11
396.778176866532
 21
58.07881562943163
 72
     1
 10
396.778176866532
 20
58.07881562943163
 11
396.6446502564791
 21
58.5597921583726
 72
     1
 10
396.6446502564791
 20
58.5597921583726
 11
396.608274581495
 21
58.98471001565559
 72
     1
 10
396.608274581495
 20
58.98471001565559
 11
396.60827458145
 21
69.98471001562359
 72
     1
 10
396.60827458145
 20
69.98471001562359
 11
395.336215049983
 21
69.98471001562359
 72
     1
 10
395.336215049983
 20
69.98471001562359
 11
394.60827458145
 21
67.98471001562359
 72
     1
 10
394.60827458145
 20
67.98471001562359
 11
394.60827458145
 21
63.98471001562359
 72
     1
 10
394.60827458145
 20
63.98471001562359
 11
391.60827458145
 21
63.98471001562359
 72
     1
 10
391.60827458145
 20
63.98471001562359
 11
391.608274581495
 21
61.98471001565559
 72
     1
 10
391.608274581495
 20
61.98471001565559
 11
391.76774195872
 21
60.39535536926263
 72
     1
 10
391.76774195872
 20
60.39535536926263
 11
392.239786629427
 21
58.86936327715364
 72
     1
 10
392.239786629427
 20
58.86936327715364
 11
393.005589662173
 21
57.46757022846259
 72
     1
 10
393.005589662173
 20
57.46757022846259
 11
394.034620906673
 21
56.24586128842759
 72
     1
 10
394.034620906673
 20
56.24586128842759
 11
395.285856134505
 21
55.25294213716063
 72
     1
 10
395.285856134505
 20
55.25294213716063
 11
396.709412545637
 21
54.52839732788561
 72
     1
 10
396.709412545637
 20
54.52839732788561
 11
398.248537438248
 21
54.10111217571563
 72
     1
 10
398.248537438248
 20
54.10111217571563
 11
399.608274581495
 21
53.98471001565559
 72
     1
 10
399.608274581495
 20
53.98471001565559
 11
400.85827458145
 21
53.98471001562359
 72
     1
 10
400.85827458145
 20
53.98471001562359
 11
400.85827458145
 21
51.48471001562359
 72
     1
 10
400.85827458145
 20
51.48471001562359
 11
414.85827458145
 21
51.48471001562359
 97
        0
 75
     1
 76
     2
 52
0.0
 41
1.0
 77
     0
 78
     1
 53
44.99999999999998
 43
0.0
 44
0.0
 45
-4.490128060534577
 46
0.0000000000000018
 79
     0
 98
        1
 10
0.0
 20
0.0
  0
HATCH
  5
294
330
44
100
AcDbEntity
  8
0
  6
Continuous
 62
     7
100
AcDbHatch
 10
0.0
 20
0.0
 30
0.0
210
0.0
220
0.0
230
1.0
  2
CUSTOM8
 70
     0
 71
     0
 91
        1
 92
        1
 93
      118
 72
     1
 10
527.80827458145
 20
189.2725410287476
 11
527.80827458145
 21
184.5846936289216
 72
     1
 10
527.80827458145
 20
184.5846936289216
 11
529.5145111420779
 21
184.5846936289216
 72
     1
 10
529.5145111420779
 20
184.5846936289216
 11
542.107902809687
 21
149.9846271749046
 72
     1
 10
542.107902809687
 20
149.9846271749046
 11
542.10827458145
 21
149.9846281289356
 72
     1
 10
542.10827458145
 20
149.9846281289356
 11
542.10827458145
 21
142.2846281289356
 72
     1
 10
542.10827458145
 20
142.2846281289356
 11
542.60827458145
 21
142.2846281289356
 72
     1
 10
542.60827458145
 20
142.2846281289356
 11
542.60827458145
 21
120.9846281289366
 72
     1
 10
542.60827458145
 20
120.9846281289366
 11
546.008274581495
 21
120.9846281289556
 72
     1
 10
546.008274581495
 20
120.9846281289556
 11
546.206943912245
 21
121.0045615510946
 72
     1
 10
546.206943912245
 20
121.0045615510946
 11
546.397692923759
 21
121.0635671349336
 72
     1
 10
546.397692923759
 20
121.0635671349336
 11
546.572917054845
 21
121.1592925140266
 72
     1
 10
546.572917054845
 20
121.1592925140266
 11
546.72563067235
 21
121.2879214195886
 72
     1
 10
546.72563067235
 20
121.2879214195886
 11
546.849745566258
 21
121.4443258230676
 72
     1
 10
546.849745566258
 20
121.4443258230676
 11
546.940313667418
 21
121.6222703744596
 72
     1
 10
546.940313667418
 20
121.6222703744596
 11
546.993724311439
 21
121.8146609860356
 72
     1
 10
546.993724311439
 20
121.8146609860356
 11
547.008274581495
 21
121.9846281289556
 72
     1
 10
547.008274581495
 20
121.9846281289556
 11
546.9883411592921
 21
122.1832974597316
 72
     1
 10
546.9883411592921
 20
122.1832974597316
 11
546.929335575453
 21
122.3740464712446
 72
     1
 10
546.929335575453
 20
122.3740464712446
 11
546.83361019636
 21
122.5492706023316
 72
     1
 10
546.83361019636
 20
122.5492706023316
 11
546.7049812907981
 21
122.7019842198356
 72
     1
 10
546.7049812907981
 20
122.7019842198356
 11
546.5485768873191
 21
122.8260991137436
 72
     1
 10
546.5485768873191
 20
122.8260991137436
 11
546.370632335927
 21
122.9166672149036
 72
     1
 10
546.370632335927
 20
122.9166672149036
 11
546.178241724351
 21
122.9700778589246
 72
     1
 10
546.178241724351
 20
122.9700778589246
 11
546.008274581495
 21
122.9846281289556
 72
     1
 10
546.008274581495
 20
122.9846281289556
 11
545.50827458145
 21
122.9846281289366
 72
     1
 10
545.50827458145
 20
122.9846281289366
 11
545.50827458145
 21
149.9846281289356
 72
     1
 10
545.50827458145
 20
149.9846281289356
 11
554.0011723992991
 21
149.9846281289356
 72
     1
 10
554.0011723992991
 20
149.9846281289356
 11
557.193739399299
 21
151.8089521289366
 72
     1
 10
557.193739399299
 20
151.8089521289366
 11
534.15224581696
 21
215.1149362239556
 72
     1
 10
534.15224581696
 20
215.1149362239556
 11
532.8520427868959
 21
217.8129933123156
 72
     1
 10
532.8520427868959
 20
217.8129933123156
 11
531.041736056558
 21
220.1989584238656
 72
     1
 10
531.041736056558
 20
220.1989584238656
 11
528.7934968425011
 21
222.1777106589416
 72
     1
 10
528.7934968425011
 20
222.1777106589416
 11
526.1969553474601
 21
223.6703634102436
 72
     1
 10
526.1969553474601
 20
223.6703634102436
 11
523.355627486982
 21
224.6174093229166
 72
     1
 10
523.355627486982
 20
224.6174093229166
 11
520.382788036535
 21
224.9810926649976
 72
     1
 10
520.382788036535
 20
224.9810926649976
 11
520.056856485195
 21
224.9846341289556
 72
     1
 10
520.056856485195
 20
224.9846341289556
 11
501.037356623705
 21
224.9846341289366
 72
     1
 10
501.037356623705
 20
224.9846341289366
 11
501.037356623705
 21
225.0846341289357
 72
     1
 10
501.037356623705
 20
225.0846341289357
 11
498.714290104949
 21
225.0846341289357
 72
     1
 10
498.714290104949
 20
225.0846341289357
 11
498.714290104949
 21
224.9846341289366
 72
     1
 10
498.714290104949
 20
224.9846341289366
 11
498.236049172902
 21
224.9846341289366
 72
     1
 10
498.236049172902
 20
224.9846341289366
 11
498.236049172902
 21
225.0846341289357
 72
     1
 10
498.236049172902
 20
225.0846341289357
 11
496.323080172902
 21
225.0846341289357
 72
     1
 10
496.323080172902
 20
225.0846341289357
 11
496.323080172902
 21
224.9846341289366
 72
     1
 10
496.323080172902
 20
224.9846341289366
 11
495.975266366589
 21
224.9846341289366
 72
     1
 10
495.975266366589
 20
224.9846341289366
 11
495.975266366589
 21
225.0846341289357
 72
     1
 10
495.975266366589
 20
225.0846341289357
 11
495.192688672902
 21
225.0846341289357
 72
     1
 10
495.192688672902
 20
225.0846341289357
 11
495.192688672902
 21
224.9846341289366
 72
     1
 10
495.192688672902
 20
224.9846341289366
 11
494.627493172902
 21
224.9846341289366
 72
     1
 10
494.627493172902
 20
224.9846341289366
 11
494.627493172902
 21
225.0846341289357
 72
     1
 10
494.627493172902
 20
225.0846341289357
 11
493.801438475378
 21
225.0846341289357
 72
     1
 10
493.801438475378
 20
225.0846341289357
 11
493.801438475378
 21
224.9846341289366
 72
     1
 10
493.801438475378
 20
224.9846341289366
 11
493.2362431729021
 21
224.9846341289366
 72
     1
 10
493.2362431729021
 20
224.9846341289366
 11
493.2362431729021
 21
225.0846341289357
 72
     1
 10
493.2362431729021
 20
225.0846341289357
 11
492.453665172902
 21
225.0846341289357
 72
     1
 10
492.453665172902
 20
225.0846341289357
 11
492.453665172902
 21
224.9846341289366
 72
     1
 10
492.453665172902
 20
224.9846341289366
 11
491.366751172902
 21
224.9846341289366
 72
     1
 10
491.366751172902
 20
224.9846341289366
 11
491.366751172902
 21
225.0846341289357
 72
     1
 10
491.366751172902
 20
225.0846341289357
 11
490.584172172902
 21
225.0846341289357
 72
     1
 10
490.584172172902
 20
225.0846341289357
 11
490.584172172902
 21
224.9846341289366
 72
     1
 10
490.584172172902
 20
224.9846341289366
 11
489.497258172902
 21
224.9846341289366
 72
     1
 10
489.497258172902
 20
224.9846341289366
 11
489.497258172902
 21
225.0846341289357
 72
     1
 10
489.497258172902
 20
225.0846341289357
 11
488.714680172902
 21
225.0846341289357
 72
     1
 10
488.714680172902
 20
225.0846341289357
 11
488.714680172902
 21
224.9846341289366
 72
     1
 10
488.714680172902
 20
224.9846341289366
 11
488.279913672902
 21
224.9846341289366
 72
     1
 10
488.279913672902
 20
224.9846341289366
 11
488.279913672902
 21
225.0846341289357
 72
     1
 10
488.279913672902
 20
225.0846341289357
 11
485.932180172902
 21
225.0846341289357
 72
     1
 10
485.932180172902
 20
225.0846341289357
 11
485.932180172902
 21
224.9846341289366
 72
     1
 10
485.932180172902
 20
224.9846341289366
 11
485.553317172902
 21
224.9846341289366
 72
     1
 10
485.553317172902
 20
224.9846341289366
 11
485.553317172902
 21
225.0846341289357
 72
     1
 10
485.553317172902
 20
225.0846341289357
 11
484.814215672902
 21
225.0846341289357
 72
     1
 10
484.814215672902
 20
225.0846341289357
 11
484.814215672902
 21
224.9846341289366
 72
     1
 10
484.814215672902
 20
224.9846341289366
 11
484.236593172902
 21
224.9846341289366
 72
     1
 10
484.236593172902
 20
224.9846341289366
 11
484.236593172902
 21
225.0846341289357
 72
     1
 10
484.236593172902
 20
225.0846341289357
 11
483.410539172902
 21
225.0846341289357
 72
     1
 10
483.410539172902
 20
225.0846341289357
 11
483.410539172902
 21
224.9846341289366
 72
     1
 10
483.410539172902
 20
224.9846341289366
 11
423.159692677695
 21
224.9846341289556
 72
     1
 10
423.159692677695
 20
224.9846341289556
 11
420.17965271581
 21
224.6856327965546
 72
     1
 10
420.17965271581
 20
224.6856327965546
 11
417.318417543106
 21
223.8005490389796
 72
     1
 10
417.318417543106
 20
223.8005490389796
 11
414.690055576811
 21
222.3646683525817
 72
     1
 10
414.690055576811
 20
222.3646683525817
 11
412.399351314243
 21
220.4352347691436
 72
     1
 10
412.399351314243
 20
220.4352347691436
 11
410.537627905618
 21
218.0891687169586
 72
     1
 10
410.537627905618
 20
218.0891687169586
 11
409.179106388228
 21
215.4200004460867
 72
     1
 10
409.179106388228
 20
215.4200004460867
 11
409.0643033459301
 21
215.1149362239556
 72
     1
 10
409.0643033459301
 20
215.1149362239556
 11
386.022809763602
 21
151.8089521289366
 72
     1
 10
386.022809763602
 20
151.8089521289366
 11
389.215376763602
 21
149.9846281289356
 72
     1
 10
389.215376763602
 20
149.9846281289356
 11
397.70827458145
 21
149.9846281289356
 72
     1
 10
397.70827458145
 20
149.9846281289356
 11
397.70827458145
 21
122.9846281289366
 72
     1
 10
397.70827458145
 20
122.9846281289366
 11
397.208274581495
 21
122.9846281289556
 72
     1
 10
397.208274581495
 20
122.9846281289556
 11
397.009605250655
 21
122.9646947067776
 72
     1
 10
397.009605250655
 20
122.9646947067776
 11
396.818856239142
 21
122.9056891229386
 72
     1
 10
396.818856239142
 20
122.9056891229386
 11
396.643632108055
 21
122.8099637438456
 72
     1
 10
396.643632108055
 20
122.8099637438456
 11
396.4909184905511
 21
122.6813348382837
 72
     1
 10
396.4909184905511
 20
122.6813348382837
 11
396.366803596642
 21
122.5249304348046
 72
     1
 10
396.366803596642
 20
122.5249304348046
 11
396.276235495483
 21
122.3469858834126
 72
     1
 10
396.276235495483
 20
122.3469858834126
 11
396.222824851462
 21
122.1545952718366
 72
     1
 10
396.222824851462
 20
122.1545952718366
 11
396.208274581495
 21
121.9846281289556
 72
     1
 10
396.208274581495
 20
121.9846281289556
 11
396.228208003609
 21
121.7859587981416
 72
     1
 10
396.228208003609
 20
121.7859587981416
 11
396.287213587447
 21
121.5952097866276
 72
     1
 10
396.287213587447
 20
121.5952097866276
 11
396.382938966541
 21
121.4199856555416
 72
     1
 10
396.382938966541
 20
121.4199856555416
 11
396.511567872103
 21
121.2672720380366
 72
     1
 10
396.511567872103
 20
121.2672720380366
 11
396.667972275582
 21
121.1431571441286
 72
     1
 10
396.667972275582
 20
121.1431571441286
 11
396.845916826974
 21
121.0525890429686
 72
     1
 10
396.845916826974
 20
121.0525890429686
 11
397.03830743855
 21
120.9991783989476
 72
     1
 10
397.03830743855
 20
120.9991783989476
 11
397.208274581495
 21
120.9846281289556
 72
     1
 10
397.208274581495
 20
120.9846281289556
 11
400.60827458145
 21
120.9846281289366
 72
     1
 10
400.60827458145
 20
120.9846281289366
 11
400.60827458145
 21
142.2846281289356
 72
     1
 10
400.60827458145
 20
142.2846281289356
 11
401.10827458145
 21
142.2846281289356
 72
     1
 10
401.10827458145
 20
142.2846281289356
 11
401.10827458145
 21
149.9846281289356
 72
     1
 10
401.10827458145
 20
149.9846281289356
 11
401.108646353213
 21
149.9846271749046
 72
     1
 10
401.108646353213
 20
149.9846271749046
 11
413.702038020823
 21
184.5846936289216
 72
     1
 10
413.702038020823
 20
184.5846936289216
 11
415.40827458145
 21
184.5846936289216
 72
     1
 10
415.40827458145
 20
184.5846936289216
 11
415.40827458145
 21
189.2725410287476
 72
     1
 10
415.40827458145
 20
189.2725410287476
 11
423.159692677736
 21
210.5693916566976
 72
     1
 10
423.159692677736
 20
210.5693916566976
 11
423.159692677736
 21
210.1846341289366
 72
     1
 10
423.159692677736
 20
210.1846341289366
 11
520.0568564851651
 21
210.1846341289366
 72
     1
 10
520.0568564851651
 20
210.1846341289366
 11
520.0568564851651
 21
210.5693916566976
 72
     1
 10
520.0568564851651
 20
210.5693916566976
 11
527.80827458145
 21
189.2725410287476
 97
        0
 75
     1
 76
     2
 52
0.0
 41
1.0
 77
     0
 78
     1
 53
44.99999999999998
 43
0.0
 44
0.0
 45
-4.490128060534577
 46
0.0000000000000018
 79
     0
 98
        1
 10
0.0
 20
0.0
  0
HATCH
  5
295
330
44
100
AcDbEntity
  8
0
  6
Continuous
 62
     7
100
AcDbHatch
 10
0.0
 20
0.0
 30
0.0
210
0.0
220
0.0
230
1.0
  2
CUSTOM9
 70
     0
 71
     0
 91
        1
 92
        1
 93
       36
 72
     1
 10
546.608274581495
 20
90.4847080156556
 11
546.5684077371329
 21
90.88204667721362
 72
     1
 10
546.5684077371329
 20
90.88204667721362
 11
546.450396569456
 21
91.26354470024063
 72
     1
 10
546.450396569456
 20
91.26354470024063
 11
546.25894581127
 21
91.61399296241365
 72
     1
 10
546.25894581127
 20
91.61399296241365
 11
546.001688000145
 21
91.9194201974226
 72
     1
 10
546.001688000145
 20
91.9194201974226
 11
545.688879193187
 21
92.1676499852386
 72
     1
 10
545.688879193187
 20
92.1676499852386
 11
545.332990090404
 21
92.34878618755761
 72
     1
 10
545.332990090404
 20
92.34878618755761
 11
544.948208867251
 21
92.45560747560063
 72
     1
 10
544.948208867251
 20
92.45560747560063
 11
544.608274581495
 21
92.4847080156556
 72
     1
 10
544.608274581495
 20
92.4847080156556
 11
540.608274581495
 21
92.4847080156556
 72
     1
 10
540.608274581495
 20
92.4847080156556
 11
540.21093591986
 21
92.4448411713056
 72
     1
 10
540.21093591986
 20
92.4448411713056
 11
539.829437896833
 21
92.32683000362863
 72
     1
 10
539.829437896833
 20
92.32683000362863
 11
539.47898963466
 21
92.1353792454426
 72
     1
 10
539.47898963466
 20
92.1353792454426
 11
539.173562399651
 21
91.87812143431762
 72
     1
 10
539.173562399651
 20
91.87812143431762
 11
538.9253326118339
 21
91.56531262735962
 72
     1
 10
538.9253326118339
 20
91.56531262735962
 11
538.744196409516
 21
91.20942352457661
 72
     1
 10
538.744196409516
 20
91.20942352457661
 11
538.637375121473
 21
90.82464230142364
 72
     1
 10
538.637375121473
 20
90.82464230142364
 11
538.608274581495
 21
90.4847080156556
 72
     1
 10
538.608274581495
 20
90.4847080156556
 11
538.608274581495
 21
82.4847080156556
 72
     1
 10
538.608274581495
 20
82.4847080156556
 11
538.648141425768
 21
82.08736935403363
 72
     1
 10
538.648141425768
 20
82.08736935403363
 11
538.766152593445
 21
81.7058713310056
 72
     1
 10
538.766152593445
 20
81.7058713310056
 11
538.957603351631
 21
81.3554230688336
 72
     1
 10
538.957603351631
 20
81.3554230688336
 11
539.214861162756
 21
81.0499958338246
 72
     1
 10
539.214861162756
 20
81.0499958338246
 11
539.527669969714
 21
80.80176604600763
 72
     1
 10
539.527669969714
 20
80.80176604600763
 11
539.8835590724971
 21
80.62062984368862
 72
     1
 10
539.8835590724971
 20
80.62062984368862
 11
540.26834029565
 21
80.51380855564662
 72
     1
 10
540.26834029565
 20
80.51380855564662
 11
540.608274581495
 21
80.4847080156556
 72
     1
 10
540.608274581495
 20
80.4847080156556
 11
544.608274581495
 21
80.4847080156556
 72
     1
 10
544.608274581495
 20
80.4847080156556
 11
545.00561324304
 21
80.52457485994063
 72
     1
 10
545.00561324304
 20
80.52457485994063
 11
545.387111266068
 21
80.6425860276176
 72
     1
 10
545.387111266068
 20
80.6425860276176
 11
545.73755952824
 21
80.83403678580362
 72
     1
 10
545.73755952824
 20
80.83403678580362
 11
546.042986763249
 21
81.0912945969286
 72
     1
 10
546.042986763249
 20
81.0912945969286
 11
546.291216551066
 21
81.40410340388661
 72
     1
 10
546.291216551066
 20
81.40410340388661
 11
546.4723527533849
 21
81.75999250666962
 72
     1
 10
546.4723527533849
 20
81.75999250666962
 11
546.579174041427
 21
82.14477372982265
 72
     1
 10
546.579174041427
 20
82.14477372982265
 11
546.608274581495
 21
82.4847080156556
 72
     1
 10
546.608274581495
 20
82.4847080156556
 11
546.608274581495
 21
90.4847080156556
 97
        0
 75
     1
 76
     2
 52
0.0
 41
1.0
 77
     0
 78
     1
 53
44.99999999999998
 43
0.0
 44
0.0
 45
-4.490128060534577
 46
0.0000000000000018
 79
     0
 98
        1
 10
0.0
 20
0.0
  0
HATCH
  5
296
330
44
100
AcDbEntity
  8
0
  6
Continuous
 62
     7
100
AcDbHatch
 10
0.0
 20
0.0
 30
0.0
210
0.0
220
0.0
230
1.0
  2
CUSTOM10
 70
     0
 71
     0
 91
        1
 92
        1
 93
       40
 72
     1
 10
396.608274581495
 20
90.4847080156556
 11
396.608274581495
 21
82.4847080156556
 72
     1
 10
396.608274581495
 20
82.4847080156556
 11
396.648141425768
 21
82.08736935403363
 72
     1
 10
396.648141425768
 20
82.08736935403363
 11
396.766152593445
 21
81.7058713310056
 72
     1
 10
396.766152593445
 20
81.7058713310056
 11
396.957603351631
 21
81.3554230688336
 72
     1
 10
396.957603351631
 20
81.3554230688336
 11
397.2148611627561
 21
81.0499958338246
 72
     1
 10
397.2148611627561
 20
81.0499958338246
 11
397.527669969714
 21
80.80176604600763
 72
     1
 10
397.527669969714
 20
80.80176604600763
 11
397.883559072497
 21
80.62062984368862
 72
     1
 10
397.883559072497
 20
80.62062984368862
 11
398.26834029565
 21
80.51380855564662
 72
     1
 10
398.26834029565
 20
80.51380855564662
 11
398.608274581495
 21
80.4847080156556
 72
     1
 10
398.608274581495
 20
80.4847080156556
 11
397.716844623621
 21
80.4847080156236
 72
     1
 10
397.716844623621
 20
80.4847080156236
 11
397.716844623621
 21
-119.5152919843764
 72
     1
 10
397.716844623621
 20
-119.5152919843764
 11
403.386560603564
 21
-119.5152919843764
 72
     1
 10
403.386560603564
 20
-119.5152919843764
 11
403.386560603564
 21
80.4847080156236
 72
     1
 10
403.386560603564
 20
80.4847080156236
 11
402.608274581495
 21
80.4847080156556
 72
     1
 10
402.608274581495
 20
80.4847080156556
 11
403.005613243041
 21
80.52457485994063
 72
     1
 10
403.005613243041
 20
80.52457485994063
 11
403.387111266068
 21
80.6425860276176
 72
     1
 10
403.387111266068
 20
80.6425860276176
 11
403.737559528241
 21
80.83403678580362
 72
     1
 10
403.737559528241
 20
80.83403678580362
 11
404.042986763249
 21
81.0912945969286
 72
     1
 10
404.042986763249
 20
81.0912945969286
 11
404.291216551066
 21
81.40410340388661
 72
     1
 10
404.291216551066
 20
81.40410340388661
 11
404.4723527533851
 21
81.75999250666962
 72
     1
 10
404.4723527533851
 20
81.75999250666962
 11
404.579174041427
 21
82.14477372982265
 72
     1
 10
404.579174041427
 20
82.14477372982265
 11
404.608274581495
 21
82.4847080156556
 72
     1
 10
404.608274581495
 20
82.4847080156556
 11
404.608274581495
 21
90.4847080156556
 72
     1
 10
404.608274581495
 20
90.4847080156556
 11
404.568407737133
 21
90.88204667721362
 72
     1
 10
404.568407737133
 20
90.88204667721362
 11
404.450396569456
 21
91.26354470024063
 72
     1
 10
404.450396569456
 20
91.26354470024063
 11
404.25894581127
 21
91.61399296241365
 72
     1
 10
404.25894581127
 20
91.61399296241365
 11
404.001688000145
 21
91.9194201974226
 72
     1
 10
404.001688000145
 20
91.9194201974226
 11
403.688879193187
 21
92.1676499852386
 72
     1
 10
403.688879193187
 20
92.1676499852386
 11
403.332990090404
 21
92.34878618755761
 72
     1
 10
403.332990090404
 20
92.34878618755761
 11
402.948208867251
 21
92.45560747560063
 72
     1
 10
402.948208867251
 20
92.45560747560063
 11
402.608274581495
 21
92.4847080156556
 72
     1
 10
402.608274581495
 20
92.4847080156556
 11
398.608274581495
 21
92.4847080156556
 72
     1
 10
398.608274581495
 20
92.4847080156556
 11
398.2109359198601
 21
92.4448411713056
 72
     1
 10
398.2109359198601
 20
92.4448411713056
 11
397.829437896833
 21
92.32683000362863
 72
     1
 10
397.829437896833
 20
92.32683000362863
 11
397.47898963466
 21
92.1353792454426
 72
     1
 10
397.47898963466
 20
92.1353792454426
 11
397.173562399651
 21
91.87812143431762
 72
     1
 10
397.173562399651
 20
91.87812143431762
 11
396.9253326118341
 21
91.56531262735962
 72
     1
 10
396.9253326118341
 20
91.56531262735962
 11
396.744196409516
 21
91.20942352457661
 72
     1
 10
396.744196409516
 20
91.20942352457661
 11
396.637375121473
 21
90.82464230142364
 72
     1
 10
396.637375121473
 20
90.82464230142364
 11
396.608274581495
 21
90.4847080156556
 97
        0
 75
     1
 76
     2
 52
0.0
 41
1.0
 77
     0
 78
     1
 53
44.99999999999998
 43
0.0
 44
0.0
 45
-4.490128060534577
 46
0.0000000000000018
 79
     0
 98
        1
 10
0.0
 20
0.0
  0
HATCH
  5
297
330
44
100
AcDbEntity
  8
0
  6
Continuous
 62
     7
100
AcDbHatch
 10
0.0
 20
0.0
 30
0.0
210
0.0
220
0.0
230
1.0
  2
CUSTOM11
 70
     0
 71
     0
 91
        1
 92
        1
 93
        6
 72
     1
 10
406.8253713826071
 20
58.98471001562359
 11
403.963288729069
 21
58.98471001562359
 72
     1
 10
403.963288729069
 20
58.98471001562359
 11
403.963288729069
 21
33.98471001562359
 72
     1
 10
403.963288729069
 20
33.98471001562359
 11
404.686786630068
 21
33.98471001562359
 72
     1
 10
404.686786630068
 20
33.98471001562359
 11
404.686786630068
 21
56.48471001562359
 72
     1
 10
404.686786630068
 20
56.48471001562359
 11
406.8253713826071
 21
56.48471001562359
 72
     1
 10
406.8253713826071
 20
56.48471001562359
 11
406.8253713826071
 21
58.98471001562359
 97
        0
 75
     1
 76
     2
 52
0.0
 41
1.0
 77
     0
 78
     1
 53
44.99999999999998
 43
0.0
 44
0.0
 45
-4.490128060534577
 46
0.0000000000000018
 79
     0
 98
        1
 10
0.0
 20
0.0
  0
HATCH
  5
298
330
44
100
AcDbEntity
  8
0
  6
Continuous
 62
     7
100
AcDbHatch
 10
0.0
 20
0.0
 30
0.0
210
0.0
220
0.0
230
1.0
  2
CUSTOM12
 70
     0
 71
     0
 91
        1
 92
        1
 93
        6
 72
     1
 10
396.416618597118
 20
33.98471001562359
 11
397.140116498117
 21
33.98471001562359
 72
     1
 10
397.140116498117
 20
33.98471001562359
 11
397.140116498117
 21
58.98471001562359
 72
     1
 10
397.140116498117
 20
58.98471001562359
 11
394.278033844579
 21
58.98471001562359
 72
     1
 10
394.278033844579
 20
58.98471001562359
 11
394.278033844579
 21
56.48471001562359
 72
     1
 10
394.278033844579
 20
56.48471001562359
 11
396.416618597118
 21
56.48471001562359
 72
     1
 10
396.416618597118
 20
56.48471001562359
 11
396.416618597118
 21
33.98471001562359
 97
        0
 75
     1
 76
     2
 52
0.0
 41
1.0
 77
     0
 78
     1
 53
44.99999999999998
 43
0.0
 44
0.0
 45
-4.490128060534577
 46
0.0000000000000018
 79
     0
 98
        1
 10
0.0
 20
0.0
  0
ENDBLK
  5
46
330
44
100
AcDbEntity
  8
0
100
AcDbBlockEnd
  0
BLOCK
  5
6B
330
47
100
AcDbEntity
  8
0
100
AcDbBlockBegin
  2
HL_62_1P_1_DN110_Dachablauf
 70
     0
 10
446.359375750797
 20
74.96876680469379
 30
0.0
  3
HL_62_1P_1_DN110_Dachablauf
  1

  0
INSERT
  5
6A
330
47
100
AcDbEntity
  8
0
100
AcDbBlockReference
  2
HL62_1P_1
 10
446.359375750797
 20
74.96876680469379
 30
0.0
  0
ENDBLK
  5
6C
330
47
100
AcDbEntity
  8
0
100
AcDbBlockEnd
  0
BLOCK
  5
25C
330
254
100
AcDbEntity
  8
0
100
AcDbBlockBegin
  2
*D3
 70
     1
 10
0.0
 20
0.0
 30
0.0
  3
*D3
  1

  0
LINE
  5
255
330
254
100
AcDbEntity
  8
1
  6
Continuous
 62
     4
100
AcDbLine
 10
291.6082754917381
 20
257.5278260542936
 30
0.0
 11
651.6082751694381
 21
257.5278230628936
 31
0.0
  0
LINE
  5
256
330
254
100
AcDbEntity
  8
1
  6
Continuous
 62
     4
100
AcDbLine
 10
291.608274581495
 20
147.9846281289556
 30
0.0
 11
291.608275508357
 21
259.5278260542935
 31
0.0
  0
LINE
  5
257
330
254
100
AcDbEntity
  8
1
  6
Continuous
 62
     4
100
AcDbLine
 10
651.608274259195
 20
147.9846251375556
 30
0.0
 11
651.608275186057
 21
259.5278230628936
 31
0.0
  0
SOLID
  5
258
330
254
100
AcDbEntity
  8
1
 62
     4
100
AcDbTrace
 10
301.6082755026777
 20
258.8443509470733
 30
0.0
 11
301.6082754807986
 21
256.2113009953254
 31
0.0
 12
291.6082754917381
 22
257.5278260542936
 32
0.0
 13
291.6082754917381
 23
257.5278260542936
 33
0.0
  0
SOLID
  5
259
330
254
100
AcDbEntity
  8
1
 62
     4
100
AcDbTrace
 10
641.6082751584986
 20
256.2112981701139
 30
0.0
 11
641.6082751803776
 21
258.8443481218619
 31
0.0
 12
651.6082751694381
 22
257.5278230628936
 32
0.0
 13
651.6082751694381
 23
257.5278230628936
 33
0.0
  0
MTEXT
  5
25B
330
254
100
AcDbEntity
  8
1
 62
     1
100
AcDbMText
 10
446.9014533137549
 20
259.5277848230401
 30
0.0
 40
10.0
 41
0.0
 71
     7
 72
     1
  1
\C1;%%c\C1;360
  7
CONVERTER_11
 11
0.9999999999970619
 21
2.424068405545306E-6
 31
0.0
 73
     1
 44
0.60024009603842
  0
ENDBLK
  5
25D
330
254
100
AcDbEntity
  8
0
100
AcDbBlockEnd
  0
BLOCK
  5
267
330
260
100
AcDbEntity
  8
0
100
AcDbBlockBegin
  2
*D4
 70
     1
 10
0.0
 20
0.0
 30
0.0
  3
*D4
  1

  0
LINE
  5
261
330
260
100
AcDbEntity
  8
1
  6
Continuous
 62
     4
100
AcDbLine
 10
416.608274855195
 20
-40.0445865770184
 30
0.0
 11
526.608274259195
 21
-40.0445865770184
 31
0.0
  0
LINE
  5
262
330
260
100
AcDbEntity
  8
1
  6
Continuous
 62
     4
100
AcDbLine
 10
416.608274855195
 20
-5.01529377034438
 30
0.0
 11
416.608274855195
 21
-42.0445865770184
 31
0.0
  0
LINE
  5
263
330
260
100
AcDbEntity
  8
1
  6
Continuous
 62
     4
100
AcDbLine
 10
526.608274259195
 20
-5.01529377034438
 30
0.0
 11
526.608274259195
 21
-42.0445865770184
 31
0.0
  0
SOLID
  5
264
330
260
100
AcDbEntity
  8
1
 62
     4
100
AcDbTrace
 10
426.608274855195
 20
-38.72806160114444
 30
0.0
 11
426.608274855195
 21
-41.36111155289236
 31
0.0
 12
416.608274855195
 22
-40.0445865770184
 32
0.0
 13
416.608274855195
 23
-40.0445865770184
 33
0.0
  0
SOLID
  5
265
330
260
100
AcDbEntity
  8
1
 62
     4
100
AcDbTrace
 10
516.608274259195
 20
-41.36111155289235
 30
0.0
 11
516.608274259195
 21
-38.72806160114444
 31
0.0
 12
526.608274259195
 22
-40.0445865770184
 32
0.0
 13
526.608274259195
 23
-40.0445865770184
 33
0.0
  0
MTEXT
  5
266
330
260
100
AcDbEntity
  8
1
 62
     1
100
AcDbMText
 10
458.3360582554891
 20
-38.04462633174025
 30
0.0
 40
10.0
 41
0.0
 71
     7
 72
     1
  1
\C1;DN\C1;110
  7
CONVERTER_11
 11
0.9999999999970619
 21
2.424068405545306E-6
 31
0.0
 73
     1
 44
0.60024009603842
  0
ENDBLK
  5
268
330
260
100
AcDbEntity
  8
0
100
AcDbBlockEnd
  0
BLOCK
  5
272
330
26B
100
AcDbEntity
  8
0
100
AcDbBlockBegin
  2
*D5
 70
     1
 10
0.0
 20
0.0
 30
0.0
  3
*D5
  1

  0
LINE
  5
26C
330
26B
100
AcDbEntity
  8
1
  6
Continuous
 62
     4
100
AcDbLine
 10
391.508274652595
 20
-59.0558225658751
 30
0.0
 11
551.7082744617951
 21
-59.0558225658751
 31
0.0
  0
LINE
  5
26D
330
26B
100
AcDbEntity
  8
1
  6
Continuous
 62
     4
100
AcDbLine
 10
391.508274652595
 20
63.9847100890556
 30
0.0
 11
391.508274652595
 21
-61.0558225658751
 31
0.0
  0
LINE
  5
26E
330
26B
100
AcDbEntity
  8
1
  6
Continuous
 62
     4
100
AcDbLine
 10
551.7082744617951
 20
63.9847100890556
 30
0.0
 11
551.7082744617951
 21
-61.0558225658751
 31
0.0
  0
SOLID
  5
26F
330
26B
100
AcDbEntity
  8
1
 62
     4
100
AcDbTrace
 10
401.508274652595
 20
-57.73929759000114
 30
0.0
 11
401.508274652595
 21
-60.37234754174906
 31
0.0
 12
391.508274652595
 22
-59.0558225658751
 32
0.0
 13
391.508274652595
 23
-59.0558225658751
 33
0.0
  0
SOLID
  5
270
330
26B
100
AcDbEntity
  8
1
 62
     4
100
AcDbTrace
 10
541.7082744617951
 20
-60.37234754174905
 30
0.0
 11
541.7082744617951
 21
-57.73929759000114
 31
0.0
 12
551.7082744617951
 22
-59.0558225658751
 32
0.0
 13
551.7082744617951
 23
-59.0558225658751
 33
0.0
  0
MTEXT
  5
271
330
26B
100
AcDbEntity
  8
1
 62
     1
100
AcDbMText
 10
451.8360582554891
 20
-57.05586232059695
 30
0.0
 40
10.0
 41
0.0
 71
     7
 72
     1
  1
\C1;%%c\C1;160
  7
CONVERTER_11
 11
0.9999999999970619
 21
2.424068405545306E-6
 31
0.0
 73
     1
 44
0.60024009603842
  0
ENDBLK
  5
273
330
26B
100
AcDbEntity
  8
0
100
AcDbBlockEnd
  0
BLOCK
  5
27D
330
276
100
AcDbEntity
  8
0
100
AcDbBlockBegin
  2
*D6
 70
     1
 10
0.0
 20
0.0
 30
0.0
  3
*D6
  1

  0
LINE
  5
277
330
276
100
AcDbEntity
  8
1
  6
Continuous
 62
     4
100
AcDbLine
 10
253.035476920099
 20
149.9846291906556
 30
0.0
 11
253.035476920099
 21
-10.01529272724437
 31
0.0
  0
LINE
  5
278
330
276
100
AcDbEntity
  8
1
  6
Continuous
 62
     4
100
AcDbLine
 10
293.608278908295
 20
149.9846291906556
 30
0.0
 11
251.035476920099
 21
149.9846291906556
 31
0.0
  0
LINE
  5
279
330
276
100
AcDbEntity
  8
1
  6
Continuous
 62
     4
100
AcDbLine
 10
420.108274497595
 20
-10.01529272724437
 30
0.0
 11
251.035476920099
 21
-10.01529272724437
 31
0.0
  0
SOLID
  5
27A
330
276
100
AcDbEntity
  8
1
 62
     4
100
AcDbTrace
 10
254.352001895973
 20
139.9846291906556
 30
0.0
 11
251.718951944225
 21
139.9846291906556
 31
0.0
 12
253.035476920099
 22
149.9846291906556
 32
0.0
 13
253.035476920099
 23
149.9846291906556
 33
0.0
  0
SOLID
  5
27B
330
276
100
AcDbEntity
  8
1
 62
     4
100
AcDbTrace
 10
251.718951944225
 20
-0.01529272724437
 30
0.0
 11
254.352001895973
 21
-0.01529272724437
 31
0.0
 12
253.035476920099
 22
-10.01529272724437
 32
0.0
 13
253.035476920099
 23
-10.01529272724437
 33
0.0
  0
MTEXT
  5
27C
330
276
100
AcDbEntity
  8
1
 62
     1
100
AcDbMText
 10
251.035476920099
 20
62.8497060866389
 30
0.0
 40
10.0
 41
0.0
 71
     7
 72
     1
  1
160
  7
CONVERTER_11
 11
0.0
 21
1.0
 31
0.0
 73
     1
 44
0.60024009603842
  0
ENDBLK
  5
27E
330
276
100
AcDbEntity
  8
0
100
AcDbBlockEnd
  0
BLOCK
  5
288
330
281
100
AcDbEntity
  8
0
100
AcDbBlockBegin
  2
*D7
 70
     1
 10
0.0
 20
0.0
 30
0.0
  3
*D7
  1

  0
LINE
  5
282
330
281
100
AcDbEntity
  8
1
  6
Continuous
 62
     4
100
AcDbLine
 10
276.430186963973
 20
149.9846291906556
 30
0.0
 11
276.430186963973
 21
53.98471031255559
 31
0.0
  0
LINE
  5
283
330
281
100
AcDbEntity
  8
1
  6
Continuous
 62
     4
100
AcDbLine
 10
293.608278908295
 20
149.9846291906556
 30
0.0
 11
274.430186963973
 21
149.9846291906556
 31
0.0
  0
LINE
  5
284
330
281
100
AcDbEntity
  8
1
  6
Continuous
 62
     4
100
AcDbLine
 10
399.6082776565951
 20
53.98471031255559
 30
0.0
 11
274.430186963973
 21
53.98471031255559
 31
0.0
  0
SOLID
  5
285
330
281
100
AcDbEntity
  8
1
 62
     4
100
AcDbTrace
 10
277.7467119398469
 20
139.9846291906556
 30
0.0
 11
275.113661988099
 21
139.9846291906556
 31
0.0
 12
276.430186963973
 22
149.9846291906556
 32
0.0
 13
276.430186963973
 23
149.9846291906556
 33
0.0
  0
SOLID
  5
286
330
281
100
AcDbEntity
  8
1
 62
     4
100
AcDbTrace
 10
275.113661988099
 20
63.98471031255559
 30
0.0
 11
277.7467119398469
 21
63.98471031255559
 31
0.0
 12
276.430186963973
 22
53.98471031255559
 32
0.0
 13
276.430186963973
 23
53.98471031255559
 33
0.0
  0
MTEXT
  5
287
330
281
100
AcDbEntity
  8
1
 62
     1
100
AcDbMText
 10
274.430186963973
 20
94.814559413347
 30
0.0
 40
10.0
 41
0.0
 71
     7
 72
     1
  1
96
  7
CONVERTER_11
 11
0.0
 21
1.0
 31
0.0
 73
     1
 44
0.60024009603842
  0
ENDBLK
  5
289
330
281
100
AcDbEntity
  8
0
100
AcDbBlockEnd
  0
ENDSEC
  0
SECTION
  2
ENTITIES
  0
INSERT
  5
6D
330
1F
100
AcDbEntity
  8
0
100
AcDbBlockReference
  2
HL_62_1P_1_DN110_Dachablauf
 10
446.359375750797
 20
74.96876680469379
 30
0.0
  0
ENDSEC
  0
SECTION
  2
OBJECTS
  0
DICTIONARY
  5
C
330
0
100
AcDbDictionary
281
     1
  3
ACAD_GROUP
350
D
  3
ACAD_LAYOUT
350
1A
  3
ACAD_MLEADERSTYLE
350
29B
  3
ACAD_MLINESTYLE
350
17
  3
ACAD_PLOTSETTINGS
350
19
  3
ACAD_PLOTSTYLENAME
350
E
  3
ACAD_SCALELIST
350
48
  3
ACAD_VISUALSTYLE
350
2A
  3
AcDbVariableDictionary
350
299
  0
DICTIONARY
  5
D
102
{ACAD_REACTORS
330
C
102
}
330
C
100
AcDbDictionary
281
     1
  0
DICTIONARY
  5
1A
102
{ACAD_REACTORS
330
C
102
}
330
C
100
AcDbDictionary
281
     1
  3
Layout1
350
1E
  3
Layout2
350
26
  3
Model
350
22
  0
DICTIONARY
  5
29B
102
{ACAD_REACTORS
330
C
102
}
330
C
100
AcDbDictionary
281
     1
  0
DICTIONARY
  5
17
102
{ACAD_REACTORS
330
C
102
}
330
C
100
AcDbDictionary
281
     1
  3
Standard
350
18
  0
DICTIONARY
  5
19
102
{ACAD_REACTORS
330
C
102
}
330
C
100
AcDbDictionary
281
     1
  0
ACDBDICTIONARYWDFLT
  5
E
102
{ACAD_REACTORS
330
C
102
}
330
C
100
AcDbDictionary
281
     1
  3
Normal
350
F
100
AcDbDictionaryWithDefault
340
F
  0
DICTIONARY
  5
48
102
{ACAD_REACTORS
330
C
102
}
330
C
100
AcDbDictionary
281
     1
  3
A0
350
49
  3
A1
350
4A
  3
A2
350
4B
  3
A3
350
4C
  3
A4
350
4D
  3
A5
350
4E
  3
A6
350
4F
  3
A7
350
50
  3
A8
350
51
  3
A9
350
52
  3
B0
350
53
  3
B1
350
54
  3
B2
350
55
  3
B3
350
56
  3
B4
350
57
  3
B5
350
58
  3
B6
350
59
  3
B7
350
5A
  3
B8
350
5B
  3
B9
350
5C
  3
C0
350
5D
  3
C1
350
5E
  3
C2
350
5F
  3
C3
350
60
  3
C4
350
61
  3
C5
350
62
  3
C6
350
63
  3
C7
350
64
  3
C8
350
65
  3
C9
350
66
  3
D0
350
67
  3
D1
350
68
  3
D2
350
69
  0
DICTIONARY
  5
2A
102
{ACAD_REACTORS
330
C
102
}
330
C
100
AcDbDictionary
281
     1
  3
2dWireframe
350
2F
  3
3D Hidden
350
31
  3
3dWireframe
350
30
  3
Basic
350
32
  3
Brighten
350
36
  3
ColorChange
350
3A
  3
Conceptual
350
34
  3
Dim
350
35
  3
Facepattern
350
39
  3
Flat
350
2B
  3
FlatWithEdges
350
2C
  3
Gouraud
350
2D
  3
GouraudWithEdges
350
2E
  3
Linepattern
350
38
  3
Realistic
350
33
  3
Thicken
350
37
  0
DICTIONARY
  5
299
102
{ACAD_REACTORS
330
C
102
}
330
C
100
AcDbDictionary
281
     1
  3
CANNOSCALE
350
29C
  0
LAYOUT
  5
1E
102
{ACAD_REACTORS
330
1A
102
}
330
1A
100
AcDbPlotSettings
  1

  2
none_device
  4

  6

 40
0.0
 41
0.0
 42
0.0
 43
0.0
 44
0.0
 45
0.0
 46
0.0
 47
0.0
 48
0.0
 49
0.0
140
0.0
141
0.0
142
1.0
143
1.0
 70
   688
 72
     0
 73
     0
 74
     5
  7

 75
    16
147
1.0
148
0.0
149
0.0
100
AcDbLayout
  1
Layout1
 70
     1
 71
     1
 10
0.0
 20
0.0
 11
12.0
 21
9.0
 12
0.0
 22
0.0
 32
0.0
 14
1.00000000000000E+20
 24
1.00000000000000E+20
 34
1.00000000000000E+20
 15
-1.00000000000000E+20
 25
-1.00000000000000E+20
 35
-1.00000000000000E+20
146
0.0
 13
0.0
 23
0.0
 33
0.0
 16
1.0
 26
0.0
 36
0.0
 17
0.0
 27
1.0
 37
0.0
 76
     0
330
1B
  0
LAYOUT
  5
26
102
{ACAD_REACTORS
330
1A
102
}
330
1A
100
AcDbPlotSettings
  1

  2
none_device
  4

  6

 40
0.0
 41
0.0
 42
0.0
 43
0.0
 44
0.0
 45
0.0
 46
0.0
 47
0.0
 48
0.0
 49
0.0
140
0.0
141
0.0
142
1.0
143
1.0
 70
   688
 72
     0
 73
     0
 74
     5
  7

 75
    16
147
1.0
148
0.0
149
0.0
100
AcDbLayout
  1
Layout2
 70
     1
 71
     2
 10
0.0
 20
0.0
 11
0.0
 21
0.0
 12
0.0
 22
0.0
 32
0.0
 14
0.0
 24
0.0
 34
0.0
 15
0.0
 25
0.0
 35
0.0
146
0.0
 13
0.0
 23
0.0
 33
0.0
 16
1.0
 26
0.0
 36
0.0
 17
0.0
 27
1.0
 37
0.0
 76
     0
330
23
  0
LAYOUT
  5
22
102
{ACAD_REACTORS
330
1A
102
}
330
1A
100
AcDbPlotSettings
  1

  2
none_device
  4

  6

 40
0.0
 41
0.0
 42
0.0
 43
0.0
 44
0.0
 45
0.0
 46
0.0
 47
0.0
 48
0.0
 49
0.0
140
0.0
141
0.0
142
1.0
143
1.0
 70
  1712
 72
     0
 73
     0
 74
     0
  7

 75
     0
147
1.0
148
0.0
149
0.0
100
AcDbLayout
  1
Model
 70
     1
 71
     0
 10
0.0
 20
0.0
 11
12.0
 21
9.0
 12
0.0
 22
0.0
 32
0.0
 14
241.035476920099
 24
-119.5902911179444
 34
0.0
 15
651.6832745814951
 25
269.527824727332
 35
0.0
146
0.0
 13
0.0
 23
0.0
 33
0.0
 16
1.0
 26
0.0
 36
0.0
 17
0.0
 27
1.0
 37
0.0
 76
     0
330
1F
331
29
  0
MLINESTYLE
  5
18
102
{ACAD_REACTORS
330
17
102
}
330
17
100
AcDbMlineStyle
  2
Standard
 70
     0
  3

 62
   256
 51
90.0
 52
90.0
 71
     2
 49
0.5
 62
   256
  6
BYLAYER
 49
-0.5
 62
   256
  6
BYLAYER
  0
ACDBPLACEHOLDER
  5
F
102
{ACAD_REACTORS
330
E
102
}
330
E
  0
SCALE
  5
49
102
{ACAD_REACTORS
330
48
102
}
330
48
100
AcDbScale
 70
     0
300
1:1
140
1.0
141
1.0
290
     1
  0
SCALE
  5
4A
102
{ACAD_REACTORS
330
48
102
}
330
48
100
AcDbScale
 70
     0
300
1:2
140
1.0
141
2.0
290
     0
  0
SCALE
  5
4B
102
{ACAD_REACTORS
330
48
102
}
330
48
100
AcDbScale
 70
     0
300
1:4
140
1.0
141
4.0
290
     0
  0
SCALE
  5
4C
102
{ACAD_REACTORS
330
48
102
}
330
48
100
AcDbScale
 70
     0
300
1:5
140
1.0
141
5.0
290
     0
  0
SCALE
  5
4D
102
{ACAD_REACTORS
330
48
102
}
330
48
100
AcDbScale
 70
     0
300
1:8
140
1.0
141
8.0
290
     0
  0
SCALE
  5
4E
102
{ACAD_REACTORS
330
48
102
}
330
48
100
AcDbScale
 70
     0
300
1:10
140
1.0
141
10.0
290
     0
  0
SCALE
  5
4F
102
{ACAD_REACTORS
330
48
102
}
330
48
100
AcDbScale
 70
     0
300
1:16
140
1.0
141
16.0
290
     0
  0
SCALE
  5
50
102
{ACAD_REACTORS
330
48
102
}
330
48
100
AcDbScale
 70
     0
300
1:20
140
1.0
141
20.0
290
     0
  0
SCALE
  5
51
102
{ACAD_REACTORS
330
48
102
}
330
48
100
AcDbScale
 70
     0
300
1:30
140
1.0
141
30.0
290
     0
  0
SCALE
  5
52
102
{ACAD_REACTORS
330
48
102
}
330
48
100
AcDbScale
 70
     0
300
1:40
140
1.0
141
40.0
290
     0
  0
SCALE
  5
53
102
{ACAD_REACTORS
330
48
102
}
330
48
100
AcDbScale
 70
     0
300
1:50
140
1.0
141
50.0
290
     0
  0
SCALE
  5
54
102
{ACAD_REACTORS
330
48
102
}
330
48
100
AcDbScale
 70
     0
300
1:100
140
1.0
141
100.0
290
     0
  0
SCALE
  5
55
102
{ACAD_REACTORS
330
48
102
}
330
48
100
AcDbScale
 70
     0
300
2:1
140
2.0
141
1.0
290
     0
  0
SCALE
  5
56
102
{ACAD_REACTORS
330
48
102
}
330
48
100
AcDbScale
 70
     0
300
4:1
140
4.0
141
1.0
290
     0
  0
SCALE
  5
57
102
{ACAD_REACTORS
330
48
102
}
330
48
100
AcDbScale
 70
     0
300
8:1
140
8.0
141
1.0
290
     0
  0
SCALE
  5
58
102
{ACAD_REACTORS
330
48
102
}
330
48
100
AcDbScale
 70
     0
300
10:1
140
10.0
141
1.0
290
     0
  0
SCALE
  5
59
102
{ACAD_REACTORS
330
48
102
}
330
48
100
AcDbScale
 70
     0
300
100:1
140
100.0
141
1.0
290
     0
  0
SCALE
  5
5A
102
{ACAD_REACTORS
330
48
102
}
330
48
100
AcDbScale
 70
     0
300
1/128" = 1'-0"
140
0.0078125
141
12.0
290
     0
  0
SCALE
  5
5B
102
{ACAD_REACTORS
330
48
102
}
330
48
100
AcDbScale
 70
     0
300
1/64" = 1'-0"
140
0.015625
141
12.0
290
     0
  0
SCALE
  5
5C
102
{ACAD_REACTORS
330
48
102
}
330
48
100
AcDbScale
 70
     0
300
1/32" = 1'-0"
140
0.03125
141
12.0
290
     0
  0
SCALE
  5
5D
102
{ACAD_REACTORS
330
48
102
}
330
48
100
AcDbScale
 70
     0
300
1/16" = 1'-0"
140
0.0625
141
12.0
290
     0
  0
SCALE
  5
5E
102
{ACAD_REACTORS
330
48
102
}
330
48
100
AcDbScale
 70
     0
300
3/32" = 1'-0"
140
0.09375
141
12.0
290
     0
  0
SCALE
  5
5F
102
{ACAD_REACTORS
330
48
102
}
330
48
100
AcDbScale
 70
     0
300
1/8" = 1'-0"
140
0.125
141
12.0
290
     0
  0
SCALE
  5
60
102
{ACAD_REACTORS
330
48
102
}
330
48
100
AcDbScale
 70
     0
300
3/16" = 1'-0"
140
0.1875
141
12.0
290
     0
  0
SCALE
  5
61
102
{ACAD_REACTORS
330
48
102
}
330
48
100
AcDbScale
 70
     0
300
1/4" = 1'-0"
140
0.25
141
12.0
290
     0
  0
SCALE
  5
62
102
{ACAD_REACTORS
330
48
102
}
330
48
100
AcDbScale
 70
     0
300
3/8" = 1'-0"
140
0.375
141
12.0
290
     0
  0
SCALE
  5
63
102
{ACAD_REACTORS
330
48
102
}
330
48
100
AcDbScale
 70
     0
300
1/2" = 1'-0"
140
0.5
141
12.0
290
     0
  0
SCALE
  5
64
102
{ACAD_REACTORS
330
48
102
}
330
48
100
AcDbScale
 70
     0
300
3/4" = 1'-0"
140
0.75
141
12.0
290
     0
  0
SCALE
  5
65
102
{ACAD_REACTORS
330
48
102
}
330
48
100
AcDbScale
 70
     0
300
1" = 1'-0"
140
1.0
141
12.0
290
     0
  0
SCALE
  5
66
102
{ACAD_REACTORS
330
48
102
}
330
48
100
AcDbScale
 70
     0
300
1-1/2" = 1'-0"
140
1.5
141
12.0
290
     0
  0
SCALE
  5
67
102
{ACAD_REACTORS
330
48
102
}
330
48
100
AcDbScale
 70
     0
300
3" = 1'-0"
140
3.0
141
12.0
290
     0
  0
SCALE
  5
68
102
{ACAD_REACTORS
330
48
102
}
330
48
100
AcDbScale
 70
     0
300
6" = 1'-0"
140
6.0
141
12.0
290
     0
  0
SCALE
  5
69
102
{ACAD_REACTORS
330
48
102
}
330
48
100
AcDbScale
 70
     0
300
1'-0" = 1'-0"
140
12.0
141
12.0
290
     0
  0
VISUALSTYLE
  5
2F
102
{ACAD_REACTORS
330
2A
102
}
330
2A
100
AcDbVisualStyle
  2
2dWireframe
 70
     4
 71
     0
 72
     2
 73
     0
 90
        0
 40
-0.6
 41
-30.0
 62
     5
 63
     7
 74
     1
 91
        4
 64
     7
 65
   257
 75
     1
175
     1
 42
1.0
 92
        0
 66
   257
 43
1.0
 76
     1
 77
     6
 78
     2
 67
     7
 79
     5
170
     0
171
     0
290
     0
174
     0
 93
        1
 44
0.0
173
     0
291
     0
 45
0.0
1001
ACAD
1000
AcDbSavedByObjectVersion
1070
     0
  0
VISUALSTYLE
  5
31
102
{ACAD_REACTORS
330
2A
102
}
330
2A
100
AcDbVisualStyle
  2
3D Hidden
 70
     6
 71
     1
 72
     2
 73
     2
 90
        0
 40
-0.6
 41
-30.0
 62
     5
 63
     7
 74
     2
 91
        2
 64
     7
 65
   257
 75
     2
175
     1
 42
40.0
 92
        0
 66
   257
 43
1.0
 76
     1
 77
     6
 78
     2
 67
     7
 79
     3
170
     0
171
     0
290
     0
174
     0
 93
        1
 44
0.0
173
     0
291
     0
 45
0.0
1001
ACAD
1000
AcDbSavedByObjectVersion
1070
     0
  0
VISUALSTYLE
  5
30
102
{ACAD_REACTORS
330
2A
102
}
330
2A
100
AcDbVisualStyle
  2
3dWireframe
 70
     5
 71
     0
 72
     2
 73
     0
 90
        0
 40
-0.6
 41
-30.0
 62
     5
 63
     7
 74
     1
 91
        4
 64
     7
 65
   257
 75
     1
175
     1
 42
1.0
 92
        0
 66
   257
 43
1.0
 76
     1
 77
     6
 78
     2
 67
     7
 79
     5
170
     0
171
     0
290
     0
174
     0
 93
        1
 44
0.0
173
     0
291
     0
 45
0.0
1001
ACAD
1000
AcDbSavedByObjectVersion
1070
     0
  0
VISUALSTYLE
  5
32
102
{ACAD_REACTORS
330
2A
102
}
330
2A
100
AcDbVisualStyle
  2
Basic
 70
     7
 71
     1
 72
     0
 73
     1
 90
        0
 40
-0.6
 41
-30.0
 62
     5
 63
     7
 74
     0
 91
        4
 64
     7
 65
   257
 75
     1
175
     1
 42
1.0
 92
        8
 66
     7
 43
1.0
 76
     1
 77
     6
 78
     2
 67
     7
 79
     5
170
     0
171
     0
290
     0
174
     0
 93
        1
 44
0.0
173
     0
291
     1
 45
0.0
1001
ACAD
1000
AcDbSavedByObjectVersion
1070
     0
  0
VISUALSTYLE
  5
36
102
{ACAD_REACTORS
330
2A
102
}
330
2A
100
AcDbVisualStyle
  2
Brighten
 70
    12
 71
     2
 72
     2
 73
     0
 90
        0
 40
-0.6
 41
-30.0
 62
     5
 63
     7
 74
     1
 91
        4
 64
     7
 65
   257
 75
     1
175
     1
 42
1.0
 92
        8
 66
     7
 43
1.0
 76
     1
 77
     6
 78
     2
 67
     7
 79
     5
170
     0
171
     0
290
     0
174
     0
 93
        1
 44
50.0
173
     0
291
     1
 45
0.0
1001
ACAD
1000
AcDbSavedByObjectVersion
1070
     0
  0
VISUALSTYLE
  5
3A
102
{ACAD_REACTORS
330
2A
102
}
330
2A
100
AcDbVisualStyle
  2
ColorChange
 70
    16
 71
     2
 72
     2
 73
     3
 90
        0
 40
-0.6
 41
-30.0
 62
     5
 63
     8
 74
     1
 91
        4
 64
     7
 65
   257
 75
     1
175
     1
 42
1.0
 92
        8
 66
     8
 43
1.0
 76
     1
 77
     6
 78
     2
 67
     7
 79
     5
170
     0
171
     0
290
     0
174
     0
 93
        1
 44
0.0
173
     0
291
     1
 45
0.0
1001
ACAD
1000
AcDbSavedByObjectVersion
1070
     0
  0
VISUALSTYLE
  5
34
102
{ACAD_REACTORS
330
2A
102
}
330
2A
100
AcDbVisualStyle
  2
Conceptual
 70
     9
 71
     3
 72
     2
 73
     0
 90
        0
 40
-0.6
 41
-30.0
 62
     5
 63
     7
 74
     2
 91
        2
 64
     7
 65
   257
 75
     1
175
     1
 42
40.0
 92
        8
 66
     7
 43
1.0
 76
     1
 77
     6
 78
     2
 67
     7
 79
     3
170
     0
171
     0
290
     0
174
     0
 93
        1
 44
0.0
173
     0
291
     0
 45
0.0
1001
ACAD
1000
AcDbSavedByObjectVersion
1070
     0
  0
VISUALSTYLE
  5
35
102
{ACAD_REACTORS
330
2A
102
}
330
2A
100
AcDbVisualStyle
  2
Dim
 70
    11
 71
     2
 72
     2
 73
     0
 90
        0
 40
-0.6
 41
-30.0
 62
     5
 63
     7
 74
     1
 91
        4
 64
     7
 65
   257
 75
     1
175
     1
 42
1.0
 92
        8
 66
     7
 43
1.0
 76
     1
 77
     6
 78
     2
 67
     7
 79
     5
170
     0
171
     0
290
     0
174
     0
 93
        1
 44
-50.0
173
     0
291
     1
 45
0.0
1001
ACAD
1000
AcDbSavedByObjectVersion
1070
     0
  0
VISUALSTYLE
  5
39
102
{ACAD_REACTORS
330
2A
102
}
330
2A
100
AcDbVisualStyle
  2
Facepattern
 70
    15
 71
     2
 72
     2
 73
     0
 90
        0
 40
-0.6
 41
-30.0
 62
     5
 63
     7
 74
     1
 91
        4
 64
     7
 65
   257
 75
     1
175
     1
 42
1.0
 92
        8
 66
     7
 43
1.0
 76
     1
 77
     6
 78
     2
 67
     7
 79
     5
170
     0
171
     0
290
     0
174
     0
 93
        1
 44
0.0
173
     0
291
     1
 45
0.0
1001
ACAD
1000
AcDbSavedByObjectVersion
1070
     0
  0
VISUALSTYLE
  5
2B
102
{ACAD_REACTORS
330
2A
102
}
330
2A
100
AcDbVisualStyle
  2
Flat
 70
     0
 71
     2
 72
     1
 73
     1
 90
        2
 40
-0.6
 41
30.0
 62
     5
 63
     7
 74
     0
 91
        4
 64
     7
 65
   257
 75
     1
175
     1
 42
1.0
 92
        8
 66
     7
 43
1.0
 76
     1
 77
     6
 78
     2
 67
     7
 79
     5
170
     0
171
     0
290
     0
174
     0
 93
       13
 44
0.0
173
     0
291
     1
 45
0.0
1001
ACAD
1000
AcDbSavedByObjectVersion
1070
     0
  0
VISUALSTYLE
  5
2C
102
{ACAD_REACTORS
330
2A
102
}
330
2A
100
AcDbVisualStyle
  2
FlatWithEdges
 70
     1
 71
     2
 72
     1
 73
     1
 90
        2
 40
-0.6
 41
30.0
 62
     5
 63
     7
 74
     1
 91
        4
 64
     7
 65
   257
 75
     1
175
     1
 42
1.0
 92
        0
 66
   257
 43
1.0
 76
     1
 77
     6
 78
     2
 67
     7
 79
     5
170
     0
171
     0
290
     0
174
     0
 93
       13
 44
0.0
173
     0
291
     1
 45
0.0
1001
ACAD
1000
AcDbSavedByObjectVersion
1070
     0
  0
VISUALSTYLE
  5
2D
102
{ACAD_REACTORS
330
2A
102
}
330
2A
100
AcDbVisualStyle
  2
Gouraud
 70
     2
 71
     2
 72
     2
 73
     1
 90
        2
 40
-0.6
 41
30.0
 62
     5
 63
     7
 74
     0
 91
        4
 64
     7
 65
   257
 75
     1
175
     1
 42
1.0
 92
        0
 66
     7
 43
1.0
 76
     1
 77
     6
 78
     2
 67
     7
 79
     5
170
     0
171
     0
290
     0
174
     0
 93
       13
 44
0.0
173
     0
291
     1
 45
0.0
1001
ACAD
1000
AcDbSavedByObjectVersion
1070
     0
  0
VISUALSTYLE
  5
2E
102
{ACAD_REACTORS
330
2A
102
}
330
2A
100
AcDbVisualStyle
  2
GouraudWithEdges
 70
     3
 71
     2
 72
     2
 73
     1
 90
        2
 40
-0.6
 41
30.0
 62
     5
 63
     7
 74
     1
 91
        4
 64
     7
 65
   257
 75
     1
175
     1
 42
1.0
 92
        0
 66
   257
 43
1.0
 76
     1
 77
     6
 78
     2
 67
     7
 79
     5
170
     0
171
     0
290
     0
174
     0
 93
       13
 44
0.0
173
     0
291
     1
 45
0.0
1001
ACAD
1000
AcDbSavedByObjectVersion
1070
     0
  0
VISUALSTYLE
  5
38
102
{ACAD_REACTORS
330
2A
102
}
330
2A
100
AcDbVisualStyle
  2
Linepattern
 70
    14
 71
     2
 72
     2
 73
     0
 90
        0
 40
-0.6
 41
-30.0
 62
     5
 63
     7
 74
     1
 91
        4
 64
     7
 65
   257
 75
     7
175
     7
 42
1.0
 92
        8
 66
     7
 43
1.0
 76
     1
 77
     6
 78
     2
 67
     7
 79
     5
170
     0
171
     0
290
     0
174
     0
 93
        1
 44
0.0
173
     0
291
     1
 45
0.0
1001
ACAD
1000
AcDbSavedByObjectVersion
1070
     0
  0
VISUALSTYLE
  5
33
102
{ACAD_REACTORS
330
2A
102
}
330
2A
100
AcDbVisualStyle
  2
Realistic
 70
     8
 71
     2
 72
     2
 73
     0
 90
        0
 40
-0.6
 41
-30.0
 62
     5
 63
     7
 74
     1
 91
        0
 64
     7
 65
   257
 75
     1
175
     1
 42
1.0
 92
        8
 66
     8
 43
1.0
 76
     1
 77
     6
 78
     2
 67
     7
 79
     5
170
     0
171
     0
290
     0
174
     0
 93
       13
 44
0.0
173
     0
291
     0
 45
0.0
1001
ACAD
1000
AcDbSavedByObjectVersion
1070
     0
  0
VISUALSTYLE
  5
37
102
{ACAD_REACTORS
330
2A
102
}
330
2A
100
AcDbVisualStyle
  2
Thicken
 70
    13
 71
     2
 72
     2
 73
     0
 90
        0
 40
-0.6
 41
-30.0
 62
     5
 63
     7
 74
     1
 91
        4
 64
     7
 65
   257
 75
     1
175
     1
 42
1.0
 92
       12
 66
     7
 43
1.0
 76
     1
 77
     6
 78
     2
 67
     7
 79
     5
170
     0
171
     0
290
     0
174
     0
 93
        1
 44
0.0
173
     0
291
     1
 45
0.0
1001
ACAD
1000
AcDbSavedByObjectVersion
1070
     0
  0
DICTIONARYVAR
  5
29C
102
{ACAD_REACTORS
330
299
102
}
330
299
100
DictionaryVariables
280
     0
  1
1:1
  0
ENDSEC
  0
EOF
