  0
SECTION
  2
HEADER
  9
$ACADVER
  1
AC1015
  9
$ACADMAINTVER
 70
     6
  9
$DWGCODEPAGE
  3
ANSI_1252
  9
$INSBASE
 10
0.0
 20
0.0
 30
0.0
  9
$EXTMIN
 10
240.196053332976
 20
-108.575
 30
0.0
  9
$EXTMAX
 10
637.110067581382
 20
275.47278063476
 30
0.0
  9
$LIMMIN
 10
0.0
 20
0.0
  9
$LIMMAX
 10
12.0
 20
9.0
  9
$ORTHOMODE
 70
     0
  9
$REGENMODE
 70
     1
  9
$FILLMODE
 70
     1
  9
$QTEXTMODE
 70
     0
  9
$MIRRTEXT
 70
     1
  9
$LTSCALE
 40
1.0
  9
$ATTMODE
 70
     1
  9
$TEXTSIZE
 40
0.2
  9
$TRACEWID
 40
0.05
  9
$TEXTSTYLE
  7
Standard
  9
$CLAYER
  8
0
  9
$CELTYPE
  6
ByLayer
  9
$CECOLOR
 62
   256
  9
$CELTSCALE
 40
1.0
  9
$DISPSILH
 70
     0
  9
$DIMSCALE
 40
1.0
  9
$DIMASZ
 40
0.18
  9
$DIMEXO
 40
0.0625
  9
$DIMDLI
 40
0.38
  9
$DIMRND
 40
0.0
  9
$DIMDLE
 40
0.0
  9
$DIMEXE
 40
0.18
  9
$DIMTP
 40
0.0
  9
$DIMTM
 40
0.0
  9
$DIMTXT
 40
0.18
  9
$DIMCEN
 40
0.09
  9
$DIMTSZ
 40
0.0
  9
$DIMTOL
 70
     0
  9
$DIMLIM
 70
     0
  9
$DIMTIH
 70
     1
  9
$DIMTOH
 70
     1
  9
$DIMSE1
 70
     0
  9
$DIMSE2
 70
     0
  9
$DIMTAD
 70
     0
  9
$DIMZIN
 70
     0
  9
$DIMBLK
  1

  9
$DIMASO
 70
     1
  9
$DIMSHO
 70
     1
  9
$DIMPOST
  1

  9
$DIMAPOST
  1

  9
$DIMALT
 70
     0
  9
$DIMALTD
 70
     2
  9
$DIMALTF
 40
25.4
  9
$DIMLFAC
 40
1.0
  9
$DIMTOFL
 70
     0
  9
$DIMTVP
 40
0.0
  9
$DIMTIX
 70
     0
  9
$DIMSOXD
 70
     0
  9
$DIMSAH
 70
     0
  9
$DIMBLK1
  1

  9
$DIMBLK2
  1

  9
$DIMSTYLE
  2
Standard
  9
$DIMCLRD
 70
     0
  9
$DIMCLRE
 70
     0
  9
$DIMCLRT
 70
     0
  9
$DIMTFAC
 40
1.0
  9
$DIMGAP
 40
0.09
  9
$DIMJUST
 70
     0
  9
$DIMSD1
 70
     0
  9
$DIMSD2
 70
     0
  9
$DIMTOLJ
 70
     1
  9
$DIMTZIN
 70
     0
  9
$DIMALTZ
 70
     0
  9
$DIMALTTZ
 70
     0
  9
$DIMUPT
 70
     0
  9
$DIMDEC
 70
     4
  9
$DIMTDEC
 70
     4
  9
$DIMALTU
 70
     2
  9
$DIMALTTD
 70
     2
  9
$DIMTXSTY
  7
Standard
  9
$DIMAUNIT
 70
     0
  9
$DIMADEC
 70
     0
  9
$DIMALTRND
 40
0.0
  9
$DIMAZIN
 70
     0
  9
$DIMDSEP
 70
    46
  9
$DIMATFIT
 70
     3
  9
$DIMFRAC
 70
     0
  9
$DIMLDRBLK
  1

  9
$DIMLUNIT
 70
     2
  9
$DIMLWD
 70
    -2
  9
$DIMLWE
 70
    -2
  9
$DIMTMOVE
 70
     0
  9
$LUNITS
 70
     2
  9
$LUPREC
 70
     4
  9
$SKETCHINC
 40
0.1
  9
$FILLETRAD
 40
0.5
  9
$AUNITS
 70
     0
  9
$AUPREC
 70
     0
  9
$MENU
  1
.
  9
$ELEVATION
 40
0.0
  9
$PELEVATION
 40
0.0
  9
$THICKNESS
 40
0.0
  9
$LIMCHECK
 70
     0
  9
$CHAMFERA
 40
0.5
  9
$CHAMFERB
 40
0.5
  9
$CHAMFERC
 40
1.0
  9
$CHAMFERD
 40
0.0
  9
$SKPOLY
 70
     0
  9
$TDCREATE
 40
2455386.30533169
  9
$TDUCREATE
 40
2455386.221998356
  9
$TDUPDATE
 40
2455386.305331701
  9
$TDUUPDATE
 40
2455386.221998368
  9
$TDINDWG
 40
0.0000000116
  9
$TDUSRTIMER
 40
0.0000000116
  9
$USRTIMER
 70
     1
  9
$ANGBASE
 50
0.0
  9
$ANGDIR
 70
     0
  9
$PDMODE
 70
     0
  9
$PDSIZE
 40
0.0
  9
$PLINEWID
 40
0.0
  9
$SPLFRAME
 70
     0
  9
$SPLINETYPE
 70
     6
  9
$SPLINESEGS
 70
     8
  9
$HANDSEED
  5
27A
  9
$SURFTAB1
 70
     6
  9
$SURFTAB2
 70
     6
  9
$SURFTYPE
 70
     6
  9
$SURFU
 70
     6
  9
$SURFV
 70
     6
  9
$UCSBASE
  2

  9
$UCSNAME
  2

  9
$UCSORG
 10
0.0
 20
0.0
 30
0.0
  9
$UCSXDIR
 10
1.0
 20
0.0
 30
0.0
  9
$UCSYDIR
 10
0.0
 20
1.0
 30
0.0
  9
$UCSORTHOREF
  2

  9
$UCSORTHOVIEW
 70
     0
  9
$UCSORGTOP
 10
0.0
 20
0.0
 30
0.0
  9
$UCSORGBOTTOM
 10
0.0
 20
0.0
 30
0.0
  9
$UCSORGLEFT
 10
0.0
 20
0.0
 30
0.0
  9
$UCSORGRIGHT
 10
0.0
 20
0.0
 30
0.0
  9
$UCSORGFRONT
 10
0.0
 20
0.0
 30
0.0
  9
$UCSORGBACK
 10
0.0
 20
0.0
 30
0.0
  9
$PUCSBASE
  2

  9
$PUCSNAME
  2

  9
$PUCSORG
 10
0.0
 20
0.0
 30
0.0
  9
$PUCSXDIR
 10
1.0
 20
0.0
 30
0.0
  9
$PUCSYDIR
 10
0.0
 20
1.0
 30
0.0
  9
$PUCSORTHOREF
  2

  9
$PUCSORTHOVIEW
 70
     0
  9
$PUCSORGTOP
 10
0.0
 20
0.0
 30
0.0
  9
$PUCSORGBOTTOM
 10
0.0
 20
0.0
 30
0.0
  9
$PUCSORGLEFT
 10
0.0
 20
0.0
 30
0.0
  9
$PUCSORGRIGHT
 10
0.0
 20
0.0
 30
0.0
  9
$PUCSORGFRONT
 10
0.0
 20
0.0
 30
0.0
  9
$PUCSORGBACK
 10
0.0
 20
0.0
 30
0.0
  9
$USERI1
 70
     0
  9
$USERI2
 70
     0
  9
$USERI3
 70
     0
  9
$USERI4
 70
     0
  9
$USERI5
 70
     0
  9
$USERR1
 40
16.5
  9
$USERR2
 40
0.0
  9
$USERR3
 40
0.0
  9
$USERR4
 40
0.0
  9
$USERR5
 40
0.0
  9
$WORLDVIEW
 70
     1
  9
$SHADEDGE
 70
     3
  9
$SHADEDIF
 70
    70
  9
$TILEMODE
 70
     1
  9
$MAXACTVP
 70
    64
  9
$PINSBASE
 10
0.0
 20
0.0
 30
0.0
  9
$PLIMCHECK
 70
     0
  9
$PEXTMIN
 10
1.00000000000000E+20
 20
1.00000000000000E+20
 30
1.00000000000000E+20
  9
$PEXTMAX
 10
-1.00000000000000E+20
 20
-1.00000000000000E+20
 30
-1.00000000000000E+20
  9
$PLIMMIN
 10
0.0
 20
0.0
  9
$PLIMMAX
 10
12.0
 20
9.0
  9
$UNITMODE
 70
     0
  9
$VISRETAIN
 70
     1
  9
$PLINEGEN
 70
     0
  9
$PSLTSCALE
 70
     1
  9
$TREEDEPTH
 70
  3020
  9
$CMLSTYLE
  2
Standard
  9
$CMLJUST
 70
     0
  9
$CMLSCALE
 40
1.0
  9
$PROXYGRAPHICS
 70
     1
  9
$MEASUREMENT
 70
     1
  9
$CELWEIGHT
370
    -1
  9
$ENDCAPS
280
     0
  9
$JOINSTYLE
280
     0
  9
$LWDISPLAY
290
     0
  9
$INSUNITS
 70
     1
  9
$HYPERLINKBASE
  1

  9
$STYLESHEET
  1

  9
$XEDIT
290
     1
  9
$CEPSNTYPE
380
     0
  9
$PSTYLEMODE
290
     1
  9
$FINGERPRINTGUID
  2
{2FA9D513-EE4D-435E-BFEE-4641F51F27E4}
  9
$VERSIONGUID
  2
{FAEB1C32-E019-11D5-929B-00C0DF256EC4}
  9
$EXTNAMES
290
     1
  9
$PSVPSCALE
 40
0.0
  9
$OLESTARTUP
290
     0
  0
ENDSEC
  0
SECTION
  2
CLASSES
  0
CLASS
  1
ACDBDICTIONARYWDFLT
  2
AcDbDictionaryWithDefault
  3
ObjectDBX Classes
 90
        0
280
     0
281
     0
  0
CLASS
  1
VISUALSTYLE
  2
AcDbVisualStyle
  3
ObjectDBX Classes
 90
     4095
280
     0
281
     0
  0
CLASS
  1
SCALE
  2
AcDbScale
  3
ObjectDBX Classes
 90
     1153
280
     0
281
     0
  0
CLASS
  1

  2
exOdDbPolyline
  3

 90
        0
280
     0
281
     1
  0
CLASS
  1

  2
exOdDbSpline
  3

 90
        0
280
     0
281
     1
  0
CLASS
  1
DICTIONARYVAR
  2
AcDbDictionaryVar
  3
ObjectDBX Classes
 90
        0
280
     0
281
     0
  0
CLASS
  1
ACDBPLACEHOLDER
  2
AcDbPlaceHolder
  3
ObjectDBX Classes
 90
        0
280
     0
281
     0
  0
CLASS
  1
LAYOUT
  2
AcDbLayout
  3
ObjectDBX Classes
 90
        0
280
     0
281
     0
  0
ENDSEC
  0
SECTION
  2
TABLES
  0
TABLE
  2
VPORT
  5
8
330
0
100
AcDbSymbolTable
 70
     1
  0
VPORT
  5
29
330
8
100
AcDbSymbolTableRecord
100
AcDbViewportTableRecord
  2
*Active
 70
     0
 10
0.0
 20
0.0
 11
1.0
 21
1.0
 12
438.653060457179
 22
83.44889031738
 13
0.0
 23
0.0
 14
0.5
 24
0.5
 15
0.5
 25
0.5
 16
0.0
 26
0.0
 36
1.0
 17
0.0
 27
0.0
 37
0.0
 40
422.452558698236
 41
1.60267857142857
 42
50.0
 43
0.0
 44
0.0
 50
0.0
 51
0.0
 71
     0
 72
   100
 73
     1
 74
     3
 75
     0
 76
     0
 77
     0
 78
     0
281
     0
 65
     1
110
0.0
120
0.0
130
0.0
111
1.0
121
0.0
131
0.0
112
0.0
122
1.0
132
0.0
 79
     0
146
0.0
  0
ENDTAB
  0
TABLE
  2
LTYPE
  5
5
330
0
100
AcDbSymbolTable
 70
     9
  0
LTYPE
  5
14
330
5
100
AcDbSymbolTableRecord
100
AcDbLinetypeTableRecord
  2
ByBlock
 70
     0
  3

 72
    65
 73
     0
 40
0.0
  0
LTYPE
  5
15
330
5
100
AcDbSymbolTableRecord
100
AcDbLinetypeTableRecord
  2
ByLayer
 70
     0
  3

 72
    65
 73
     0
 40
0.0
  0
LTYPE
  5
16
330
5
100
AcDbSymbolTableRecord
100
AcDbLinetypeTableRecord
  2
Continuous
 70
     0
  3
Solid line
 72
    65
 73
     0
 40
0.0
  0
LTYPE
  5
3B
330
5
100
AcDbSymbolTableRecord
100
AcDbLinetypeTableRecord
  2
DASHED
 70
     0
  3
Dashed
 72
    65
 73
     2
 40
15.0
 49
7.0
 74
     0
 49
-8.0
 74
     0
  0
LTYPE
  5
3C
330
5
100
AcDbSymbolTableRecord
100
AcDbLinetypeTableRecord
  2
DOTTED
 70
     0
  3
Dotted
 72
    65
 73
     2
 40
1.0
 49
0.0
 74
     0
 49
-1.0
 74
     0
  0
LTYPE
  5
3D
330
5
100
AcDbSymbolTableRecord
100
AcDbLinetypeTableRecord
  2
DOT_CENTER
 70
     0
  3
Dot_Center
 72
    65
 73
     4
 40
14.0
 49
12.0
 74
     0
 49
-1.0
 74
     0
 49
0.0
 74
     0
 49
-1.0
 74
     0
  0
LTYPE
  5
3E
330
5
100
AcDbSymbolTableRecord
100
AcDbLinetypeTableRecord
  2
LONG_DASHED
 70
     0
  3
Long_Dashed
 72
    65
 73
     2
 40
15.0
 49
10.0
 74
     0
 49
-5.0
 74
     0
  0
LTYPE
  5
3F
330
5
100
AcDbSymbolTableRecord
100
AcDbLinetypeTableRecord
  2
DASH_CENTER
 70
     0
  3
Dash_Center
 72
    65
 73
     4
 40
14.0
 49
11.0
 74
     0
 49
-1.0
 74
     0
 49
1.0
 74
     0
 49
-1.0
 74
     0
  0
LTYPE
  5
40
330
5
100
AcDbSymbolTableRecord
100
AcDbLinetypeTableRecord
  2
PHANTOM
 70
     0
  3
Phantom
 72
    65
 73
     6
 40
13.0
 49
10.0
 74
     0
 49
-1.0
 74
     0
 49
0.0
 74
     0
 49
-1.0
 74
     0
 49
0.0
 74
     0
 49
-1.0
 74
     0
  0
LTYPE
  5
41
330
5
100
AcDbSymbolTableRecord
100
AcDbLinetypeTableRecord
  2
CENTER_DASH_DASH
 70
     0
  3
Center_Dash_Dash
 72
    65
 73
     6
 40
14.0
 49
9.0
 74
     0
 49
-1.0
 74
     0
 49
1.0
 74
     0
 49
-1.0
 74
     0
 49
1.0
 74
     0
 49
-1.0
 74
     0
  0
LTYPE
  5
42
330
5
100
AcDbSymbolTableRecord
100
AcDbLinetypeTableRecord
  2
CENTERX2
 70
     0
  3
CENTERX2
 72
    65
 73
     4
 40
22.0
 49
13.0
 74
     0
 49
-3.0
 74
     0
 49
3.0
 74
     0
 49
-3.0
 74
     0
  0
ENDTAB
  0
TABLE
  2
LAYER
  5
2
330
0
100
AcDbSymbolTable
 70
     2
  0
LAYER
  5
10
330
2
100
AcDbSymbolTableRecord
100
AcDbLayerTableRecord
  2
0
 70
     0
 62
     7
  6
Continuous
370
    -3
390
F
  0
LAYER
  5
43
330
2
100
AcDbSymbolTableRecord
100
AcDbLayerTableRecord
  2
1
 70
     0
 62
     7
  6
Continuous
370
    -3
390
F
  0
ENDTAB
  0
TABLE
  2
STYLE
  5
3
330
0
100
AcDbSymbolTable
 70
     2
  0
STYLE
  5
11
330
3
100
AcDbSymbolTableRecord
100
AcDbTextStyleTableRecord
  2
Standard
 70
     0
 40
0.0
 41
1.0
 50
0.0
 71
     0
 42
0.2
  3
txt
  4

  0
STYLE
  5
24E
330
3
100
AcDbSymbolTableRecord
100
AcDbTextStyleTableRecord
  2
CONVERTER_11
 70
     0
 40
0.0
 41
0.9
 50
0.0
 71
     0
 42
0.2
  3
txt.shx
  4

  0
ENDTAB
  0
TABLE
  2
VIEW
  5
6
330
0
100
AcDbSymbolTable
 70
     0
  0
ENDTAB
  0
TABLE
  2
UCS
  5
7
330
0
100
AcDbSymbolTable
 70
     0
  0
ENDTAB
  0
TABLE
  2
APPID
  5
9
330
0
100
AcDbSymbolTable
 70
     1
  0
APPID
  5
12
330
9
100
AcDbSymbolTableRecord
100
AcDbRegAppTableRecord
  2
ACAD
 70
     0
  0
ENDTAB
  0
TABLE
  2
DIMSTYLE
  5
A
330
0
100
AcDbSymbolTable
 70
     4
100
AcDbDimStyleTable
  0
DIMSTYLE
105
27
330
A
100
AcDbSymbolTableRecord
100
AcDbDimStyleTableRecord
  2
Standard
 70
     0
340
11
  0
DIMSTYLE
105
252
102
{ACAD_REACTORS
330
253
102
}
330
A
100
AcDbSymbolTableRecord
100
AcDbDimStyleTableRecord
  2
ME10_DIM_10
 70
     0
  3
Ø<>
 41
10.0
 42
0.0
 44
2.0
 73
     0
 74
     0
 77
     1
 78
     8
140
10.0
147
2.0
172
     1
173
     1
176
     4
177
     4
178
     1
271
     2
340
24E
  0
DIMSTYLE
105
25D
102
{ACAD_REACTORS
330
25E
102
}
330
A
100
AcDbSymbolTableRecord
100
AcDbDimStyleTableRecord
  2
ME10_DIM_11
 70
     0
  3
DN<>
 41
10.0
 42
0.0
 44
2.0
 73
     0
 74
     0
 77
     1
 78
     8
140
10.0
147
2.0
172
     1
173
     1
176
     4
177
     4
178
     1
271
     0
340
24E
  0
DIMSTYLE
105
268
102
{ACAD_REACTORS
330
269
102
}
330
A
100
AcDbSymbolTableRecord
100
AcDbDimStyleTableRecord
  2
ME10_DIM_12
 70
     0
 41
10.0
 42
0.0
 44
2.0
 73
     0
 74
     0
 77
     1
 78
     8
140
10.0
147
2.0
172
     1
173
     1
176
     4
177
     4
178
     1
271
     2
340
24E
  0
ENDTAB
  0
TABLE
  2
BLOCK_RECORD
  5
1
330
0
100
AcDbSymbolTable
 70
     6
  0
BLOCK_RECORD
  5
1F
330
1
100
AcDbSymbolTableRecord
100
AcDbBlockTableRecord
  2
*Model_Space
340
22
  0
BLOCK_RECORD
  5
1B
330
1
100
AcDbSymbolTableRecord
100
AcDbBlockTableRecord
  2
*Paper_Space
340
1E
  0
BLOCK_RECORD
  5
23
330
1
100
AcDbSymbolTableRecord
100
AcDbBlockTableRecord
  2
*Paper_Space0
340
26
  0
BLOCK_RECORD
  5
44
330
1
100
AcDbSymbolTableRecord
100
AcDbBlockTableRecord
  2
HL62_1P_5
340
0
102
{BLKREFS
331
6A
102
}
  0
BLOCK_RECORD
  5
47
330
1
100
AcDbSymbolTableRecord
100
AcDbBlockTableRecord
  2
HL_62_1P_5_DN160_Dachablauf
340
0
102
{BLKREFS
331
6D
102
}
  0
BLOCK_RECORD
  5
248
330
1
100
AcDbSymbolTableRecord
100
AcDbBlockTableRecord
  2
*D3
340
0
  0
BLOCK_RECORD
  5
254
330
1
100
AcDbSymbolTableRecord
100
AcDbBlockTableRecord
  2
*D4
340
0
  0
BLOCK_RECORD
  5
25F
330
1
100
AcDbSymbolTableRecord
100
AcDbBlockTableRecord
  2
*D5
340
0
  0
ENDTAB
  0
ENDSEC
  0
SECTION
  2
BLOCKS
  0
BLOCK
  5
20
330
1F
100
AcDbEntity
  8
0
100
AcDbBlockBegin
  2
*Model_Space
 70
     0
 10
0.0
 20
0.0
 30
0.0
  3
*Model_Space
  1

  0
ENDBLK
  5
21
330
1F
100
AcDbEntity
  8
0
100
AcDbBlockEnd
  0
BLOCK
  5
1C
330
1B
100
AcDbEntity
 67
     1
  8
0
100
AcDbBlockBegin
  2
*Paper_Space
 70
     0
 10
0.0
 20
0.0
 30
0.0
  3
*Paper_Space
  1

  0
ENDBLK
  5
1D
330
1B
100
AcDbEntity
 67
     1
  8
0
100
AcDbBlockEnd
  0
BLOCK
  5
24
330
23
100
AcDbEntity
  8
0
100
AcDbBlockBegin
  2
*Paper_Space0
 70
     0
 10
0.0
 20
0.0
 30
0.0
  3
*Paper_Space0
  1

  0
ENDBLK
  5
25
330
23
100
AcDbEntity
  8
0
100
AcDbBlockEnd
  0
BLOCK
  5
45
330
44
100
AcDbEntity
  8
0
100
AcDbBlockBegin
  2
HL62_1P_5
 70
     0
 10
438.653060457179
 20
83.44889031738
 30
0.0
  3
HL62_1P_5
  1

  0
POINT
  5
6E
330
44
100
AcDbEntity
  8
0
 62
     7
100
AcDbPoint
 10
376.935067581382
 20
5.0
 30
0.0
  0
POINT
  5
6F
330
44
100
AcDbEntity
  8
0
 62
     7
100
AcDbPoint
 10
537.135067581382
 20
5.0
 30
0.0
  0
POINT
  5
70
330
44
100
AcDbEntity
  8
0
 62
     7
100
AcDbPoint
 10
295.035067581382
 20
159.9999201133001
 30
0.0
  0
POINT
  5
71
330
44
100
AcDbEntity
  8
0
 62
     7
100
AcDbPoint
 10
378.274813543582
 20
0.0
 30
0.0
  0
POINT
  5
72
330
44
100
AcDbEntity
  8
0
 62
     7
100
AcDbPoint
 10
377.285070578982
 20
159.9999201133001
 30
0.0
  0
POINT
  5
73
330
44
100
AcDbEntity
  8
0
 62
     7
100
AcDbPoint
 10
408.5864856776821
 20
234.9999261133
 30
0.0
  0
POINT
  5
74
330
44
100
AcDbEntity
  8
0
 62
     7
100
AcDbPoint
 10
277.035067581382
 20
156.5003410000001
 30
0.0
  0
POINT
  5
75
330
44
100
AcDbEntity
  8
0
 62
     7
100
AcDbPoint
 10
637.035067581382
 20
156.5003410000001
 30
0.0
  0
LWPOLYLINE
  5
76
330
44
100
AcDbEntity
  8
0
  6
Continuous
 62
     7
100
AcDbPolyline
 90
        2
 70
     0
 43
0.15
 10
383.035067581382
 20
96.49999999999997
 10
383.035067581382
 20
75.49999999999997
  0
LWPOLYLINE
  5
77
330
44
100
AcDbEntity
  8
0
  6
Continuous
 62
     7
100
AcDbPolyline
 90
        2
 70
     0
 43
0.15
 10
389.035067581382
 20
77.00000199999997
 10
389.035067581382
 20
96.49999999999997
  0
LWPOLYLINE
  5
78
330
44
100
AcDbEntity
  8
0
  6
Continuous
 62
     7
100
AcDbPolyline
 90
        2
 70
     0
 43
0.15
 10
349.035067581382
 20
-108.5
 10
349.035067581382
 20
57.49999999999997
  0
LWPOLYLINE
  5
79
330
44
100
AcDbEntity
  8
0
  6
Continuous
 62
     7
100
AcDbPolyline
 90
        2
 70
     0
 43
0.15
 10
343.035067581382
 20
57.49999999999997
 10
343.035067581382
 20
-108.5
  0
LWPOLYLINE
  5
7A
330
44
100
AcDbEntity
  8
0
  6
Continuous
 62
     7
100
AcDbPolyline
 90
        2
 70
     0
 43
0.15
 10
376.935067581382
 20
75.74999999999997
 10
357.745042177082
 20
75.74999999999997
  0
LWPOLYLINE
  5
7B
330
44
100
AcDbEntity
  8
0
  6
Continuous
 62
     7
100
AcDbPolyline
 90
        2
 70
     0
 43
0.15
 10
357.745042177082
 20
67.24999999999997
 10
376.935067581382
 20
67.24999999999997
  0
LWPOLYLINE
  5
7C
330
44
100
AcDbEntity
  8
0
  6
Continuous
 62
     7
100
AcDbPolyline
 90
        2
 70
     0
 43
0.15
 10
380.202791094482
 20
67.24999999999997
 10
380.245042177082
 20
67.24999999999997
  0
LWPOLYLINE
  5
7D
330
44
100
AcDbEntity
  8
0
  6
Continuous
 62
     7
100
AcDbPolyline
 90
        2
 70
     0
 43
0.15
 10
382.745042177082
 20
77.85
 10
380.259447989082
 20
77.85
  0
LWPOLYLINE
  5
7E
330
44
100
AcDbEntity
  8
0
  6
Continuous
 62
     7
100
AcDbPolyline
 90
        2
 70
     0
 43
0.15
 10
380.245042177082
 20
65.15
 10
382.745042177082
 20
65.15
  0
LWPOLYLINE
  5
7F
330
44
100
AcDbEntity
  8
0
  6
Continuous
 62
     7
100
AcDbPolyline
 90
        2
 70
     0
 43
0.15
 10
389.035067581382
 20
96.49999999999997
 10
388.039339129282
 20
96.49999999999997
  0
LWPOLYLINE
  5
80
330
44
100
AcDbEntity
  8
0
  6
Continuous
 62
     7
100
AcDbPolyline
 90
        2
 70
     0
 43
0.15
 10
384.039027977382
 20
96.49999999999997
 10
383.035067581382
 20
96.49999999999997
  0
LWPOLYLINE
  5
81
330
44
100
AcDbEntity
  8
0
  6
Continuous
 62
     7
100
AcDbPolyline
 90
        2
 70
     0
 43
0.15
 10
349.035067581382
 20
-108.5
 10
343.035067581382
 20
-108.5
  0
LWPOLYLINE
  5
82
330
44
100
AcDbEntity
  8
0
  6
Continuous
 62
     7
100
AcDbPolyline
 90
        2
 70
     0
 43
0.15
 10
390.035067581382
 20
98.49999999999997
 10
390.035067581382
 20
106.5
  0
LWPOLYLINE
  5
83
330
44
100
AcDbEntity
  8
0
  6
Continuous
 62
     7
100
AcDbPolyline
 90
        2
 70
     0
 43
0.15
 10
524.035067581382
 20
106.5
 10
524.035067581382
 20
98.49999999999997
  0
LWPOLYLINE
  5
84
330
44
100
AcDbEntity
  8
0
  6
Continuous
 62
     7
100
AcDbPolyline
 90
        2
 70
     0
 43
0.15
 10
388.035067581382
 20
108.5
 10
384.035067581382
 20
108.5
  0
LWPOLYLINE
  5
85
330
44
100
AcDbEntity
  8
0
  6
Continuous
 62
     7
100
AcDbPolyline
 90
        2
 70
     0
 43
0.15
 10
382.035067581382
 20
106.5
 10
382.035067581382
 20
98.49999999999997
  0
LWPOLYLINE
  5
86
330
44
100
AcDbEntity
  8
0
  6
Continuous
 62
     7
100
AcDbPolyline
 90
        2
 70
     0
 43
0.15
 10
384.035067581382
 20
96.49999999999997
 10
386.035067581382
 20
96.49999999999997
  0
LWPOLYLINE
  5
87
330
44
100
AcDbEntity
  8
0
  6
Continuous
 62
     7
100
AcDbPolyline
 90
        2
 70
     0
 43
0.15
 10
386.035067581382
 20
96.49999999999997
 10
388.035067581382
 20
96.49999999999997
  0
LWPOLYLINE
  5
88
330
44
100
AcDbEntity
  8
0
  6
Continuous
 62
     7
100
AcDbPolyline
 90
        2
 70
     0
 43
0.15
 10
526.035067581382
 20
96.49999999999997
 10
530.035067581382
 20
96.49999999999997
  0
LWPOLYLINE
  5
89
330
44
100
AcDbEntity
  8
0
  6
Continuous
 62
     7
100
AcDbPolyline
 90
        2
 70
     0
 43
0.15
 10
530.035067581382
 20
108.5
 10
526.035067581382
 20
108.5
  0
LWPOLYLINE
  5
8A
330
44
100
AcDbEntity
  8
0
  6
Continuous
 62
     7
100
AcDbPolyline
 90
        2
 70
     0
 43
0.15
 10
532.035067581382
 20
98.49999999999997
 10
532.035067581382
 20
106.5
  0
LWPOLYLINE
  5
8B
330
44
100
AcDbEntity
  8
0
  6
Continuous
 62
     7
100
AcDbPolyline
 90
        2
 70
     0
 43
0.15
 10
526.035067581382
 20
108.5
 10
524.035067581382
 20
108.5
  0
LWPOLYLINE
  5
8C
330
44
100
AcDbEntity
  8
0
  6
Continuous
 62
     7
100
AcDbPolyline
 90
        2
 70
     0
 43
0.15
 10
390.035067581382
 20
108.5
 10
388.035067581382
 20
108.5
  0
LWPOLYLINE
  5
8D
330
44
100
AcDbEntity
  8
0
  6
Continuous
 62
     7
100
AcDbPolyline
 90
        2
 70
     0
 43
0.15
 10
526.035067581382
 20
96.49999999999997
 10
524.035067581382
 20
96.49999999999997
  0
LWPOLYLINE
  5
8E
330
44
100
AcDbEntity
  8
0
  6
Continuous
 62
     7
100
AcDbPolyline
 90
        2
 70
     0
 43
0.15
 10
390.035067581382
 20
96.49999999999997
 10
389.035067581382
 20
96.49999999999997
  0
LWPOLYLINE
  5
8F
330
44
100
AcDbEntity
  8
0
  6
Continuous
 62
     7
100
AcDbPolyline
 90
        2
 70
     0
 43
0.15
 10
388.039339129282
 20
96.49999999999997
 10
388.035067581382
 20
96.49999999999997
  0
LWPOLYLINE
  5
90
330
44
100
AcDbEntity
  8
0
  6
Continuous
 62
     7
100
AcDbPolyline
 90
        2
 70
     0
 43
0.15
 10
380.245042177082
 20
65.90334921579998
 10
382.745042177082
 20
65.90334921579998
  0
LWPOLYLINE
  5
91
330
44
100
AcDbEntity
  8
0
  6
Continuous
 62
     7
100
AcDbPolyline
 90
        2
 70
     0
 43
0.15
 10
380.245042177082
 20
68.48960135529998
 10
380.245042177082
 20
65.90334921579998
  0
LWPOLYLINE
  5
92
330
44
100
AcDbEntity
  8
0
  6
Continuous
 62
     7
100
AcDbPolyline
 90
        2
 70
     0
 43
0.15
 10
357.745042177082
 20
68.48960135529998
 10
380.245042177082
 20
68.48960135529998
  0
LWPOLYLINE
  5
93
330
44
100
AcDbEntity
  8
0
  6
Continuous
 62
     7
100
AcDbPolyline
 90
        2
 70
     0
 43
0.15
 10
357.745042177082
 20
69.60197471040001
 10
357.745042177082
 20
68.48960135529998
  0
LWPOLYLINE
  5
94
330
44
100
AcDbEntity
  8
0
  6
Continuous
 62
     7
100
AcDbPolyline
 90
        2
 70
     0
 43
0.15
 10
382.745042177082
 20
69.60197471040001
 10
357.745042177082
 20
69.60197471040001
  0
LWPOLYLINE
  5
95
330
44
100
AcDbEntity
  8
0
  6
Continuous
 62
     7
100
AcDbPolyline
 90
        2
 70
     0
 43
0.15
 10
382.745042177082
 20
65.90334921579998
 10
382.745042177082
 20
69.60197471040001
  0
LWPOLYLINE
  5
96
330
44
100
AcDbEntity
  8
0
  6
Continuous
 62
     7
100
AcDbPolyline
 90
        2
 70
     0
 43
0.15
 10
357.745042177082
 20
68.48960135529998
 10
357.745042177082
 20
67.24999999999997
  0
LWPOLYLINE
  5
97
330
44
100
AcDbEntity
  8
0
  6
Continuous
 62
     7
100
AcDbPolyline
 90
        2
 70
     0
 43
0.15
 10
357.745042177082
 20
75.74999999999997
 10
357.745042177082
 20
74.51039864470002
  0
LWPOLYLINE
  5
98
330
44
100
AcDbEntity
  8
0
  6
Continuous
 62
     7
100
AcDbPolyline
 90
        2
 70
     0
 43
0.15
 10
380.245042177082
 20
74.51039864470002
 10
357.745042177082
 20
74.51039864470002
  0
LWPOLYLINE
  5
99
330
44
100
AcDbEntity
  8
0
  6
Continuous
 62
     7
100
AcDbPolyline
 90
        2
 70
     0
 43
0.15
 10
382.745042177082
 20
65.90334921579998
 10
382.745042177082
 20
65.15
  0
LWPOLYLINE
  5
9A
330
44
100
AcDbEntity
  8
0
  6
Continuous
 62
     7
100
AcDbPolyline
 90
        2
 70
     0
 43
0.15
 10
382.745042177082
 20
77.85
 10
382.745042177082
 20
77.09665078419997
  0
LWPOLYLINE
  5
9B
330
44
100
AcDbEntity
  8
0
  6
Continuous
 62
     7
100
AcDbPolyline
 90
        2
 70
     0
 43
0.15
 10
382.745042177082
 20
77.09665078419997
 10
380.245042177082
 20
77.09665078419997
  0
LWPOLYLINE
  5
9C
330
44
100
AcDbEntity
  8
0
  6
Continuous
 62
     7
100
AcDbPolyline
 90
        2
 70
     0
 43
0.15
 10
380.245042177082
 20
65.90334921579998
 10
380.245042177082
 20
65.15
  0
LWPOLYLINE
  5
9D
330
44
100
AcDbEntity
  8
0
  6
Continuous
 62
     7
100
AcDbPolyline
 90
        2
 70
     0
 43
0.15
 10
380.245042177082
 20
77.85
 10
380.245042177082
 20
77.09665078419997
  0
LWPOLYLINE
  5
9E
330
44
100
AcDbEntity
  8
0
  6
Continuous
 62
     7
100
AcDbPolyline
 90
        2
 70
     0
 43
0.15
 10
357.745042177082
 20
73.39802528959999
 10
382.745042177082
 20
73.39802528959999
  0
LWPOLYLINE
  5
9F
330
44
100
AcDbEntity
  8
0
  6
Continuous
 62
     7
100
AcDbPolyline
 90
        2
 70
     0
 43
0.15
 10
382.745042177082
 20
73.39802528959999
 10
382.745042177082
 20
77.09665078419997
  0
LWPOLYLINE
  5
A0
330
44
100
AcDbEntity
  8
0
  6
Continuous
 62
     7
100
AcDbPolyline
 90
        2
 70
     0
 43
0.15
 10
357.745042177082
 20
74.51039864470002
 10
357.745042177082
 20
73.39802528959999
  0
LWPOLYLINE
  5
A1
330
44
100
AcDbEntity
  8
0
  6
Continuous
 62
     7
100
AcDbPolyline
 90
        2
 70
     0
 43
0.15
 10
380.245042177082
 20
77.09665078419997
 10
380.245042177082
 20
74.51039864470002
  0
LWPOLYLINE
  5
A2
330
44
100
AcDbEntity
  8
0
  6
Continuous
 62
     7
100
AcDbPolyline
 90
        2
 70
     0
 43
0.15
 10
479.228231172882
 20
235.0999261132999
 10
479.228231172882
 20
234.9999261133
  0
LWPOLYLINE
  5
A3
330
44
100
AcDbEntity
  8
0
  6
Continuous
 62
     7
100
AcDbPolyline
 90
        2
 70
     0
 43
0.15
 10
479.228231172882
 20
235.0999261132999
 10
479.228231475282
 20
235.0999261132999
  0
LWPOLYLINE
  5
A4
330
44
100
AcDbEntity
  8
0
  6
Continuous
 62
     7
100
AcDbPolyline
 90
        2
 70
     0
 43
0.15
 10
479.228231672882
 20
234.9999261133
 10
479.228231475282
 20
235.0999261132999
  0
LWPOLYLINE
  5
A5
330
44
100
AcDbEntity
  8
0
  6
Continuous
 62
     7
100
AcDbPolyline
 90
        2
 70
     0
 43
0.15
 10
486.488818924482
 20
235.0999261132999
 10
486.488818924482
 20
234.9999261133
  0
LWPOLYLINE
  5
A6
330
44
100
AcDbEntity
  8
0
  6
Continuous
 62
     7
100
AcDbPolyline
 90
        2
 70
     0
 43
0.15
 10
486.464149623682
 20
235.0999261132999
 10
486.464149623682
 20
234.9999261133
  0
LWPOLYLINE
  5
A7
330
44
100
AcDbEntity
  8
0
  6
Continuous
 62
     7
100
AcDbPolyline
 90
        2
 70
     0
 43
0.15
 10
486.464149623682
 20
235.0999261132999
 10
486.488818924482
 20
235.0999261132999
  0
LWPOLYLINE
  5
A8
330
44
100
AcDbEntity
  8
0
  6
Continuous
 62
     7
100
AcDbPolyline
 90
        2
 70
     0
 43
0.15
 10
387.022513619782
 20
151.2999201133
 10
387.022513619782
 20
130.9999201133001
  0
LWPOLYLINE
  5
A9
330
44
100
AcDbEntity
  8
0
  6
Continuous
 62
     7
100
AcDbPolyline
 90
        2
 70
     0
 43
0.15
 10
386.035067581382
 20
130.9999201133001
 10
387.022513619782
 20
130.9999201133001
  0
LWPOLYLINE
  5
AA
330
44
100
AcDbEntity
  8
0
  6
Continuous
 62
     7
100
AcDbPolyline
 90
        2
 70
     0
 43
0.15
 10
386.035067581382
 20
130.9999201133001
 10
386.035067581382
 20
152.2999201133
  0
LWPOLYLINE
  5
AB
330
44
100
AcDbEntity
  8
0
  6
Continuous
 62
     7
100
AcDbPolyline
 90
        2
 70
     0
 43
0.15
 10
527.047640832782
 20
130.9999201133001
 10
528.035067581382
 20
130.9999201133001
  0
LWPOLYLINE
  5
AC
330
44
100
AcDbEntity
  8
0
  6
Continuous
 62
     7
100
AcDbPolyline
 90
        2
 70
     0
 43
0.15
 10
527.047640832782
 20
130.9999201133001
 10
527.047640832782
 20
151.2999201133
  0
LWPOLYLINE
  5
AD
330
44
100
AcDbEntity
  8
0
  6
Continuous
 62
     7
100
AcDbPolyline
 90
        2
 70
     0
 43
0.15
 10
528.035067581382
 20
152.2999201133
 10
528.035067581382
 20
130.9999201133001
  0
LWPOLYLINE
  5
AE
330
44
100
AcDbEntity
  8
0
  6
Continuous
 62
     7
100
AcDbPolyline
 90
        2
 70
     0
 43
0.15
 10
530.935067581382
 20
159.9999201133001
 10
530.935067581382
 20
132.9999201133001
  0
LWPOLYLINE
  5
AF
330
44
100
AcDbEntity
  8
0
  6
Continuous
 62
     7
100
AcDbPolyline
 90
        2
 70
     0
 43
0.15
 10
402.463760529082
 20
199.9066920375
 10
401.060313798482
 20
199.9066920375
  0
LWPOLYLINE
  5
B0
330
44
100
AcDbEntity
  8
0
  6
Continuous
 62
     7
100
AcDbPolyline
 90
        2
 70
     0
 43
0.15
 10
402.463760529082
 20
199.9066920375
 10
402.463760529082
 20
199.320163263
  0
LWPOLYLINE
  5
B1
330
44
100
AcDbEntity
  8
0
  6
Continuous
 62
     7
100
AcDbPolyline
 90
        2
 70
     0
 43
0.15
 10
407.7996306227821
 20
199.9066920375
 10
403.265249184182
 20
199.9066920375
  0
LWPOLYLINE
  5
B2
330
44
100
AcDbEntity
  8
0
  6
Continuous
 62
     7
100
AcDbPolyline
 90
        2
 70
     0
 43
0.15
 10
407.7996306227821
 20
199.9066920375
 10
407.7996306227821
 20
199.320163263
  0
LWPOLYLINE
  5
B3
330
44
100
AcDbEntity
  8
0
  6
Continuous
 62
     7
100
AcDbPolyline
 90
        2
 70
     0
 43
0.15
 10
416.490814379882
 20
199.9066920375
 10
409.134508834782
 20
199.9066920375
  0
LWPOLYLINE
  5
B4
330
44
100
AcDbEntity
  8
0
  6
Continuous
 62
     7
100
AcDbPolyline
 90
        2
 70
     0
 43
0.15
 10
416.490814379882
 20
199.9066920375
 10
416.490814379882
 20
199.320163263
  0
LWPOLYLINE
  5
B5
330
44
100
AcDbEntity
  8
0
  6
Continuous
 62
     7
100
AcDbPolyline
 90
        2
 70
     0
 43
0.15
 10
427.945021990082
 20
199.9066920375
 10
418.268112404582
 20
199.9066920375
  0
LWPOLYLINE
  5
B6
330
44
100
AcDbEntity
  8
0
  6
Continuous
 62
     7
100
AcDbPolyline
 90
        2
 70
     0
 43
0.15
 10
427.945021990082
 20
199.9066920375
 10
427.945021990082
 20
199.320163263
  0
LWPOLYLINE
  5
B7
330
44
100
AcDbEntity
  8
0
  6
Continuous
 62
     7
100
AcDbPolyline
 90
        2
 70
     0
 43
0.15
 10
441.381668133782
 20
199.9066920375
 10
429.936880418782
 20
199.9066920375
  0
LWPOLYLINE
  5
B8
330
44
100
AcDbEntity
  8
0
  6
Continuous
 62
     7
100
AcDbPolyline
 90
        2
 70
     0
 43
0.15
 10
441.381668133782
 20
199.9066920375
 10
441.381668133782
 20
199.320163263
  0
LWPOLYLINE
  5
B9
330
44
100
AcDbEntity
  8
0
  6
Continuous
 62
     7
100
AcDbPolyline
 90
        2
 70
     0
 43
0.15
 10
455.885067581382
 20
199.9066920375
 10
443.603297534282
 20
199.9066920375
  0
LWPOLYLINE
  5
BA
330
44
100
AcDbEntity
  8
0
  6
Continuous
 62
     7
100
AcDbPolyline
 90
        2
 70
     0
 43
0.15
 10
470.466837628482
 20
199.9066920375
 10
458.185067581382
 20
199.9066920375
  0
LWPOLYLINE
  5
BB
330
44
100
AcDbEntity
  8
0
  6
Continuous
 62
     7
100
AcDbPolyline
 90
        2
 70
     0
 43
0.15
 10
472.688467028982
 20
199.9066920375
 10
472.68846702902
 20
199.320163263043
  0
LWPOLYLINE
  5
BC
330
44
100
AcDbEntity
  8
0
  6
Continuous
 62
     7
100
AcDbPolyline
 90
        2
 70
     0
 43
0.15
 10
484.133254743982
 20
199.9066920375
 10
472.688467028982
 20
199.9066920375
  0
LWPOLYLINE
  5
BD
330
44
100
AcDbEntity
  8
0
  6
Continuous
 62
     7
100
AcDbPolyline
 90
        2
 70
     0
 43
0.15
 10
486.125113172682
 20
199.9066920375
 10
486.125113172628
 20
199.320163263032
  0
LWPOLYLINE
  5
BE
330
44
100
AcDbEntity
  8
0
  6
Continuous
 62
     7
100
AcDbPolyline
 90
        2
 70
     0
 43
0.15
 10
495.802022758182
 20
199.9066920375
 10
486.125113172682
 20
199.9066920375
  0
LWPOLYLINE
  5
BF
330
44
100
AcDbEntity
  8
0
  6
Continuous
 62
     7
100
AcDbPolyline
 90
        2
 70
     0
 43
0.15
 10
497.5793207828821
 20
199.9066920375
 10
497.579320782687
 20
199.320163262985
  0
LWPOLYLINE
  5
C0
330
44
100
AcDbEntity
  8
0
  6
Continuous
 62
     7
100
AcDbPolyline
 90
        2
 70
     0
 43
0.15
 10
504.9356263279821
 20
199.9066920375
 10
497.5793207828821
 20
199.9066920375
  0
LWPOLYLINE
  5
C1
330
44
100
AcDbEntity
  8
0
  6
Continuous
 62
     7
100
AcDbPolyline
 90
        2
 70
     0
 43
0.15
 10
506.270504539982
 20
199.9066920375
 10
506.270504540147
 20
199.320163263097
  0
LWPOLYLINE
  5
C2
330
44
100
AcDbEntity
  8
0
  6
Continuous
 62
     7
100
AcDbPolyline
 90
        2
 70
     0
 43
0.15
 10
510.804885978582
 20
199.9066920375
 10
506.270504539982
 20
199.9066920375
  0
LWPOLYLINE
  5
C3
330
44
100
AcDbEntity
  8
0
  6
Continuous
 62
     7
100
AcDbPolyline
 90
        2
 70
     0
 43
0.15
 10
511.606374633682
 20
199.9066920375
 10
511.606374633714
 20
199.320163263032
  0
LWPOLYLINE
  5
C4
330
44
100
AcDbEntity
  8
0
  6
Continuous
 62
     7
100
AcDbPolyline
 90
        2
 70
     0
 43
0.15
 10
513.0098213642821
 20
199.9066920375
 10
511.606374633682
 20
199.9066920375
  0
LWPOLYLINE
  5
C5
330
44
100
AcDbEntity
  8
0
  6
Continuous
 62
     7
100
AcDbPolyline
 90
        2
 70
     0
 43
0.15
 10
513.235067581382
 20
194.5999856133
 10
513.235067581382
 20
199.2878330131
  0
LWPOLYLINE
  5
C6
330
44
100
AcDbEntity
  8
0
  6
Continuous
 62
     7
100
AcDbPolyline
 90
        2
 70
     0
 43
0.15
 10
400.835067581382
 20
199.2878330131
 10
400.835067581382
 20
194.5999856133
  0
LWPOLYLINE
  5
C7
330
44
100
AcDbEntity
  8
0
  6
Continuous
 62
     7
100
AcDbPolyline
 90
        2
 70
     0
 43
0.15
 10
513.235067581382
 20
194.5999856133
 10
400.835067581382
 20
194.5999856133
  0
LWPOLYLINE
  5
C8
330
44
100
AcDbEntity
  8
0
  6
Continuous
 62
     7
100
AcDbPolyline
 90
        2
 70
     0
 43
0.15
 10
505.483649485082
 20
220.5846836411
 10
505.483649485082
 20
220.1999261133
  0
LWPOLYLINE
  5
C9
330
44
100
AcDbEntity
  8
0
  6
Continuous
 62
     7
100
AcDbPolyline
 90
        2
 70
     0
 43
0.15
 10
505.483649485082
 20
220.1999261133
 10
408.5864856776821
 20
220.1999261133
  0
LWPOLYLINE
  5
CA
330
44
100
AcDbEntity
  8
0
  6
Continuous
 62
     7
100
AcDbPolyline
 90
        2
 70
     0
 43
0.15
 10
386.535067581382
 20
152.2999201133
 10
386.535067581382
 20
159.9999201133001
  0
LWPOLYLINE
  5
CB
330
44
100
AcDbEntity
  8
0
  6
Continuous
 62
     7
100
AcDbPolyline
 90
        2
 70
     0
 43
0.15
 10
386.035067581382
 20
152.2999201133
 10
386.535067581382
 20
152.2999201133
  0
LWPOLYLINE
  5
CC
330
44
100
AcDbEntity
  8
0
  6
Continuous
 62
     7
100
AcDbPolyline
 90
        2
 70
     0
 43
0.15
 10
382.635067581382
 20
130.9999201133001
 10
386.035067581382
 20
130.9999201133001
  0
LWPOLYLINE
  5
CD
330
44
100
AcDbEntity
  8
0
  6
Continuous
 62
     7
100
AcDbPolyline
 90
        2
 70
     0
 43
0.15
 10
382.635067581382
 20
132.9999201133001
 10
383.135067581382
 20
132.9999201133001
  0
LWPOLYLINE
  5
CE
330
44
100
AcDbEntity
  8
0
  6
Continuous
 62
     7
100
AcDbPolyline
 90
        2
 70
     0
 43
0.15
 10
383.135067581382
 20
132.9999201133001
 10
383.135067581382
 20
159.9999201133001
  0
LWPOLYLINE
  5
CF
330
44
100
AcDbEntity
  8
0
  6
Continuous
 62
     7
100
AcDbPolyline
 90
        2
 70
     0
 43
0.15
 10
383.135067581382
 20
159.9999201133001
 10
374.6421697635821
 20
159.9999201133001
  0
LWPOLYLINE
  5
D0
330
44
100
AcDbEntity
  8
0
  6
Continuous
 62
     7
100
AcDbPolyline
 90
        2
 70
     0
 43
0.15
 10
469.663386172882
 20
234.9999261133
 10
469.663386172882
 20
235.0999261132999
  0
LWPOLYLINE
  5
D1
330
44
100
AcDbEntity
  8
0
  6
Continuous
 62
     7
100
AcDbPolyline
 90
        2
 70
     0
 43
0.15
 10
469.663386172882
 20
234.9999261133
 10
470.241008672882
 20
234.9999261133
  0
LWPOLYLINE
  5
D2
330
44
100
AcDbEntity
  8
0
  6
Continuous
 62
     7
100
AcDbPolyline
 90
        2
 70
     0
 43
0.15
 10
470.980110172882
 20
235.0999261132999
 10
470.980110172882
 20
234.9999261133
  0
LWPOLYLINE
  5
D3
330
44
100
AcDbEntity
  8
0
  6
Continuous
 62
     7
100
AcDbPolyline
 90
        2
 70
     0
 43
0.15
 10
471.358973172882
 20
234.9999261133
 10
471.358973172882
 20
235.0999261132999
  0
LWPOLYLINE
  5
D4
330
44
100
AcDbEntity
  8
0
  6
Continuous
 62
     7
100
AcDbPolyline
 90
        2
 70
     0
 43
0.15
 10
473.706706672882
 20
235.0999261132999
 10
473.706706672882
 20
234.9999261133
  0
LWPOLYLINE
  5
D5
330
44
100
AcDbEntity
  8
0
  6
Continuous
 62
     7
100
AcDbPolyline
 90
        2
 70
     0
 43
0.15
 10
476.010965172882
 20
234.9999261133
 10
476.010965172882
 20
235.0999261132999
  0
LWPOLYLINE
  5
D6
330
44
100
AcDbEntity
  8
0
  6
Continuous
 62
     7
100
AcDbPolyline
 90
        2
 70
     0
 43
0.15
 10
477.880458172882
 20
234.9999261133
 10
477.880458172882
 20
235.0999261132999
  0
LWPOLYLINE
  5
D7
330
44
100
AcDbEntity
  8
0
  6
Continuous
 62
     7
100
AcDbPolyline
 90
        2
 70
     0
 43
0.15
 10
478.663036172882
 20
235.0999261132999
 10
478.663036172882
 20
234.9999261133
  0
LWPOLYLINE
  5
D8
330
44
100
AcDbEntity
  8
0
  6
Continuous
 62
     7
100
AcDbPolyline
 90
        2
 70
     0
 43
0.15
 10
480.054286172882
 20
235.0999261132999
 10
480.054286172882
 20
234.9999261133
  0
LWPOLYLINE
  5
D9
330
44
100
AcDbEntity
  8
0
  6
Continuous
 62
     7
100
AcDbPolyline
 90
        2
 70
     0
 43
0.15
 10
480.054286172882
 20
234.9999261133
 10
480.619481672882
 20
234.9999261133
  0
LWPOLYLINE
  5
DA
330
44
100
AcDbEntity
  8
0
  6
Continuous
 62
     7
100
AcDbPolyline
 90
        2
 70
     0
 43
0.15
 10
480.619481672882
 20
234.9999261133
 10
480.619481672882
 20
235.0999261132999
  0
LWPOLYLINE
  5
DB
330
44
100
AcDbEntity
  8
0
  6
Continuous
 62
     7
100
AcDbPolyline
 90
        2
 70
     0
 43
0.15
 10
481.402059366482
 20
235.0999261132999
 10
481.402059366482
 20
234.9999261133
  0
LWPOLYLINE
  5
DC
330
44
100
AcDbEntity
  8
0
  6
Continuous
 62
     7
100
AcDbPolyline
 90
        2
 70
     0
 43
0.15
 10
481.749873172882
 20
234.9999261133
 10
481.749873172882
 20
235.0999261132999
  0
LWPOLYLINE
  5
DD
330
44
100
AcDbEntity
  8
0
  6
Continuous
 62
     7
100
AcDbPolyline
 90
        2
 70
     0
 43
0.15
 10
481.749873172882
 20
235.0999261132999
 10
483.6628421728821
 20
235.0999261132999
  0
LWPOLYLINE
  5
DE
330
44
100
AcDbEntity
  8
0
  6
Continuous
 62
     7
100
AcDbPolyline
 90
        2
 70
     0
 43
0.15
 10
483.6628421728821
 20
235.0999261132999
 10
483.6628421728821
 20
234.9999261133
  0
LWPOLYLINE
  5
DF
330
44
100
AcDbEntity
  8
0
  6
Continuous
 62
     7
100
AcDbPolyline
 90
        2
 70
     0
 43
0.15
 10
484.141083104882
 20
234.9999261133
 10
484.141083104882
 20
235.0999261132999
  0
LWPOLYLINE
  5
E0
330
44
100
AcDbEntity
  8
0
  6
Continuous
 62
     7
100
AcDbPolyline
 90
        2
 70
     0
 43
0.15
 10
542.620532399182
 20
161.8242441133
 10
519.5790388168471
 20
225.1302282083
  0
LWPOLYLINE
  5
E1
330
44
100
AcDbEntity
  8
0
  6
Continuous
 62
     7
100
AcDbPolyline
 90
        2
 70
     0
 43
0.15
 10
539.427965399182
 20
159.9999201133001
 10
542.620532399182
 20
161.8242441133
  0
LWPOLYLINE
  5
E2
330
44
100
AcDbEntity
  8
0
  6
Continuous
 62
     7
100
AcDbPolyline
 90
        2
 70
     0
 43
0.15
 10
539.427965399182
 20
159.9999201133001
 10
530.935067581382
 20
159.9999201133001
  0
LWPOLYLINE
  5
E3
330
44
100
AcDbEntity
  8
0
  6
Continuous
 62
     7
100
AcDbPolyline
 90
        2
 70
     0
 43
0.15
 10
530.935067581382
 20
132.9999201133001
 10
531.435067581382
 20
132.9999201133001
  0
LWPOLYLINE
  5
E4
330
44
100
AcDbEntity
  8
0
  6
Continuous
 62
     7
100
AcDbPolyline
 90
        2
 70
     0
 43
0.15
 10
527.535067581382
 20
152.2999201133
 10
528.035067581382
 20
152.2999201133
  0
LWPOLYLINE
  5
E5
330
44
100
AcDbEntity
  8
0
  6
Continuous
 62
     7
100
AcDbPolyline
 90
        2
 70
     0
 43
0.15
 10
527.535067581382
 20
159.9999201133001
 10
527.535067581382
 20
152.2999201133
  0
LWPOLYLINE
  5
E6
330
44
100
AcDbEntity
  8
0
  6
Continuous
 62
     7
100
AcDbPolyline
 90
        2
 70
     0
 43
0.15
 10
527.535067581382
 20
159.9999201133001
 10
527.534695809582
 20
159.9999201133001
  0
LWPOLYLINE
  5
E7
330
44
100
AcDbEntity
  8
0
  6
Continuous
 62
     7
100
AcDbPolyline
 90
        2
 70
     0
 43
0.15
 10
400.835067581382
 20
194.5999856133
 10
399.128831020782
 20
194.5999856133
  0
LWPOLYLINE
  5
E8
330
44
100
AcDbEntity
  8
0
  6
Continuous
 62
     7
100
AcDbPolyline
 90
        2
 70
     0
 43
0.15
 10
514.941304141982
 20
194.5999856133
 10
513.235067581382
 20
194.5999856133
  0
LWPOLYLINE
  5
E9
330
44
100
AcDbEntity
  8
0
  6
Continuous
 62
     7
100
AcDbPolyline
 90
        2
 70
     0
 43
0.15
 10
473.706706672882
 20
235.0999261132999
 10
471.358973172882
 20
235.0999261132999
  0
LWPOLYLINE
  5
EA
330
44
100
AcDbEntity
  8
0
  6
Continuous
 62
     7
100
AcDbPolyline
 90
        2
 70
     0
 43
0.15
 10
386.535439353182
 20
159.9999201133001
 10
386.535067581382
 20
159.9999201133001
  0
LWPOLYLINE
  5
EB
330
44
100
AcDbEntity
  8
0
  6
Continuous
 62
     7
100
AcDbPolyline
 90
        2
 70
     0
 43
0.15
 10
371.449602763582
 20
161.8242441133
 10
374.6421697635821
 20
159.9999201133001
  0
LWPOLYLINE
  5
EC
330
44
100
AcDbEntity
  8
0
  6
Continuous
 62
     7
100
AcDbPolyline
 90
        2
 70
     0
 43
0.15
 10
476.010965172882
 20
235.0999261132999
 10
476.793544172882
 20
235.0999261132999
  0
LWPOLYLINE
  5
ED
330
44
100
AcDbEntity
  8
0
  6
Continuous
 62
     7
100
AcDbPolyline
 90
        2
 70
     0
 43
0.15
 10
476.793544172882
 20
235.0999261132999
 10
476.793544172882
 20
234.9999261133
  0
LWPOLYLINE
  5
EE
330
44
100
AcDbEntity
  8
0
  6
Continuous
 62
     7
100
AcDbPolyline
 90
        2
 70
     0
 43
0.15
 10
474.141473172882
 20
235.0999261132999
 10
474.924051172882
 20
235.0999261132999
  0
LWPOLYLINE
  5
EF
330
44
100
AcDbEntity
  8
0
  6
Continuous
 62
     7
100
AcDbPolyline
 90
        2
 70
     0
 43
0.15
 10
474.924051172882
 20
235.0999261132999
 10
474.924051172882
 20
234.9999261133
  0
LWPOLYLINE
  5
F0
330
44
100
AcDbEntity
  8
0
  6
Continuous
 62
     7
100
AcDbPolyline
 90
        2
 70
     0
 43
0.15
 10
474.141473172882
 20
234.9999261133
 10
474.141473172882
 20
235.0999261132999
  0
LWPOLYLINE
  5
F1
330
44
100
AcDbEntity
  8
0
  6
Continuous
 62
     7
100
AcDbPolyline
 90
        2
 70
     0
 43
0.15
 10
528.035067581382
 20
130.9999201133001
 10
531.435067581382
 20
130.9999201133001
  0
LWPOLYLINE
  5
F2
330
44
100
AcDbEntity
  8
0
  6
Continuous
 62
     7
100
AcDbPolyline
 90
        2
 70
     0
 43
0.15
 10
470.241008672882
 20
235.0999261132999
 10
470.241008672882
 20
234.9999261133
  0
LWPOLYLINE
  5
F3
330
44
100
AcDbEntity
  8
0
  6
Continuous
 62
     7
100
AcDbPolyline
 90
        2
 70
     0
 43
0.15
 10
468.837332172882
 20
234.9999261133
 10
468.837332172882
 20
235.0999261132999
  0
LWPOLYLINE
  5
F4
330
44
100
AcDbEntity
  8
0
  6
Continuous
 62
     7
100
AcDbPolyline
 90
        2
 70
     0
 43
0.15
 10
469.663386172882
 20
235.0999261132999
 10
468.837332172882
 20
235.0999261132999
  0
LWPOLYLINE
  5
F5
330
44
100
AcDbEntity
  8
0
  6
Continuous
 62
     7
100
AcDbPolyline
 90
        2
 70
     0
 43
0.15
 10
470.980110172882
 20
235.0999261132999
 10
470.241008672882
 20
235.0999261132999
  0
LWPOLYLINE
  5
F6
330
44
100
AcDbEntity
  8
0
  6
Continuous
 62
     7
100
AcDbPolyline
 90
        2
 70
     0
 43
0.15
 10
394.491096345917
 20
225.1302282083
 10
371.449602763582
 20
161.8242441133
  0
LWPOLYLINE
  5
F7
330
44
100
AcDbEntity
  8
0
  6
Continuous
 62
     7
100
AcDbPolyline
 90
        2
 70
     0
 43
0.15
 10
399.128831020782
 20
194.5999856133
 10
386.535439353182
 20
159.9999201133001
  0
LWPOLYLINE
  5
F8
330
44
100
AcDbEntity
  8
0
  6
Continuous
 62
     7
100
AcDbPolyline
 90
        2
 70
     0
 43
0.15
 10
513.235067581382
 20
199.2878330131
 10
505.483649485082
 20
220.5846836411
  0
LWPOLYLINE
  5
F9
330
44
100
AcDbEntity
  8
0
  6
Continuous
 62
     7
100
AcDbPolyline
 90
        2
 70
     0
 43
0.15
 10
527.534695809582
 20
159.9999201133001
 10
514.941304141982
 20
194.5999856133
  0
LWPOLYLINE
  5
FA
330
44
100
AcDbEntity
  8
0
  6
Continuous
 62
     7
100
AcDbPolyline
 90
        2
 70
     0
 43
0.15
 10
478.663036172882
 20
234.9999261133
 10
479.228231672882
 20
234.9999261133
  0
LWPOLYLINE
  5
FB
330
44
100
AcDbEntity
  8
0
  6
Continuous
 62
     7
100
AcDbPolyline
 90
        2
 70
     0
 43
0.15
 10
486.464149623682
 20
235.0999261132999
 10
484.141083104882
 20
235.0999261132999
  0
LWPOLYLINE
  5
FC
330
44
100
AcDbEntity
  8
0
  6
Continuous
 62
     7
100
AcDbPolyline
 90
        2
 70
     0
 43
0.15
 10
486.464149623682
 20
234.9999261133
 10
505.483649485082
 20
234.9999261133
  0
LWPOLYLINE
  5
FD
330
44
100
AcDbEntity
  8
0
  6
Continuous
 62
     7
100
AcDbPolyline
 90
        2
 70
     0
 43
0.15
 10
483.6628421728821
 20
234.9999261133
 10
484.141083104882
 20
234.9999261133
  0
LWPOLYLINE
  5
FE
330
44
100
AcDbEntity
  8
0
  6
Continuous
 62
     7
100
AcDbPolyline
 90
        2
 70
     0
 43
0.15
 10
481.402059366482
 20
234.9999261133
 10
481.749873172882
 20
234.9999261133
  0
LWPOLYLINE
  5
FF
330
44
100
AcDbEntity
  8
0
  6
Continuous
 62
     7
100
AcDbPolyline
 90
        2
 70
     0
 43
0.15
 10
476.793544172882
 20
234.9999261133
 10
477.880458172882
 20
234.9999261133
  0
LWPOLYLINE
  5
100
330
44
100
AcDbEntity
  8
0
  6
Continuous
 62
     7
100
AcDbPolyline
 90
        2
 70
     0
 43
0.15
 10
474.924051172882
 20
234.9999261133
 10
476.010965172882
 20
234.9999261133
  0
LWPOLYLINE
  5
101
330
44
100
AcDbEntity
  8
0
  6
Continuous
 62
     7
100
AcDbPolyline
 90
        2
 70
     0
 43
0.15
 10
473.706706672882
 20
234.9999261133
 10
474.141473172882
 20
234.9999261133
  0
LWPOLYLINE
  5
102
330
44
100
AcDbEntity
  8
0
  6
Continuous
 62
     7
100
AcDbPolyline
 90
        2
 70
     0
 43
0.15
 10
470.980110172882
 20
234.9999261133
 10
471.358973172882
 20
234.9999261133
  0
LWPOLYLINE
  5
103
330
44
100
AcDbEntity
  8
0
  6
Continuous
 62
     7
100
AcDbPolyline
 90
        2
 70
     0
 43
0.15
 10
408.5864856776821
 20
234.9999261133
 10
468.837332172882
 20
234.9999261133
  0
LWPOLYLINE
  5
104
330
44
100
AcDbEntity
  8
0
  6
Continuous
 62
     7
100
AcDbPolyline
 90
        2
 70
     0
 43
0.15
 10
408.5864856776821
 20
220.5846836411
 10
400.835067581382
 20
199.2878330131
  0
LWPOLYLINE
  5
105
330
44
100
AcDbEntity
  8
0
  6
Continuous
 62
     7
100
AcDbPolyline
 90
        2
 70
     0
 43
0.15
 10
408.5864856776821
 20
220.1999261133
 10
408.5864856776821
 20
220.5846836411
  0
LWPOLYLINE
  5
106
330
44
100
AcDbEntity
  8
0
  6
Continuous
 62
     7
100
AcDbPolyline
 90
        2
 70
     0
 43
0.15
 10
480.054286172882
 20
235.0999261132999
 10
479.228231475282
 20
235.0999261132999
  0
LWPOLYLINE
  5
107
330
44
100
AcDbEntity
  8
0
  6
Continuous
 62
     7
100
AcDbPolyline
 90
        2
 70
     0
 43
0.15
 10
478.663036172882
 20
235.0999261132999
 10
477.880458172882
 20
235.0999261132999
  0
LWPOLYLINE
  5
108
330
44
100
AcDbEntity
  8
0
  6
Continuous
 62
     7
100
AcDbPolyline
 90
        2
 70
     0
 43
0.15
 10
481.402059366482
 20
235.0999261132999
 10
480.619481672882
 20
235.0999261132999
  0
LWPOLYLINE
  5
109
330
44
100
AcDbEntity
  8
0
  6
Continuous
 62
     7
100
AcDbPolyline
 90
        2
 70
     0
 43
0.15
 10
386.535439353182
 20
159.9999201133001
 10
388.878398419682
 20
159.9999201133001
  0
LWPOLYLINE
  5
10A
330
44
100
AcDbEntity
  8
0
  6
Continuous
 62
     7
100
AcDbPolyline
 90
        2
 70
     0
 43
0.15
 10
388.996913444182
 20
159.9999201133001
 10
395.866121855482
 20
159.9999201133001
  0
LWPOLYLINE
  5
10B
330
44
100
AcDbEntity
  8
0
  6
Continuous
 62
     7
100
AcDbPolyline
 90
        2
 70
     0
 43
0.15
 10
396.095075301282
 20
159.9999201133001
 10
407.022407855982
 20
159.9999201133001
  0
LWPOLYLINE
  5
10C
330
44
100
AcDbEntity
  8
0
  6
Continuous
 62
     7
100
AcDbPolyline
 90
        2
 70
     0
 43
0.15
 10
407.346196924182
 20
159.9999201133001
 10
421.586973966882
 20
159.9999201133001
  0
LWPOLYLINE
  5
10D
330
44
100
AcDbEntity
  8
0
  6
Continuous
 62
     7
100
AcDbPolyline
 90
        2
 70
     0
 43
0.15
 10
421.9835329675821
 20
159.9999201133001
 10
438.567269076882
 20
159.9999201133001
  0
LWPOLYLINE
  5
10E
330
44
100
AcDbEntity
  8
0
  6
Continuous
 62
     7
100
AcDbPolyline
 90
        2
 70
     0
 43
0.15
 10
439.009573169582
 20
159.9999201133001
 10
456.806114135582
 20
159.9999201133001
  0
LWPOLYLINE
  5
10F
330
44
100
AcDbEntity
  8
0
  6
Continuous
 62
     7
100
AcDbPolyline
 90
        2
 70
     0
 43
0.15
 10
457.264021027182
 20
159.9999201133001
 10
475.060561993182
 20
159.9999201133001
  0
LWPOLYLINE
  5
110
330
44
100
AcDbEntity
  8
0
  6
Continuous
 62
     7
100
AcDbPolyline
 90
        2
 70
     0
 43
0.15
 10
475.502866085782
 20
159.9999201133001
 10
492.086602195182
 20
159.9999201133001
  0
LWPOLYLINE
  5
111
330
44
100
AcDbEntity
  8
0
  6
Continuous
 62
     7
100
AcDbPolyline
 90
        2
 70
     0
 43
0.15
 10
492.483161195882
 20
159.9999201133001
 10
506.723938238582
 20
159.9999201133001
  0
LWPOLYLINE
  5
112
330
44
100
AcDbEntity
  8
0
  6
Continuous
 62
     7
100
AcDbPolyline
 90
        2
 70
     0
 43
0.15
 10
507.047727306782
 20
159.9999201133001
 10
517.975059861482
 20
159.9999201133001
  0
LWPOLYLINE
  5
113
330
44
100
AcDbEntity
  8
0
  6
Continuous
 62
     7
100
AcDbPolyline
 90
        2
 70
     0
 43
0.15
 10
518.204013307282
 20
159.9999201133001
 10
525.073221718582
 20
159.9999201133001
  0
LWPOLYLINE
  5
114
330
44
100
AcDbEntity
  8
0
  6
Continuous
 62
     7
100
AcDbPolyline
 90
        2
 70
     0
 43
0.15
 10
525.1917367430821
 20
159.9999201133001
 10
527.534695809582
 20
159.9999201133001
  0
LWPOLYLINE
  5
115
330
44
100
AcDbEntity
  8
0
  6
Continuous
 62
     7
100
AcDbPolyline
 90
        2
 70
     0
 43
0.15
 10
386.535067581382
 20
152.2999201133
 10
527.535067581382
 20
152.2999201133
  0
LWPOLYLINE
  5
116
330
44
100
AcDbEntity
  8
0
  6
Continuous
 62
     7
100
AcDbPolyline
 90
        2
 70
     0
 43
0.15
 10
470.110579172882
 20
235.0999261132999
 10
470.110579172882
 20
234.9999261133
  0
LWPOLYLINE
  5
117
330
44
100
AcDbEntity
  8
0
  6
Continuous
 62
     7
100
AcDbPolyline
 90
        2
 70
     0
 43
0.15
 10
470.241008672882
 20
235.0999261132999
 10
470.110579172882
 20
235.0999261132999
  0
LWPOLYLINE
  5
118
330
44
100
AcDbEntity
  8
0
  6
Continuous
 62
     7
100
AcDbPolyline
 90
        2
 70
     0
 43
0.15
 10
480.141239672882
 20
235.0999261132999
 10
480.141239672882
 20
234.9999261133
  0
LWPOLYLINE
  5
119
330
44
100
AcDbEntity
  8
0
  6
Continuous
 62
     7
100
AcDbPolyline
 90
        2
 70
     0
 43
0.15
 10
480.054286172882
 20
235.0999261132999
 10
480.141239672882
 20
235.0999261132999
  0
LWPOLYLINE
  5
11A
330
44
100
AcDbEntity
  8
0
  6
Continuous
 62
     7
100
AcDbPolyline
 90
        2
 70
     0
 43
0.15
 10
479.141278172882
 20
235.0999261132999
 10
479.141278172882
 20
234.9999261133
  0
LWPOLYLINE
  5
11B
330
44
100
AcDbEntity
  8
0
  6
Continuous
 62
     7
100
AcDbPolyline
 90
        2
 70
     0
 43
0.15
 10
479.141278172882
 20
235.0999261132999
 10
479.228231172882
 20
235.0999261132999
  0
LWPOLYLINE
  5
11C
330
44
100
AcDbEntity
  8
0
  6
Continuous
 62
     7
100
AcDbPolyline
 90
        2
 70
     0
 43
0.15
 10
478.749989172882
 20
235.0999261132999
 10
478.749989172882
 20
234.9999261133
  0
LWPOLYLINE
  5
11D
330
44
100
AcDbEntity
  8
0
  6
Continuous
 62
     7
100
AcDbPolyline
 90
        2
 70
     0
 43
0.15
 10
478.663036172882
 20
235.0999261132999
 10
478.749989172882
 20
235.0999261132999
  0
LWPOLYLINE
  5
11E
330
44
100
AcDbEntity
  8
0
  6
Continuous
 62
     7
100
AcDbPolyline
 90
        2
 70
     0
 43
0.15
 10
480.532528672882
 20
235.0999261132999
 10
480.532528672882
 20
234.9999261133
  0
LWPOLYLINE
  5
11F
330
44
100
AcDbEntity
  8
0
  6
Continuous
 62
     7
100
AcDbPolyline
 90
        2
 70
     0
 43
0.15
 10
480.532528672882
 20
235.0999261132999
 10
480.619481672882
 20
235.0999261132999
  0
LWPOLYLINE
  5
120
330
44
100
AcDbEntity
  8
0
  6
Continuous
 62
     7
100
AcDbPolyline
 90
        2
 70
     0
 43
0.15
 10
470.110579172882
 20
235.0999261132999
 10
469.663386172882
 20
235.0999261132999
  0
LWPOLYLINE
  5
121
330
44
100
AcDbEntity
  8
0
  6
Continuous
 62
     7
100
AcDbPolyline
 90
        2
 70
     0
 43
0.15
 10
478.749989172882
 20
235.0999261132999
 10
479.141278172882
 20
235.0999261132999
  0
LWPOLYLINE
  5
122
330
44
100
AcDbEntity
  8
0
  6
Continuous
 62
     7
100
AcDbPolyline
 90
        2
 70
     0
 43
0.15
 10
480.141239672882
 20
235.0999261132999
 10
480.532528672882
 20
235.0999261132999
  0
LWPOLYLINE
  5
123
330
44
100
AcDbEntity
  8
0
  6
Continuous
 62
     7
100
AcDbPolyline
 90
        2
 70
     0
 43
0.15
 10
497.579320782687
 20
199.320163262985
 10
492.205584599082
 20
220.1999261133
  0
LWPOLYLINE
  5
124
330
44
100
AcDbEntity
  8
0
  6
Continuous
 62
     7
100
AcDbPolyline
 90
        2
 70
     0
 43
0.15
 10
516.1088171483821
 20
159.9999201133001
 10
517.229156633682
 20
160.9052911388
  0
LWPOLYLINE
  5
125
330
44
100
AcDbEntity
  8
0
  6
Continuous
 62
     7
100
AcDbPolyline
 90
        2
 70
     0
 43
0.15
 10
507.699005571082
 20
159.9999191593
 10
498.7941329247821
 20
194.5999856133
  0
LWPOLYLINE
  5
126
330
44
100
AcDbEntity
  8
0
  6
Continuous
 62
     7
100
AcDbPolyline
 90
        2
 70
     0
 43
0.15
 10
397.961318014382
 20
159.9999201133001
 10
396.840978529082
 20
160.9052911388
  0
LWPOLYLINE
  5
127
330
44
100
AcDbEntity
  8
0
  6
Continuous
 62
     7
100
AcDbPolyline
 90
        2
 70
     0
 43
0.15
 10
416.490814379882
 20
199.320163263
 10
421.864550563682
 20
220.1999261133
  0
LWPOLYLINE
  5
128
330
44
100
AcDbEntity
  8
0
  6
Continuous
 62
     7
100
AcDbPolyline
 90
        2
 70
     0
 43
0.15
 10
406.371129591682
 20
159.9999191593
 10
415.276002237982
 20
194.5999856133
  0
LWPOLYLINE
  5
129
330
44
100
AcDbEntity
  8
0
  6
Continuous
 62
     7
100
AcDbPolyline
 90
        2
 70
     0
 43
0.15
 10
383.135067581382
 20
143.2999201133
 10
381.016988255782
 20
143.2999201133
  0
LWPOLYLINE
  5
12A
330
44
100
AcDbEntity
  8
0
  6
Continuous
 62
     7
100
AcDbPolyline
 90
        2
 70
     0
 43
0.15
 10
381.016988255782
 20
143.2999201133
 10
381.016988255782
 20
159.9999201133001
  0
LWPOLYLINE
  5
12B
330
44
100
AcDbEntity
  8
0
  6
Continuous
 62
     7
100
AcDbPolyline
 90
        2
 70
     0
 43
0.15
 10
402.463760529082
 20
199.320163263
 10
409.804420669382
 20
220.1999261133
  0
LWPOLYLINE
  5
12C
330
44
100
AcDbEntity
  8
0
  6
Continuous
 62
     7
100
AcDbPolyline
 90
        2
 70
     0
 43
0.15
 10
388.640014030082
 20
159.9999191593
 10
400.804296282382
 20
194.5999856133
  0
LWPOLYLINE
  5
12D
330
44
100
AcDbEntity
  8
0
  6
Continuous
 62
     7
100
AcDbPolyline
 90
        2
 70
     0
 43
0.15
 10
511.606374633714
 20
199.320163263032
 10
504.265714493382
 20
220.1999261133
  0
LWPOLYLINE
  5
12E
330
44
100
AcDbEntity
  8
0
  6
Continuous
 62
     7
100
AcDbPolyline
 90
        2
 70
     0
 43
0.15
 10
533.053146906982
 20
143.2999201133
 10
533.053146906982
 20
159.9999201133001
  0
LWPOLYLINE
  5
12F
330
44
100
AcDbEntity
  8
0
  6
Continuous
 62
     7
100
AcDbPolyline
 90
        2
 70
     0
 43
0.15
 10
533.053146906982
 20
143.2999201133
 10
530.935067581382
 20
143.2999201133
  0
LWPOLYLINE
  5
130
330
44
100
AcDbEntity
  8
0
  6
Continuous
 62
     7
100
AcDbPolyline
 90
        2
 70
     0
 43
0.15
 10
525.430121132682
 20
159.9999191593
 10
513.265838880382
 20
194.5999856133
  0
LWPOLYLINE
  5
131
330
44
100
AcDbEntity
  8
0
  6
Continuous
 62
     7
100
AcDbPolyline
 90
        2
 70
     0
 43
0.15
 10
511.011090829916
 20
199.32016326301
 10
503.670430689582
 20
220.1999261133
  0
LWPOLYLINE
  5
132
330
44
100
AcDbEntity
  8
0
  6
Continuous
 62
     7
100
AcDbPolyline
 90
        2
 70
     0
 43
0.15
 10
403.05904433285
 20
199.32016326301
 10
410.399704473182
 20
220.1999261133
  0
LWPOLYLINE
  5
133
330
44
100
AcDbEntity
  8
0
  6
Continuous
 62
     7
100
AcDbPolyline
 90
        2
 70
     0
 43
0.15
 10
443.235085093282
 20
151.2999201133
 10
443.235085093282
 20
143.2999201133
  0
LWPOLYLINE
  5
134
330
44
100
AcDbEntity
  8
0
  6
Continuous
 62
     7
100
AcDbPolyline
 90
        2
 70
     0
 43
0.15
 10
387.389124953882
 20
143.2999201133
 10
443.235085093282
 20
143.2999201133
  0
LWPOLYLINE
  5
135
330
44
100
AcDbEntity
  8
0
  6
Continuous
 62
     7
100
AcDbPolyline
 90
        2
 70
     0
 43
0.15
 10
387.389124953882
 20
143.2999201133
 10
387.389124953882
 20
151.2999201133
  0
LWPOLYLINE
  5
136
330
44
100
AcDbEntity
  8
0
  6
Continuous
 62
     7
100
AcDbPolyline
 90
        2
 70
     0
 43
0.15
 10
526.681032886782
 20
151.2999201133
 10
526.681032886782
 20
143.2999201133
  0
LWPOLYLINE
  5
137
330
44
100
AcDbEntity
  8
0
  6
Continuous
 62
     7
100
AcDbPolyline
 90
        2
 70
     0
 43
0.15
 10
470.835164520482
 20
143.2999201133
 10
526.681032886782
 20
143.2999201133
  0
LWPOLYLINE
  5
138
330
44
100
AcDbEntity
  8
0
  6
Continuous
 62
     7
100
AcDbPolyline
 90
        2
 70
     0
 43
0.15
 10
470.835164520482
 20
143.2999201133
 10
470.835164520482
 20
151.2999201133
  0
LWPOLYLINE
  5
139
330
44
100
AcDbEntity
  8
0
  6
Continuous
 62
     7
100
AcDbPolyline
 90
        2
 70
     0
 43
0.15
 10
526.681032886782
 20
143.2999201133
 10
527.047640832782
 20
143.2999201133
  0
LWPOLYLINE
  5
13A
330
44
100
AcDbEntity
  8
0
  6
Continuous
 62
     7
100
AcDbPolyline
 90
        2
 70
     0
 43
0.15
 10
387.022513619782
 20
143.2999201133
 10
387.389124953882
 20
143.2999201133
  0
LWPOLYLINE
  5
13B
330
44
100
AcDbEntity
  8
0
  6
Continuous
 62
     7
100
AcDbPolyline
 90
        2
 70
     0
 43
0.15
 10
525.073221718582
 20
159.9999201133001
 10
525.1917367430821
 20
159.9999201133001
  0
LWPOLYLINE
  5
13C
330
44
100
AcDbEntity
  8
0
  6
Continuous
 62
     7
100
AcDbPolyline
 90
        2
 70
     0
 43
0.15
 10
524.834837328982
 20
159.9999191593
 10
512.670555076582
 20
194.5999856133
  0
LWPOLYLINE
  5
13D
330
44
100
AcDbEntity
  8
0
  6
Continuous
 62
     7
100
AcDbPolyline
 90
        2
 70
     0
 43
0.15
 10
388.878398419682
 20
159.9999201133001
 10
388.996913444182
 20
159.9999201133001
  0
LWPOLYLINE
  5
13E
330
44
100
AcDbEntity
  8
0
  6
Continuous
 62
     7
100
AcDbPolyline
 90
        2
 70
     0
 43
0.15
 10
389.235297833782
 20
159.9999191593
 10
401.399580086182
 20
194.5999856133
  0
LWPOLYLINE
  5
13F
330
44
100
AcDbEntity
  8
0
  6
Continuous
 62
     7
100
AcDbPolyline
 90
        2
 70
     0
 43
0.15
 10
506.270504540147
 20
199.320163263097
 10
499.6890487085821
 20
220.1999261133
  0
LWPOLYLINE
  5
140
330
44
100
AcDbEntity
  8
0
  6
Continuous
 62
     7
100
AcDbPolyline
 90
        2
 70
     0
 43
0.15
 10
518.6645365843821
 20
159.9999191593
 10
507.7583394804821
 20
194.5999856133
  0
LWPOLYLINE
  5
141
330
44
100
AcDbEntity
  8
0
  6
Continuous
 62
     7
100
AcDbPolyline
 90
        2
 70
     0
 43
0.15
 10
407.7996306227821
 20
199.320163263
 10
414.381086454182
 20
220.1999261133
  0
LWPOLYLINE
  5
142
330
44
100
AcDbEntity
  8
0
  6
Continuous
 62
     7
100
AcDbPolyline
 90
        2
 70
     0
 43
0.15
 10
395.405598578382
 20
159.9999191593
 10
406.311795682282
 20
194.5999856133
  0
LWPOLYLINE
  5
143
330
44
100
AcDbEntity
  8
0
  6
Continuous
 62
     7
100
AcDbPolyline
 90
        2
 70
     0
 43
0.15
 10
505.120504540375
 20
199.320163263171
 10
498.539048708582
 20
220.1999261133
  0
LWPOLYLINE
  5
144
330
44
100
AcDbEntity
  8
0
  6
Continuous
 62
     7
100
AcDbPolyline
 90
        2
 70
     0
 43
0.15
 10
408.949630622392
 20
199.320163263171
 10
415.531086454182
 20
220.1999261133
  0
LWPOLYLINE
  5
145
330
44
100
AcDbEntity
  8
0
  6
Continuous
 62
     7
100
AcDbPolyline
 90
        2
 70
     0
 43
0.15
 10
517.975059861482
 20
159.9999201133001
 10
518.204013307282
 20
159.9999201133001
  0
LWPOLYLINE
  5
146
330
44
100
AcDbEntity
  8
0
  6
Continuous
 62
     7
100
AcDbPolyline
 90
        2
 70
     0
 43
0.15
 10
517.514536584382
 20
159.9999191593
 10
506.608339480482
 20
194.5999856133
  0
LWPOLYLINE
  5
147
330
44
100
AcDbEntity
  8
0
  6
Continuous
 62
     7
100
AcDbPolyline
 90
        2
 70
     0
 43
0.15
 10
395.866121855482
 20
159.9999201133001
 10
396.095075301282
 20
159.9999201133001
  0
LWPOLYLINE
  5
148
330
44
100
AcDbEntity
  8
0
  6
Continuous
 62
     7
100
AcDbPolyline
 90
        2
 70
     0
 43
0.15
 10
396.5555985783821
 20
159.9999191593
 10
407.461795682282
 20
194.5999856133
  0
LWPOLYLINE
  5
149
330
44
100
AcDbEntity
  8
0
  6
Continuous
 62
     7
100
AcDbPolyline
 90
        2
 70
     0
 43
0.15
 10
495.952975185788
 20
199.320163262938
 10
490.579239002282
 20
220.1999261133
  0
LWPOLYLINE
  5
14A
330
44
100
AcDbEntity
  8
0
  6
Continuous
 62
     7
100
AcDbPolyline
 90
        2
 70
     0
 43
0.15
 10
418.117159976979
 20
199.320163262938
 10
423.490896160482
 20
220.1999261133
  0
LWPOLYLINE
  5
14B
330
44
100
AcDbEntity
  8
0
  6
Continuous
 62
     7
100
AcDbPolyline
 90
        2
 70
     0
 43
0.15
 10
486.125113172628
 20
199.320163263032
 10
482.325307876782
 20
220.1999261133
  0
LWPOLYLINE
  5
14C
330
44
100
AcDbEntity
  8
0
  6
Continuous
 62
     7
100
AcDbPolyline
 90
        2
 70
     0
 43
0.15
 10
500.823729204682
 20
161.8242441133
 10
494.859032120882
 20
194.5999856133
  0
LWPOLYLINE
  5
14D
330
44
100
AcDbEntity
  8
0
  6
Continuous
 62
     7
100
AcDbPolyline
 90
        2
 70
     0
 43
0.15
 10
493.893290542382
 20
199.9066920375
 10
490.200224006882
 20
220.1999261133
  0
LWPOLYLINE
  5
14E
330
44
100
AcDbEntity
  8
0
  6
Continuous
 62
     7
100
AcDbPolyline
 90
        2
 70
     0
 43
0.15
 10
499.2274457046821
 20
159.9999201133001
 10
500.823729204682
 20
161.8242441133
  0
LWPOLYLINE
  5
14F
330
44
100
AcDbEntity
  8
0
  6
Continuous
 62
     7
100
AcDbPolyline
 90
        2
 70
     0
 43
0.15
 10
493.280810909882
 20
159.9999191593
 10
486.9841150760821
 20
194.5999856133
  0
LWPOLYLINE
  5
150
330
44
100
AcDbEntity
  8
0
  6
Continuous
 62
     7
100
AcDbPolyline
 90
        2
 70
     0
 43
0.15
 10
414.842689458082
 20
159.9999201133001
 10
413.2464059580821
 20
161.8242441133
  0
LWPOLYLINE
  5
151
330
44
100
AcDbEntity
  8
0
  6
Continuous
 62
     7
100
AcDbPolyline
 90
        2
 70
     0
 43
0.15
 10
413.2464059580821
 20
161.8242441133
 10
419.211103041882
 20
194.5999856133
  0
LWPOLYLINE
  5
152
330
44
100
AcDbEntity
  8
0
  6
Continuous
 62
     7
100
AcDbPolyline
 90
        2
 70
     0
 43
0.15
 10
420.176844620382
 20
199.9066920375
 10
423.8699111558821
 20
220.1999261133
  0
LWPOLYLINE
  5
153
330
44
100
AcDbEntity
  8
0
  6
Continuous
 62
     7
100
AcDbPolyline
 90
        2
 70
     0
 43
0.15
 10
427.945021990082
 20
199.320163263
 10
431.744827285982
 20
220.1999261133
  0
LWPOLYLINE
  5
154
330
44
100
AcDbEntity
  8
0
  6
Continuous
 62
     7
100
AcDbPolyline
 90
        2
 70
     0
 43
0.15
 10
420.789324252882
 20
159.9999191593
 10
427.086020086682
 20
194.5999856133
  0
LWPOLYLINE
  5
155
330
44
100
AcDbEntity
  8
0
  6
Continuous
 62
     7
100
AcDbPolyline
 90
        2
 70
     0
 43
0.15
 10
484.133254743897
 20
199.320163263026
 10
480.333449448082
 20
220.1999261133
  0
LWPOLYLINE
  5
156
330
44
100
AcDbEntity
  8
0
  6
Continuous
 62
     7
100
AcDbPolyline
 90
        2
 70
     0
 43
0.15
 10
429.93688041887
 20
199.320163263026
 10
433.736685714682
 20
220.1999261133
  0
LWPOLYLINE
  5
157
330
44
100
AcDbEntity
  8
0
  6
Continuous
 62
     7
100
AcDbPolyline
 90
        2
 70
     0
 43
0.15
 10
506.723938238582
 20
159.9999201133001
 10
507.047727306782
 20
159.9999201133001
  0
LWPOLYLINE
  5
158
330
44
100
AcDbEntity
  8
0
  6
Continuous
 62
     7
100
AcDbPolyline
 90
        2
 70
     0
 43
0.15
 10
506.072659974382
 20
159.9999191593
 10
497.167787327982
 20
194.5999856133
  0
LWPOLYLINE
  5
159
330
44
100
AcDbEntity
  8
0
  6
Continuous
 62
     7
100
AcDbPolyline
 90
        2
 70
     0
 43
0.15
 10
407.022407855982
 20
159.9999201133001
 10
407.346196924182
 20
159.9999201133001
  0
LWPOLYLINE
  5
15A
330
44
100
AcDbEntity
  8
0
  6
Continuous
 62
     7
100
AcDbPolyline
 90
        2
 70
     0
 43
0.15
 10
407.997475188382
 20
159.9999191593
 10
416.902347834782
 20
194.5999856133
  0
LWPOLYLINE
  5
15B
330
44
100
AcDbEntity
  8
0
  6
Continuous
 62
     7
100
AcDbPolyline
 90
        2
 70
     0
 43
0.15
 10
472.68846702902
 20
199.320163263043
 10
470.721543072482
 20
220.1999261133
  0
LWPOLYLINE
  5
15C
330
44
100
AcDbEntity
  8
0
  6
Continuous
 62
     7
100
AcDbPolyline
 90
        2
 70
     0
 43
0.15
 10
480.297030560382
 20
161.8242441133
 10
477.209476153382
 20
194.5999856133
  0
LWPOLYLINE
  5
15D
330
44
100
AcDbEntity
  8
0
  6
Continuous
 62
     7
100
AcDbPolyline
 90
        2
 70
     0
 43
0.15
 10
476.709571526982
 20
199.9066920375
 10
474.7978996185821
 20
220.1999261133
  0
LWPOLYLINE
  5
15E
330
44
100
AcDbEntity
  8
0
  6
Continuous
 62
     7
100
AcDbPolyline
 90
        2
 70
     0
 43
0.15
 10
479.470733418082
 20
159.9999201133001
 10
480.297030560382
 20
161.8242441133
  0
LWPOLYLINE
  5
15F
330
44
100
AcDbEntity
  8
0
  6
Continuous
 62
     7
100
AcDbPolyline
 90
        2
 70
     0
 43
0.15
 10
476.392528739682
 20
159.9999191593
 10
473.133119133682
 20
194.5999856133
  0
LWPOLYLINE
  5
160
330
44
100
AcDbEntity
  8
0
  6
Continuous
 62
     7
100
AcDbPolyline
 90
        2
 70
     0
 43
0.15
 10
434.599401744682
 20
159.9999201133001
 10
433.773104602382
 20
161.8242441133
  0
LWPOLYLINE
  5
161
330
44
100
AcDbEntity
  8
0
  6
Continuous
 62
     7
100
AcDbPolyline
 90
        2
 70
     0
 43
0.15
 10
433.773104602382
 20
161.8242441133
 10
436.860659009382
 20
194.5999856133
  0
LWPOLYLINE
  5
162
330
44
100
AcDbEntity
  8
0
  6
Continuous
 62
     7
100
AcDbPolyline
 90
        2
 70
     0
 43
0.15
 10
437.360563635782
 20
199.9066920375
 10
439.272235544182
 20
220.1999261133
  0
LWPOLYLINE
  5
163
330
44
100
AcDbEntity
  8
0
  6
Continuous
 62
     7
100
AcDbPolyline
 90
        2
 70
     0
 43
0.15
 10
441.381668133782
 20
199.320163263
 10
443.348592090282
 20
220.1999261133
  0
LWPOLYLINE
  5
164
330
44
100
AcDbEntity
  8
0
  6
Continuous
 62
     7
100
AcDbPolyline
 90
        2
 70
     0
 43
0.15
 10
437.677606423082
 20
159.9999191593
 10
440.937016029082
 20
194.5999856133
  0
LWPOLYLINE
  5
165
330
44
100
AcDbEntity
  8
0
  6
Continuous
 62
     7
100
AcDbPolyline
 90
        2
 70
     0
 43
0.15
 10
470.466837628696
 20
199.320163263059
 10
468.499913671982
 20
220.1999261133
  0
LWPOLYLINE
  5
166
330
44
100
AcDbEntity
  8
0
  6
Continuous
 62
     7
100
AcDbPolyline
 90
        2
 70
     0
 43
0.15
 10
443.60329753407
 20
199.320163263059
 10
445.5702214907821
 20
220.1999261133
  0
LWPOLYLINE
  5
167
330
44
100
AcDbEntity
  8
0
  6
Continuous
 62
     7
100
AcDbPolyline
 90
        2
 70
     0
 43
0.15
 10
455.885067581354
 20
199.320163263037
 10
455.885067581382
 20
220.1999261133
  0
LWPOLYLINE
  5
168
330
44
100
AcDbEntity
  8
0
  6
Continuous
 62
     7
100
AcDbPolyline
 90
        2
 70
     0
 43
0.15
 10
458.185067581413
 20
199.320163263037
 10
458.185067581382
 20
220.1999261133
  0
LWPOLYLINE
  5
169
330
44
100
AcDbEntity
  8
0
  6
Continuous
 62
     7
100
AcDbPolyline
 90
        2
 70
     0
 43
0.15
 10
492.086602195182
 20
159.9999201133001
 10
492.483161195882
 20
159.9999201133001
  0
LWPOLYLINE
  5
16A
330
44
100
AcDbEntity
  8
0
  6
Continuous
 62
     7
100
AcDbPolyline
 90
        2
 70
     0
 43
0.15
 10
491.288952481182
 20
159.9999191593
 10
484.992256647382
 20
194.5999856133
  0
LWPOLYLINE
  5
16B
330
44
100
AcDbEntity
  8
0
  6
Continuous
 62
     7
100
AcDbPolyline
 90
        2
 70
     0
 43
0.15
 10
421.586973966882
 20
159.9999201133001
 10
421.9835329675821
 20
159.9999201133001
  0
LWPOLYLINE
  5
16C
330
44
100
AcDbEntity
  8
0
  6
Continuous
 62
     7
100
AcDbPolyline
 90
        2
 70
     0
 43
0.15
 10
422.781182681582
 20
159.9999191593
 10
429.077878515382
 20
194.5999856133
  0
LWPOLYLINE
  5
16D
330
44
100
AcDbEntity
  8
0
  6
Continuous
 62
     7
100
AcDbPolyline
 90
        2
 70
     0
 43
0.15
 10
475.060561993182
 20
159.9999201133001
 10
475.502866085782
 20
159.9999201133001
  0
LWPOLYLINE
  5
16E
330
44
100
AcDbEntity
  8
0
  6
Continuous
 62
     7
100
AcDbPolyline
 90
        2
 70
     0
 43
0.15
 10
474.170899339282
 20
159.9999191593
 10
470.911489733282
 20
194.5999856133
  0
LWPOLYLINE
  5
16F
330
44
100
AcDbEntity
  8
0
  6
Continuous
 62
     7
100
AcDbPolyline
 90
        2
 70
     0
 43
0.15
 10
438.567269076882
 20
159.9999201133001
 10
439.009573169582
 20
159.9999201133001
  0
LWPOLYLINE
  5
170
330
44
100
AcDbEntity
  8
0
  6
Continuous
 62
     7
100
AcDbPolyline
 90
        2
 70
     0
 43
0.15
 10
439.899235823482
 20
159.9999191593
 10
443.158645429482
 20
194.5999856133
  0
LWPOLYLINE
  5
171
330
44
100
AcDbEntity
  8
0
  6
Continuous
 62
     7
100
AcDbPolyline
 90
        2
 70
     0
 43
0.15
 10
456.806114135582
 20
159.9999201133001
 10
457.264021027182
 20
159.9999201133001
  0
LWPOLYLINE
  5
172
330
44
100
AcDbEntity
  8
0
  6
Continuous
 62
     7
100
AcDbPolyline
 90
        2
 70
     0
 43
0.15
 10
455.885067581382
 20
159.9999191593
 10
455.885067581382
 20
194.5999856133
  0
LWPOLYLINE
  5
173
330
44
100
AcDbEntity
  8
0
  6
Continuous
 62
     7
100
AcDbPolyline
 90
        2
 70
     0
 43
0.15
 10
458.185067581382
 20
159.9999191593
 10
458.185067581382
 20
194.5999856133
  0
LWPOLYLINE
  5
174
330
44
100
AcDbEntity
  8
0
  6
Continuous
 62
     7
100
AcDbPolyline
 90
        2
 70
     0
 43
0.15
 10
468.835164520482
 20
151.2999201133
 10
468.835164520482
 20
130.9999201133001
  0
LWPOLYLINE
  5
175
330
44
100
AcDbEntity
  8
0
  6
Continuous
 62
     7
100
AcDbPolyline
 90
        2
 70
     0
 43
0.15
 10
445.235085093282
 20
130.9999201133001
 10
468.835164520482
 20
130.9999201133001
  0
LWPOLYLINE
  5
176
330
44
100
AcDbEntity
  8
0
  6
Continuous
 62
     7
100
AcDbPolyline
 90
        2
 70
     0
 43
0.15
 10
445.235085093282
 20
130.9999201133001
 10
445.235085093282
 20
151.2999201133
  0
LWPOLYLINE
  5
177
330
44
100
AcDbEntity
  8
0
  6
Continuous
 62
     7
100
AcDbPolyline
 90
        2
 70
     0
 43
0.15
 10
534.035067581382
 20
59.00000199999997
 10
380.035067581382
 20
59.00000199999997
  0
LWPOLYLINE
  5
178
330
44
100
AcDbEntity
  8
0
  6
Continuous
 62
     7
100
AcDbPolyline
 90
        2
 70
     0
 43
0.15
 10
534.035067581382
 20
59.00000199999997
 10
534.035067581382
 20
61.66812671249997
  0
LWPOLYLINE
  5
179
330
44
100
AcDbEntity
  8
0
  6
Continuous
 62
     7
100
AcDbPolyline
 90
        2
 70
     0
 43
0.15
 10
380.035067581382
 20
61.66812671249997
 10
380.035067581382
 20
59.00000199999997
  0
LWPOLYLINE
  5
17A
330
44
100
AcDbEntity
  8
0
  6
Continuous
 62
     7
100
AcDbPolyline
 90
        2
 70
     0
 43
0.15
 10
526.535067581382
 20
68.29076822189998
 10
526.535067581382
 20
77.00000199999997
  0
LWPOLYLINE
  5
17B
330
44
100
AcDbEntity
  8
0
  6
Continuous
 62
     7
100
AcDbPolyline
 90
        2
 70
     0
 43
0.15
 10
387.535067581382
 20
77.00000199999997
 10
387.535067581382
 20
68.29076822189998
  0
LWPOLYLINE
  5
17C
330
44
100
AcDbEntity
  8
0
  6
Continuous
 62
     7
100
AcDbPolyline
 90
        2
 70
     0
 43
0.15
 10
520.285067581382
 20
73.00000199999997
 10
393.785067581382
 20
73.00000199999997
  0
LWPOLYLINE
  5
17D
330
44
100
AcDbEntity
  8
0
  6
Continuous
 62
     7
100
AcDbPolyline
 90
        2
 70
     0
 43
0.15
 10
520.285067581382
 20
73.00000199999997
 10
520.285067581382
 20
70.70000200000001
  0
LWPOLYLINE
  5
17E
330
44
100
AcDbEntity
  8
0
  6
Continuous
 62
     7
100
AcDbPolyline
 90
        2
 70
     0
 43
0.15
 10
393.785067581382
 20
70.70000200000001
 10
393.785067581382
 20
73.00000199999997
  0
LWPOLYLINE
  5
17F
330
44
100
AcDbEntity
  8
0
  6
Continuous
 62
     7
100
AcDbPolyline
 90
        2
 70
     0
 43
0.15
 10
520.285067581382
 20
70.70000200000001
 10
393.785067581382
 20
70.70000200000001
  0
LWPOLYLINE
  5
180
330
44
100
AcDbEntity
  8
0
  6
Continuous
 62
     7
100
AcDbPolyline
 90
        2
 70
     0
 43
0.15
 10
387.535067581382
 20
68.29076822189998
 10
380.035067581382
 20
61.66812671249997
  0
LWPOLYLINE
  5
181
330
44
100
AcDbEntity
  8
0
  6
Continuous
 62
     7
100
AcDbPolyline
 90
        2
 70
     0
 43
0.15
 10
534.035067581382
 20
61.66812671249997
 10
526.535067581382
 20
68.29076822189998
  0
LWPOLYLINE
  5
182
330
44
100
AcDbEntity
  8
0
  6
Continuous
 62
     7
100
AcDbPolyline
 90
        2
 70
     0
 43
0.15
 10
524.285067581382
 20
77.00000199999997
 10
524.285067581382
 20
73.00000199999997
  0
LWPOLYLINE
  5
183
330
44
100
AcDbEntity
  8
0
  6
Continuous
 62
     7
100
AcDbPolyline
 90
        2
 70
     0
 43
0.15
 10
389.785067581382
 20
73.00000199999997
 10
389.785067581382
 20
77.00000199999997
  0
LWPOLYLINE
  5
184
330
44
100
AcDbEntity
  8
0
  6
Continuous
 62
     7
100
AcDbPolyline
 90
        2
 70
     0
 43
0.15
 10
524.285067581382
 20
77.00000199999997
 10
524.035067581382
 20
77.00000199999997
  0
LWPOLYLINE
  5
185
330
44
100
AcDbEntity
  8
0
  6
Continuous
 62
     7
100
AcDbPolyline
 90
        2
 70
     0
 43
0.15
 10
531.786297104182
 20
60.98570876099998
 10
534.035067581382
 20
59.00000199999997
  0
LWPOLYLINE
  5
186
330
44
100
AcDbEntity
  8
0
  6
Continuous
 62
     7
100
AcDbPolyline
 90
        2
 70
     0
 43
0.15
 10
380.035067581382
 20
59.00000199999997
 10
382.283838058582
 20
60.98570876099998
  0
LWPOLYLINE
  5
187
330
44
100
AcDbEntity
  8
0
  6
Continuous
 62
     7
100
AcDbPolyline
 90
        2
 70
     0
 43
0.15
 10
390.285067581382
 20
68.05094539619998
 10
393.285067581382
 20
70.70000200000001
  0
LWPOLYLINE
  5
188
330
44
100
AcDbEntity
  8
0
  6
Continuous
 62
     7
100
AcDbPolyline
 90
        2
 70
     0
 43
0.15
 10
520.785067581382
 20
70.70000200000001
 10
523.785067581382
 20
68.05094539619998
  0
LWPOLYLINE
  5
189
330
44
100
AcDbEntity
  8
0
  6
Continuous
 62
     7
100
AcDbPolyline
 90
        2
 70
     0
 43
0.15
 10
523.785067581382
 20
68.05094539619998
 10
523.785067581382
 20
65.38282072069998
  0
LWPOLYLINE
  5
18A
330
44
100
AcDbEntity
  8
0
  6
Continuous
 62
     7
100
AcDbPolyline
 90
        2
 70
     0
 43
0.15
 10
524.285067581382
 20
73.00000199999997
 10
520.285067581382
 20
73.00000199999997
  0
LWPOLYLINE
  5
18B
330
44
100
AcDbEntity
  8
0
  6
Continuous
 62
     7
100
AcDbPolyline
 90
        2
 70
     0
 43
0.15
 10
523.785067581382
 20
65.38282072069998
 10
530.462492596782
 20
59.48652844289998
  0
LWPOLYLINE
  5
18C
330
44
100
AcDbEntity
  8
0
  6
Continuous
 62
     7
100
AcDbPolyline
 90
        2
 70
     0
 43
0.15
 10
530.462492596782
 20
59.48652844289998
 10
531.786297104182
 20
60.98570876099998
  0
LWPOLYLINE
  5
18D
330
44
100
AcDbEntity
  8
0
  6
Continuous
 62
     7
100
AcDbPolyline
 90
        2
 70
     0
 43
0.15
 10
526.535067581382
 20
77.00000199999997
 10
524.285067581382
 20
77.00000199999997
  0
LWPOLYLINE
  5
18E
330
44
100
AcDbEntity
  8
0
  6
Continuous
 62
     7
100
AcDbPolyline
 90
        2
 70
     0
 43
0.15
 10
520.285067581382
 20
70.70000200000001
 10
520.785067581382
 20
70.70000200000001
  0
LWPOLYLINE
  5
18F
330
44
100
AcDbEntity
  8
0
  6
Continuous
 62
     7
100
AcDbPolyline
 90
        2
 70
     0
 43
0.15
 10
383.607642565982
 20
59.48652844289998
 10
390.285067581382
 20
65.38282072069998
  0
LWPOLYLINE
  5
190
330
44
100
AcDbEntity
  8
0
  6
Continuous
 62
     7
100
AcDbPolyline
 90
        2
 70
     0
 43
0.15
 10
382.283838058582
 20
60.98570876099998
 10
383.607642565982
 20
59.48652844289998
  0
LWPOLYLINE
  5
191
330
44
100
AcDbEntity
  8
0
  6
Continuous
 62
     7
100
AcDbPolyline
 90
        2
 70
     0
 43
0.15
 10
393.785067581382
 20
73.00000199999997
 10
389.785067581382
 20
73.00000199999997
  0
LWPOLYLINE
  5
192
330
44
100
AcDbEntity
  8
0
  6
Continuous
 62
     7
100
AcDbPolyline
 90
        2
 70
     0
 43
0.15
 10
390.285067581382
 20
65.38282072069998
 10
390.285067581382
 20
68.05094539619998
  0
LWPOLYLINE
  5
193
330
44
100
AcDbEntity
  8
0
  6
Continuous
 62
     7
100
AcDbPolyline
 90
        2
 70
     0
 43
0.15
 10
389.785067581382
 20
77.00000199999997
 10
387.535067581382
 20
77.00000199999997
  0
LWPOLYLINE
  5
194
330
44
100
AcDbEntity
  8
0
  6
Continuous
 62
     7
100
AcDbPolyline
 90
        2
 70
     0
 43
0.15
 10
393.285067581382
 20
70.70000200000001
 10
393.785067581382
 20
70.70000200000001
  0
LWPOLYLINE
  5
195
330
44
100
AcDbEntity
  8
0
  6
Continuous
 62
     7
100
AcDbPolyline
 90
        2
 70
     0
 43
0.15
 10
456.035067581382
 20
65.38282072069998
 10
458.035067581382
 20
65.38282072069998
  0
LWPOLYLINE
  5
196
330
44
100
AcDbEntity
  8
0
  6
Continuous
 62
     7
100
AcDbPolyline
 90
        2
 70
     0
 43
0.15
 10
456.035067581382
 20
68.04433139379998
 10
456.035067581382
 20
65.38282072069998
  0
LWPOLYLINE
  5
197
330
44
100
AcDbEntity
  8
0
  6
Continuous
 62
     7
100
AcDbPolyline
 90
        2
 70
     0
 43
0.15
 10
458.035067581382
 20
68.04433139379998
 10
458.035067581382
 20
65.38282072069998
  0
LWPOLYLINE
  5
198
330
44
100
AcDbEntity
  8
0
  6
Continuous
 62
     7
100
AcDbPolyline
 90
        2
 70
     0
 43
0.15
 10
456.035067581382
 20
59.48652844289998
 10
458.035067581382
 20
59.48652844289998
  0
LWPOLYLINE
  5
199
330
44
100
AcDbEntity
  8
0
  6
Continuous
 62
     7
100
AcDbPolyline
 90
        2
 70
     0
 43
0.15
 10
456.035067581382
 20
65.38282072069998
 10
456.035067581382
 20
59.48652844289998
  0
LWPOLYLINE
  5
19A
330
44
100
AcDbEntity
  8
0
  6
Continuous
 62
     7
100
AcDbPolyline
 90
        2
 70
     0
 43
0.15
 10
458.035067581382
 20
65.38282072069998
 10
458.035067581382
 20
59.48652844289998
  0
LWPOLYLINE
  5
19B
330
44
100
AcDbEntity
  8
0
  6
Continuous
 62
     7
100
AcDbPolyline
 90
        2
 70
     0
 43
0.15
 10
387.785067581382
 20
125.2014908717
 10
380.939767581382
 20
125.2014908717
  0
LWPOLYLINE
  5
19C
330
44
100
AcDbEntity
  8
0
  6
Continuous
 62
     7
100
AcDbPolyline
 90
        2
 70
     0
 43
0.15
 10
380.939767581382
 20
125.2014908717
 10
379.785067581382
 20
127.2014908717
  0
LWPOLYLINE
  5
19D
330
44
100
AcDbEntity
  8
0
  6
Continuous
 62
     7
100
AcDbPolyline
 90
        2
 70
     0
 43
0.15
 10
379.785067581382
 20
127.2014908717
 10
379.785067581382
 20
129.7014908717
  0
LWPOLYLINE
  5
19E
330
44
100
AcDbEntity
  8
0
  6
Continuous
 62
     7
100
AcDbPolyline
 90
        2
 70
     0
 43
0.15
 10
379.785067581382
 20
129.7014908717
 10
390.285067581382
 20
129.7014908717
  0
LWPOLYLINE
  5
19F
330
44
100
AcDbEntity
  8
0
  6
Continuous
 62
     7
100
AcDbPolyline
 90
        2
 70
     0
 43
0.15
 10
392.285067581382
 20
127.7014908717
 10
392.285067581382
 20
127.2014908717
  0
LWPOLYLINE
  5
1A0
330
44
100
AcDbEntity
  8
0
  6
Continuous
 62
     7
100
AcDbPolyline
 90
        2
 70
     0
 43
0.15
 10
392.285067581382
 20
127.2014908717
 10
389.785067581382
 20
127.2014908717
  0
LWPOLYLINE
  5
1A1
330
44
100
AcDbEntity
  8
0
  6
Continuous
 62
     7
100
AcDbPolyline
 90
        2
 70
     0
 43
0.15
 10
387.785067581382
 20
125.2014908717
 10
526.285067581382
 20
125.2014908717
  0
LWPOLYLINE
  5
1A2
330
44
100
AcDbEntity
  8
0
  6
Continuous
 62
     7
100
AcDbPolyline
 90
        2
 70
     0
 43
0.15
 10
390.285067581382
 20
129.7014908717
 10
523.785067581382
 20
129.7014908717
  0
LWPOLYLINE
  5
1A3
330
44
100
AcDbEntity
  8
0
  6
Continuous
 62
     7
100
AcDbPolyline
 90
        2
 70
     0
 43
0.15
 10
392.285067581382
 20
127.7014908717
 10
521.785067581382
 20
127.7014908717
  0
LWPOLYLINE
  5
1A4
330
44
100
AcDbEntity
  8
0
  6
Continuous
 62
     7
100
AcDbPolyline
 90
        2
 70
     0
 43
0.15
 10
521.785067581382
 20
127.2014908717
 10
521.785067581382
 20
127.7014908717
  0
LWPOLYLINE
  5
1A5
330
44
100
AcDbEntity
  8
0
  6
Continuous
 62
     7
100
AcDbPolyline
 90
        2
 70
     0
 43
0.15
 10
392.285067581382
 20
127.2014908717
 10
521.785067581382
 20
127.2014908717
  0
LWPOLYLINE
  5
1A6
330
44
100
AcDbEntity
  8
0
  6
Continuous
 62
     7
100
AcDbPolyline
 90
        2
 70
     0
 43
0.15
 10
534.285067581382
 20
127.2014908717
 10
533.130367581382
 20
125.2014908717
  0
LWPOLYLINE
  5
1A7
330
44
100
AcDbEntity
  8
0
  6
Continuous
 62
     7
100
AcDbPolyline
 90
        2
 70
     0
 43
0.15
 10
534.285067581382
 20
129.7014908717
 10
534.285067581382
 20
127.2014908717
  0
LWPOLYLINE
  5
1A8
330
44
100
AcDbEntity
  8
0
  6
Continuous
 62
     7
100
AcDbPolyline
 90
        2
 70
     0
 43
0.15
 10
533.130367581382
 20
125.2014908717
 10
526.285067581382
 20
125.2014908717
  0
LWPOLYLINE
  5
1A9
330
44
100
AcDbEntity
  8
0
  6
Continuous
 62
     7
100
AcDbPolyline
 90
        2
 70
     0
 43
0.15
 10
524.285067581382
 20
127.2014908717
 10
521.785067581382
 20
127.2014908717
  0
LWPOLYLINE
  5
1AA
330
44
100
AcDbEntity
  8
0
  6
Continuous
 62
     7
100
AcDbPolyline
 90
        2
 70
     0
 43
0.15
 10
523.785067581382
 20
129.7014908717
 10
534.285067581382
 20
129.7014908717
  0
LWPOLYLINE
  5
1AB
330
44
100
AcDbEntity
  8
0
  6
Continuous
 62
     7
100
AcDbPolyline
 90
        2
 70
     0
 43
0.15
 10
526.435067581382
 20
124.2014908717
 10
387.635067581382
 20
124.2014908717
  0
LWPOLYLINE
  5
1AC
330
44
100
AcDbEntity
  8
0
  6
Continuous
 62
     7
100
AcDbPolyline
 90
        2
 70
     0
 43
0.15
 10
387.635067581382
 20
117.0
 10
526.435067581382
 20
117.0
  0
LWPOLYLINE
  5
1AD
330
44
100
AcDbEntity
  8
0
  6
Continuous
 62
     7
100
AcDbPolyline
 90
        2
 70
     0
 43
0.15
 10
524.035067581382
 20
73.00000199999997
 10
524.035067581382
 20
112.5
  0
LWPOLYLINE
  5
1AE
330
44
100
AcDbEntity
  8
0
  6
Continuous
 62
     7
100
AcDbPolyline
 90
        2
 70
     0
 43
0.15
 10
390.035067581382
 20
112.5
 10
390.035067581382
 20
73.00000199999997
  0
LWPOLYLINE
  5
1AF
330
44
100
AcDbEntity
  8
0
  6
Continuous
 62
     7
100
AcDbPolyline
 90
        2
 70
     0
 43
0.15
 10
535.795321619182
 20
0.0
 10
537.135067581382
 20
5.0
  0
LWPOLYLINE
  5
1B0
330
44
100
AcDbEntity
  8
0
  6
Continuous
 62
     7
100
AcDbPolyline
 90
        2
 70
     0
 43
0.15
 10
376.935067581382
 20
5.0
 10
378.274813543582
 20
0.0
  0
LWPOLYLINE
  5
1B1
330
44
100
AcDbEntity
  8
0
  6
Continuous
 62
     7
100
AcDbPolyline
 90
        2
 70
     0
 43
0.15
 10
289.035067581382
 20
157.9999201133001
 10
289.035067581382
 20
156.5003410000001
  0
LWPOLYLINE
  5
1B2
330
44
100
AcDbEntity
  8
0
  6
Continuous
 62
     7
100
AcDbPolyline
 90
        2
 70
     0
 43
0.15
 10
293.035067581382
 20
157.9999201133001
 10
289.035067581382
 20
157.9999201133001
  0
LWPOLYLINE
  5
1B3
330
44
100
AcDbEntity
  8
0
  6
Continuous
 62
     7
100
AcDbPolyline
 90
        2
 70
     0
 43
0.15
 10
293.035067581382
 20
156.5003410000001
 10
293.035067581382
 20
157.9999201133001
  0
LWPOLYLINE
  5
1B4
330
44
100
AcDbEntity
  8
0
  6
Continuous
 62
     7
100
AcDbPolyline
 90
        2
 70
     0
 43
0.15
 10
289.035067581382
 20
156.5003410000001
 10
293.035067581382
 20
156.5003410000001
  0
LWPOLYLINE
  5
1B5
330
44
100
AcDbEntity
  8
0
  6
Continuous
 62
     7
100
AcDbPolyline
 90
        2
 70
     0
 43
0.15
 10
619.035067581382
 20
159.9999201133001
 10
627.035067581382
 20
159.9999201133001
  0
LWPOLYLINE
  5
1B6
330
44
100
AcDbEntity
  8
0
  6
Continuous
 62
     7
100
AcDbPolyline
 90
        2
 70
     0
 43
0.15
 10
627.035067581382
 20
159.9999201133001
 10
625.035067581382
 20
157.9999201133001
  0
LWPOLYLINE
  5
1B7
330
44
100
AcDbEntity
  8
0
  6
Continuous
 62
     7
100
AcDbPolyline
 90
        2
 70
     0
 43
0.15
 10
625.035067581382
 20
157.9999201133001
 10
621.035067581382
 20
157.9999201133001
  0
LWPOLYLINE
  5
1B8
330
44
100
AcDbEntity
  8
0
  6
Continuous
 62
     7
100
AcDbPolyline
 90
        2
 70
     0
 43
0.15
 10
621.035067581382
 20
157.9999201133001
 10
619.035067581382
 20
159.9999201133001
  0
LWPOLYLINE
  5
1B9
330
44
100
AcDbEntity
  8
0
  6
Continuous
 62
     7
100
AcDbPolyline
 90
        2
 70
     0
 43
0.15
 10
287.035067581382
 20
159.9999201133001
 10
295.035067581382
 20
159.9999201133001
  0
LWPOLYLINE
  5
1BA
330
44
100
AcDbEntity
  8
0
  6
Continuous
 62
     7
100
AcDbPolyline
 90
        2
 70
     0
 43
0.15
 10
295.035067581382
 20
159.9999201133001
 10
293.035067581382
 20
157.9999201133001
  0
LWPOLYLINE
  5
1BB
330
44
100
AcDbEntity
  8
0
  6
Continuous
 62
     7
100
AcDbPolyline
 90
        2
 70
     0
 43
0.15
 10
289.035067581382
 20
157.9999201133001
 10
287.035067581382
 20
159.9999201133001
  0
LWPOLYLINE
  5
1BC
330
44
100
AcDbEntity
  8
0
  6
Continuous
 62
     7
100
AcDbPolyline
 90
        2
 70
     0
 43
0.15
 10
520.535067581382
 20
115.0
 10
393.535067581382
 20
115.0
  0
LWPOLYLINE
  5
1BD
330
44
100
AcDbEntity
  8
0
  6
Continuous
 62
     7
100
AcDbPolyline
 90
        2
 70
     0
 43
0.15
 10
520.535067581382
 20
115.0
 10
520.535067581382
 20
73.00000199999997
  0
LWPOLYLINE
  5
1BE
330
44
100
AcDbEntity
  8
0
  6
Continuous
 62
     7
100
AcDbPolyline
 90
        2
 70
     0
 43
0.15
 10
393.535067581382
 20
73.00000199999997
 10
393.535067581382
 20
115.0
  0
LWPOLYLINE
  5
1BF
330
44
100
AcDbEntity
  8
0
  6
Continuous
 62
     7
100
AcDbPolyline
 90
        2
 70
     0
 43
0.15
 10
392.535067581382
 20
116.0
 10
521.535067581382
 20
116.0
  0
LWPOLYLINE
  5
1C0
330
44
100
AcDbEntity
  8
0
  6
Continuous
 62
     7
100
AcDbPolyline
 90
        2
 70
     0
 43
0.15
 10
535.7850645837821
 20
158.999923111
 10
535.785017527482
 20
143.3018324333
  0
LWPOLYLINE
  5
1C1
330
44
100
AcDbEntity
  8
0
  6
Continuous
 62
     7
100
AcDbPolyline
 90
        2
 70
     0
 43
0.15
 10
535.785017527482
 20
143.3018324333
 10
533.053146906982
 20
143.3018324333
  0
LWPOLYLINE
  5
1C2
330
44
100
AcDbEntity
  8
0
  6
Continuous
 62
     7
100
AcDbPolyline
 90
        2
 70
     0
 43
0.15
 10
470.835164520482
 20
143.3018324333
 10
468.835164520482
 20
143.3018324333
  0
LWPOLYLINE
  5
1C3
330
44
100
AcDbEntity
  8
0
  6
Continuous
 62
     7
100
AcDbPolyline
 90
        2
 70
     0
 43
0.15
 10
445.235085093282
 20
143.3018324333
 10
443.235085093282
 20
143.3018324333
  0
LWPOLYLINE
  5
1C4
330
44
100
AcDbEntity
  8
0
  6
Continuous
 62
     7
100
AcDbPolyline
 90
        2
 70
     0
 43
0.15
 10
381.016988255782
 20
143.3018324333
 10
378.285117635282
 20
143.3018324333
  0
LWPOLYLINE
  5
1C5
330
44
100
AcDbEntity
  8
0
  6
Continuous
 62
     7
100
AcDbPolyline
 90
        2
 70
     0
 43
0.15
 10
378.285117635282
 20
143.3018324333
 10
378.285070578982
 20
158.999923111
  0
LWPOLYLINE
  5
1C6
330
44
100
AcDbEntity
  8
0
  6
Continuous
 62
     7
100
AcDbPolyline
 90
        2
 70
     0
 43
0.15
 10
625.035067581382
 20
156.5003410000001
 10
637.035067581382
 20
156.5003410000001
  0
LWPOLYLINE
  5
1C7
330
44
100
AcDbEntity
  8
0
  6
Continuous
 62
     7
100
AcDbPolyline
 90
        2
 70
     0
 43
0.15
 10
625.035067581382
 20
156.5003410000001
 10
625.035067581382
 20
157.9999201133001
  0
LWPOLYLINE
  5
1C8
330
44
100
AcDbEntity
  8
0
  6
Continuous
 62
     7
100
AcDbPolyline
 90
        2
 70
     0
 43
0.15
 10
635.035067581382
 20
159.9999201133001
 10
627.035067581382
 20
159.9999201133001
  0
LWPOLYLINE
  5
1C9
330
44
100
AcDbEntity
  8
0
  6
Continuous
 62
     7
100
AcDbPolyline
 90
        2
 70
     0
 43
0.15
 10
637.035067581382
 20
156.5003410000001
 10
637.035067581382
 20
157.9999201133001
  0
LWPOLYLINE
  5
1CA
330
44
100
AcDbEntity
  8
0
  6
Continuous
 62
     7
100
AcDbPolyline
 90
        2
 70
     0
 43
0.15
 10
621.035067581382
 20
157.9999201133001
 10
621.035067581382
 20
156.5003410000001
  0
LWPOLYLINE
  5
1CB
330
44
100
AcDbEntity
  8
0
  6
Continuous
 62
     7
100
AcDbPolyline
 90
        2
 70
     0
 43
0.15
 10
621.035067581382
 20
156.5003410000001
 10
625.035067581382
 20
156.5003410000001
  0
LWPOLYLINE
  5
1CC
330
44
100
AcDbEntity
  8
0
  6
Continuous
 62
     7
100
AcDbPolyline
 90
        2
 70
     0
 43
0.15
 10
277.035067581382
 20
157.9999201133001
 10
277.035067581382
 20
156.5003410000001
  0
LWPOLYLINE
  5
1CD
330
44
100
AcDbEntity
  8
0
  6
Continuous
 62
     7
100
AcDbPolyline
 90
        2
 70
     0
 43
0.15
 10
535.785017527482
 20
143.3018324333
 10
531.785155945282
 20
136.4
  0
LWPOLYLINE
  5
1CE
330
44
100
AcDbEntity
  8
0
  6
Continuous
 62
     7
100
AcDbPolyline
 90
        2
 70
     0
 43
0.15
 10
531.785155945282
 20
136.4
 10
530.935067581382
 20
136.4
  0
LWPOLYLINE
  5
1CF
330
44
100
AcDbEntity
  8
0
  6
Continuous
 62
     7
100
AcDbPolyline
 90
        2
 70
     0
 43
0.15
 10
527.047640832782
 20
136.4
 10
468.835164520482
 20
136.4
  0
LWPOLYLINE
  5
1D0
330
44
100
AcDbEntity
  8
0
  6
Continuous
 62
     7
100
AcDbPolyline
 90
        2
 70
     0
 43
0.15
 10
445.235085093282
 20
136.4
 10
387.022513619782
 20
136.4
  0
LWPOLYLINE
  5
1D1
330
44
100
AcDbEntity
  8
0
  6
Continuous
 62
     7
100
AcDbPolyline
 90
        2
 70
     0
 43
0.15
 10
383.135067581382
 20
136.4
 10
382.284979217482
 20
136.4
  0
LWPOLYLINE
  5
1D2
330
44
100
AcDbEntity
  8
0
  6
Continuous
 62
     7
100
AcDbPolyline
 90
        2
 70
     0
 43
0.15
 10
382.284979217482
 20
136.4
 10
378.285117635282
 20
143.3018324333
  0
LWPOLYLINE
  5
1D3
330
44
100
AcDbEntity
  8
0
  6
Continuous
 62
     7
100
AcDbPolyline
 90
        2
 70
     0
 43
0.15
 10
526.435067581382
 20
124.2014908717
 10
526.435067581382
 20
117.0
  0
LWPOLYLINE
  5
1D4
330
44
100
AcDbEntity
  8
0
  6
Continuous
 62
     7
100
AcDbPolyline
 90
        2
 70
     0
 43
0.15
 10
387.635067581382
 20
117.0
 10
387.635067581382
 20
124.2014908717
  0
LWPOLYLINE
  5
1D5
330
44
100
AcDbEntity
  8
0
  6
Continuous
 62
     7
100
AcDbPolyline
 90
        2
 70
     0
 43
0.15
 10
534.035067581382
 20
129.8
 10
380.035067581382
 20
129.8
  0
LWPOLYLINE
  5
1D6
330
44
100
AcDbEntity
  8
0
  6
Continuous
 62
     7
100
AcDbPolyline
 90
        2
 70
     0
 43
0.15
 10
380.035067581382
 20
129.8
 10
381.535067581382
 20
130.8
  0
LWPOLYLINE
  5
1D7
330
44
100
AcDbEntity
  8
0
  6
Continuous
 62
     7
100
AcDbPolyline
 90
        2
 70
     0
 43
0.15
 10
532.535067581382
 20
130.8
 10
381.535067581382
 20
130.8
  0
LWPOLYLINE
  5
1D8
330
44
100
AcDbEntity
  8
0
  6
Continuous
 62
     7
100
AcDbPolyline
 90
        2
 70
     0
 43
0.15
 10
532.535067581382
 20
130.8
 10
534.035067581382
 20
129.8
  0
LWPOLYLINE
  5
1D9
330
44
100
AcDbEntity
  8
0
  6
Continuous
 62
     7
100
AcDbPolyline
 90
        2
 70
     0
 43
0.15
 10
531.785155945282
 20
136.4
 10
531.785155945282
 20
135.5
  0
LWPOLYLINE
  5
1DA
330
44
100
AcDbEntity
  8
0
  6
Continuous
 62
     7
100
AcDbPolyline
 90
        2
 70
     0
 43
0.15
 10
531.785155945282
 20
135.5
 10
530.935067581382
 20
135.5
  0
LWPOLYLINE
  5
1DB
330
44
100
AcDbEntity
  8
0
  6
Continuous
 62
     7
100
AcDbPolyline
 90
        2
 70
     0
 43
0.15
 10
527.047640832782
 20
135.5
 10
468.835164520482
 20
135.5
  0
LWPOLYLINE
  5
1DC
330
44
100
AcDbEntity
  8
0
  6
Continuous
 62
     7
100
AcDbPolyline
 90
        2
 70
     0
 43
0.15
 10
445.235085093282
 20
135.5
 10
387.022513619782
 20
135.5
  0
LWPOLYLINE
  5
1DD
330
44
100
AcDbEntity
  8
0
  6
Continuous
 62
     7
100
AcDbPolyline
 90
        2
 70
     0
 43
0.15
 10
383.135067581382
 20
135.5
 10
382.284979217482
 20
135.5
  0
LWPOLYLINE
  5
1DE
330
44
100
AcDbEntity
  8
0
  6
Continuous
 62
     7
100
AcDbPolyline
 90
        2
 70
     0
 43
0.15
 10
382.284979217482
 20
135.5
 10
382.284979217482
 20
136.4
  0
LWPOLYLINE
  5
1DF
330
44
100
AcDbEntity
  8
0
  6
Continuous
 62
     7
100
AcDbPolyline
 90
        2
 70
     0
 43
0.15
 10
524.035067581382
 20
112.5
 10
527.435067581382
 20
112.5
  0
LWPOLYLINE
  5
1E0
330
44
100
AcDbEntity
  8
0
  6
Continuous
 62
     7
100
AcDbPolyline
 90
        2
 70
     0
 43
0.15
 10
534.035067581382
 20
129.8
 10
534.035067581382
 20
125.2014908717
  0
LWPOLYLINE
  5
1E1
330
44
100
AcDbEntity
  8
0
  6
Continuous
 62
     7
100
AcDbPolyline
 90
        2
 70
     0
 43
0.15
 10
532.535067581382
 20
135.0569188717
 10
532.535067581382
 20
130.8
  0
LWPOLYLINE
  5
1E2
330
44
100
AcDbEntity
  8
0
  6
Continuous
 62
     7
100
AcDbPolyline
 90
        2
 70
     0
 43
0.15
 10
531.785155945282
 20
135.5
 10
532.535067581382
 20
135.0569188717
  0
LWPOLYLINE
  5
1E3
330
44
100
AcDbEntity
  8
0
  6
Continuous
 62
     7
100
AcDbPolyline
 90
        2
 70
     0
 43
0.15
 10
539.285067581382
 20
156.5003410000001
 10
621.035067581382
 20
156.5003410000001
  0
LWPOLYLINE
  5
1E4
330
44
100
AcDbEntity
  8
0
  6
Continuous
 62
     7
100
AcDbPolyline
 90
        2
 70
     0
 43
0.15
 10
539.2850485813821
 20
142.4
 10
539.285067581382
 20
156.5003410000001
  0
LWPOLYLINE
  5
1E5
330
44
100
AcDbEntity
  8
0
  6
Continuous
 62
     7
100
AcDbPolyline
 90
        2
 70
     0
 43
0.15
 10
537.135067581382
 20
138.6
 10
539.2850485813821
 20
142.4
  0
LWPOLYLINE
  5
1E6
330
44
100
AcDbEntity
  8
0
  6
Continuous
 62
     7
100
AcDbPolyline
 90
        2
 70
     0
 43
0.15
 10
537.135067581382
 20
5.0
 10
537.135067581382
 20
138.6
  0
LWPOLYLINE
  5
1E7
330
44
100
AcDbEntity
  8
0
  6
Continuous
 62
     7
100
AcDbPolyline
 90
        2
 70
     0
 43
0.15
 10
534.285067581382
 20
0.0
 10
535.795321619182
 20
0.0
  0
LWPOLYLINE
  5
1E8
330
44
100
AcDbEntity
  8
0
  6
Continuous
 62
     7
100
AcDbPolyline
 90
        2
 70
     0
 43
0.15
 10
533.635067581382
 20
121.701942
 10
534.285067581382
 20
0.0
  0
LWPOLYLINE
  5
1E9
330
44
100
AcDbEntity
  8
0
  6
Continuous
 62
     7
100
AcDbPolyline
 90
        2
 70
     0
 43
0.15
 10
529.935067581382
 20
121.701942
 10
533.635067581382
 20
121.701942
  0
LWPOLYLINE
  5
1EA
330
44
100
AcDbEntity
  8
0
  6
Continuous
 62
     7
100
AcDbPolyline
 90
        2
 70
     0
 43
0.15
 10
529.935067581382
 20
115.0
 10
529.935067581382
 20
121.701942
  0
LWPOLYLINE
  5
1EB
330
44
100
AcDbEntity
  8
0
  6
Continuous
 62
     7
100
AcDbPolyline
 90
        2
 70
     0
 43
0.15
 10
520.535067581382
 20
73.00000199999997
 10
524.035067581382
 20
73.00000199999997
  0
LWPOLYLINE
  5
1EC
330
44
100
AcDbEntity
  8
0
  6
Continuous
 62
     7
100
AcDbPolyline
 90
        2
 70
     0
 43
0.15
 10
619.035067581382
 20
159.9999201133001
 10
536.7850645837821
 20
159.9999201133001
  0
LWPOLYLINE
  5
1ED
330
44
100
AcDbEntity
  8
0
  6
Continuous
 62
     7
100
AcDbPolyline
 90
        2
 70
     0
 43
0.15
 10
534.035067581382
 20
125.2014908717
 10
527.435067581382
 20
125.2014908717
  0
LWPOLYLINE
  5
1EE
330
44
100
AcDbEntity
  8
0
  6
Continuous
 62
     7
100
AcDbPolyline
 90
        2
 70
     0
 43
0.15
 10
525.435067581382
 20
116.0
 10
521.535067581382
 20
116.0
  0
LWPOLYLINE
  5
1EF
330
44
100
AcDbEntity
  8
0
  6
Continuous
 62
     7
100
AcDbPolyline
 90
        2
 70
     0
 43
0.15
 10
277.035067581382
 20
156.5003410000001
 10
289.035067581382
 20
156.5003410000001
  0
LWPOLYLINE
  5
1F0
330
44
100
AcDbEntity
  8
0
  6
Continuous
 62
     7
100
AcDbPolyline
 90
        2
 70
     0
 43
0.15
 10
287.035067581382
 20
159.9999201133001
 10
279.035067581382
 20
159.9999201133001
  0
LWPOLYLINE
  5
1F1
330
44
100
AcDbEntity
  8
0
  6
Continuous
 62
     7
100
AcDbPolyline
 90
        2
 70
     0
 43
0.15
 10
374.785086581382
 20
142.4
 10
376.935067581382
 20
138.6
  0
LWPOLYLINE
  5
1F2
330
44
100
AcDbEntity
  8
0
  6
Continuous
 62
     7
100
AcDbPolyline
 90
        2
 70
     0
 43
0.15
 10
376.935067581382
 20
138.6
 10
376.935067581382
 20
5.0
  0
LWPOLYLINE
  5
1F3
330
44
100
AcDbEntity
  8
0
  6
Continuous
 62
     7
100
AcDbPolyline
 90
        2
 70
     0
 43
0.15
 10
384.135067581382
 20
121.701942
 10
384.135067581382
 20
115.0
  0
LWPOLYLINE
  5
1F4
330
44
100
AcDbEntity
  8
0
  6
Continuous
 62
     7
100
AcDbPolyline
 90
        2
 70
     0
 43
0.15
 10
380.035067581382
 20
125.2014908717
 10
380.035067581382
 20
129.8
  0
LWPOLYLINE
  5
1F5
330
44
100
AcDbEntity
  8
0
  6
Continuous
 62
     7
100
AcDbPolyline
 90
        2
 70
     0
 43
0.15
 10
379.785067581382
 20
0.0
 10
380.435067581382
 20
121.701942
  0
LWPOLYLINE
  5
1F6
330
44
100
AcDbEntity
  8
0
  6
Continuous
 62
     7
100
AcDbPolyline
 90
        2
 70
     0
 43
0.15
 10
378.274813543582
 20
0.0
 10
379.785067581382
 20
0.0
  0
LWPOLYLINE
  5
1F7
330
44
100
AcDbEntity
  8
0
  6
Continuous
 62
     7
100
AcDbPolyline
 90
        2
 70
     0
 43
0.15
 10
374.785067581382
 20
156.5003410000001
 10
374.785086581382
 20
142.4
  0
LWPOLYLINE
  5
1F8
330
44
100
AcDbEntity
  8
0
  6
Continuous
 62
     7
100
AcDbPolyline
 90
        2
 70
     0
 43
0.15
 10
381.535067581382
 20
135.0569188717
 10
382.284979217482
 20
135.5
  0
LWPOLYLINE
  5
1F9
330
44
100
AcDbEntity
  8
0
  6
Continuous
 62
     7
100
AcDbPolyline
 90
        2
 70
     0
 43
0.15
 10
381.535067581382
 20
130.8
 10
381.535067581382
 20
135.0569188717
  0
LWPOLYLINE
  5
1FA
330
44
100
AcDbEntity
  8
0
  6
Continuous
 62
     7
100
AcDbPolyline
 90
        2
 70
     0
 43
0.15
 10
386.635067581382
 20
112.5
 10
390.035067581382
 20
112.5
  0
LWPOLYLINE
  5
1FB
330
44
100
AcDbEntity
  8
0
  6
Continuous
 62
     7
100
AcDbPolyline
 90
        2
 70
     0
 43
0.15
 10
380.435067581382
 20
121.701942
 10
384.135067581382
 20
121.701942
  0
LWPOLYLINE
  5
1FC
330
44
100
AcDbEntity
  8
0
  6
Continuous
 62
     7
100
AcDbPolyline
 90
        2
 70
     0
 43
0.15
 10
293.035067581382
 20
156.5003410000001
 10
374.785067581382
 20
156.5003410000001
  0
LWPOLYLINE
  5
1FD
330
44
100
AcDbEntity
  8
0
  6
Continuous
 62
     7
100
AcDbPolyline
 90
        2
 70
     0
 43
0.15
 10
390.035067581382
 20
73.00000199999997
 10
393.535067581382
 20
73.00000199999997
  0
LWPOLYLINE
  5
1FE
330
44
100
AcDbEntity
  8
0
  6
Continuous
 62
     7
100
AcDbPolyline
 90
        2
 70
     0
 43
0.15
 10
377.285070578982
 20
159.9999201133001
 10
295.035067581382
 20
159.9999201133001
  0
LWPOLYLINE
  5
1FF
330
44
100
AcDbEntity
  8
0
  6
Continuous
 62
     7
100
AcDbPolyline
 90
        2
 70
     0
 43
0.15
 10
386.635067581382
 20
125.2014908717
 10
380.035067581382
 20
125.2014908717
  0
LWPOLYLINE
  5
200
330
44
100
AcDbEntity
  8
0
  6
Continuous
 62
     7
100
AcDbPolyline
 90
        2
 70
     0
 43
0.15
 10
392.535067581382
 20
116.0
 10
388.635067581382
 20
116.0
  0
LWPOLYLINE
  5
201
330
44
100
AcDbEntity
  8
0
  6
Continuous
 62
     7
100
AcDbPolyline
 90
        2
 70
     0
 43
0.15
 10
532.535067581382
 20
135.0569188717
 10
530.935067581382
 20
135.0569188717
  0
LWPOLYLINE
  5
202
330
44
100
AcDbEntity
  8
0
  6
Continuous
 62
     7
100
AcDbPolyline
 90
        2
 70
     0
 43
0.15
 10
527.047640832782
 20
135.0569188717
 10
468.835164520482
 20
135.0569188717
  0
LWPOLYLINE
  5
203
330
44
100
AcDbEntity
  8
0
  6
Continuous
 62
     7
100
AcDbPolyline
 90
        2
 70
     0
 43
0.15
 10
445.235085093282
 20
135.0569188717
 10
387.022513619782
 20
135.0569188717
  0
LWPOLYLINE
  5
204
330
44
100
AcDbEntity
  8
0
  6
Continuous
 62
     7
100
AcDbPolyline
 90
        2
 70
     0
 43
0.15
 10
383.135067581382
 20
135.0569188717
 10
381.535067581382
 20
135.0569188717
  0
LWPOLYLINE
  5
205
330
44
100
AcDbEntity
  8
0
  6
Continuous
 62
     7
100
AcDbPolyline
 90
        2
 70
     0
 43
0.15
 10
534.285067581382
 20
0.0
 10
379.785067581382
 20
0.0
  0
LWPOLYLINE
  5
206
330
44
100
AcDbEntity
  8
0
  6
Continuous
 62
     7
100
AcDbPolyline
 90
        2
 70
     0
 43
0.15
 10
382.035067581382
 20
69.60197471040001
 10
382.035067581382
 20
73.39802528959999
  0
LWPOLYLINE
  5
207
330
44
100
AcDbEntity
  8
0
  6
Continuous
 62
     7
100
AcDbPolyline
 90
        2
 70
     0
 43
0.15
 10
387.535067581382
 20
75.49999999999997
 10
383.035067581382
 20
75.49999999999997
  0
LWPOLYLINE
  5
208
330
44
100
AcDbEntity
  8
0
  6
Continuous
 62
     7
100
AcDbPolyline
 90
        2
 70
     0
 43
0.15
 10
349.035067581382
 20
57.49999999999997
 10
343.035067581382
 20
57.49999999999997
  0
LWPOLYLINE
  5
209
330
44
100
AcDbEntity
  8
0
  6
Continuous
 62
     7
100
AcDbPolyline
 90
        2
 70
     0
 43
0.15
 10
360.035067581382
 20
69.60197471040001
 10
360.035067581382
 20
73.39802528959999
  0
LWPOLYLINE
  5
20A
330
44
100
AcDbEntity
  8
0
  6
Continuous
 62
     7
100
AcDbPolyline
 90
        2
 70
     0
 43
0.15
 10
387.389124953882
 20
151.2999201133
 10
387.022513619782
 20
151.2999201133
  0
LWPOLYLINE
  5
20B
330
44
100
AcDbEntity
  8
0
  6
Continuous
 62
     7
100
AcDbPolyline
 90
        2
 70
     0
 43
0.15
 10
527.047640832782
 20
151.2999201133
 10
526.681032886782
 20
151.2999201133
  0
LWPOLYLINE
  5
20C
330
44
100
AcDbEntity
  8
0
  6
Continuous
 62
     7
100
AcDbPolyline
 90
        2
 70
     0
 43
0.15
 10
535.7850645837821
 20
158.999923111
 10
533.053146906982
 20
158.999923111
  0
LWPOLYLINE
  5
20D
330
44
100
AcDbEntity
  8
0
  6
Continuous
 62
     7
100
AcDbPolyline
 90
        2
 70
     0
 43
0.15
 10
381.016988255782
 20
158.999923111
 10
378.285070578982
 20
158.999923111
  0
LINE
  5
20E
330
44
100
AcDbEntity
  8
0
  6
CENTERX2
 62
     7
100
AcDbLine
 10
457.035067581382
 20
237.1084754498
 30
0.0
 11
457.035067581382
 21
-2.0
 31
0.0
  0
LWPOLYLINE
  5
20F
330
44
100
AcDbEntity
  8
0
  6
Continuous
 62
     7
100
AcDbPolyline
 90
        2
 70
     0
 43
0.15
 10
382.745042177083
 20
74.79577271178997
 42
0.19785638869705
 10
383.035067581382
 20
75.49999999999997
 42
0.19785638869705
  0
LWPOLYLINE
  5
210
330
44
100
AcDbEntity
  8
0
  6
Continuous
 62
     7
100
AcDbPolyline
 90
        2
 70
     0
 43
0.15
 10
382.745042177085
 20
68.53609764044197
 42
0.20329580390099
 10
387.535067581385
 20
71.169872981081
 42
0.20329580390099
  0
LWPOLYLINE
  5
211
330
44
100
AcDbEntity
  8
0
  6
Continuous
 62
     7
100
AcDbPolyline
 90
        2
 70
     0
 43
0.15
 10
357.745042177076
 20
68.25898618121798
 42
0.35404020962894
 10
349.035067581382
 20
57.49999999999997
 42
0.35404020962894
  0
LWPOLYLINE
  5
212
330
44
100
AcDbEntity
  8
0
  6
Continuous
 62
     7
100
AcDbPolyline
 90
        2
 70
     0
 43
0.15
 10
357.745042177076
 20
74.34505220079902
 42
0.37516982120537
 10
343.035067581382
 20
57.49999999999997
 42
0.37516982120537
  0
LWPOLYLINE
  5
213
330
44
100
AcDbEntity
  8
0
  6
Continuous
 62
     7
100
AcDbPolyline
 90
        2
 70
     0
 43
0.15
 10
382.035067581382
 20
98.49999999999997
 42
0.4142135623731
 10
384.035067581382
 20
96.49999999999997
 42
0.4142135623731
  0
LWPOLYLINE
  5
214
330
44
100
AcDbEntity
  8
0
  6
Continuous
 62
     7
100
AcDbPolyline
 90
        2
 70
     0
 43
0.15
 10
530.035067581382
 20
96.49999999999997
 42
0.4142135623731
 10
532.035067581382
 20
98.49999999999997
 42
0.4142135623731
  0
LWPOLYLINE
  5
215
330
44
100
AcDbEntity
  8
0
  6
Continuous
 62
     7
100
AcDbPolyline
 90
        2
 70
     0
 43
0.15
 10
390.035067581382
 20
106.5
 42
0.4142135623731
 10
388.035067581382
 20
108.5
 42
0.4142135623731
  0
LWPOLYLINE
  5
216
330
44
100
AcDbEntity
  8
0
  6
Continuous
 62
     7
100
AcDbPolyline
 90
        2
 70
     0
 43
0.15
 10
388.035067581382
 20
96.49999999999997
 42
0.4142135623731
 10
390.035067581382
 20
98.49999999999997
 42
0.4142135623731
  0
LWPOLYLINE
  5
217
330
44
100
AcDbEntity
  8
0
  6
Continuous
 62
     7
100
AcDbPolyline
 90
        2
 70
     0
 43
0.15
 10
384.035067581382
 20
108.5
 42
0.4142135623731
 10
382.035067581382
 20
106.5
 42
0.4142135623731
  0
LWPOLYLINE
  5
218
330
44
100
AcDbEntity
  8
0
  6
Continuous
 62
     7
100
AcDbPolyline
 90
        2
 70
     0
 43
0.15
 10
524.035067581382
 20
98.49999999999997
 42
0.4142135623731
 10
526.035067581382
 20
96.49999999999997
 42
0.4142135623731
  0
LWPOLYLINE
  5
219
330
44
100
AcDbEntity
  8
0
  6
Continuous
 62
     7
100
AcDbPolyline
 90
        2
 70
     0
 43
0.15
 10
526.035067581382
 20
108.5
 42
0.4142135623731
 10
524.035067581382
 20
106.5
 42
0.4142135623731
  0
LWPOLYLINE
  5
21A
330
44
100
AcDbEntity
  8
0
  6
Continuous
 62
     7
100
AcDbPolyline
 90
        2
 70
     0
 43
0.15
 10
532.035067581382
 20
106.5
 42
0.4142135623731
 10
530.035067581382
 20
108.5
 42
0.4142135623731
  0
LWPOLYLINE
  5
21B
330
44
100
AcDbEntity
  8
0
  6
Continuous
 62
     7
100
AcDbPolyline
 90
        2
 70
     0
 43
0.15
 10
531.435067581382
 20
130.9999201133001
 42
0.4142135623731
 10
532.435067581382
 20
131.9999201133001
 42
0.4142135623731
  0
LWPOLYLINE
  5
21C
330
44
100
AcDbEntity
  8
0
  6
Continuous
 62
     7
100
AcDbPolyline
 90
        2
 70
     0
 43
0.15
 10
381.635067581382
 20
131.9999201133001
 42
0.4142135623731
 10
382.635067581382
 20
130.9999201133001
 42
0.4142135623731
  0
LWPOLYLINE
  5
21D
330
44
100
AcDbEntity
  8
0
  6
Continuous
 62
     7
100
AcDbPolyline
 90
        2
 70
     0
 43
0.15
 10
382.635067581382
 20
132.9999201133001
 42
0.4142135623731
 10
381.635067581382
 20
131.9999201133001
 42
0.4142135623731
  0
LWPOLYLINE
  5
21E
330
44
100
AcDbEntity
  8
0
  6
Continuous
 62
     7
100
AcDbPolyline
 90
        2
 70
     0
 43
0.15
 10
519.5790388168471
 20
225.1302282083
 42
0.31529878994921
 10
505.483649485082
 20
234.9999261133
 42
0.31529878994921
  0
LWPOLYLINE
  5
21F
330
44
100
AcDbEntity
  8
0
  6
Continuous
 62
     7
100
AcDbPolyline
 90
        2
 70
     0
 43
0.15
 10
532.435067581382
 20
131.9999201133001
 42
0.4142135623731
 10
531.435067581382
 20
132.9999201133001
 42
0.4142135623731
  0
LWPOLYLINE
  5
220
330
44
100
AcDbEntity
  8
0
  6
Continuous
 62
     7
100
AcDbPolyline
 90
        2
 70
     0
 43
0.15
 10
408.5864856776821
 20
234.9999261133
 42
0.31529878994922
 10
394.491096345917
 20
225.1302282083
 42
0.31529878994922
  0
LWPOLYLINE
  5
221
330
44
100
AcDbEntity
  8
0
  6
Continuous
 62
     7
100
AcDbPolyline
 90
        2
 70
     0
 43
0.15
 10
389.785067581382
 20
127.2014908717
 42
0.4142135623731
 10
387.785067581382
 20
125.2014908717
 42
0.4142135623731
  0
LWPOLYLINE
  5
222
330
44
100
AcDbEntity
  8
0
  6
Continuous
 62
     7
100
AcDbPolyline
 90
        2
 70
     0
 43
0.15
 10
392.285067581382
 20
127.7014908717
 42
0.4142135623731
 10
390.285067581382
 20
129.7014908717
 42
0.4142135623731
  0
LWPOLYLINE
  5
223
330
44
100
AcDbEntity
  8
0
  6
Continuous
 62
     7
100
AcDbPolyline
 90
        2
 70
     0
 43
0.15
 10
526.285067581382
 20
125.2014908717
 42
0.4142135623731
 10
524.285067581382
 20
127.2014908717
 42
0.4142135623731
  0
LWPOLYLINE
  5
224
330
44
100
AcDbEntity
  8
0
  6
Continuous
 62
     7
100
AcDbPolyline
 90
        2
 70
     0
 43
0.15
 10
523.785067581382
 20
129.7014908717
 42
0.4142135623731
 10
521.785067581382
 20
127.7014908717
 42
0.4142135623731
  0
LWPOLYLINE
  5
225
330
44
100
AcDbEntity
  8
0
  6
Continuous
 62
     7
100
AcDbPolyline
 90
        2
 70
     0
 43
0.15
 10
527.435067581382
 20
125.2014908717
 42
0.4142135623731
 10
526.435067581382
 20
124.2014908717
 42
0.4142135623731
  0
LWPOLYLINE
  5
226
330
44
100
AcDbEntity
  8
0
  6
Continuous
 62
     7
100
AcDbPolyline
 90
        2
 70
     0
 43
0.15
 10
387.635067581382
 20
124.2014908717
 42
0.4142135623731
 10
386.635067581382
 20
125.2014908717
 42
0.4142135623731
  0
LWPOLYLINE
  5
227
330
44
100
AcDbEntity
  8
0
  6
Continuous
 62
     7
100
AcDbPolyline
 90
        2
 70
     0
 43
0.15
 10
525.435067581382
 20
116.0
 42
0.4142135623731
 10
526.435067581382
 20
117.0
 42
0.4142135623731
  0
LWPOLYLINE
  5
228
330
44
100
AcDbEntity
  8
0
  6
Continuous
 62
     7
100
AcDbPolyline
 90
        2
 70
     0
 43
0.15
 10
387.635067581382
 20
117.0
 42
0.4142135623731
 10
388.635067581382
 20
116.0
 42
0.4142135623731
  0
LWPOLYLINE
  5
229
330
44
100
AcDbEntity
  8
0
  6
Continuous
 62
     7
100
AcDbPolyline
 90
        2
 70
     0
 43
0.15
 10
384.135067581382
 20
115.0
 42
0.4142135623731
 10
386.635067581382
 20
112.5
 42
0.4142135623731
  0
LWPOLYLINE
  5
22A
330
44
100
AcDbEntity
  8
0
  6
Continuous
 62
     7
100
AcDbPolyline
 90
        2
 70
     0
 43
0.15
 10
527.435067581382
 20
112.5
 42
0.4142135623731
 10
529.935067581382
 20
115.0
 42
0.4142135623731
  0
LWPOLYLINE
  5
22B
330
44
100
AcDbEntity
  8
0
  6
Continuous
 62
     7
100
AcDbPolyline
 90
        2
 70
     0
 43
0.15
 10
521.535067581382
 20
116.0
 42
0.4142135623731
 10
520.535067581382
 20
115.0
 42
0.4142135623731
  0
LWPOLYLINE
  5
22C
330
44
100
AcDbEntity
  8
0
  6
Continuous
 62
     7
100
AcDbPolyline
 90
        2
 70
     0
 43
0.15
 10
393.535067581382
 20
115.0
 42
0.4142135623731
 10
392.535067581382
 20
116.0
 42
0.4142135623731
  0
LWPOLYLINE
  5
22D
330
44
100
AcDbEntity
  8
0
  6
Continuous
 62
     7
100
AcDbPolyline
 90
        2
 70
     0
 43
0.15
 10
637.035067581382
 20
157.9999201133001
 42
0.4142135623731
 10
635.035067581382
 20
159.9999201133001
 42
0.4142135623731
  0
LWPOLYLINE
  5
22E
330
44
100
AcDbEntity
  8
0
  6
Continuous
 62
     7
100
AcDbPolyline
 90
        2
 70
     0
 43
0.15
 10
536.7850645837821
 20
159.9999201133001
 42
0.4142126843674
 10
535.7850645837821
 20
158.999923111
 42
0.4142126843674
  0
LWPOLYLINE
  5
22F
330
44
100
AcDbEntity
  8
0
  6
Continuous
 62
     7
100
AcDbPolyline
 90
        2
 70
     0
 43
0.15
 10
279.035067581382
 20
159.9999201133001
 42
0.4142135623731
 10
277.035067581382
 20
157.9999201133001
 42
0.4142135623731
  0
LWPOLYLINE
  5
230
330
44
100
AcDbEntity
  8
0
  6
Continuous
 62
     7
100
AcDbPolyline
 90
        2
 70
     0
 43
0.15
 10
378.285070578982
 20
158.999923111
 42
0.4142126843674
 10
377.285070578982
 20
159.9999201133001
 42
0.4142126843674
  0
SPLINE
  5
231
330
44
100
AcDbEntity
  8
0
  6
Continuous
 62
     7
100
AcDbSpline
210
0.0
220
0.0
230
1.0
 70
    24
 71
     3
 72
     9
 73
     5
 74
     3
 42
0.0000000001
 43
0.0000000001
 44
0.00000001
 40
0.0
 40
0.0
 40
0.0
 40
0.0
 40
0.297641901872737
 40
0.5952838037680408
 40
0.5952838037680408
 40
0.5952838037680408
 40
0.5952838037680408
 10
402.463760529082
 20
199.320163263
 30
0.0
 10
402.5629744963729
 20
199.3201632630075
 30
0.0
 10
402.7614024309623
 20
199.3201632630225
 30
0.0
 10
402.9598303655516
 20
199.3201632630141
 30
0.0
 10
403.05904433285
 20
199.32016326301
 30
0.0
 11
402.463760529082
 21
199.320163263
 31
0.0
 11
402.7614024309547
 21
199.3201632630166
 31
0.0
 11
403.05904433285
 21
199.32016326301
 31
0.0
  0
SPLINE
  5
232
330
44
100
AcDbEntity
  8
0
  6
Continuous
 62
     7
100
AcDbSpline
210
0.0
220
0.0
230
1.0
 70
    24
 71
     3
 72
     9
 73
     5
 74
     3
 42
0.0000000001
 43
0.0000000001
 44
0.00000001
 40
0.0
 40
0.0
 40
0.0
 40
0.0
 40
0.5749999997437385
 40
1.149999999609918
 40
1.149999999609918
 40
1.149999999609918
 40
1.149999999609918
 10
407.7996306227821
 20
199.320163263
 30
0.0
 10
407.9912972893634
 20
199.3201632630467
 30
0.0
 10
408.3746306225667
 20
199.32016326314
 30
0.0
 10
408.75796395577
 20
199.3201632631607
 30
0.0
 10
408.949630622392
 20
199.320163263171
 30
0.0
 11
407.7996306227821
 21
199.320163263
 31
0.0
 11
408.3746306225258
 21
199.3201632631219
 31
0.0
 11
408.949630622392
 21
199.320163263171
 31
0.0
  0
SPLINE
  5
233
330
44
100
AcDbEntity
  8
0
  6
Continuous
 62
     7
100
AcDbSpline
210
0.0
220
0.0
230
1.0
 70
    24
 71
     3
 72
     9
 73
     5
 74
     3
 42
0.0000000001
 43
0.0000000001
 44
0.00000001
 40
0.0
 40
0.0
 40
0.0
 40
0.0
 40
0.8131727986224178
 40
1.626345597096986
 40
1.626345597096986
 40
1.626345597096986
 40
1.626345597096986
 10
416.490814379882
 20
199.320163263
 30
0.0
 10
416.7618719794228
 20
199.3201632629869
 30
0.0
 10
417.303987178455
 20
199.3201632629605
 30
0.0
 10
417.8461023774873
 20
199.3201632629455
 30
0.0
 10
418.117159976979
 20
199.320163262938
 30
0.0
 11
416.490814379882
 21
199.320163263
 31
0.0
 11
417.3039871785044
 21
199.3201632629634
 31
0.0
 11
418.117159976979
 21
199.320163262938
 31
0.0
  0
SPLINE
  5
234
330
44
100
AcDbEntity
  8
0
  6
Continuous
 62
     7
100
AcDbSpline
210
0.0
220
0.0
230
1.0
 70
    24
 71
     3
 72
     9
 73
     5
 74
     3
 42
0.0000000001
 43
0.0000000001
 44
0.00000001
 40
0.0
 40
0.0
 40
0.0
 40
0.0
 40
0.9959292144149572
 40
1.991858428787964
 40
1.991858428787964
 40
1.991858428787964
 40
1.991858428787964
 10
427.945021990082
 20
199.320163263
 30
0.0
 10
428.276998394887
 20
199.3201632630103
 30
0.0
 10
428.940951204483
 20
199.320163263031
 30
0.0
 10
429.6049040140789
 20
199.3201632630277
 30
0.0
 10
429.93688041887
 20
199.320163263026
 30
0.0
 11
427.945021990082
 21
199.320163263
 31
0.0
 11
428.940951204497
 21
199.320163263025
 31
0.0
 11
429.93688041887
 21
199.320163263026
 31
0.0
  0
SPLINE
  5
235
330
44
100
AcDbEntity
  8
0
  6
Continuous
 62
     7
100
AcDbSpline
210
0.0
220
0.0
230
1.0
 70
    24
 71
     3
 72
     9
 73
     5
 74
     3
 42
0.0000000001
 43
0.0000000001
 44
0.00000001
 40
0.0
 40
0.0
 40
0.0
 40
0.0
 40
1.110814700130504
 40
2.221629400288009
 40
2.221629400288009
 40
2.221629400288009
 40
2.221629400288009
 10
441.381668133782
 20
199.320163263
 30
0.0
 10
441.7519397004921
 20
199.3201632630177
 30
0.0
 10
442.4924828339215
 20
199.3201632630531
 30
0.0
 10
443.2330259673508
 20
199.320163263057
 30
0.0
 10
443.60329753407
 20
199.320163263059
 30
0.0
 11
441.381668133782
 21
199.320163263
 31
0.0
 11
442.4924828339125
 21
199.3201632630452
 31
0.0
 11
443.60329753407
 21
199.320163263059
 31
0.0
  0
SPLINE
  5
236
330
44
100
AcDbEntity
  8
0
  6
Continuous
 62
     7
100
AcDbSpline
210
0.0
220
0.0
230
1.0
 70
    24
 71
     3
 72
     9
 73
     5
 74
     3
 42
0.0000000001
 43
0.0000000001
 44
0.00000001
 40
0.0
 40
0.0
 40
0.0
 40
0.0
 40
1.150000000029138
 40
2.300000000059015
 40
2.300000000059015
 40
2.300000000059015
 40
2.300000000059015
 10
455.885067581354
 20
199.320163263037
 30
0.0
 10
456.2684009146971
 20
199.320163263037
 30
0.0
 10
457.0350675813835
 20
199.320163263037
 30
0.0
 10
457.8017342480697
 20
199.320163263037
 30
0.0
 10
458.185067581413
 20
199.320163263037
 30
0.0
 11
455.885067581354
 21
199.320163263037
 31
0.0
 11
457.0350675813831
 21
199.320163263037
 31
0.0
 11
458.185067581413
 21
199.320163263037
 31
0.0
  0
SPLINE
  5
237
330
44
100
AcDbEntity
  8
0
  6
Continuous
 62
     7
100
AcDbSpline
210
0.0
220
0.0
230
1.0
 70
    24
 71
     3
 72
     9
 73
     5
 74
     3
 42
0.0000000001
 43
0.0000000001
 44
0.00000001
 40
0.0
 40
0.0
 40
0.0
 40
0.0
 40
1.110814700162393
 40
2.221629400323991
 40
2.221629400323991
 40
2.221629400323991
 40
2.221629400323991
 10
470.466837628696
 20
199.320163263059
 30
0.0
 10
470.8371091954168
 20
199.3201632630563
 30
0.0
 10
471.5776523288582
 20
199.320163263051
 30
0.0
 10
472.3181954622995
 20
199.3201632630457
 30
0.0
 10
472.68846702902
 20
199.320163263043
 30
0.0
 11
470.466837628696
 21
199.320163263059
 31
0.0
 11
471.5776523288584
 21
199.320163263051
 31
0.0
 11
472.68846702902
 21
199.320163263043
 31
0.0
  0
SPLINE
  5
238
330
44
100
AcDbEntity
  8
0
  6
Continuous
 62
     7
100
AcDbSpline
210
0.0
220
0.0
230
1.0
 70
    24
 71
     3
 72
     9
 73
     5
 74
     3
 42
0.0000000001
 43
0.0000000001
 44
0.00000001
 40
0.0
 40
0.0
 40
0.0
 40
0.0
 40
0.9959292143655034
 40
1.991858428731007
 40
1.991858428731007
 40
1.991858428731007
 40
1.991858428731007
 10
484.133254743897
 20
199.320163263026
 30
0.0
 10
484.4652311486855
 20
199.320163263027
 30
0.0
 10
485.1291839582625
 20
199.320163263029
 30
0.0
 10
485.7931367678395
 20
199.320163263031
 30
0.0
 10
486.125113172628
 20
199.320163263032
 30
0.0
 11
484.133254743897
 21
199.320163263026
 31
0.0
 11
485.1291839582625
 21
199.320163263029
 31
0.0
 11
486.125113172628
 21
199.320163263032
 31
0.0
  0
SPLINE
  5
239
330
44
100
AcDbEntity
  8
0
  6
Continuous
 62
     7
100
AcDbSpline
210
0.0
220
0.0
230
1.0
 70
    24
 71
     3
 72
     9
 73
     5
 74
     3
 42
0.0000000001
 43
0.0000000001
 44
0.00000001
 40
0.0
 40
0.0
 40
0.0
 40
0.0
 40
0.8131727984495569
 40
1.626345596899
 40
1.626345596899
 40
1.626345596899
 40
1.626345596899
 10
495.952975185788
 20
199.320163262938
 30
0.0
 10
496.2240327852711
 20
199.3201632629458
 30
0.0
 10
496.7661479842374
 20
199.3201632629615
 30
0.0
 10
497.3082631832038
 20
199.3201632629772
 30
0.0
 10
497.579320782687
 20
199.320163262985
 30
0.0
 11
495.952975185788
 21
199.320163262938
 31
0.0
 11
496.7661479842375
 21
199.3201632629615
 31
0.0
 11
497.579320782687
 21
199.320163262985
 31
0.0
  0
SPLINE
  5
23A
330
44
100
AcDbEntity
  8
0
  6
Continuous
 62
     7
100
AcDbSpline
210
0.0
220
0.0
230
1.0
 70
    24
 71
     3
 72
     9
 73
     5
 74
     3
 42
0.0000000001
 43
0.0000000001
 44
0.00000001
 40
0.0
 40
0.0
 40
0.0
 40
0.0
 40
0.5749999998864155
 40
1.149999999771978
 40
1.149999999771978
 40
1.149999999771978
 40
1.149999999771978
 10
505.120504540375
 20
199.320163263171
 30
0.0
 10
505.3121712070038
 20
199.3201632631586
 30
0.0
 10
505.6955045402611
 20
199.320163263134
 30
0.0
 10
506.0788378735185
 20
199.3201632631094
 30
0.0
 10
506.270504540147
 20
199.320163263097
 30
0.0
 11
505.120504540375
 21
199.320163263171
 31
0.0
 11
505.6955045402614
 21
199.320163263134
 31
0.0
 11
506.270504540147
 21
199.320163263097
 31
0.0
  0
SPLINE
  5
23B
330
44
100
AcDbEntity
  8
0
  6
Continuous
 62
     7
100
AcDbSpline
210
0.0
220
0.0
230
1.0
 70
    24
 71
     3
 72
     9
 73
     5
 74
     3
 42
0.0000000001
 43
0.0000000001
 44
0.00000001
 40
0.0
 40
0.0
 40
0.0
 40
0.0
 40
0.2976419018993965
 40
0.5952838037979973
 40
0.5952838037979973
 40
0.5952838037979973
 40
0.5952838037979973
 10
511.011090829916
 20
199.32016326301
 30
0.0
 10
511.1103047972158
 20
199.3201632630137
 30
0.0
 10
511.3087327318151
 20
199.3201632630209
 30
0.0
 10
511.5071606664144
 20
199.3201632630283
 30
0.0
 10
511.606374633714
 20
199.320163263032
 30
0.0
 11
511.011090829916
 21
199.32016326301
 31
0.0
 11
511.3087327318154
 21
199.320163263021
 31
0.0
 11
511.606374633714
 21
199.320163263032
 31
0.0
  0
DIMENSION
  5
253
330
44
100
AcDbEntity
  8
1
100
AcDbDimension
  2
*D3
 10
277.035067581382
 20
263.47278063476
 30
0.0
 11
456.843942723138
 21
270.47278063476
 31
0.0
 70
    33
  1
<>
 71
     5
 42
-1.0
 53
0.00013888888889
  3
ME10_DIM_10
100
AcDbAlignedDimension
 13
637.035067581382
 23
157.9999201133001
 33
0.0
 14
277.035067581382
 24
157.9999201133001
 34
0.0
  0
DIMENSION
  5
25E
330
44
100
AcDbEntity
  8
1
100
AcDbDimension
  2
*D4
 10
376.935067581382
 20
-28.9084540763931
 30
0.0
 11
458.484172883861
 21
-21.9084540763931
 31
0.0
 70
    33
  1
<>
 71
     5
 42
-1.0
 53
0.00013888888889
  3
ME10_DIM_11
100
AcDbAlignedDimension
 13
537.135067581382
 23
5.0
 33
0.0
 14
376.935067581382
 24
5.0
 34
0.0
  0
DIMENSION
  5
269
330
44
100
AcDbEntity
  8
1
100
AcDbDimension
  2
*D5
 10
252.196053332976
 20
159.9999201133
 30
0.0
 11
245.196053332976
 21
80.8532157475976
 31
0.0
 70
    32
  1
<>
 71
     5
 42
-1.0
 53
90.0
  3
ME10_DIM_12
100
AcDbAlignedDimension
 13
379.785067581382
 23
0.0
 33
0.0
 14
279.035067581382
 24
159.9999201133001
 34
0.0
 50
90.0
100
AcDbRotatedDimension
  0
HATCH
  5
26A
330
44
100
AcDbEntity
  8
0
  6
Continuous
 62
     7
100
AcDbHatch
 10
0.0
 20
0.0
 30
0.0
210
0.0
220
0.0
230
1.0
  2
CUSTOM0
 70
     0
 71
     0
 91
        1
 92
        1
 93
       13
 72
     1
 10
637.035067581382
 20
156.5003410000001
 11
637.035067581382
 21
157.9999201133001
 72
     1
 10
637.035067581382
 20
157.9999201133001
 11
636.995200737064
 21
158.397258774925
 72
     1
 10
636.995200737064
 20
158.397258774925
 11
636.877189569387
 21
158.778756797952
 72
     1
 10
636.877189569387
 20
158.778756797952
 11
636.685738811201
 21
159.129205060125
 72
     1
 10
636.685738811201
 20
159.129205060125
 11
636.428481000076
 21
159.434632295134
 72
     1
 10
636.428481000076
 20
159.434632295134
 11
636.115672193118
 21
159.682862082951
 72
     1
 10
636.115672193118
 20
159.682862082951
 11
635.759783090335
 21
159.86399828527
 72
     1
 10
635.759783090335
 20
159.86399828527
 11
635.375001867182
 21
159.970819573312
 72
     1
 10
635.375001867182
 20
159.970819573312
 11
635.035067581382
 21
159.9999201133001
 72
     1
 10
635.035067581382
 20
159.9999201133001
 11
627.035067581382
 21
159.9999201133001
 72
     1
 10
627.035067581382
 20
159.9999201133001
 11
625.035067581382
 21
157.9999201133001
 72
     1
 10
625.035067581382
 20
157.9999201133001
 11
625.035067581382
 21
156.5003410000001
 72
     1
 10
625.035067581382
 20
156.5003410000001
 11
637.035067581382
 21
156.5003410000001
 97
        0
 75
     1
 76
     2
 52
0.0
 41
1.0
 77
     0
 78
     1
 53
44.99999999999998
 43
0.0
 44
0.0
 45
-4.490128060534577
 46
0.0000000000000018
 79
     0
 98
        1
 10
0.0
 20
0.0
  0
HATCH
  5
26B
330
44
100
AcDbEntity
  8
0
  6
Continuous
 62
     7
100
AcDbHatch
 10
0.0
 20
0.0
 30
0.0
210
0.0
220
0.0
230
1.0
  2
CUSTOM1
 70
     0
 71
     0
 91
        1
 92
        1
 93
       66
 72
     1
 10
527.435067581382
 20
112.5
 11
527.931740908369
 21
112.549833555419
 72
     1
 10
527.931740908369
 20
112.549833555419
 11
528.408613437153
 21
112.697347515015
 72
     1
 10
528.408613437153
 20
112.697347515015
 11
528.846673764869
 21
112.936660962748
 72
     1
 10
528.846673764869
 20
112.936660962748
 11
529.22845780863
 21
113.258233226654
 72
     1
 10
529.22845780863
 20
113.258233226654
 11
529.538745043401
 21
113.649244235352
 72
     1
 10
529.538745043401
 20
113.649244235352
 11
529.7651652963
 21
114.094105613831
 72
     1
 10
529.7651652963
 20
114.094105613831
 11
529.8986919063531
 21
114.575082142772
 72
     1
 10
529.8986919063531
 20
114.575082142772
 11
529.935067581382
 21
115.0
 72
     1
 10
529.935067581382
 20
115.0
 11
529.935067581382
 21
121.701942
 72
     1
 10
529.935067581382
 20
121.701942
 11
533.635067581382
 21
121.701942
 72
     1
 10
533.635067581382
 20
121.701942
 11
534.285067581382
 21
0.0
 72
     1
 10
534.285067581382
 20
0.0
 11
535.795321619182
 21
0.0
 72
     1
 10
535.795321619182
 20
0.0
 11
537.135067581382
 21
5.0
 72
     1
 10
537.135067581382
 20
5.0
 11
537.135067581382
 21
138.6
 72
     1
 10
537.135067581382
 20
138.6
 11
539.2850485813821
 21
142.4
 72
     1
 10
539.2850485813821
 20
142.4
 11
539.285067581382
 21
156.5003410000001
 72
     1
 10
539.285067581382
 20
156.5003410000001
 11
621.035067581382
 21
156.5003410000001
 72
     1
 10
621.035067581382
 20
156.5003410000001
 11
621.035067581382
 21
157.9999201133001
 72
     1
 10
621.035067581382
 20
157.9999201133001
 11
619.035067581382
 21
159.9999201133001
 72
     1
 10
619.035067581382
 20
159.9999201133001
 11
536.7850645837821
 21
159.9999201133001
 72
     1
 10
536.7850645837821
 20
159.9999201133001
 11
536.586395253007
 21
159.979986691176
 72
     1
 10
536.586395253007
 20
159.979986691176
 11
536.395646241493
 21
159.920981107338
 72
     1
 10
536.395646241493
 20
159.920981107338
 11
536.220422110407
 21
159.825255728245
 72
     1
 10
536.220422110407
 20
159.825255728245
 11
536.067708492902
 21
159.696626822682
 72
     1
 10
536.067708492902
 20
159.696626822682
 11
535.943593598994
 21
159.540222419203
 72
     1
 10
535.943593598994
 20
159.540222419203
 11
535.853025497835
 21
159.3622778678119
 72
     1
 10
535.853025497835
 20
159.3622778678119
 11
535.799614853813
 21
159.169887256235
 72
     1
 10
535.799614853813
 20
159.169887256235
 11
535.7850645837821
 21
158.999923111
 72
     1
 10
535.7850645837821
 20
158.999923111
 11
535.785017527482
 21
143.3018324333
 72
     1
 10
535.785017527482
 20
143.3018324333
 11
531.785155945282
 21
136.4
 72
     1
 10
531.785155945282
 20
136.4
 11
531.785155945282
 21
135.5
 72
     1
 10
531.785155945282
 20
135.5
 11
532.535067581382
 21
135.0569188717
 72
     1
 10
532.535067581382
 20
135.0569188717
 11
532.535067581382
 21
130.8
 72
     1
 10
532.535067581382
 20
130.8
 11
534.035067581382
 21
129.8
 72
     1
 10
534.035067581382
 20
129.8
 11
534.035067581382
 21
125.2014908717
 72
     1
 10
534.035067581382
 20
125.2014908717
 11
527.435067581382
 21
125.2014908717
 72
     1
 10
527.435067581382
 20
125.2014908717
 11
527.2363982505871
 21
125.181557449521
 72
     1
 10
527.2363982505871
 20
125.181557449521
 11
527.045649239073
 21
125.122551865683
 72
     1
 10
527.045649239073
 20
125.122551865683
 11
526.870425107987
 21
125.02682648659
 72
     1
 10
526.870425107987
 20
125.02682648659
 11
526.717711490482
 21
124.898197581027
 72
     1
 10
526.717711490482
 20
124.898197581027
 11
526.593596596574
 21
124.741793177548
 72
     1
 10
526.593596596574
 20
124.741793177548
 11
526.503028495414
 21
124.563848626157
 72
     1
 10
526.503028495414
 20
124.563848626157
 11
526.449617851393
 21
124.37145801458
 72
     1
 10
526.449617851393
 20
124.37145801458
 11
526.435067581382
 21
124.2014908717
 72
     1
 10
526.435067581382
 20
124.2014908717
 11
526.435067581382
 21
117.0
 72
     1
 10
526.435067581382
 20
117.0
 11
526.415134159223
 21
116.801330669227
 72
     1
 10
526.415134159223
 20
116.801330669227
 11
526.356128575384
 21
116.610581657714
 72
     1
 10
526.356128575384
 20
116.610581657714
 11
526.260403196291
 21
116.435357526627
 72
     1
 10
526.260403196291
 20
116.435357526627
 11
526.131774290729
 21
116.282643909123
 72
     1
 10
526.131774290729
 20
116.282643909123
 11
525.97536988725
 21
116.158529015214
 72
     1
 10
525.97536988725
 20
116.158529015214
 11
525.7974253358581
 21
116.067960914055
 72
     1
 10
525.7974253358581
 20
116.067960914055
 11
525.6050347242821
 21
116.014550270034
 72
     1
 10
525.6050347242821
 20
116.014550270034
 11
525.435067581382
 21
116.0
 72
     1
 10
525.435067581382
 20
116.0
 11
521.535067581382
 21
116.0
 72
     1
 10
521.535067581382
 20
116.0
 11
521.336398250587
 21
115.980066577864
 72
     1
 10
521.336398250587
 20
115.980066577864
 11
521.145649239073
 21
115.921060994025
 72
     1
 10
521.145649239073
 20
115.921060994025
 11
520.970425107987
 21
115.825335614932
 72
     1
 10
520.970425107987
 20
115.825335614932
 11
520.817711490482
 21
115.696706709369
 72
     1
 10
520.817711490482
 20
115.696706709369
 11
520.693596596574
 21
115.54030230589
 72
     1
 10
520.693596596574
 20
115.54030230589
 11
520.603028495414
 21
115.362357754499
 72
     1
 10
520.603028495414
 20
115.362357754499
 11
520.549617851393
 21
115.169967142923
 72
     1
 10
520.549617851393
 20
115.169967142923
 11
520.535067581382
 21
115.0
 72
     1
 10
520.535067581382
 20
115.0
 11
520.535067581382
 21
73.00000199999997
 72
     1
 10
520.535067581382
 20
73.00000199999997
 11
524.035067581382
 21
73.00000199999997
 72
     1
 10
524.035067581382
 20
73.00000199999997
 11
524.035067581382
 21
112.5
 72
     1
 10
524.035067581382
 20
112.5
 11
527.435067581382
 21
112.5
 97
        0
 75
     1
 76
     2
 52
0.0
 41
1.0
 77
     0
 78
     1
 53
44.99999999999998
 43
0.0
 44
0.0
 45
-4.490128060534577
 46
0.0000000000000018
 79
     0
 98
        1
 10
0.0
 20
0.0
  0
HATCH
  5
26C
330
44
100
AcDbEntity
  8
0
  6
Continuous
 62
     7
100
AcDbHatch
 10
0.0
 20
0.0
 30
0.0
210
0.0
220
0.0
230
1.0
  2
CUSTOM2
 70
     0
 71
     0
 91
        1
 92
        1
 93
       66
 72
     1
 10
380.435067581382
 20
121.701942
 11
384.135067581382
 21
121.701942
 72
     1
 10
384.135067581382
 20
121.701942
 11
384.135067581382
 21
115.0
 72
     1
 10
384.135067581382
 20
115.0
 11
384.184901136778
 21
114.503326673035
 72
     1
 10
384.184901136778
 20
114.503326673035
 11
384.332415096374
 21
114.026454144251
 72
     1
 10
384.332415096374
 20
114.026454144251
 11
384.571728544107
 21
113.588393816535
 72
     1
 10
384.571728544107
 20
113.588393816535
 11
384.893300808014
 21
113.206609772773
 72
     1
 10
384.893300808014
 20
113.206609772773
 11
385.284311816711
 21
112.896322538003
 72
     1
 10
385.284311816711
 20
112.896322538003
 11
385.72917319519
 21
112.669902285104
 72
     1
 10
385.72917319519
 20
112.669902285104
 11
386.210149724131
 21
112.536375675051
 72
     1
 10
386.210149724131
 20
112.536375675051
 11
386.635067581382
 21
112.5
 72
     1
 10
386.635067581382
 20
112.5
 11
390.035067581382
 21
112.5
 72
     1
 10
390.035067581382
 20
112.5
 11
390.035067581382
 21
73.00000199999997
 72
     1
 10
390.035067581382
 20
73.00000199999997
 11
393.535067581382
 21
73.00000199999997
 72
     1
 10
393.535067581382
 20
73.00000199999997
 11
393.535067581382
 21
115.0
 72
     1
 10
393.535067581382
 20
115.0
 11
393.515134159223
 21
115.198669330817
 72
     1
 10
393.515134159223
 20
115.198669330817
 11
393.456128575384
 21
115.389418342331
 72
     1
 10
393.456128575384
 20
115.389418342331
 11
393.360403196291
 21
115.564642473417
 72
     1
 10
393.360403196291
 20
115.564642473417
 11
393.2317742907291
 21
115.717356090922
 72
     1
 10
393.2317742907291
 20
115.717356090922
 11
393.07536988725
 21
115.84147098483
 72
     1
 10
393.07536988725
 20
115.84147098483
 11
392.897425335858
 21
115.93203908599
 72
     1
 10
392.897425335858
 20
115.93203908599
 11
392.705034724282
 21
115.985449730011
 72
     1
 10
392.705034724282
 20
115.985449730011
 11
392.535067581382
 21
116.0
 72
     1
 10
392.535067581382
 20
116.0
 11
388.635067581382
 21
116.0
 72
     1
 10
388.635067581382
 20
116.0
 11
388.436398250586
 21
116.019933422181
 72
     1
 10
388.436398250586
 20
116.019933422181
 11
388.245649239073
 21
116.078939006019
 72
     1
 10
388.245649239073
 20
116.078939006019
 11
388.070425107986
 21
116.174664385113
 72
     1
 10
388.070425107986
 20
116.174664385113
 11
387.917711490482
 21
116.303293290675
 72
     1
 10
387.917711490482
 20
116.303293290675
 11
387.7935965965741
 21
116.459697694154
 72
     1
 10
387.7935965965741
 20
116.459697694154
 11
387.703028495414
 21
116.637642245546
 72
     1
 10
387.703028495414
 20
116.637642245546
 11
387.649617851393
 21
116.830032857122
 72
     1
 10
387.649617851393
 20
116.830032857122
 11
387.635067581382
 21
117.0
 72
     1
 10
387.635067581382
 20
117.0
 11
387.635067581382
 21
124.2014908717
 72
     1
 10
387.635067581382
 20
124.2014908717
 11
387.615134159223
 21
124.400160202475
 72
     1
 10
387.615134159223
 20
124.400160202475
 11
387.556128575384
 21
124.590909213989
 72
     1
 10
387.556128575384
 20
124.590909213989
 11
387.460403196291
 21
124.766133345075
 72
     1
 10
387.460403196291
 20
124.766133345075
 11
387.331774290729
 21
124.91884696258
 72
     1
 10
387.331774290729
 20
124.91884696258
 11
387.17536988725
 21
125.042961856488
 72
     1
 10
387.17536988725
 20
125.042961856488
 11
386.997425335858
 21
125.133529957647
 72
     1
 10
386.997425335858
 20
125.133529957647
 11
386.805034724282
 21
125.186940601669
 72
     1
 10
386.805034724282
 20
125.186940601669
 11
386.635067581382
 21
125.2014908717
 72
     1
 10
386.635067581382
 20
125.2014908717
 11
380.035067581382
 21
125.2014908717
 72
     1
 10
380.035067581382
 20
125.2014908717
 11
380.035067581382
 21
129.8
 72
     1
 10
380.035067581382
 20
129.8
 11
381.535067581382
 21
130.8
 72
     1
 10
381.535067581382
 20
130.8
 11
381.535067581382
 21
135.0569188717
 72
     1
 10
381.535067581382
 20
135.0569188717
 11
382.284979217482
 21
135.5
 72
     1
 10
382.284979217482
 20
135.5
 11
382.284979217482
 21
136.4
 72
     1
 10
382.284979217482
 20
136.4
 11
378.285117635282
 21
143.3018324333
 72
     1
 10
378.285117635282
 20
143.3018324333
 11
378.285070578982
 21
158.999923111
 72
     1
 10
378.285070578982
 20
158.999923111
 11
378.265136561256
 21
159.198592382032
 72
     1
 10
378.265136561256
 20
159.198592382032
 11
378.206130405618
 21
159.389341216666
 72
     1
 10
378.206130405618
 20
159.389341216666
 11
378.110404501263
 21
159.5645650608
 72
     1
 10
378.110404501263
 20
159.5645650608
 11
377.981775137918
 21
159.717278292718
 72
     1
 10
377.981775137918
 20
159.717278292718
 11
377.825370362386
 21
159.84139271778
 72
     1
 10
377.825370362386
 20
159.84139271778
 11
377.647425539504
 21
159.931960285522
 72
     1
 10
377.647425539504
 20
159.931960285522
 11
377.455034767821
 21
159.985370352822
 72
     1
 10
377.455034767821
 20
159.985370352822
 11
377.285070578982
 21
159.9999201133001
 72
     1
 10
377.285070578982
 20
159.9999201133001
 11
295.035067581382
 21
159.9999201133001
 72
     1
 10
295.035067581382
 20
159.9999201133001
 11
293.035067581382
 21
157.9999201133001
 72
     1
 10
293.035067581382
 20
157.9999201133001
 11
293.035067581382
 21
156.5003410000001
 72
     1
 10
293.035067581382
 20
156.5003410000001
 11
374.785067581382
 21
156.5003410000001
 72
     1
 10
374.785067581382
 20
156.5003410000001
 11
374.785086581382
 21
142.4
 72
     1
 10
374.785086581382
 20
142.4
 11
376.935067581382
 21
138.6
 72
     1
 10
376.935067581382
 20
138.6
 11
376.935067581382
 21
5.0
 72
     1
 10
376.935067581382
 20
5.0
 11
378.274813543582
 21
0.0
 72
     1
 10
378.274813543582
 20
0.0
 11
379.785067581382
 21
0.0
 72
     1
 10
379.785067581382
 20
0.0
 11
380.435067581382
 21
121.701942
 97
        0
 75
     1
 76
     2
 52
0.0
 41
1.0
 77
     0
 78
     1
 53
44.99999999999998
 43
0.0
 44
0.0
 45
-4.490128060534577
 46
0.0000000000000018
 79
     0
 98
        1
 10
0.0
 20
0.0
  0
HATCH
  5
26D
330
44
100
AcDbEntity
  8
0
  6
Continuous
 62
     7
100
AcDbHatch
 10
0.0
 20
0.0
 30
0.0
210
0.0
220
0.0
230
1.0
  2
CUSTOM3
 70
     0
 71
     0
 91
        1
 92
        1
 93
       13
 72
     1
 10
287.035067581382
 20
159.9999201133001
 11
279.035067581382
 21
159.9999201133001
 72
     1
 10
279.035067581382
 20
159.9999201133001
 11
278.6377289197914
 21
159.960053269018
 72
     1
 10
278.6377289197914
 20
159.960053269018
 11
278.2562308967642
 21
159.842042101341
 72
     1
 10
278.2562308967642
 20
159.842042101341
 11
277.9057826345915
 21
159.650591343154
 72
     1
 10
277.9057826345915
 20
159.650591343154
 11
277.6003553995825
 21
159.393333532029
 72
     1
 10
277.6003553995825
 20
159.393333532029
 11
277.3521256117657
 21
159.080524725071
 72
     1
 10
277.3521256117657
 20
159.080524725071
 11
277.1709894094471
 21
158.724635622288
 72
     1
 10
277.1709894094471
 20
158.724635622288
 11
277.0641681214046
 21
158.339854399136
 72
     1
 10
277.0641681214046
 20
158.339854399136
 11
277.035067581382
 21
157.9999201133001
 72
     1
 10
277.035067581382
 20
157.9999201133001
 11
277.035067581382
 21
156.5003410000001
 72
     1
 10
277.035067581382
 20
156.5003410000001
 11
289.035067581382
 21
156.5003410000001
 72
     1
 10
289.035067581382
 20
156.5003410000001
 11
289.035067581382
 21
157.9999201133001
 72
     1
 10
289.035067581382
 20
157.9999201133001
 11
287.035067581382
 21
159.9999201133001
 97
        0
 75
     1
 76
     2
 52
0.0
 41
1.0
 77
     0
 78
     1
 53
44.99999999999998
 43
0.0
 44
0.0
 45
-4.490128060534577
 46
0.0000000000000018
 79
     0
 98
        1
 10
0.0
 20
0.0
  0
HATCH
  5
26E
330
44
100
AcDbEntity
  8
0
  6
Continuous
 62
     7
100
AcDbHatch
 10
0.0
 20
0.0
 30
0.0
210
0.0
220
0.0
230
1.0
  2
CUSTOM4
 70
     0
 71
     0
 91
        1
 92
        1
 93
       22
 72
     1
 10
521.785067581382
 20
127.2014908717
 11
524.285067581382
 21
127.2014908717
 72
     1
 10
524.285067581382
 20
127.2014908717
 11
524.682406242972
 21
127.161624027363
 72
     1
 10
524.682406242972
 20
127.161624027363
 11
525.063904265999
 21
127.0436128596861
 72
     1
 10
525.063904265999
 20
127.0436128596861
 11
525.414352528172
 21
126.852162101499
 72
     1
 10
525.414352528172
 20
126.852162101499
 11
525.719779763181
 21
126.594904290374
 72
     1
 10
525.719779763181
 20
126.594904290374
 11
525.9680095509971
 21
126.282095483416
 72
     1
 10
525.9680095509971
 20
126.282095483416
 11
526.149145753316
 21
125.926206380633
 72
     1
 10
526.149145753316
 20
125.926206380633
 11
526.255967041358
 21
125.541425157481
 72
     1
 10
526.255967041358
 20
125.541425157481
 11
526.285067581382
 21
125.2014908717
 72
     1
 10
526.285067581382
 20
125.2014908717
 11
533.130367581382
 21
125.2014908717
 72
     1
 10
533.130367581382
 20
125.2014908717
 11
534.285067581382
 21
127.2014908717
 72
     1
 10
534.285067581382
 20
127.2014908717
 11
534.285067581382
 21
129.7014908717
 72
     1
 10
534.285067581382
 20
129.7014908717
 11
523.785067581382
 21
129.7014908717
 72
     1
 10
523.785067581382
 20
129.7014908717
 11
523.387728919791
 21
129.661624027363
 72
     1
 10
523.387728919791
 20
129.661624027363
 11
523.006230896764
 21
129.5436128596861
 72
     1
 10
523.006230896764
 20
129.5436128596861
 11
522.655782634591
 21
129.352162101499
 72
     1
 10
522.655782634591
 20
129.352162101499
 11
522.350355399582
 21
129.094904290374
 72
     1
 10
522.350355399582
 20
129.094904290374
 11
522.102125611766
 21
128.782095483416
 72
     1
 10
522.102125611766
 20
128.782095483416
 11
521.920989409447
 21
128.426206380633
 72
     1
 10
521.920989409447
 20
128.426206380633
 11
521.814168121405
 21
128.0414251574809
 72
     1
 10
521.814168121405
 20
128.0414251574809
 11
521.785067581382
 21
127.7014908717
 72
     1
 10
521.785067581382
 20
127.7014908717
 11
521.785067581382
 21
127.2014908717
 97
        0
 75
     1
 76
     2
 52
0.0
 41
1.0
 77
     0
 78
     1
 53
44.99999999999998
 43
0.0
 44
0.0
 45
-4.490128060534577
 46
0.0000000000000018
 79
     0
 98
        1
 10
0.0
 20
0.0
  0
HATCH
  5
26F
330
44
100
AcDbEntity
  8
0
  6
Continuous
 62
     7
100
AcDbHatch
 10
0.0
 20
0.0
 30
0.0
210
0.0
220
0.0
230
1.0
  2
CUSTOM5
 70
     0
 71
     0
 91
        1
 92
        1
 93
       22
 72
     1
 10
389.785067581382
 20
127.2014908717
 11
392.285067581382
 21
127.2014908717
 72
     1
 10
392.285067581382
 20
127.2014908717
 11
392.285067581382
 21
127.7014908717
 72
     1
 10
392.285067581382
 20
127.7014908717
 11
392.245200737064
 21
128.09882953327
 72
     1
 10
392.245200737064
 20
128.09882953327
 11
392.127189569387
 21
128.480327556297
 72
     1
 10
392.127189569387
 20
128.480327556297
 11
391.935738811201
 21
128.83077581847
 72
     1
 10
391.935738811201
 20
128.83077581847
 11
391.678481000076
 21
129.136203053479
 72
     1
 10
391.678481000076
 20
129.136203053479
 11
391.365672193118
 21
129.384432841296
 72
     1
 10
391.365672193118
 20
129.384432841296
 11
391.009783090335
 21
129.565569043615
 72
     1
 10
391.009783090335
 20
129.565569043615
 11
390.6250018671821
 21
129.672390331657
 72
     1
 10
390.6250018671821
 20
129.672390331657
 11
390.285067581382
 21
129.7014908717
 72
     1
 10
390.285067581382
 20
129.7014908717
 11
379.785067581382
 21
129.7014908717
 72
     1
 10
379.785067581382
 20
129.7014908717
 11
379.785067581382
 21
127.2014908717
 72
     1
 10
379.785067581382
 20
127.2014908717
 11
380.939767581382
 21
125.2014908717
 72
     1
 10
380.939767581382
 20
125.2014908717
 11
387.785067581382
 21
125.2014908717
 72
     1
 10
387.785067581382
 20
125.2014908717
 11
387.824934425699
 21
125.59882953327
 72
     1
 10
387.824934425699
 20
125.59882953327
 11
387.942945593376
 21
125.980327556297
 72
     1
 10
387.942945593376
 20
125.980327556297
 11
388.134396351562
 21
126.33077581847
 72
     1
 10
388.134396351562
 20
126.33077581847
 11
388.391654162687
 21
126.636203053479
 72
     1
 10
388.391654162687
 20
126.636203053479
 11
388.704462969645
 21
126.884432841296
 72
     1
 10
388.704462969645
 20
126.884432841296
 11
389.060352072428
 21
127.065569043615
 72
     1
 10
389.060352072428
 20
127.065569043615
 11
389.445133295581
 21
127.172390331657
 72
     1
 10
389.445133295581
 20
127.172390331657
 11
389.785067581382
 21
127.2014908717
 97
        0
 75
     1
 76
     2
 52
0.0
 41
1.0
 77
     0
 78
     1
 53
44.99999999999998
 43
0.0
 44
0.0
 45
-4.490128060534577
 46
0.0000000000000018
 79
     0
 98
        1
 10
0.0
 20
0.0
  0
HATCH
  5
270
330
44
100
AcDbEntity
  8
0
  6
Continuous
 62
     7
100
AcDbHatch
 10
0.0
 20
0.0
 30
0.0
210
0.0
220
0.0
230
1.0
  2
CUSTOM6
 70
     0
 71
     0
 91
        1
 92
        1
 93
       13
 72
     1
 10
520.285067581382
 20
73.00000199999997
 11
520.285067581382
 21
70.70000200000001
 72
     1
 10
520.285067581382
 20
70.70000200000001
 11
520.785067581382
 21
70.70000200000001
 72
     1
 10
520.785067581382
 20
70.70000200000001
 11
523.785067581382
 21
68.05094539619998
 72
     1
 10
523.785067581382
 20
68.05094539619998
 11
523.785067581382
 21
65.38282072069998
 72
     1
 10
523.785067581382
 20
65.38282072069998
 11
530.462492596782
 21
59.48652844289998
 72
     1
 10
530.462492596782
 20
59.48652844289998
 11
531.786297104182
 21
60.98570876099998
 72
     1
 10
531.786297104182
 20
60.98570876099998
 11
534.035067581382
 21
59.00000199999997
 72
     1
 10
534.035067581382
 20
59.00000199999997
 11
534.035067581382
 21
61.66812671249997
 72
     1
 10
534.035067581382
 20
61.66812671249997
 11
526.535067581382
 21
68.29076822189998
 72
     1
 10
526.535067581382
 20
68.29076822189998
 11
526.535067581382
 21
77.00000199999997
 72
     1
 10
526.535067581382
 20
77.00000199999997
 11
524.285067581382
 21
77.00000199999997
 72
     1
 10
524.285067581382
 20
77.00000199999997
 11
524.285067581382
 21
73.00000199999997
 72
     1
 10
524.285067581382
 20
73.00000199999997
 11
520.285067581382
 21
73.00000199999997
 97
        0
 75
     1
 76
     2
 52
0.0
 41
1.0
 77
     0
 78
     1
 53
44.99999999999998
 43
0.0
 44
0.0
 45
-4.490128060534577
 46
0.0000000000000018
 79
     0
 98
        1
 10
0.0
 20
0.0
  0
HATCH
  5
271
330
44
100
AcDbEntity
  8
0
  6
Continuous
 62
     7
100
AcDbHatch
 10
0.0
 20
0.0
 30
0.0
210
0.0
220
0.0
230
1.0
  2
CUSTOM7
 70
     0
 71
     0
 91
        1
 92
        1
 93
       13
 72
     1
 10
390.285067581382
 20
68.05094539619998
 11
393.285067581382
 21
70.70000200000001
 72
     1
 10
393.285067581382
 20
70.70000200000001
 11
393.785067581382
 21
70.70000200000001
 72
     1
 10
393.785067581382
 20
70.70000200000001
 11
393.785067581382
 21
73.00000199999997
 72
     1
 10
393.785067581382
 20
73.00000199999997
 11
389.785067581382
 21
73.00000199999997
 72
     1
 10
389.785067581382
 20
73.00000199999997
 11
389.785067581382
 21
77.00000199999997
 72
     1
 10
389.785067581382
 20
77.00000199999997
 11
387.535067581382
 21
77.00000199999997
 72
     1
 10
387.535067581382
 20
77.00000199999997
 11
387.535067581382
 21
68.29076822189998
 72
     1
 10
387.535067581382
 20
68.29076822189998
 11
380.035067581382
 21
61.66812671249997
 72
     1
 10
380.035067581382
 20
61.66812671249997
 11
380.035067581382
 21
59.00000199999997
 72
     1
 10
380.035067581382
 20
59.00000199999997
 11
382.283838058582
 21
60.98570876099998
 72
     1
 10
382.283838058582
 20
60.98570876099998
 11
383.607642565982
 21
59.48652844289998
 72
     1
 10
383.607642565982
 20
59.48652844289998
 11
390.285067581382
 21
65.38282072069998
 72
     1
 10
390.285067581382
 20
65.38282072069998
 11
390.285067581382
 21
68.05094539619998
 97
        0
 75
     1
 76
     2
 52
0.0
 41
1.0
 77
     0
 78
     1
 53
44.99999999999998
 43
0.0
 44
0.0
 45
-4.490128060534577
 46
0.0000000000000018
 79
     0
 98
        1
 10
0.0
 20
0.0
  0
HATCH
  5
272
330
44
100
AcDbEntity
  8
0
  6
Continuous
 62
     7
100
AcDbHatch
 10
0.0
 20
0.0
 30
0.0
210
0.0
220
0.0
230
1.0
  2
CUSTOM8
 70
     0
 71
     0
 91
        1
 92
        1
 93
      118
 72
     1
 10
513.235067581382
 20
199.2878330131
 11
513.235067581382
 21
194.5999856133
 72
     1
 10
513.235067581382
 20
194.5999856133
 11
514.941304141982
 21
194.5999856133
 72
     1
 10
514.941304141982
 20
194.5999856133
 11
527.534695809619
 21
159.999919159304
 72
     1
 10
527.534695809619
 20
159.999919159304
 11
527.535067581382
 21
159.9999201133001
 72
     1
 10
527.535067581382
 20
159.9999201133001
 11
527.535067581382
 21
152.2999201133
 72
     1
 10
527.535067581382
 20
152.2999201133
 11
528.035067581382
 21
152.2999201133
 72
     1
 10
528.035067581382
 20
152.2999201133
 11
528.035067581382
 21
130.9999201133001
 72
     1
 10
528.035067581382
 20
130.9999201133001
 11
531.435067581382
 21
130.9999201133001
 72
     1
 10
531.435067581382
 20
130.9999201133001
 11
531.633736912177
 21
131.019853535494
 72
     1
 10
531.633736912177
 20
131.019853535494
 11
531.82448592369
 21
131.078859119332
 72
     1
 10
531.82448592369
 20
131.078859119332
 11
531.999710054777
 21
131.174584498426
 72
     1
 10
531.999710054777
 20
131.174584498426
 11
532.152423672281
 21
131.303213403988
 72
     1
 10
532.152423672281
 20
131.303213403988
 11
532.27653856619
 21
131.459617807467
 72
     1
 10
532.27653856619
 20
131.459617807467
 11
532.367106667349
 21
131.637562358859
 72
     1
 10
532.367106667349
 20
131.637562358859
 11
532.42051731137
 21
131.829952970435
 72
     1
 10
532.42051731137
 20
131.829952970435
 11
532.435067581382
 21
131.9999201133001
 72
     1
 10
532.435067581382
 20
131.9999201133001
 11
532.415134159223
 21
132.19858944413
 72
     1
 10
532.415134159223
 20
132.19858944413
 11
532.356128575384
 21
132.389338455644
 72
     1
 10
532.356128575384
 20
132.389338455644
 11
532.260403196291
 21
132.56456258673
 72
     1
 10
532.260403196291
 20
132.56456258673
 11
532.131774290729
 21
132.717276204235
 72
     1
 10
532.131774290729
 20
132.717276204235
 11
531.97536988725
 21
132.8413910981431
 72
     1
 10
531.97536988725
 20
132.8413910981431
 11
531.7974253358581
 21
132.931959199302
 72
     1
 10
531.7974253358581
 20
132.931959199302
 11
531.6050347242821
 21
132.985369843324
 72
     1
 10
531.6050347242821
 20
132.985369843324
 11
531.435067581382
 21
132.9999201133001
 72
     1
 10
531.435067581382
 20
132.9999201133001
 11
530.935067581382
 21
132.9999201133001
 72
     1
 10
530.935067581382
 20
132.9999201133001
 11
530.935067581382
 21
159.9999201133001
 72
     1
 10
530.935067581382
 20
159.9999201133001
 11
539.427965399182
 21
159.9999201133001
 72
     1
 10
539.427965399182
 20
159.9999201133001
 11
542.620532399182
 21
161.8242441133
 72
     1
 10
542.620532399182
 20
161.8242441133
 11
519.5790388168471
 21
225.1302282083
 72
     1
 10
519.5790388168471
 20
225.1302282083
 11
518.278835786827
 21
227.8282852967139
 72
     1
 10
518.278835786827
 20
227.8282852967139
 11
516.468529056489
 21
230.214250408264
 72
     1
 10
516.468529056489
 20
230.214250408264
 11
514.2202898424321
 21
232.19300264334
 72
     1
 10
514.2202898424321
 20
232.19300264334
 11
511.623748347391
 21
233.6856553946431
 72
     1
 10
511.623748347391
 20
233.6856553946431
 11
508.782420486913
 21
234.632701307316
 72
     1
 10
508.782420486913
 20
234.632701307316
 11
505.8095810364661
 21
234.996384649397
 72
     1
 10
505.8095810364661
 20
234.996384649397
 11
505.483649485082
 21
234.9999261133
 72
     1
 10
505.483649485082
 20
234.9999261133
 11
486.464149623682
 21
234.9999261133
 72
     1
 10
486.464149623682
 20
234.9999261133
 11
486.464149623682
 21
235.0999261132999
 72
     1
 10
486.464149623682
 20
235.0999261132999
 11
484.141083104882
 21
235.0999261132999
 72
     1
 10
484.141083104882
 20
235.0999261132999
 11
484.141083104882
 21
234.9999261133
 72
     1
 10
484.141083104882
 20
234.9999261133
 11
483.6628421728821
 21
234.9999261133
 72
     1
 10
483.6628421728821
 20
234.9999261133
 11
483.6628421728821
 21
235.0999261132999
 72
     1
 10
483.6628421728821
 20
235.0999261132999
 11
481.749873172882
 21
235.0999261132999
 72
     1
 10
481.749873172882
 20
235.0999261132999
 11
481.749873172882
 21
234.9999261133
 72
     1
 10
481.749873172882
 20
234.9999261133
 11
481.402059366482
 21
234.9999261133
 72
     1
 10
481.402059366482
 20
234.9999261133
 11
481.402059366482
 21
235.0999261132999
 72
     1
 10
481.402059366482
 20
235.0999261132999
 11
480.619481672882
 21
235.0999261132999
 72
     1
 10
480.619481672882
 20
235.0999261132999
 11
480.619481672882
 21
234.9999261133
 72
     1
 10
480.619481672882
 20
234.9999261133
 11
480.054286172882
 21
234.9999261133
 72
     1
 10
480.054286172882
 20
234.9999261133
 11
480.054286172882
 21
235.0999261132999
 72
     1
 10
480.054286172882
 20
235.0999261132999
 11
479.228231475282
 21
235.0999261132999
 72
     1
 10
479.228231475282
 20
235.0999261132999
 11
479.228231475309
 21
234.9999261133349
 72
     1
 10
479.228231475309
 20
234.9999261133349
 11
478.663036172882
 21
234.9999261133
 72
     1
 10
478.663036172882
 20
234.9999261133
 11
478.663036172882
 21
235.0999261132999
 72
     1
 10
478.663036172882
 20
235.0999261132999
 11
477.880458172882
 21
235.0999261132999
 72
     1
 10
477.880458172882
 20
235.0999261132999
 11
477.880458172882
 21
234.9999261133
 72
     1
 10
477.880458172882
 20
234.9999261133
 11
476.793544172882
 21
234.9999261133
 72
     1
 10
476.793544172882
 20
234.9999261133
 11
476.793544172882
 21
235.0999261132999
 72
     1
 10
476.793544172882
 20
235.0999261132999
 11
476.010965172882
 21
235.0999261132999
 72
     1
 10
476.010965172882
 20
235.0999261132999
 11
476.010965172882
 21
234.9999261133
 72
     1
 10
476.010965172882
 20
234.9999261133
 11
474.924051172882
 21
234.9999261133
 72
     1
 10
474.924051172882
 20
234.9999261133
 11
474.924051172882
 21
235.0999261132999
 72
     1
 10
474.924051172882
 20
235.0999261132999
 11
474.141473172882
 21
235.0999261132999
 72
     1
 10
474.141473172882
 20
235.0999261132999
 11
474.141473172882
 21
234.9999261133
 72
     1
 10
474.141473172882
 20
234.9999261133
 11
473.706706672882
 21
234.9999261133
 72
     1
 10
473.706706672882
 20
234.9999261133
 11
473.706706672882
 21
235.0999261132999
 72
     1
 10
473.706706672882
 20
235.0999261132999
 11
471.358973172882
 21
235.0999261132999
 72
     1
 10
471.358973172882
 20
235.0999261132999
 11
471.358973172882
 21
234.9999261133
 72
     1
 10
471.358973172882
 20
234.9999261133
 11
470.980110172882
 21
234.9999261133
 72
     1
 10
470.980110172882
 20
234.9999261133
 11
470.980110172882
 21
235.0999261132999
 72
     1
 10
470.980110172882
 20
235.0999261132999
 11
470.241008672882
 21
235.0999261132999
 72
     1
 10
470.241008672882
 20
235.0999261132999
 11
470.241008672882
 21
234.9999261133
 72
     1
 10
470.241008672882
 20
234.9999261133
 11
469.663386172882
 21
234.9999261133
 72
     1
 10
469.663386172882
 20
234.9999261133
 11
469.663386172882
 21
235.0999261132999
 72
     1
 10
469.663386172882
 20
235.0999261132999
 11
468.837332172882
 21
235.0999261132999
 72
     1
 10
468.837332172882
 20
235.0999261132999
 11
468.837332172882
 21
234.9999261133
 72
     1
 10
468.837332172882
 20
234.9999261133
 11
408.5864856776821
 21
234.9999261133
 72
     1
 10
408.5864856776821
 20
234.9999261133
 11
405.606445715741
 21
234.700924780954
 72
     1
 10
405.606445715741
 20
234.700924780954
 11
402.745210543038
 21
233.815841023378
 72
     1
 10
402.745210543038
 20
233.815841023378
 11
400.116848576742
 21
232.3799603369801
 72
     1
 10
400.116848576742
 20
232.3799603369801
 11
397.826144314174
 21
230.450526753543
 72
     1
 10
397.826144314174
 20
230.450526753543
 11
395.964420905549
 21
228.104460701357
 72
     1
 10
395.964420905549
 20
228.104460701357
 11
394.605899388159
 21
225.435292430485
 72
     1
 10
394.605899388159
 20
225.435292430485
 11
394.491096345917
 21
225.1302282083
 72
     1
 10
394.491096345917
 20
225.1302282083
 11
371.449602763582
 21
161.8242441133
 72
     1
 10
371.449602763582
 20
161.8242441133
 11
374.6421697635821
 21
159.9999201133001
 72
     1
 10
374.6421697635821
 20
159.9999201133001
 11
383.135067581382
 21
159.9999201133001
 72
     1
 10
383.135067581382
 20
159.9999201133001
 11
383.135067581382
 21
132.9999201133001
 72
     1
 10
383.135067581382
 20
132.9999201133001
 11
382.635067581382
 21
132.9999201133001
 72
     1
 10
382.635067581382
 20
132.9999201133001
 11
382.436398250586
 21
132.979986691176
 72
     1
 10
382.436398250586
 20
132.979986691176
 11
382.245649239073
 21
132.920981107338
 72
     1
 10
382.245649239073
 20
132.920981107338
 11
382.070425107986
 21
132.825255728245
 72
     1
 10
382.070425107986
 20
132.825255728245
 11
381.917711490482
 21
132.696626822682
 72
     1
 10
381.917711490482
 20
132.696626822682
 11
381.7935965965741
 21
132.540222419203
 72
     1
 10
381.7935965965741
 20
132.540222419203
 11
381.703028495414
 21
132.3622778678119
 72
     1
 10
381.703028495414
 20
132.3622778678119
 11
381.649617851393
 21
132.169887256235
 72
     1
 10
381.649617851393
 20
132.169887256235
 11
381.635067581382
 21
131.9999201133001
 72
     1
 10
381.635067581382
 20
131.9999201133001
 11
381.65500100354
 21
131.80125078254
 72
     1
 10
381.65500100354
 20
131.80125078254
 11
381.714006587379
 21
131.610501771027
 72
     1
 10
381.714006587379
 20
131.610501771027
 11
381.809731966472
 21
131.43527763994
 72
     1
 10
381.809731966472
 20
131.43527763994
 11
381.938360872034
 21
131.282564022436
 72
     1
 10
381.938360872034
 20
131.282564022436
 11
382.094765275513
 21
131.158449128527
 72
     1
 10
382.094765275513
 20
131.158449128527
 11
382.272709826905
 21
131.067881027368
 72
     1
 10
382.272709826905
 20
131.067881027368
 11
382.465100438481
 21
131.014470383347
 72
     1
 10
382.465100438481
 20
131.014470383347
 11
382.635067581382
 21
130.9999201133001
 72
     1
 10
382.635067581382
 20
130.9999201133001
 11
386.035067581382
 21
130.9999201133001
 72
     1
 10
386.035067581382
 20
130.9999201133001
 11
386.035067581382
 21
152.2999201133
 72
     1
 10
386.035067581382
 20
152.2999201133
 11
386.535067581382
 21
152.2999201133
 72
     1
 10
386.535067581382
 20
152.2999201133
 11
386.535067581382
 21
159.9999201133001
 72
     1
 10
386.535067581382
 20
159.9999201133001
 11
386.535439353144
 21
159.999919159304
 72
     1
 10
386.535439353144
 20
159.999919159304
 11
399.128831020782
 21
194.5999856133
 72
     1
 10
399.128831020782
 20
194.5999856133
 11
400.835067581382
 21
194.5999856133
 72
     1
 10
400.835067581382
 20
194.5999856133
 11
400.835067581382
 21
199.2878330131
 72
     1
 10
400.835067581382
 20
199.2878330131
 11
408.5864856776821
 21
220.5846836411
 72
     1
 10
408.5864856776821
 20
220.5846836411
 11
408.5864856776821
 21
220.1999261133
 72
     1
 10
408.5864856776821
 20
220.1999261133
 11
505.483649485082
 21
220.1999261133
 72
     1
 10
505.483649485082
 20
220.1999261133
 11
505.483649485082
 21
220.5846836411
 72
     1
 10
505.483649485082
 20
220.5846836411
 11
513.235067581382
 21
199.2878330131
 97
        0
 75
     1
 76
     2
 52
0.0
 41
1.0
 77
     0
 78
     1
 53
44.99999999999998
 43
0.0
 44
0.0
 45
-4.490128060534577
 46
0.0000000000000018
 79
     0
 98
        1
 10
0.0
 20
0.0
  0
HATCH
  5
273
330
44
100
AcDbEntity
  8
0
  6
Continuous
 62
     7
100
AcDbHatch
 10
0.0
 20
0.0
 30
0.0
210
0.0
220
0.0
230
1.0
  2
CUSTOM9
 70
     0
 71
     0
 91
        1
 92
        1
 93
        6
 72
     1
 10
382.745042177082
 20
65.90334921579998
 11
382.745042177082
 21
69.60197471040001
 72
     1
 10
382.745042177082
 20
69.60197471040001
 11
357.745042177082
 21
69.60197471040001
 72
     1
 10
357.745042177082
 20
69.60197471040001
 11
357.745042177082
 21
68.48960135529998
 72
     1
 10
357.745042177082
 20
68.48960135529998
 11
380.245042177082
 21
68.48960135529998
 72
     1
 10
380.245042177082
 20
68.48960135529998
 11
380.245042177082
 21
65.90334921579998
 72
     1
 10
380.245042177082
 20
65.90334921579998
 11
382.745042177082
 21
65.90334921579998
 97
        0
 75
     1
 76
     2
 52
0.0
 41
1.0
 77
     0
 78
     1
 53
44.99999999999998
 43
0.0
 44
0.0
 45
-4.490128060534577
 46
0.0000000000000018
 79
     0
 98
        1
 10
0.0
 20
0.0
  0
HATCH
  5
274
330
44
100
AcDbEntity
  8
0
  6
Continuous
 62
     7
100
AcDbHatch
 10
0.0
 20
0.0
 30
0.0
210
0.0
220
0.0
230
1.0
  2
CUSTOM10
 70
     0
 71
     0
 91
        1
 92
        1
 93
        6
 72
     1
 10
357.745042177082
 20
74.51039864470002
 11
357.745042177082
 21
73.39802528959999
 72
     1
 10
357.745042177082
 20
73.39802528959999
 11
382.745042177082
 21
73.39802528959999
 72
     1
 10
382.745042177082
 20
73.39802528959999
 11
382.745042177082
 21
77.09665078419997
 72
     1
 10
382.745042177082
 20
77.09665078419997
 11
380.245042177082
 21
77.09665078419997
 72
     1
 10
380.245042177082
 20
77.09665078419997
 11
380.245042177082
 21
74.51039864470002
 72
     1
 10
380.245042177082
 20
74.51039864470002
 11
357.745042177082
 21
74.51039864470002
 97
        0
 75
     1
 76
     2
 52
0.0
 41
1.0
 77
     0
 78
     1
 53
44.99999999999998
 43
0.0
 44
0.0
 45
-4.490128060534577
 46
0.0000000000000018
 79
     0
 98
        1
 10
0.0
 20
0.0
  0
HATCH
  5
275
330
44
100
AcDbEntity
  8
0
  6
Continuous
 62
     7
100
AcDbHatch
 10
0.0
 20
0.0
 30
0.0
210
0.0
220
0.0
230
1.0
  2
CUSTOM11
 70
     0
 71
     0
 91
        1
 92
        1
 93
       36
 72
     1
 10
532.035067581382
 20
98.49999999999997
 11
532.035067581382
 21
106.5
 72
     1
 10
532.035067581382
 20
106.5
 11
531.995200737064
 21
106.897338661612
 72
     1
 10
531.995200737064
 20
106.897338661612
 11
531.877189569387
 21
107.27883668464
 72
     1
 10
531.877189569387
 20
107.27883668464
 11
531.685738811201
 21
107.629284946812
 72
     1
 10
531.685738811201
 20
107.629284946812
 11
531.428481000076
 21
107.934712181821
 72
     1
 10
531.428481000076
 20
107.934712181821
 11
531.115672193118
 21
108.182941969638
 72
     1
 10
531.115672193118
 20
108.182941969638
 11
530.759783090335
 21
108.364078171957
 72
     1
 10
530.759783090335
 20
108.364078171957
 11
530.375001867182
 21
108.470899459999
 72
     1
 10
530.375001867182
 20
108.470899459999
 11
530.035067581382
 21
108.5
 72
     1
 10
530.035067581382
 20
108.5
 11
526.035067581382
 21
108.5
 72
     1
 10
526.035067581382
 20
108.5
 11
525.637728919791
 21
108.460133155705
 72
     1
 10
525.637728919791
 20
108.460133155705
 11
525.256230896764
 21
108.342121988028
 72
     1
 10
525.256230896764
 20
108.342121988028
 11
524.905782634591
 21
108.150671229842
 72
     1
 10
524.905782634591
 20
108.150671229842
 11
524.600355399582
 21
107.893413418717
 72
     1
 10
524.600355399582
 20
107.893413418717
 11
524.352125611766
 21
107.580604611759
 72
     1
 10
524.352125611766
 20
107.580604611759
 11
524.170989409447
 21
107.224715508976
 72
     1
 10
524.170989409447
 20
107.224715508976
 11
524.064168121405
 21
106.839934285823
 72
     1
 10
524.064168121405
 20
106.839934285823
 11
524.035067581382
 21
106.5
 72
     1
 10
524.035067581382
 20
106.5
 11
524.035067581382
 21
98.49999999999997
 72
     1
 10
524.035067581382
 20
98.49999999999997
 11
524.074934425699
 21
98.102661338432
 72
     1
 10
524.074934425699
 20
98.102661338432
 11
524.1929455933761
 21
97.721163315405
 72
     1
 10
524.1929455933761
 20
97.721163315405
 11
524.384396351562
 21
97.37071505323198
 72
     1
 10
524.384396351562
 20
97.37071505323198
 11
524.641654162687
 21
97.06528781822297
 72
     1
 10
524.641654162687
 20
97.06528781822297
 11
524.954462969645
 21
96.81705803040697
 72
     1
 10
524.954462969645
 20
96.81705803040697
 11
525.310352072428
 21
96.63592182808802
 72
     1
 10
525.310352072428
 20
96.63592182808802
 11
525.6951332955811
 21
96.529100540045
 72
     1
 10
525.6951332955811
 20
96.529100540045
 11
526.035067581382
 21
96.49999999999997
 72
     1
 10
526.035067581382
 20
96.49999999999997
 11
530.035067581382
 21
96.49999999999997
 72
     1
 10
530.035067581382
 20
96.49999999999997
 11
530.432406242972
 21
96.53986684433997
 72
     1
 10
530.432406242972
 20
96.53986684433997
 11
530.813904265999
 21
96.657878012017
 72
     1
 10
530.813904265999
 20
96.657878012017
 11
531.164352528172
 21
96.84932877020302
 72
     1
 10
531.164352528172
 20
96.84932877020302
 11
531.469779763181
 21
97.106586581328
 72
     1
 10
531.469779763181
 20
97.106586581328
 11
531.7180095509971
 21
97.419395388286
 72
     1
 10
531.7180095509971
 20
97.419395388286
 11
531.899145753316
 21
97.77528449106902
 72
     1
 10
531.899145753316
 20
97.77528449106902
 11
532.005967041358
 21
98.16006571422199
 72
     1
 10
532.005967041358
 20
98.16006571422199
 11
532.035067581382
 21
98.49999999999997
 97
        0
 75
     1
 76
     2
 52
0.0
 41
1.0
 77
     0
 78
     1
 53
44.99999999999998
 43
0.0
 44
0.0
 45
-4.490128060534577
 46
0.0000000000000018
 79
     0
 98
        1
 10
0.0
 20
0.0
  0
ENDBLK
  5
46
330
44
100
AcDbEntity
  8
0
100
AcDbBlockEnd
  0
BLOCK
  5
6B
330
47
100
AcDbEntity
  8
0
100
AcDbBlockBegin
  2
HL_62_1P_5_DN160_Dachablauf
 70
     0
 10
438.653060457179
 20
83.44889031738
 30
0.0
  3
HL_62_1P_5_DN160_Dachablauf
  1

  0
INSERT
  5
6A
330
47
100
AcDbEntity
  8
0
100
AcDbBlockReference
  2
HL62_1P_5
 10
438.653060457179
 20
83.44889031738
 30
0.0
  0
ENDBLK
  5
6C
330
47
100
AcDbEntity
  8
0
100
AcDbBlockEnd
  0
BLOCK
  5
250
330
248
100
AcDbEntity
  8
0
100
AcDbBlockBegin
  2
*D3
 70
     1
 10
0.0
 20
0.0
 30
0.0
  3
*D3
  1

  0
LINE
  5
249
330
248
100
AcDbEntity
  8
1
  6
Continuous
 62
     4
100
AcDbLine
 10
277.035067581382
 20
263.47278063476
 30
0.0
 11
637.035067581382
 21
263.47278063476
 31
0.0
  0
LINE
  5
24A
330
248
100
AcDbEntity
  8
1
  6
Continuous
 62
     4
100
AcDbLine
 10
277.035067581382
 20
157.9999201133
 30
0.0
 11
277.035067581382
 21
265.47278063476
 31
0.0
  0
LINE
  5
24B
330
248
100
AcDbEntity
  8
1
  6
Continuous
 62
     4
100
AcDbLine
 10
637.035067581382
 20
157.9999201133
 30
0.0
 11
637.035067581382
 21
265.47278063476
 31
0.0
  0
SOLID
  5
24C
330
248
100
AcDbEntity
  8
1
 62
     4
100
AcDbTrace
 10
287.035067581382
 20
264.789305610634
 30
0.0
 11
287.035067581382
 21
262.156255658886
 31
0.0
 12
277.035067581382
 22
263.47278063476
 32
0.0
 13
277.035067581382
 23
263.47278063476
 33
0.0
  0
SOLID
  5
24D
330
248
100
AcDbEntity
  8
1
 62
     4
100
AcDbTrace
 10
627.035067581382
 20
262.156255658886
 30
0.0
 11
627.035067581382
 21
264.789305610634
 31
0.0
 12
637.035067581382
 22
263.47278063476
 32
0.0
 13
637.035067581382
 23
263.47278063476
 33
0.0
  0
MTEXT
  5
24F
330
248
100
AcDbEntity
  8
1
 62
     1
100
AcDbMText
 10
434.4439427231862
 20
265.4727408800381
 30
0.0
 40
10.0
 41
0.0
 71
     7
 72
     1
  1
\C1;%%c\C1;360
  7
CONVERTER_11
 11
0.9999999999970619
 21
2.424068405545306E-6
 31
0.0
 73
     1
 44
0.60024009603842
  0
ENDBLK
  5
251
330
248
100
AcDbEntity
  8
0
100
AcDbBlockEnd
  0
BLOCK
  5
25B
330
254
100
AcDbEntity
  8
0
100
AcDbBlockBegin
  2
*D4
 70
     1
 10
0.0
 20
0.0
 30
0.0
  3
*D4
  1

  0
LINE
  5
255
330
254
100
AcDbEntity
  8
1
  6
Continuous
 62
     4
100
AcDbLine
 10
376.935067581382
 20
-28.9084540763931
 30
0.0
 11
537.135067581382
 21
-28.9084540763931
 31
0.0
  0
LINE
  5
256
330
254
100
AcDbEntity
  8
1
  6
Continuous
 62
     4
100
AcDbLine
 10
376.935067581382
 20
5.0
 30
0.0
 11
376.935067581382
 21
-30.9084540763931
 31
0.0
  0
LINE
  5
257
330
254
100
AcDbEntity
  8
1
  6
Continuous
 62
     4
100
AcDbLine
 10
537.135067581382
 20
5.0
 30
0.0
 11
537.135067581382
 21
-30.9084540763931
 31
0.0
  0
SOLID
  5
258
330
254
100
AcDbEntity
  8
1
 62
     4
100
AcDbTrace
 10
386.935067581382
 20
-27.59192910051914
 30
0.0
 11
386.935067581382
 21
-30.22497905226706
 31
0.0
 12
376.935067581382
 22
-28.9084540763931
 32
0.0
 13
376.935067581382
 23
-28.9084540763931
 33
0.0
  0
SOLID
  5
259
330
254
100
AcDbEntity
  8
1
 62
     4
100
AcDbTrace
 10
527.135067581382
 20
-30.22497905226706
 30
0.0
 11
527.135067581382
 21
-27.59192910051914
 31
0.0
 12
537.135067581382
 22
-28.9084540763931
 32
0.0
 13
537.135067581382
 23
-28.9084540763931
 33
0.0
  0
MTEXT
  5
25A
330
254
100
AcDbEntity
  8
1
 62
     1
100
AcDbMText
 10
442.5841728839092
 20
-26.90849383111495
 30
0.0
 40
10.0
 41
0.0
 71
     7
 72
     1
  1
\C1;DN\C1;160
  7
CONVERTER_11
 11
0.9999999999970619
 21
2.424068405545306E-6
 31
0.0
 73
     1
 44
0.60024009603842
  0
ENDBLK
  5
25C
330
254
100
AcDbEntity
  8
0
100
AcDbBlockEnd
  0
BLOCK
  5
266
330
25F
100
AcDbEntity
  8
0
100
AcDbBlockBegin
  2
*D5
 70
     1
 10
0.0
 20
0.0
 30
0.0
  3
*D5
  1

  0
LINE
  5
260
330
25F
100
AcDbEntity
  8
1
  6
Continuous
 62
     4
100
AcDbLine
 10
252.196053332976
 20
159.9999201133
 30
0.0
 11
252.196053332976
 21
0.0
 31
0.0
  0
LINE
  5
261
330
25F
100
AcDbEntity
  8
1
  6
Continuous
 62
     4
100
AcDbLine
 10
279.035067581382
 20
159.9999201133
 30
0.0
 11
250.196053332976
 21
159.9999201133
 31
0.0
  0
LINE
  5
262
330
25F
100
AcDbEntity
  8
1
  6
Continuous
 62
     4
100
AcDbLine
 10
379.785067581382
 20
0.0
 30
0.0
 11
250.196053332976
 21
0.0
 31
0.0
  0
SOLID
  5
263
330
25F
100
AcDbEntity
  8
1
 62
     4
100
AcDbTrace
 10
253.51257830885
 20
149.9999201133
 30
0.0
 11
250.879528357102
 21
149.9999201133
 31
0.0
 12
252.196053332976
 22
159.9999201133
 32
0.0
 13
252.196053332976
 23
159.9999201133
 33
0.0
  0
SOLID
  5
264
330
25F
100
AcDbEntity
  8
1
 62
     4
100
AcDbTrace
 10
250.879528357102
 20
10.0
 30
0.0
 11
253.51257830885
 21
10.0
 31
0.0
 12
252.196053332976
 22
0.0
 32
0.0
 13
252.196053332976
 23
0.0
 33
0.0
  0
MTEXT
  5
265
330
25F
100
AcDbEntity
  8
1
 62
     1
100
AcDbMText
 10
250.196053332976
 20
70.3532157475976
 30
0.0
 40
10.0
 41
0.0
 71
     7
 72
     1
  1
160
  7
CONVERTER_11
 11
0.0
 21
1.0
 31
0.0
 73
     1
 44
0.60024009603842
  0
ENDBLK
  5
267
330
25F
100
AcDbEntity
  8
0
100
AcDbBlockEnd
  0
ENDSEC
  0
SECTION
  2
ENTITIES
  0
INSERT
  5
6D
330
1F
100
AcDbEntity
  8
0
100
AcDbBlockReference
  2
HL_62_1P_5_DN160_Dachablauf
 10
438.653060457179
 20
83.44889031738
 30
0.0
  0
ENDSEC
  0
SECTION
  2
OBJECTS
  0
DICTIONARY
  5
C
330
0
100
AcDbDictionary
281
     1
  3
ACAD_GROUP
350
D
  3
ACAD_LAYOUT
350
1A
  3
ACAD_MLEADERSTYLE
350
278
  3
ACAD_MLINESTYLE
350
17
  3
ACAD_PLOTSETTINGS
350
19
  3
ACAD_PLOTSTYLENAME
350
E
  3
ACAD_SCALELIST
350
48
  3
ACAD_VISUALSTYLE
350
2A
  3
AcDbVariableDictionary
350
276
  0
DICTIONARY
  5
D
102
{ACAD_REACTORS
330
C
102
}
330
C
100
AcDbDictionary
281
     1
  0
DICTIONARY
  5
1A
102
{ACAD_REACTORS
330
C
102
}
330
C
100
AcDbDictionary
281
     1
  3
Layout1
350
1E
  3
Layout2
350
26
  3
Model
350
22
  0
DICTIONARY
  5
278
102
{ACAD_REACTORS
330
C
102
}
330
C
100
AcDbDictionary
281
     1
  0
DICTIONARY
  5
17
102
{ACAD_REACTORS
330
C
102
}
330
C
100
AcDbDictionary
281
     1
  3
Standard
350
18
  0
DICTIONARY
  5
19
102
{ACAD_REACTORS
330
C
102
}
330
C
100
AcDbDictionary
281
     1
  0
ACDBDICTIONARYWDFLT
  5
E
102
{ACAD_REACTORS
330
C
102
}
330
C
100
AcDbDictionary
281
     1
  3
Normal
350
F
100
AcDbDictionaryWithDefault
340
F
  0
DICTIONARY
  5
48
102
{ACAD_REACTORS
330
C
102
}
330
C
100
AcDbDictionary
281
     1
  3
A0
350
49
  3
A1
350
4A
  3
A2
350
4B
  3
A3
350
4C
  3
A4
350
4D
  3
A5
350
4E
  3
A6
350
4F
  3
A7
350
50
  3
A8
350
51
  3
A9
350
52
  3
B0
350
53
  3
B1
350
54
  3
B2
350
55
  3
B3
350
56
  3
B4
350
57
  3
B5
350
58
  3
B6
350
59
  3
B7
350
5A
  3
B8
350
5B
  3
B9
350
5C
  3
C0
350
5D
  3
C1
350
5E
  3
C2
350
5F
  3
C3
350
60
  3
C4
350
61
  3
C5
350
62
  3
C6
350
63
  3
C7
350
64
  3
C8
350
65
  3
C9
350
66
  3
D0
350
67
  3
D1
350
68
  3
D2
350
69
  0
DICTIONARY
  5
2A
102
{ACAD_REACTORS
330
C
102
}
330
C
100
AcDbDictionary
281
     1
  3
2dWireframe
350
2F
  3
3D Hidden
350
31
  3
3dWireframe
350
30
  3
Basic
350
32
  3
Brighten
350
36
  3
ColorChange
350
3A
  3
Conceptual
350
34
  3
Dim
350
35
  3
Facepattern
350
39
  3
Flat
350
2B
  3
FlatWithEdges
350
2C
  3
Gouraud
350
2D
  3
GouraudWithEdges
350
2E
  3
Linepattern
350
38
  3
Realistic
350
33
  3
Thicken
350
37
  0
DICTIONARY
  5
276
102
{ACAD_REACTORS
330
C
102
}
330
C
100
AcDbDictionary
281
     1
  3
CANNOSCALE
350
279
  0
LAYOUT
  5
1E
102
{ACAD_REACTORS
330
1A
102
}
330
1A
100
AcDbPlotSettings
  1

  2
none_device
  4

  6

 40
0.0
 41
0.0
 42
0.0
 43
0.0
 44
0.0
 45
0.0
 46
0.0
 47
0.0
 48
0.0
 49
0.0
140
0.0
141
0.0
142
1.0
143
1.0
 70
   688
 72
     0
 73
     0
 74
     5
  7

 75
    16
147
1.0
148
0.0
149
0.0
100
AcDbLayout
  1
Layout1
 70
     1
 71
     1
 10
0.0
 20
0.0
 11
12.0
 21
9.0
 12
0.0
 22
0.0
 32
0.0
 14
1.00000000000000E+20
 24
1.00000000000000E+20
 34
1.00000000000000E+20
 15
-1.00000000000000E+20
 25
-1.00000000000000E+20
 35
-1.00000000000000E+20
146
0.0
 13
0.0
 23
0.0
 33
0.0
 16
1.0
 26
0.0
 36
0.0
 17
0.0
 27
1.0
 37
0.0
 76
     0
330
1B
  0
LAYOUT
  5
26
102
{ACAD_REACTORS
330
1A
102
}
330
1A
100
AcDbPlotSettings
  1

  2
none_device
  4

  6

 40
0.0
 41
0.0
 42
0.0
 43
0.0
 44
0.0
 45
0.0
 46
0.0
 47
0.0
 48
0.0
 49
0.0
140
0.0
141
0.0
142
1.0
143
1.0
 70
   688
 72
     0
 73
     0
 74
     5
  7

 75
    16
147
1.0
148
0.0
149
0.0
100
AcDbLayout
  1
Layout2
 70
     1
 71
     2
 10
0.0
 20
0.0
 11
0.0
 21
0.0
 12
0.0
 22
0.0
 32
0.0
 14
0.0
 24
0.0
 34
0.0
 15
0.0
 25
0.0
 35
0.0
146
0.0
 13
0.0
 23
0.0
 33
0.0
 16
1.0
 26
0.0
 36
0.0
 17
0.0
 27
1.0
 37
0.0
 76
     0
330
23
  0
LAYOUT
  5
22
102
{ACAD_REACTORS
330
1A
102
}
330
1A
100
AcDbPlotSettings
  1

  2
none_device
  4

  6

 40
0.0
 41
0.0
 42
0.0
 43
0.0
 44
0.0
 45
0.0
 46
0.0
 47
0.0
 48
0.0
 49
0.0
140
0.0
141
0.0
142
1.0
143
1.0
 70
  1712
 72
     0
 73
     0
 74
     0
  7

 75
     0
147
1.0
148
0.0
149
0.0
100
AcDbLayout
  1
Model
 70
     1
 71
     0
 10
0.0
 20
0.0
 11
12.0
 21
9.0
 12
0.0
 22
0.0
 32
0.0
 14
240.196053332976
 24
-108.575
 34
0.0
 15
637.110067581382
 25
275.47278063476
 35
0.0
146
0.0
 13
0.0
 23
0.0
 33
0.0
 16
1.0
 26
0.0
 36
0.0
 17
0.0
 27
1.0
 37
0.0
 76
     0
330
1F
331
29
  0
MLINESTYLE
  5
18
102
{ACAD_REACTORS
330
17
102
}
330
17
100
AcDbMlineStyle
  2
Standard
 70
     0
  3

 62
   256
 51
90.0
 52
90.0
 71
     2
 49
0.5
 62
   256
  6
BYLAYER
 49
-0.5
 62
   256
  6
BYLAYER
  0
ACDBPLACEHOLDER
  5
F
102
{ACAD_REACTORS
330
E
102
}
330
E
  0
SCALE
  5
49
102
{ACAD_REACTORS
330
48
102
}
330
48
100
AcDbScale
 70
     0
300
1:1
140
1.0
141
1.0
290
     1
  0
SCALE
  5
4A
102
{ACAD_REACTORS
330
48
102
}
330
48
100
AcDbScale
 70
     0
300
1:2
140
1.0
141
2.0
290
     0
  0
SCALE
  5
4B
102
{ACAD_REACTORS
330
48
102
}
330
48
100
AcDbScale
 70
     0
300
1:4
140
1.0
141
4.0
290
     0
  0
SCALE
  5
4C
102
{ACAD_REACTORS
330
48
102
}
330
48
100
AcDbScale
 70
     0
300
1:5
140
1.0
141
5.0
290
     0
  0
SCALE
  5
4D
102
{ACAD_REACTORS
330
48
102
}
330
48
100
AcDbScale
 70
     0
300
1:8
140
1.0
141
8.0
290
     0
  0
SCALE
  5
4E
102
{ACAD_REACTORS
330
48
102
}
330
48
100
AcDbScale
 70
     0
300
1:10
140
1.0
141
10.0
290
     0
  0
SCALE
  5
4F
102
{ACAD_REACTORS
330
48
102
}
330
48
100
AcDbScale
 70
     0
300
1:16
140
1.0
141
16.0
290
     0
  0
SCALE
  5
50
102
{ACAD_REACTORS
330
48
102
}
330
48
100
AcDbScale
 70
     0
300
1:20
140
1.0
141
20.0
290
     0
  0
SCALE
  5
51
102
{ACAD_REACTORS
330
48
102
}
330
48
100
AcDbScale
 70
     0
300
1:30
140
1.0
141
30.0
290
     0
  0
SCALE
  5
52
102
{ACAD_REACTORS
330
48
102
}
330
48
100
AcDbScale
 70
     0
300
1:40
140
1.0
141
40.0
290
     0
  0
SCALE
  5
53
102
{ACAD_REACTORS
330
48
102
}
330
48
100
AcDbScale
 70
     0
300
1:50
140
1.0
141
50.0
290
     0
  0
SCALE
  5
54
102
{ACAD_REACTORS
330
48
102
}
330
48
100
AcDbScale
 70
     0
300
1:100
140
1.0
141
100.0
290
     0
  0
SCALE
  5
55
102
{ACAD_REACTORS
330
48
102
}
330
48
100
AcDbScale
 70
     0
300
2:1
140
2.0
141
1.0
290
     0
  0
SCALE
  5
56
102
{ACAD_REACTORS
330
48
102
}
330
48
100
AcDbScale
 70
     0
300
4:1
140
4.0
141
1.0
290
     0
  0
SCALE
  5
57
102
{ACAD_REACTORS
330
48
102
}
330
48
100
AcDbScale
 70
     0
300
8:1
140
8.0
141
1.0
290
     0
  0
SCALE
  5
58
102
{ACAD_REACTORS
330
48
102
}
330
48
100
AcDbScale
 70
     0
300
10:1
140
10.0
141
1.0
290
     0
  0
SCALE
  5
59
102
{ACAD_REACTORS
330
48
102
}
330
48
100
AcDbScale
 70
     0
300
100:1
140
100.0
141
1.0
290
     0
  0
SCALE
  5
5A
102
{ACAD_REACTORS
330
48
102
}
330
48
100
AcDbScale
 70
     0
300
1/128" = 1'-0"
140
0.0078125
141
12.0
290
     0
  0
SCALE
  5
5B
102
{ACAD_REACTORS
330
48
102
}
330
48
100
AcDbScale
 70
     0
300
1/64" = 1'-0"
140
0.015625
141
12.0
290
     0
  0
SCALE
  5
5C
102
{ACAD_REACTORS
330
48
102
}
330
48
100
AcDbScale
 70
     0
300
1/32" = 1'-0"
140
0.03125
141
12.0
290
     0
  0
SCALE
  5
5D
102
{ACAD_REACTORS
330
48
102
}
330
48
100
AcDbScale
 70
     0
300
1/16" = 1'-0"
140
0.0625
141
12.0
290
     0
  0
SCALE
  5
5E
102
{ACAD_REACTORS
330
48
102
}
330
48
100
AcDbScale
 70
     0
300
3/32" = 1'-0"
140
0.09375
141
12.0
290
     0
  0
SCALE
  5
5F
102
{ACAD_REACTORS
330
48
102
}
330
48
100
AcDbScale
 70
     0
300
1/8" = 1'-0"
140
0.125
141
12.0
290
     0
  0
SCALE
  5
60
102
{ACAD_REACTORS
330
48
102
}
330
48
100
AcDbScale
 70
     0
300
3/16" = 1'-0"
140
0.1875
141
12.0
290
     0
  0
SCALE
  5
61
102
{ACAD_REACTORS
330
48
102
}
330
48
100
AcDbScale
 70
     0
300
1/4" = 1'-0"
140
0.25
141
12.0
290
     0
  0
SCALE
  5
62
102
{ACAD_REACTORS
330
48
102
}
330
48
100
AcDbScale
 70
     0
300
3/8" = 1'-0"
140
0.375
141
12.0
290
     0
  0
SCALE
  5
63
102
{ACAD_REACTORS
330
48
102
}
330
48
100
AcDbScale
 70
     0
300
1/2" = 1'-0"
140
0.5
141
12.0
290
     0
  0
SCALE
  5
64
102
{ACAD_REACTORS
330
48
102
}
330
48
100
AcDbScale
 70
     0
300
3/4" = 1'-0"
140
0.75
141
12.0
290
     0
  0
SCALE
  5
65
102
{ACAD_REACTORS
330
48
102
}
330
48
100
AcDbScale
 70
     0
300
1" = 1'-0"
140
1.0
141
12.0
290
     0
  0
SCALE
  5
66
102
{ACAD_REACTORS
330
48
102
}
330
48
100
AcDbScale
 70
     0
300
1-1/2" = 1'-0"
140
1.5
141
12.0
290
     0
  0
SCALE
  5
67
102
{ACAD_REACTORS
330
48
102
}
330
48
100
AcDbScale
 70
     0
300
3" = 1'-0"
140
3.0
141
12.0
290
     0
  0
SCALE
  5
68
102
{ACAD_REACTORS
330
48
102
}
330
48
100
AcDbScale
 70
     0
300
6" = 1'-0"
140
6.0
141
12.0
290
     0
  0
SCALE
  5
69
102
{ACAD_REACTORS
330
48
102
}
330
48
100
AcDbScale
 70
     0
300
1'-0" = 1'-0"
140
12.0
141
12.0
290
     0
  0
VISUALSTYLE
  5
2F
102
{ACAD_REACTORS
330
2A
102
}
330
2A
100
AcDbVisualStyle
  2
2dWireframe
 70
     4
 71
     0
 72
     2
 73
     0
 90
        0
 40
-0.6
 41
-30.0
 62
     5
 63
     7
 74
     1
 91
        4
 64
     7
 65
   257
 75
     1
175
     1
 42
1.0
 92
        0
 66
   257
 43
1.0
 76
     1
 77
     6
 78
     2
 67
     7
 79
     5
170
     0
171
     0
290
     0
174
     0
 93
        1
 44
0.0
173
     0
291
     0
 45
0.0
1001
ACAD
1000
AcDbSavedByObjectVersion
1070
     0
  0
VISUALSTYLE
  5
31
102
{ACAD_REACTORS
330
2A
102
}
330
2A
100
AcDbVisualStyle
  2
3D Hidden
 70
     6
 71
     1
 72
     2
 73
     2
 90
        0
 40
-0.6
 41
-30.0
 62
     5
 63
     7
 74
     2
 91
        2
 64
     7
 65
   257
 75
     2
175
     1
 42
40.0
 92
        0
 66
   257
 43
1.0
 76
     1
 77
     6
 78
     2
 67
     7
 79
     3
170
     0
171
     0
290
     0
174
     0
 93
        1
 44
0.0
173
     0
291
     0
 45
0.0
1001
ACAD
1000
AcDbSavedByObjectVersion
1070
     0
  0
VISUALSTYLE
  5
30
102
{ACAD_REACTORS
330
2A
102
}
330
2A
100
AcDbVisualStyle
  2
3dWireframe
 70
     5
 71
     0
 72
     2
 73
     0
 90
        0
 40
-0.6
 41
-30.0
 62
     5
 63
     7
 74
     1
 91
        4
 64
     7
 65
   257
 75
     1
175
     1
 42
1.0
 92
        0
 66
   257
 43
1.0
 76
     1
 77
     6
 78
     2
 67
     7
 79
     5
170
     0
171
     0
290
     0
174
     0
 93
        1
 44
0.0
173
     0
291
     0
 45
0.0
1001
ACAD
1000
AcDbSavedByObjectVersion
1070
     0
  0
VISUALSTYLE
  5
32
102
{ACAD_REACTORS
330
2A
102
}
330
2A
100
AcDbVisualStyle
  2
Basic
 70
     7
 71
     1
 72
     0
 73
     1
 90
        0
 40
-0.6
 41
-30.0
 62
     5
 63
     7
 74
     0
 91
        4
 64
     7
 65
   257
 75
     1
175
     1
 42
1.0
 92
        8
 66
     7
 43
1.0
 76
     1
 77
     6
 78
     2
 67
     7
 79
     5
170
     0
171
     0
290
     0
174
     0
 93
        1
 44
0.0
173
     0
291
     1
 45
0.0
1001
ACAD
1000
AcDbSavedByObjectVersion
1070
     0
  0
VISUALSTYLE
  5
36
102
{ACAD_REACTORS
330
2A
102
}
330
2A
100
AcDbVisualStyle
  2
Brighten
 70
    12
 71
     2
 72
     2
 73
     0
 90
        0
 40
-0.6
 41
-30.0
 62
     5
 63
     7
 74
     1
 91
        4
 64
     7
 65
   257
 75
     1
175
     1
 42
1.0
 92
        8
 66
     7
 43
1.0
 76
     1
 77
     6
 78
     2
 67
     7
 79
     5
170
     0
171
     0
290
     0
174
     0
 93
        1
 44
50.0
173
     0
291
     1
 45
0.0
1001
ACAD
1000
AcDbSavedByObjectVersion
1070
     0
  0
VISUALSTYLE
  5
3A
102
{ACAD_REACTORS
330
2A
102
}
330
2A
100
AcDbVisualStyle
  2
ColorChange
 70
    16
 71
     2
 72
     2
 73
     3
 90
        0
 40
-0.6
 41
-30.0
 62
     5
 63
     8
 74
     1
 91
        4
 64
     7
 65
   257
 75
     1
175
     1
 42
1.0
 92
        8
 66
     8
 43
1.0
 76
     1
 77
     6
 78
     2
 67
     7
 79
     5
170
     0
171
     0
290
     0
174
     0
 93
        1
 44
0.0
173
     0
291
     1
 45
0.0
1001
ACAD
1000
AcDbSavedByObjectVersion
1070
     0
  0
VISUALSTYLE
  5
34
102
{ACAD_REACTORS
330
2A
102
}
330
2A
100
AcDbVisualStyle
  2
Conceptual
 70
     9
 71
     3
 72
     2
 73
     0
 90
        0
 40
-0.6
 41
-30.0
 62
     5
 63
     7
 74
     2
 91
        2
 64
     7
 65
   257
 75
     1
175
     1
 42
40.0
 92
        8
 66
     7
 43
1.0
 76
     1
 77
     6
 78
     2
 67
     7
 79
     3
170
     0
171
     0
290
     0
174
     0
 93
        1
 44
0.0
173
     0
291
     0
 45
0.0
1001
ACAD
1000
AcDbSavedByObjectVersion
1070
     0
  0
VISUALSTYLE
  5
35
102
{ACAD_REACTORS
330
2A
102
}
330
2A
100
AcDbVisualStyle
  2
Dim
 70
    11
 71
     2
 72
     2
 73
     0
 90
        0
 40
-0.6
 41
-30.0
 62
     5
 63
     7
 74
     1
 91
        4
 64
     7
 65
   257
 75
     1
175
     1
 42
1.0
 92
        8
 66
     7
 43
1.0
 76
     1
 77
     6
 78
     2
 67
     7
 79
     5
170
     0
171
     0
290
     0
174
     0
 93
        1
 44
-50.0
173
     0
291
     1
 45
0.0
1001
ACAD
1000
AcDbSavedByObjectVersion
1070
     0
  0
VISUALSTYLE
  5
39
102
{ACAD_REACTORS
330
2A
102
}
330
2A
100
AcDbVisualStyle
  2
Facepattern
 70
    15
 71
     2
 72
     2
 73
     0
 90
        0
 40
-0.6
 41
-30.0
 62
     5
 63
     7
 74
     1
 91
        4
 64
     7
 65
   257
 75
     1
175
     1
 42
1.0
 92
        8
 66
     7
 43
1.0
 76
     1
 77
     6
 78
     2
 67
     7
 79
     5
170
     0
171
     0
290
     0
174
     0
 93
        1
 44
0.0
173
     0
291
     1
 45
0.0
1001
ACAD
1000
AcDbSavedByObjectVersion
1070
     0
  0
VISUALSTYLE
  5
2B
102
{ACAD_REACTORS
330
2A
102
}
330
2A
100
AcDbVisualStyle
  2
Flat
 70
     0
 71
     2
 72
     1
 73
     1
 90
        2
 40
-0.6
 41
30.0
 62
     5
 63
     7
 74
     0
 91
        4
 64
     7
 65
   257
 75
     1
175
     1
 42
1.0
 92
        8
 66
     7
 43
1.0
 76
     1
 77
     6
 78
     2
 67
     7
 79
     5
170
     0
171
     0
290
     0
174
     0
 93
       13
 44
0.0
173
     0
291
     1
 45
0.0
1001
ACAD
1000
AcDbSavedByObjectVersion
1070
     0
  0
VISUALSTYLE
  5
2C
102
{ACAD_REACTORS
330
2A
102
}
330
2A
100
AcDbVisualStyle
  2
FlatWithEdges
 70
     1
 71
     2
 72
     1
 73
     1
 90
        2
 40
-0.6
 41
30.0
 62
     5
 63
     7
 74
     1
 91
        4
 64
     7
 65
   257
 75
     1
175
     1
 42
1.0
 92
        0
 66
   257
 43
1.0
 76
     1
 77
     6
 78
     2
 67
     7
 79
     5
170
     0
171
     0
290
     0
174
     0
 93
       13
 44
0.0
173
     0
291
     1
 45
0.0
1001
ACAD
1000
AcDbSavedByObjectVersion
1070
     0
  0
VISUALSTYLE
  5
2D
102
{ACAD_REACTORS
330
2A
102
}
330
2A
100
AcDbVisualStyle
  2
Gouraud
 70
     2
 71
     2
 72
     2
 73
     1
 90
        2
 40
-0.6
 41
30.0
 62
     5
 63
     7
 74
     0
 91
        4
 64
     7
 65
   257
 75
     1
175
     1
 42
1.0
 92
        0
 66
     7
 43
1.0
 76
     1
 77
     6
 78
     2
 67
     7
 79
     5
170
     0
171
     0
290
     0
174
     0
 93
       13
 44
0.0
173
     0
291
     1
 45
0.0
1001
ACAD
1000
AcDbSavedByObjectVersion
1070
     0
  0
VISUALSTYLE
  5
2E
102
{ACAD_REACTORS
330
2A
102
}
330
2A
100
AcDbVisualStyle
  2
GouraudWithEdges
 70
     3
 71
     2
 72
     2
 73
     1
 90
        2
 40
-0.6
 41
30.0
 62
     5
 63
     7
 74
     1
 91
        4
 64
     7
 65
   257
 75
     1
175
     1
 42
1.0
 92
        0
 66
   257
 43
1.0
 76
     1
 77
     6
 78
     2
 67
     7
 79
     5
170
     0
171
     0
290
     0
174
     0
 93
       13
 44
0.0
173
     0
291
     1
 45
0.0
1001
ACAD
1000
AcDbSavedByObjectVersion
1070
     0
  0
VISUALSTYLE
  5
38
102
{ACAD_REACTORS
330
2A
102
}
330
2A
100
AcDbVisualStyle
  2
Linepattern
 70
    14
 71
     2
 72
     2
 73
     0
 90
        0
 40
-0.6
 41
-30.0
 62
     5
 63
     7
 74
     1
 91
        4
 64
     7
 65
   257
 75
     7
175
     7
 42
1.0
 92
        8
 66
     7
 43
1.0
 76
     1
 77
     6
 78
     2
 67
     7
 79
     5
170
     0
171
     0
290
     0
174
     0
 93
        1
 44
0.0
173
     0
291
     1
 45
0.0
1001
ACAD
1000
AcDbSavedByObjectVersion
1070
     0
  0
VISUALSTYLE
  5
33
102
{ACAD_REACTORS
330
2A
102
}
330
2A
100
AcDbVisualStyle
  2
Realistic
 70
     8
 71
     2
 72
     2
 73
     0
 90
        0
 40
-0.6
 41
-30.0
 62
     5
 63
     7
 74
     1
 91
        0
 64
     7
 65
   257
 75
     1
175
     1
 42
1.0
 92
        8
 66
     8
 43
1.0
 76
     1
 77
     6
 78
     2
 67
     7
 79
     5
170
     0
171
     0
290
     0
174
     0
 93
       13
 44
0.0
173
     0
291
     0
 45
0.0
1001
ACAD
1000
AcDbSavedByObjectVersion
1070
     0
  0
VISUALSTYLE
  5
37
102
{ACAD_REACTORS
330
2A
102
}
330
2A
100
AcDbVisualStyle
  2
Thicken
 70
    13
 71
     2
 72
     2
 73
     0
 90
        0
 40
-0.6
 41
-30.0
 62
     5
 63
     7
 74
     1
 91
        4
 64
     7
 65
   257
 75
     1
175
     1
 42
1.0
 92
       12
 66
     7
 43
1.0
 76
     1
 77
     6
 78
     2
 67
     7
 79
     5
170
     0
171
     0
290
     0
174
     0
 93
        1
 44
0.0
173
     0
291
     1
 45
0.0
1001
ACAD
1000
AcDbSavedByObjectVersion
1070
     0
  0
DICTIONARYVAR
  5
279
102
{ACAD_REACTORS
330
276
102
}
330
276
100
DictionaryVariables
280
     0
  1
1:1
  0
ENDSEC
  0
EOF
