  0
SECTION
  2
HEADER
  9
$ACADVER
  1
AC1015
  9
$ACADMAINTVER
 70
     6
  9
$DWGCODEPAGE
  3
ANSI_1252
  9
$INSBASE
 10
0.0
 20
0.0
 30
0.0
  9
$EXTMIN
 10
-189.0010145000031
 20
-867.9986549999994
 30
0.0
  9
$EXTMAX
 10
241.096787920685
 20
184.988498696968
 30
0.0
  9
$LIMMIN
 10
0.0
 20
0.0
  9
$LIMMAX
 10
12.0
 20
9.0
  9
$ORTHOMODE
 70
     0
  9
$REGENMODE
 70
     1
  9
$FILLMODE
 70
     1
  9
$QTEXTMODE
 70
     0
  9
$MIRRTEXT
 70
     1
  9
$LTSCALE
 40
1.0
  9
$ATTMODE
 70
     1
  9
$TEXTSIZE
 40
0.2
  9
$TRACEWID
 40
0.05
  9
$TEXTSTYLE
  7
Standard
  9
$CLAYER
  8
0
  9
$CELTYPE
  6
ByLayer
  9
$CECOLOR
 62
   256
  9
$CELTSCALE
 40
1.0
  9
$DISPSILH
 70
     0
  9
$DIMSCALE
 40
1.0
  9
$DIMASZ
 40
0.18
  9
$DIMEXO
 40
0.0625
  9
$DIMDLI
 40
0.38
  9
$DIMRND
 40
0.0
  9
$DIMDLE
 40
0.0
  9
$DIMEXE
 40
0.18
  9
$DIMTP
 40
0.0
  9
$DIMTM
 40
0.0
  9
$DIMTXT
 40
0.18
  9
$DIMCEN
 40
0.09
  9
$DIMTSZ
 40
0.0
  9
$DIMTOL
 70
     0
  9
$DIMLIM
 70
     0
  9
$DIMTIH
 70
     1
  9
$DIMTOH
 70
     1
  9
$DIMSE1
 70
     0
  9
$DIMSE2
 70
     0
  9
$DIMTAD
 70
     0
  9
$DIMZIN
 70
     0
  9
$DIMBLK
  1

  9
$DIMASO
 70
     1
  9
$DIMSHO
 70
     1
  9
$DIMPOST
  1

  9
$DIMAPOST
  1

  9
$DIMALT
 70
     0
  9
$DIMALTD
 70
     2
  9
$DIMALTF
 40
25.4
  9
$DIMLFAC
 40
1.0
  9
$DIMTOFL
 70
     0
  9
$DIMTVP
 40
0.0
  9
$DIMTIX
 70
     0
  9
$DIMSOXD
 70
     0
  9
$DIMSAH
 70
     0
  9
$DIMBLK1
  1

  9
$DIMBLK2
  1

  9
$DIMSTYLE
  2
Standard
  9
$DIMCLRD
 70
     0
  9
$DIMCLRE
 70
     0
  9
$DIMCLRT
 70
     0
  9
$DIMTFAC
 40
1.0
  9
$DIMGAP
 40
0.09
  9
$DIMJUST
 70
     0
  9
$DIMSD1
 70
     0
  9
$DIMSD2
 70
     0
  9
$DIMTOLJ
 70
     1
  9
$DIMTZIN
 70
     0
  9
$DIMALTZ
 70
     0
  9
$DIMALTTZ
 70
     0
  9
$DIMUPT
 70
     0
  9
$DIMDEC
 70
     4
  9
$DIMTDEC
 70
     4
  9
$DIMALTU
 70
     2
  9
$DIMALTTD
 70
     2
  9
$DIMTXSTY
  7
Standard
  9
$DIMAUNIT
 70
     0
  9
$DIMADEC
 70
     0
  9
$DIMALTRND
 40
0.0
  9
$DIMAZIN
 70
     0
  9
$DIMDSEP
 70
    46
  9
$DIMATFIT
 70
     3
  9
$DIMFRAC
 70
     0
  9
$DIMLDRBLK
  1

  9
$DIMLUNIT
 70
     2
  9
$DIMLWD
 70
    -2
  9
$DIMLWE
 70
    -2
  9
$DIMTMOVE
 70
     0
  9
$LUNITS
 70
     2
  9
$LUPREC
 70
     4
  9
$SKETCHINC
 40
0.1
  9
$FILLETRAD
 40
0.5
  9
$AUNITS
 70
     0
  9
$AUPREC
 70
     0
  9
$MENU
  1
.
  9
$ELEVATION
 40
0.0
  9
$PELEVATION
 40
0.0
  9
$THICKNESS
 40
0.0
  9
$LIMCHECK
 70
     0
  9
$CHAMFERA
 40
0.5
  9
$CHAMFERB
 40
0.5
  9
$CHAMFERC
 40
1.0
  9
$CHAMFERD
 40
0.0
  9
$SKPOLY
 70
     0
  9
$TDCREATE
 40
2454720.684281632
  9
$TDUCREATE
 40
2454720.600948299
  9
$TDUPDATE
 40
2454720.684281643
  9
$TDUUPDATE
 40
2454720.60094831
  9
$TDINDWG
 40
0.0000000116
  9
$TDUSRTIMER
 40
0.0000000116
  9
$USRTIMER
 70
     1
  9
$ANGBASE
 50
0.0
  9
$ANGDIR
 70
     0
  9
$PDMODE
 70
     0
  9
$PDSIZE
 40
0.0
  9
$PLINEWID
 40
0.0
  9
$SPLFRAME
 70
     0
  9
$SPLINETYPE
 70
     6
  9
$SPLINESEGS
 70
     8
  9
$HANDSEED
  5
3D9
  9
$SURFTAB1
 70
     6
  9
$SURFTAB2
 70
     6
  9
$SURFTYPE
 70
     6
  9
$SURFU
 70
     6
  9
$SURFV
 70
     6
  9
$UCSBASE
  2

  9
$UCSNAME
  2

  9
$UCSORG
 10
0.0
 20
0.0
 30
0.0
  9
$UCSXDIR
 10
1.0
 20
0.0
 30
0.0
  9
$UCSYDIR
 10
0.0
 20
1.0
 30
0.0
  9
$UCSORTHOREF
  2

  9
$UCSORTHOVIEW
 70
     0
  9
$UCSORGTOP
 10
0.0
 20
0.0
 30
0.0
  9
$UCSORGBOTTOM
 10
0.0
 20
0.0
 30
0.0
  9
$UCSORGLEFT
 10
0.0
 20
0.0
 30
0.0
  9
$UCSORGRIGHT
 10
0.0
 20
0.0
 30
0.0
  9
$UCSORGFRONT
 10
0.0
 20
0.0
 30
0.0
  9
$UCSORGBACK
 10
0.0
 20
0.0
 30
0.0
  9
$PUCSBASE
  2

  9
$PUCSNAME
  2

  9
$PUCSORG
 10
0.0
 20
0.0
 30
0.0
  9
$PUCSXDIR
 10
1.0
 20
0.0
 30
0.0
  9
$PUCSYDIR
 10
0.0
 20
1.0
 30
0.0
  9
$PUCSORTHOREF
  2

  9
$PUCSORTHOVIEW
 70
     0
  9
$PUCSORGTOP
 10
0.0
 20
0.0
 30
0.0
  9
$PUCSORGBOTTOM
 10
0.0
 20
0.0
 30
0.0
  9
$PUCSORGLEFT
 10
0.0
 20
0.0
 30
0.0
  9
$PUCSORGRIGHT
 10
0.0
 20
0.0
 30
0.0
  9
$PUCSORGFRONT
 10
0.0
 20
0.0
 30
0.0
  9
$PUCSORGBACK
 10
0.0
 20
0.0
 30
0.0
  9
$USERI1
 70
     0
  9
$USERI2
 70
     0
  9
$USERI3
 70
     0
  9
$USERI4
 70
     0
  9
$USERI5
 70
     0
  9
$USERR1
 40
15.5
  9
$USERR2
 40
0.0
  9
$USERR3
 40
0.0
  9
$USERR4
 40
0.0
  9
$USERR5
 40
0.0
  9
$WORLDVIEW
 70
     1
  9
$SHADEDGE
 70
     3
  9
$SHADEDIF
 70
    70
  9
$TILEMODE
 70
     1
  9
$MAXACTVP
 70
    64
  9
$PINSBASE
 10
0.0
 20
0.0
 30
0.0
  9
$PLIMCHECK
 70
     0
  9
$PEXTMIN
 10
1.00000000000000E+20
 20
1.00000000000000E+20
 30
1.00000000000000E+20
  9
$PEXTMAX
 10
-1.00000000000000E+20
 20
-1.00000000000000E+20
 30
-1.00000000000000E+20
  9
$PLIMMIN
 10
0.0
 20
0.0
  9
$PLIMMAX
 10
12.0
 20
9.0
  9
$UNITMODE
 70
     0
  9
$VISRETAIN
 70
     1
  9
$PLINEGEN
 70
     0
  9
$PSLTSCALE
 70
     1
  9
$TREEDEPTH
 70
  3020
  9
$CMLSTYLE
  2
Standard
  9
$CMLJUST
 70
     0
  9
$CMLSCALE
 40
1.0
  9
$PROXYGRAPHICS
 70
     1
  9
$MEASUREMENT
 70
     1
  9
$CELWEIGHT
370
    -1
  9
$ENDCAPS
280
     0
  9
$JOINSTYLE
280
     0
  9
$LWDISPLAY
290
     0
  9
$INSUNITS
 70
     1
  9
$HYPERLINKBASE
  1

  9
$STYLESHEET
  1

  9
$XEDIT
290
     1
  9
$CEPSNTYPE
380
     0
  9
$PSTYLEMODE
290
     1
  9
$FINGERPRINTGUID
  2
{3162F9A5-23F9-4CA6-9F34-5D1F37CBE4BF}
  9
$VERSIONGUID
  2
{FAEB1C32-E019-11D5-929B-00C0DF256EC4}
  9
$EXTNAMES
290
     1
  9
$PSVPSCALE
 40
0.0
  9
$OLESTARTUP
290
     0
  0
ENDSEC
  0
SECTION
  2
CLASSES
  0
CLASS
  1
ACDBDICTIONARYWDFLT
  2
AcDbDictionaryWithDefault
  3
ObjectDBX Classes
 90
        0
280
     0
281
     0
  0
CLASS
  1
VISUALSTYLE
  2
AcDbVisualStyle
  3
ObjectDBX Classes
 90
     4095
280
     0
281
     0
  0
CLASS
  1

  2
exOdDbCircle
  3

 90
        0
280
     0
281
     1
  0
CLASS
  1
ACDBPLACEHOLDER
  2
AcDbPlaceHolder
  3
ObjectDBX Classes
 90
        0
280
     0
281
     0
  0
CLASS
  1
LAYOUT
  2
AcDbLayout
  3
ObjectDBX Classes
 90
        0
280
     0
281
     0
  0
ENDSEC
  0
SECTION
  2
TABLES
  0
TABLE
  2
VPORT
  5
8
330
0
100
AcDbSymbolTable
 70
     1
  0
VPORT
  5
29
330
8
100
AcDbSymbolTableRecord
100
AcDbViewportTableRecord
  2
*Active
 70
     0
 10
0.0
 20
0.0
 11
1.0
 21
1.0
 12
26.04788671034095
 22
-341.5050781515157
 13
0.0
 23
0.0
 14
0.5
 24
0.5
 15
0.5
 25
0.5
 16
0.0
 26
0.0
 36
1.0
 17
0.0
 27
0.0
 37
0.0
 40
1158.285869066664
 41
1.60267857142857
 42
50.0
 43
0.0
 44
0.0
 50
0.0
 51
0.0
 71
     0
 72
   100
 73
     1
 74
     3
 75
     0
 76
     0
 77
     0
 78
     0
281
     0
 65
     1
110
0.0
120
0.0
130
0.0
111
1.0
121
0.0
131
0.0
112
0.0
122
1.0
132
0.0
 79
     0
146
0.0
  0
ENDTAB
  0
TABLE
  2
LTYPE
  5
5
330
0
100
AcDbSymbolTable
 70
     9
  0
LTYPE
  5
14
330
5
100
AcDbSymbolTableRecord
100
AcDbLinetypeTableRecord
  2
ByBlock
 70
     0
  3

 72
    65
 73
     0
 40
0.0
  0
LTYPE
  5
15
330
5
100
AcDbSymbolTableRecord
100
AcDbLinetypeTableRecord
  2
ByLayer
 70
     0
  3

 72
    65
 73
     0
 40
0.0
  0
LTYPE
  5
16
330
5
100
AcDbSymbolTableRecord
100
AcDbLinetypeTableRecord
  2
Continuous
 70
     0
  3
Solid line
 72
    65
 73
     0
 40
0.0
  0
LTYPE
  5
3B
330
5
100
AcDbSymbolTableRecord
100
AcDbLinetypeTableRecord
  2
DASHED
 70
     0
  3
Dashed
 72
    65
 73
     2
 40
15.0
 49
7.0
 74
     0
 49
-8.0
 74
     0
  0
LTYPE
  5
3C
330
5
100
AcDbSymbolTableRecord
100
AcDbLinetypeTableRecord
  2
DOTTED
 70
     0
  3
Dotted
 72
    65
 73
     2
 40
1.0
 49
0.0
 74
     0
 49
-1.0
 74
     0
  0
LTYPE
  5
3D
330
5
100
AcDbSymbolTableRecord
100
AcDbLinetypeTableRecord
  2
DOT_CENTER
 70
     0
  3
Dot_Center
 72
    65
 73
     4
 40
14.0
 49
12.0
 74
     0
 49
-1.0
 74
     0
 49
0.0
 74
     0
 49
-1.0
 74
     0
  0
LTYPE
  5
3E
330
5
100
AcDbSymbolTableRecord
100
AcDbLinetypeTableRecord
  2
LONG_DASHED
 70
     0
  3
Long_Dashed
 72
    65
 73
     2
 40
15.0
 49
10.0
 74
     0
 49
-5.0
 74
     0
  0
LTYPE
  5
3F
330
5
100
AcDbSymbolTableRecord
100
AcDbLinetypeTableRecord
  2
DASH_CENTER
 70
     0
  3
Dash_Center
 72
    65
 73
     4
 40
14.0
 49
11.0
 74
     0
 49
-1.0
 74
     0
 49
1.0
 74
     0
 49
-1.0
 74
     0
  0
LTYPE
  5
40
330
5
100
AcDbSymbolTableRecord
100
AcDbLinetypeTableRecord
  2
PHANTOM
 70
     0
  3
Phantom
 72
    65
 73
     6
 40
13.0
 49
10.0
 74
     0
 49
-1.0
 74
     0
 49
0.0
 74
     0
 49
-1.0
 74
     0
 49
0.0
 74
     0
 49
-1.0
 74
     0
  0
LTYPE
  5
41
330
5
100
AcDbSymbolTableRecord
100
AcDbLinetypeTableRecord
  2
CENTER_DASH_DASH
 70
     0
  3
Center_Dash_Dash
 72
    65
 73
     6
 40
14.0
 49
9.0
 74
     0
 49
-1.0
 74
     0
 49
1.0
 74
     0
 49
-1.0
 74
     0
 49
1.0
 74
     0
 49
-1.0
 74
     0
  0
LTYPE
  5
42
330
5
100
AcDbSymbolTableRecord
100
AcDbLinetypeTableRecord
  2
DASHDOT_3
 70
     0
  3
DASHDOT_3
 72
    65
 73
     4
 40
16.0
 49
10.0
 74
     0
 49
-3.0
 74
     0
 49
0.0
 74
     0
 49
-3.0
 74
     0
  0
ENDTAB
  0
TABLE
  2
LAYER
  5
2
330
0
100
AcDbSymbolTable
 70
     6
  0
LAYER
  5
10
330
2
100
AcDbSymbolTableRecord
100
AcDbLayerTableRecord
  2
0
 70
     0
 62
     7
  6
Continuous
370
    -3
390
F
  0
LAYER
  5
43
330
2
100
AcDbSymbolTableRecord
100
AcDbLayerTableRecord
  2
1
 70
     0
 62
     7
  6
Continuous
370
    -3
390
F
  0
LAYER
  5
44
330
2
100
AcDbSymbolTableRecord
100
AcDbLayerTableRecord
  2
LC-001-002-----0
 70
     0
 62
     7
  6
Continuous
370
    -3
390
F
  0
LAYER
  5
45
330
2
100
AcDbSymbolTableRecord
100
AcDbLayerTableRecord
  2
LC-002-002-RND-0
 70
     0
 62
     7
  6
Continuous
370
    -3
390
F
  0
LAYER
  5
46
330
2
100
AcDbSymbolTableRecord
100
AcDbLayerTableRecord
  2
LC-009-006-MLN-0
 70
     0
 62
     7
  6
Continuous
370
    -3
390
F
  0
LAYER
  5
47
330
2
100
AcDbSymbolTableRecord
100
AcDbLayerTableRecord
  2
LC-012-200-----0
 70
     0
 62
     7
  6
Continuous
370
    -3
390
F
  0
ENDTAB
  0
TABLE
  2
STYLE
  5
3
330
0
100
AcDbSymbolTable
 70
     2
  0
STYLE
  5
11
330
3
100
AcDbSymbolTableRecord
100
AcDbTextStyleTableRecord
  2
Standard
 70
     0
 40
0.0
 41
1.0
 50
0.0
 71
     0
 42
0.2
  3
txt
  4

  0
STYLE
  5
383
330
3
100
AcDbSymbolTableRecord
100
AcDbTextStyleTableRecord
  2
CONVERTER_11
 70
     0
 40
0.0
 41
0.9
 50
0.0
 71
     0
 42
0.2
  3
txt.shx
  4

  0
ENDTAB
  0
TABLE
  2
VIEW
  5
6
330
0
100
AcDbSymbolTable
 70
     0
  0
ENDTAB
  0
TABLE
  2
UCS
  5
7
330
0
100
AcDbSymbolTable
 70
     0
  0
ENDTAB
  0
TABLE
  2
APPID
  5
9
330
0
100
AcDbSymbolTable
 70
     1
  0
APPID
  5
12
330
9
100
AcDbSymbolTableRecord
100
AcDbRegAppTableRecord
  2
ACAD
 70
     0
  0
ENDTAB
  0
TABLE
  2
DIMSTYLE
  5
A
330
0
100
AcDbSymbolTable
 70
     9
100
AcDbDimStyleTable
  0
DIMSTYLE
105
27
330
A
100
AcDbSymbolTableRecord
100
AcDbDimStyleTableRecord
  2
Standard
 70
     0
340
11
  0
DIMSTYLE
105
387
102
{ACAD_REACTORS
330
388
102
}
330
A
100
AcDbSymbolTableRecord
100
AcDbDimStyleTableRecord
  2
ME10_DIM_10
 70
     0
 41
12.0
 42
0.0
 44
2.0
 73
     0
 74
     0
 77
     1
 78
     8
140
12.0
147
2.0
172
     1
173
     1
176
     4
177
     4
178
     1
271
     0
340
383
  0
DIMSTYLE
105
392
102
{ACAD_REACTORS
330
393
102
}
330
A
100
AcDbSymbolTableRecord
100
AcDbDimStyleTableRecord
  2
ME10_DIM_11
 70
     0
 41
12.0
 42
0.0
 44
2.0
 73
     0
 74
     0
 77
     1
 78
     8
140
12.0
147
2.0
172
     1
173
     1
176
     4
177
     4
178
     1
271
     2
340
383
  0
DIMSTYLE
105
39D
102
{ACAD_REACTORS
330
39E
102
}
330
A
100
AcDbSymbolTableRecord
100
AcDbDimStyleTableRecord
  2
ME10_DIM_12
 70
     0
  3
(<>)
 41
12.0
 42
0.0
 44
2.0
 73
     0
 74
     0
 77
     1
 78
     8
140
12.0
147
2.0
172
     1
173
     1
176
     4
177
     4
178
     1
271
     2
340
383
  0
DIMSTYLE
105
3A9
102
{ACAD_REACTORS
330
3AA
102
}
330
A
100
AcDbSymbolTableRecord
100
AcDbDimStyleTableRecord
  2
ME10_DIM_13
 70
     0
  3
DN<>
 41
12.0
 42
0.0
 44
2.0
 73
     0
 74
     0
 77
     1
 78
     8
140
12.0
147
2.0
172
     1
173
     1
176
     4
177
     4
178
     1
271
     2
340
383
  0
DIMSTYLE
105
3B5
102
{ACAD_REACTORS
330
3B6
102
}
330
A
100
AcDbSymbolTableRecord
100
AcDbDimStyleTableRecord
  2
ME10_DIM_14
 70
     0
  3
Ø<>
 41
12.0
 42
0.0
 44
2.0
 73
     0
 74
     0
 77
     1
 78
     8
140
12.0
147
2.0
172
     1
173
     1
176
     4
177
     4
178
     1
271
     2
340
383
  0
DIMSTYLE
105
3C0
102
{ACAD_REACTORS
330
3C1
102
}
330
A
100
AcDbSymbolTableRecord
100
AcDbDimStyleTableRecord
  2
ME10_DIM_15
 70
     0
  3
284x<>
 41
12.0
 42
0.0
 44
2.0
 73
     0
 74
     0
 77
     1
 78
     8
140
12.0
147
2.0
172
     1
173
     1
176
     4
177
     4
178
     1
271
     2
340
383
  0
DIMSTYLE
105
3CB
102
{ACAD_REACTORS
330
3CC
102
}
330
A
100
AcDbSymbolTableRecord
100
AcDbDimStyleTableRecord
  2
ME10_DIM_16
 70
     0
  3
360x<>
 41
12.0
 42
0.0
 44
2.0
 73
     0
 74
     0
 77
     1
 78
     8
140
12.0
147
2.0
172
     1
173
     1
176
     4
177
     4
178
     1
271
     2
340
383
  0
DIMSTYLE
105
3D6
102
{ACAD_REACTORS
330
3D7
102
}
330
A
100
AcDbSymbolTableRecord
100
AcDbDimStyleTableRecord
  2
ME10_DIM_17
 70
     0
  3
378x<>
 41
12.0
 42
0.0
 44
2.0
 73
     0
 74
     0
 77
     1
 78
     8
140
12.0
147
2.0
172
     1
173
     1
176
     4
177
     4
178
     1
271
     2
340
383
  0
ENDTAB
  0
TABLE
  2
BLOCK_RECORD
  5
1
330
0
100
AcDbSymbolTable
 70
    12
  0
BLOCK_RECORD
  5
1F
330
1
100
AcDbSymbolTableRecord
100
AcDbBlockTableRecord
  2
*Model_Space
340
22
  0
BLOCK_RECORD
  5
1B
330
1
100
AcDbSymbolTableRecord
100
AcDbBlockTableRecord
  2
*Paper_Space
340
1E
  0
BLOCK_RECORD
  5
23
330
1
100
AcDbSymbolTableRecord
100
AcDbBlockTableRecord
  2
*Paper_Space0
340
26
  0
BLOCK_RECORD
  5
48
330
1
100
AcDbSymbolTableRecord
100
AcDbBlockTableRecord
  2
Draufsicht
340
0
102
{BLKREFS
331
51
102
}
  0
BLOCK_RECORD
  5
4B
330
1
100
AcDbSymbolTableRecord
100
AcDbBlockTableRecord
  2
060_1E_Laubfangkorb
340
0
102
{BLKREFS
331
52
102
}
  0
BLOCK_RECORD
  5
4E
330
1
100
AcDbSymbolTableRecord
100
AcDbBlockTableRecord
  2
Körper
340
0
102
{BLKREFS
331
53
102
}
  0
BLOCK_RECORD
  5
37D
330
1
100
AcDbSymbolTableRecord
100
AcDbBlockTableRecord
  2
*D4
340
0
  0
BLOCK_RECORD
  5
389
330
1
100
AcDbSymbolTableRecord
100
AcDbBlockTableRecord
  2
*D5
340
0
  0
BLOCK_RECORD
  5
394
330
1
100
AcDbSymbolTableRecord
100
AcDbBlockTableRecord
  2
*D6
340
0
  0
BLOCK_RECORD
  5
39F
330
1
100
AcDbSymbolTableRecord
100
AcDbBlockTableRecord
  2
*D7
340
0
  0
BLOCK_RECORD
  5
3AB
330
1
100
AcDbSymbolTableRecord
100
AcDbBlockTableRecord
  2
*D8
340
0
  0
BLOCK_RECORD
  5
3B7
330
1
100
AcDbSymbolTableRecord
100
AcDbBlockTableRecord
  2
*D9
340
0
  0
BLOCK_RECORD
  5
3C2
330
1
100
AcDbSymbolTableRecord
100
AcDbBlockTableRecord
  2
*D10
340
0
  0
BLOCK_RECORD
  5
3CD
330
1
100
AcDbSymbolTableRecord
100
AcDbBlockTableRecord
  2
*D11
340
0
  0
ENDTAB
  0
ENDSEC
  0
SECTION
  2
BLOCKS
  0
BLOCK
  5
20
330
1F
100
AcDbEntity
  8
0
100
AcDbBlockBegin
  2
*Model_Space
 70
     0
 71
     0
 10
0.0
 20
0.0
 30
0.0
  3
*Model_Space
  1

  0
ENDBLK
  5
21
330
1F
100
AcDbEntity
  8
0
100
AcDbBlockEnd
  0
BLOCK
  5
1C
330
1B
100
AcDbEntity
 67
     1
  8
0
100
AcDbBlockBegin
  2
*Paper_Space
 70
     0
 71
     0
 10
0.0
 20
0.0
 30
0.0
  3
*Paper_Space
  1

  0
ENDBLK
  5
1D
330
1B
100
AcDbEntity
 67
     1
  8
0
100
AcDbBlockEnd
  0
BLOCK
  5
24
330
23
100
AcDbEntity
  8
0
100
AcDbBlockBegin
  2
*Paper_Space0
 70
     0
 71
     0
 10
0.0
 20
0.0
 30
0.0
  3
*Paper_Space0
  1

  0
ENDBLK
  5
25
330
23
100
AcDbEntity
  8
0
100
AcDbBlockEnd
  0
BLOCK
  5
49
330
48
100
AcDbEntity
  8
0
100
AcDbBlockBegin
  2
Draufsicht
 70
     0
 71
     0
 10
208.556975499996
 20
-426.4338419999986
 30
0.0
  3
Draufsicht
  1

  0
POINT
  5
54
330
48
100
AcDbEntity
  8
0
 62
     7
100
AcDbPoint
 10
188.9989854999985
 20
-499.9970849999991
 30
0.0
  0
POINT
  5
55
330
48
100
AcDbEntity
  8
0
 62
     7
100
AcDbPoint
 10
-189.0010145000015
 20
-499.9986549999994
 30
0.0
  0
POINT
  5
56
330
48
100
AcDbEntity
  8
0
 62
     7
100
AcDbPoint
 10
179.9993724999986
 20
-508.9971941828335
 30
0.0
  0
POINT
  5
57
330
48
100
AcDbEntity
  8
0
 62
     7
100
AcDbPoint
 10
-180.0006275000014
 20
-508.9971941828335
 30
0.0
  0
POINT
  5
58
330
48
100
AcDbEntity
  8
LC-012-200-----0
 62
     7
100
AcDbPoint
 10
129.4993724999986
 20
-808.4974789999978
 30
0.0
  0
POINT
  5
59
330
48
100
AcDbEntity
  8
LC-012-200-----0
 62
     7
100
AcDbPoint
 10
-129.5006275000014
 20
-808.4974789999978
 30
0.0
  0
POINT
  5
5A
330
48
100
AcDbEntity
  8
LC-012-200-----0
 62
     7
100
AcDbPoint
 10
129.4993724999986
 20
-549.4974699999984
 30
0.0
  0
POINT
  5
5B
330
48
100
AcDbEntity
  8
LC-012-200-----0
 62
     7
100
AcDbPoint
 10
-129.5006275000014
 20
-549.4974739999961
 30
0.0
  0
LINE
  5
5C
330
48
100
AcDbEntity
  8
LC-009-006-MLN-0
  6
DASHDOT_3
 62
     7
100
AcDbLine
 10
129.4993724999986
 20
-793.7474789999978
 30
0.0
 11
129.4993724999986
 21
-823.2474789999978
 31
0.0
  0
LINE
  5
5D
330
48
100
AcDbEntity
  8
LC-001-002-----0
  6
Continuous
 62
     7
100
AcDbLine
 10
134.2493724999986
 20
-811.2398919999978
 30
0.0
 11
134.2493724999986
 21
-805.7550649999976
 31
0.0
  0
LINE
  5
5E
330
48
100
AcDbEntity
  8
LC-001-002-----0
  6
Continuous
 62
     7
100
AcDbLine
 10
129.4993724999986
 20
-813.9823059999981
 30
0.0
 11
134.2493724999986
 21
-811.2398919999978
 31
0.0
  0
LINE
  5
5F
330
48
100
AcDbEntity
  8
LC-001-002-----0
  6
Continuous
 62
     7
100
AcDbLine
 10
124.7493724999986
 20
-811.2398919999978
 30
0.0
 11
129.4993724999986
 21
-813.9823059999981
 31
0.0
  0
LINE
  5
60
330
48
100
AcDbEntity
  8
LC-001-002-----0
  6
Continuous
 62
     7
100
AcDbLine
 10
124.7493724999986
 20
-805.7550649999976
 30
0.0
 11
124.7493724999986
 21
-811.2398919999978
 31
0.0
  0
LINE
  5
61
330
48
100
AcDbEntity
  8
LC-001-002-----0
  6
Continuous
 62
     7
100
AcDbLine
 10
129.4993724999986
 20
-803.0126509999973
 30
0.0
 11
124.7493724999986
 21
-805.7550649999976
 31
0.0
  0
LINE
  5
62
330
48
100
AcDbEntity
  8
LC-001-002-----0
  6
Continuous
 62
     7
100
AcDbLine
 10
134.2493724999986
 20
-805.7550649999976
 30
0.0
 11
129.4993724999986
 21
-803.0126509999973
 31
0.0
  0
LINE
  5
63
330
48
100
AcDbEntity
  8
LC-009-006-MLN-0
  6
DASHDOT_3
 62
     7
100
AcDbLine
 10
-114.7506275000014
 20
-808.4974789999978
 30
0.0
 11
-144.2506275000014
 21
-808.4974789999978
 31
0.0
  0
LINE
  5
64
330
48
100
AcDbEntity
  8
LC-001-002-----0
  6
Continuous
 62
     7
100
AcDbLine
 10
-124.7506275000014
 20
-811.2398919999978
 30
0.0
 11
-124.7506275000014
 21
-805.7550649999976
 31
0.0
  0
LINE
  5
65
330
48
100
AcDbEntity
  8
LC-001-002-----0
  6
Continuous
 62
     7
100
AcDbLine
 10
-129.5006275000014
 20
-813.9823059999981
 30
0.0
 11
-124.7506275000014
 21
-811.2398919999978
 31
0.0
  0
LINE
  5
66
330
48
100
AcDbEntity
  8
LC-001-002-----0
  6
Continuous
 62
     7
100
AcDbLine
 10
-134.2506275000014
 20
-811.2398919999978
 30
0.0
 11
-129.5006275000014
 21
-813.9823059999981
 31
0.0
  0
LINE
  5
67
330
48
100
AcDbEntity
  8
LC-001-002-----0
  6
Continuous
 62
     7
100
AcDbLine
 10
-134.2506275000014
 20
-805.7550649999976
 30
0.0
 11
-134.2506275000014
 21
-811.2398919999978
 31
0.0
  0
LINE
  5
68
330
48
100
AcDbEntity
  8
LC-001-002-----0
  6
Continuous
 62
     7
100
AcDbLine
 10
-129.5006275000014
 20
-803.0126509999973
 30
0.0
 11
-134.2506275000014
 21
-805.7550649999976
 31
0.0
  0
LINE
  5
69
330
48
100
AcDbEntity
  8
LC-001-002-----0
  6
Continuous
 62
     7
100
AcDbLine
 10
-124.7506275000014
 20
-805.7550649999976
 30
0.0
 11
-129.5006275000014
 21
-803.0126509999973
 31
0.0
  0
LINE
  5
6A
330
48
100
AcDbEntity
  8
LC-001-002-----0
  6
Continuous
 62
     7
100
AcDbLine
 10
134.2493724999986
 20
-552.2398839999987
 30
0.0
 11
134.2493724999986
 21
-546.7550569999985
 31
0.0
  0
LINE
  5
6B
330
48
100
AcDbEntity
  8
LC-001-002-----0
  6
Continuous
 62
     7
100
AcDbLine
 10
129.4993724999986
 20
-554.982297999999
 30
0.0
 11
134.2493724999986
 21
-552.2398839999987
 31
0.0
  0
LINE
  5
6C
330
48
100
AcDbEntity
  8
LC-001-002-----0
  6
Continuous
 62
     7
100
AcDbLine
 10
124.7493724999986
 20
-552.2398839999987
 30
0.0
 11
129.4993724999986
 21
-554.982297999999
 31
0.0
  0
LINE
  5
6D
330
48
100
AcDbEntity
  8
LC-001-002-----0
  6
Continuous
 62
     7
100
AcDbLine
 10
124.7493724999986
 20
-546.7550569999985
 30
0.0
 11
124.7493724999986
 21
-552.2398839999987
 31
0.0
  0
LINE
  5
6E
330
48
100
AcDbEntity
  8
LC-001-002-----0
  6
Continuous
 62
     7
100
AcDbLine
 10
129.4993724999986
 20
-544.0126429999982
 30
0.0
 11
124.7493724999986
 21
-546.7550569999985
 31
0.0
  0
LINE
  5
6F
330
48
100
AcDbEntity
  8
LC-001-002-----0
  6
Continuous
 62
     7
100
AcDbLine
 10
134.2493724999986
 20
-546.7550569999985
 30
0.0
 11
129.4993724999986
 21
-544.0126429999982
 31
0.0
  0
LINE
  5
70
330
48
100
AcDbEntity
  8
LC-001-002-----0
  6
Continuous
 62
     7
100
AcDbLine
 10
-124.7506275000014
 20
-552.2398879999964
 30
0.0
 11
-124.7506275000014
 21
-546.7550609999962
 31
0.0
  0
LINE
  5
71
330
48
100
AcDbEntity
  8
LC-001-002-----0
  6
Continuous
 62
     7
100
AcDbLine
 10
33.82523149999906
 20
-768.5869419999981
 30
0.0
 11
33.32522949999839
 21
-767.7209179999991
 31
0.0
  0
LINE
  5
72
330
48
100
AcDbEntity
  8
LC-001-002-----0
  6
Continuous
 62
     7
100
AcDbLine
 10
34.50824449999709
 20
-768.7699539999994
 30
0.0
 11
43.25638849999814
 21
-763.7191859999984
 31
0.0
  0
LINE
  5
73
330
48
100
AcDbEntity
  8
LC-001-002-----0
  6
Continuous
 62
     7
100
AcDbLine
 10
33.50824149999608
 20
-767.0379049999974
 30
0.0
 11
42.25638449999678
 21
-761.9871369999964
 31
0.0
  0
LINE
  5
74
330
48
100
AcDbEntity
  8
LC-001-002-----0
  6
Continuous
 62
     7
100
AcDbLine
 10
59.48979849999887
 20
-752.0373709999985
 30
0.0
 11
50.74165549999816
 21
-757.0881389999995
 31
0.0
  0
LINE
  5
75
330
48
100
AcDbEntity
  8
LC-001-002-----0
  6
Continuous
 62
     7
100
AcDbLine
 10
60.67281349999757
 20
-753.0864059999985
 30
0.0
 11
60.1728114999969
 21
-752.2203819999995
 31
0.0
  0
LINE
  5
76
330
48
100
AcDbEntity
  8
LC-001-002-----0
  6
DASHDOT_3
 62
     7
100
AcDbLine
 10
-0.00062750000143
 20
-556.9974739999961
 30
0.0
 11
-0.00062750000143
 21
-556.9974739999961
 31
0.0
  0
LINE
  5
77
330
48
100
AcDbEntity
  8
LC-001-002-----0
  6
DASHDOT_3
 62
     7
100
AcDbLine
 10
-0.00062750000143
 20
-800.9974739999961
 30
0.0
 11
-0.00062750000143
 21
-800.9974739999961
 31
0.0
  0
LINE
  5
78
330
48
100
AcDbEntity
  8
LC-001-002-----0
  6
Continuous
 62
     7
100
AcDbLine
 10
60.48980249999659
 20
-753.7694199999969
 30
0.0
 11
51.74165949999588
 21
-758.8201879999979
 31
0.0
  0
LINE
  5
79
330
48
100
AcDbEntity
  8
LC-001-002-----0
  6
Continuous
 62
     7
100
AcDbLine
 10
-60.67426150000392
 20
-753.0863339999996
 30
0.0
 11
-60.17426150000392
 21
-752.2203089999966
 31
0.0
  0
LINE
  5
7A
330
48
100
AcDbEntity
  8
LC-001-002-----0
  6
Continuous
 62
     7
100
AcDbLine
 10
-60.49124850000226
 20
-753.7693469999977
 30
0.0
 11
-51.74309450000146
 21
-758.8200959999995
 31
0.0
  0
LINE
  5
7B
330
48
100
AcDbEntity
  8
LC-001-002-----0
  6
Continuous
 62
     7
100
AcDbLine
 10
-59.49124850000226
 20
-752.0372959999986
 30
0.0
 11
-50.74309450000146
 21
-757.0880449999968
 31
0.0
  0
LINE
  5
7C
330
48
100
AcDbEntity
  8
LC-001-002-----0
  6
Continuous
 62
     7
100
AcDbLine
 10
-33.50965850000284
 20
-767.0377739999967
 30
0.0
 11
-42.25781250000364
 21
-761.9870249999985
 31
0.0
  0
LINE
  5
7D
330
48
100
AcDbEntity
  8
LC-001-002-----0
  6
Continuous
 62
     7
100
AcDbLine
 10
-33.82664650000152
 20
-768.5868119999977
 30
0.0
 11
-33.32664650000152
 21
-767.7207869999984
 31
0.0
  0
LINE
  5
7E
330
48
100
AcDbEntity
  8
LC-001-002-----0
  6
Continuous
 62
     7
100
AcDbLine
 10
-34.50965850000284
 20
-768.7698249999994
 30
0.0
 11
-43.25781250000364
 21
-763.7190759999976
 31
0.0
  0
LINE
  5
7F
330
48
100
AcDbEntity
  8
LC-001-002-----0
  6
Continuous
 62
     7
100
AcDbLine
 10
-94.49979350000285
 20
-663.4969919999967
 30
0.0
 11
-93.49979350000285
 21
-663.4970009999961
 31
0.0
  0
LINE
  5
80
330
48
100
AcDbEntity
  8
LC-001-002-----0
  6
Continuous
 62
     7
100
AcDbLine
 10
-94.9997975000042
 20
-663.996987999999
 30
0.0
 11
-94.99988550000126
 21
-674.098485999999
 31
0.0
  0
LINE
  5
81
330
48
100
AcDbEntity
  8
LC-001-002-----0
  6
Continuous
 62
     7
100
AcDbLine
 10
-92.9997975000042
 20
-663.9970049999974
 30
0.0
 11
-92.99988550000126
 21
-674.0985029999974
 31
0.0
  0
LINE
  5
82
330
48
100
AcDbEntity
  8
LC-001-002-----0
  6
Continuous
 62
     7
100
AcDbLine
 10
-93.00005750000128
 20
-693.9979609999973
 30
0.0
 11
-92.99996950000423
 21
-683.8964629999973
 31
0.0
  0
LINE
  5
83
330
48
100
AcDbEntity
  8
LC-001-002-----0
  6
Continuous
 62
     7
100
AcDbLine
 10
-94.50006150000263
 20
-694.4979479999965
 30
0.0
 11
-93.50006150000263
 21
-694.4979569999996
 31
0.0
  0
LINE
  5
84
330
48
100
AcDbEntity
  8
LC-001-002-----0
  6
Continuous
 62
     7
100
AcDbLine
 10
-95.00005750000128
 20
-693.9979439999988
 30
0.0
 11
-94.99996950000423
 21
-683.8964459999988
 31
0.0
  0
LINE
  5
85
330
48
100
AcDbEntity
  8
LC-001-002-----0
  6
Continuous
 62
     7
100
AcDbLine
 10
94.49860449999687
 20
-694.4979549999989
 30
0.0
 11
93.49860449999687
 21
-694.4979499999972
 31
0.0
  0
LINE
  5
86
330
48
100
AcDbEntity
  8
LC-001-002-----0
  6
Continuous
 62
     7
100
AcDbLine
 10
94.99860649999755
 20
-693.9979569999996
 30
0.0
 11
94.99864949999755
 21
-683.8964589999996
 31
0.0
  0
LINE
  5
87
330
48
100
AcDbEntity
  8
LC-009-006-MLN-0
  6
DASHDOT_3
 62
     7
100
AcDbLine
 10
129.4993764999963
 20
-821.9974829999992
 30
0.0
 11
129.4993764999963
 21
-794.9974739999961
 31
0.0
  0
LINE
  5
88
330
48
100
AcDbEntity
  8
LC-009-006-MLN-0
  6
DASHDOT_3
 62
     7
100
AcDbLine
 10
142.9993804999976
 20
-808.4974789999978
 30
0.0
 11
115.9993724999986
 21
-808.4974789999978
 31
0.0
  0
LINE
  5
89
330
48
100
AcDbEntity
  8
LC-001-002-----0
  6
Continuous
 62
     7
100
AcDbLine
 10
92.99860649999755
 20
-693.9979479999965
 30
0.0
 11
92.99864949999755
 21
-683.8964499999965
 31
0.0
  0
LINE
  5
8A
330
48
100
AcDbEntity
  8
LC-001-002-----0
  6
Continuous
 62
     7
100
AcDbLine
 10
92.99873549999757
 20
-663.9969919999967
 30
0.0
 11
92.99869249999756
 21
-674.0984899999967
 31
0.0
  0
LINE
  5
8B
330
48
100
AcDbEntity
  8
LC-001-002-----0
  6
Continuous
 62
     7
100
AcDbLine
 10
94.49873849999858
 20
-663.496998999999
 30
0.0
 11
93.49873849999858
 21
-663.4969939999974
 31
0.0
  0
LINE
  5
8C
330
48
100
AcDbEntity
  8
LC-001-002-----0
  6
Continuous
 62
     7
100
AcDbLine
 10
94.99873549999757
 20
-663.9970009999961
 30
0.0
 11
94.99869249999756
 21
-674.0984989999997
 31
0.0
  0
LINE
  5
8D
330
48
100
AcDbEntity
  8
LC-009-006-MLN-0
  6
DASHDOT_3
 62
     7
100
AcDbLine
 10
-129.5006325000031
 20
-821.9974829999992
 30
0.0
 11
-129.5006325000031
 21
-794.9974739999961
 31
0.0
  0
LINE
  5
8E
330
48
100
AcDbEntity
  8
LC-001-002-----0
  6
Continuous
 62
     7
100
AcDbLine
 10
169.9993724999986
 20
-498.9971941828335
 30
0.0
 11
-0.00062750000143
 21
-498.9971941828335
 31
0.0
  0
LINE
  5
8F
330
48
100
AcDbEntity
  8
LC-001-002-----0
  6
Continuous
 62
     7
100
AcDbLine
 10
179.9993724999986
 20
-848.9974411301519
 30
0.0
 11
179.9993724999986
 21
-508.9971941828335
 31
0.0
  0
LINE
  5
90
330
48
100
AcDbEntity
  8
LC-001-002-----0
  6
Continuous
 62
     7
100
AcDbLine
 10
169.9993724999986
 20
-858.9974411301519
 30
0.0
 11
-0.00062750000143
 21
-858.9974411301519
 31
0.0
  0
LINE
  5
91
330
48
100
AcDbEntity
  8
LC-009-006-MLN-0
  6
DASHDOT_3
 62
     7
100
AcDbLine
 10
129.4993764999963
 20
-535.9974659999971
 30
0.0
 11
129.4993764999963
 21
-562.9974739999961
 31
0.0
  0
LINE
  5
92
330
48
100
AcDbEntity
  8
LC-009-006-MLN-0
  6
DASHDOT_3
 62
     7
100
AcDbLine
 10
142.9993804999976
 20
-549.4974699999984
 30
0.0
 11
115.9993724999986
 21
-549.4974699999984
 31
0.0
  0
LINE
  5
93
330
48
100
AcDbEntity
  8
LC-001-002-----0
  6
Continuous
 62
     7
100
AcDbLine
 10
60.67246149999846
 20
-604.9091519999965
 30
0.0
 11
60.17245949999779
 21
-605.7751769999995
 31
0.0
  0
LINE
  5
94
330
48
100
AcDbEntity
  8
LC-001-002-----0
  6
Continuous
 62
     7
100
AcDbLine
 10
60.48945049999747
 20
-604.2261389999985
 30
0.0
 11
51.74130749999677
 21
-599.1753709999975
 31
0.0
  0
LINE
  5
95
330
48
100
AcDbEntity
  8
LC-001-002-----0
  6
Continuous
 62
     7
100
AcDbLine
 10
59.48944649999612
 20
-605.9581879999969
 30
0.0
 11
50.74130349999905
 21
-600.9074199999995
 31
0.0
  0
LINE
  5
96
330
48
100
AcDbEntity
  8
LC-001-002-----0
  6
Continuous
 62
     7
100
AcDbLine
 10
-170.0006275000014
 20
-498.9971941828335
 30
0.0
 11
-0.00062750000143
 21
-498.9971941828335
 31
0.0
  0
LINE
  5
97
330
48
100
AcDbEntity
  8
LC-001-002-----0
  6
Continuous
 62
     7
100
AcDbLine
 10
33.50788949999696
 20
-590.957653999998
 30
0.0
 11
42.25603249999767
 21
-596.008421999999
 31
0.0
  0
LINE
  5
98
330
48
100
AcDbEntity
  8
LC-001-002-----0
  6
Continuous
 62
     7
100
AcDbLine
 10
-180.0006275000014
 20
-848.9974411301519
 30
0.0
 11
-180.0006275000014
 21
-508.9971941828335
 31
0.0
  0
LINE
  5
99
330
48
100
AcDbEntity
  8
LC-001-002-----0
  6
Continuous
 62
     7
100
AcDbLine
 10
-170.0006275000014
 20
-858.9974411301519
 30
0.0
 11
-0.00062750000143
 21
-858.9974411301519
 31
0.0
  0
LINE
  5
9A
330
48
100
AcDbEntity
  8
LC-001-002-----0
  6
Continuous
 62
     7
100
AcDbLine
 10
33.82487949999631
 20
-589.408615999997
 30
0.0
 11
33.32487749999564
 21
-590.2746409999963
 31
0.0
  0
LINE
  5
9B
330
48
100
AcDbEntity
  8
LC-001-002-----0
  6
Continuous
 62
     7
100
AcDbLine
 10
34.50789249999798
 20
-589.2256049999996
 30
0.0
 11
43.25603549999869
 21
-594.276372999997
 31
0.0
  0
LINE
  5
9C
330
48
100
AcDbEntity
  8
LC-009-006-MLN-0
  6
DASHDOT_3
 62
     7
100
AcDbLine
 10
-129.5006325000031
 20
-535.9974659999971
 30
0.0
 11
-129.5006325000031
 21
-562.9974739999961
 31
0.0
  0
LINE
  5
9D
330
48
100
AcDbEntity
  8
LC-009-006-MLN-0
  6
DASHDOT_3
 62
     7
100
AcDbLine
 10
-143.0006365000008
 20
-549.4974699999984
 30
0.0
 11
-116.0006275000014
 21
-549.4974699999984
 31
0.0
  0
LINE
  5
9E
330
48
100
AcDbEntity
  8
LC-001-002-----0
  6
Continuous
 62
     7
100
AcDbLine
 10
-33.82683950000137
 20
-589.4090229999965
 30
0.0
 11
-33.32683750000433
 21
-590.2750469999992
 31
0.0
  0
LINE
  5
9F
330
48
100
AcDbEntity
  8
LC-001-002-----0
  6
Continuous
 62
     7
100
AcDbLine
 10
-34.50985250000304
 20
-589.2260119999992
 30
0.0
 11
-43.25799550000374
 21
-594.2767789999962
 31
0.0
  0
LINE
  5
A0
330
48
100
AcDbEntity
  8
LC-001-002-----0
  6
Continuous
 62
     7
100
AcDbLine
 10
-33.50984950000202
 20
-590.9580599999972
 30
0.0
 11
-42.25799250000273
 21
-596.0088279999982
 31
0.0
  0
LINE
  5
A1
330
48
100
AcDbEntity
  8
LC-001-002-----0
  6
Continuous
 62
     7
100
AcDbLine
 10
-59.49140650000118
 20
-605.9585939999961
 30
0.0
 11
-50.74326350000411
 21
-600.9078259999987
 31
0.0
  0
LINE
  5
A2
330
48
100
AcDbEntity
  8
LC-001-002-----0
  6
Continuous
 62
     7
100
AcDbLine
 10
-60.67442150000352
 20
-604.9095589999997
 30
0.0
 11
-60.17441950000284
 21
-605.7755829999987
 31
0.0
  0
LINE
  5
A3
330
48
100
AcDbEntity
  8
LC-001-002-----0
  6
Continuous
 62
     7
100
AcDbLine
 10
-60.49141050000253
 20
-604.226545999998
 30
0.0
 11
-51.74326750000182
 21
-599.1757779999971
 31
0.0
  0
LINE
  5
A4
330
48
100
AcDbEntity
  8
LC-001-002-----0
  6
Continuous
 62
     7
100
AcDbLine
 10
-129.5006275000014
 20
-554.9823019999967
 30
0.0
 11
-124.7506275000014
 21
-552.2398879999964
 31
0.0
  0
LINE
  5
A5
330
48
100
AcDbEntity
  8
LC-001-002-----0
  6
Continuous
 62
     7
100
AcDbLine
 10
-134.2506275000014
 20
-552.2398879999964
 30
0.0
 11
-129.5006275000014
 21
-554.9823019999967
 31
0.0
  0
LINE
  5
A6
330
48
100
AcDbEntity
  8
LC-001-002-----0
  6
Continuous
 62
     7
100
AcDbLine
 10
-134.2506275000014
 20
-546.7550609999962
 30
0.0
 11
-134.2506275000014
 21
-552.2398879999964
 31
0.0
  0
LINE
  5
A7
330
48
100
AcDbEntity
  8
LC-001-002-----0
  6
Continuous
 62
     7
100
AcDbLine
 10
-129.5006275000014
 20
-544.0126469999996
 30
0.0
 11
-134.2506275000014
 21
-546.7550609999962
 31
0.0
  0
LINE
  5
A8
330
48
100
AcDbEntity
  8
LC-001-002-----0
  6
Continuous
 62
     7
100
AcDbLine
 10
-124.7506275000014
 20
-546.7550609999962
 30
0.0
 11
-129.5006275000014
 21
-544.0126469999996
 31
0.0
  0
LINE
  5
A9
330
48
100
AcDbEntity
  8
LC-001-002-----0
  6
Continuous
 62
     7
100
AcDbLine
 10
1.14913749999687
 20
-593.4056059999966
 30
0.0
 11
1.14913749999687
 21
-635.8131899999971
 31
0.0
  0
LINE
  5
AA
330
48
100
AcDbEntity
  8
LC-001-002-----0
  6
Continuous
 62
     7
100
AcDbLine
 10
-1.1508625000024
 20
-593.4056059999966
 30
0.0
 11
-1.1508625000024
 21
-635.8131899999971
 31
0.0
  0
LINE
  5
AB
330
48
100
AcDbEntity
  8
LC-001-002-----0
  6
Continuous
 62
     7
100
AcDbLine
 10
11.79913749999832
 20
-753.0641969999997
 30
0.0
 11
11.79913749999832
 21
-751.0378699999965
 31
0.0
  0
LINE
  5
AC
330
48
100
AcDbEntity
  8
LC-001-002-----0
  6
Continuous
 62
     7
100
AcDbLine
 10
-11.80086250000386
 20
-753.0641219999961
 30
0.0
 11
-11.80086250000386
 21
-751.0378699999965
 31
0.0
  0
LINE
  5
AD
330
48
100
AcDbEntity
  8
LC-001-002-----0
  6
Continuous
 62
     7
100
AcDbLine
 10
74.06565049999699
 20
-667.1978809999964
 30
0.0
 11
72.0391264999962
 21
-667.1978809999964
 31
0.0
  0
LINE
  5
AE
330
48
100
AcDbEntity
  8
LC-001-002-----0
  6
Continuous
 62
     7
100
AcDbLine
 10
74.06565049999699
 20
-690.7978809999986
 30
0.0
 11
72.0391264999962
 21
-690.7978809999986
 31
0.0
  0
LINE
  5
AF
330
48
100
AcDbEntity
  8
LC-001-002-----0
  6
Continuous
 62
     7
100
AcDbLine
 10
-11.80086250000386
 20
-604.9316399999989
 30
0.0
 11
-11.80086250000386
 21
-606.9578919999985
 31
0.0
  0
LINE
  5
B0
330
48
100
AcDbEntity
  8
LC-001-002-----0
  6
Continuous
 62
     7
100
AcDbLine
 10
11.79913749999832
 20
-604.931564999999
 30
0.0
 11
11.79913749999832
 21
-606.9578919999985
 31
0.0
  0
LINE
  5
B1
330
48
100
AcDbEntity
  8
LC-001-002-----0
  6
Continuous
 62
     7
100
AcDbLine
 10
-74.06690650000382
 20
-690.7978809999986
 30
0.0
 11
-72.04085150000174
 21
-690.7978809999986
 31
0.0
  0
LINE
  5
B2
330
48
100
AcDbEntity
  8
LC-001-002-----0
  6
Continuous
 62
     7
100
AcDbLine
 10
-74.06690650000382
 20
-667.1978809999964
 30
0.0
 11
-72.04085150000174
 21
-667.1978809999964
 31
0.0
  0
LINE
  5
B3
330
48
100
AcDbEntity
  8
LC-001-002-----0
  6
Continuous
 62
     7
100
AcDbLine
 10
1.14913749999687
 20
-686.981749999999
 30
0.0
 11
1.14913749999687
 21
-682.3035579999996
 31
0.0
  0
LINE
  5
B4
330
48
100
AcDbEntity
  8
LC-001-002-----0
  6
Continuous
 62
     7
100
AcDbLine
 10
-1.1508625000024
 20
-686.981749999999
 30
0.0
 11
-1.1508625000024
 21
-682.3035579999996
 31
0.0
  0
LINE
  5
B5
330
48
100
AcDbEntity
  8
LC-001-002-----0
  6
Continuous
 62
     7
100
AcDbLine
 10
1.19913749999614
 20
-686.981749999999
 30
0.0
 11
1.14913749999687
 21
-686.981749999999
 31
0.0
  0
LINE
  5
B6
330
48
100
AcDbEntity
  8
LC-001-002-----0
  6
Continuous
 62
     7
100
AcDbLine
 10
-1.20086250000168
 20
-686.981749999999
 30
0.0
 11
-1.1508625000024
 21
-686.981749999999
 31
0.0
  0
LINE
  5
B7
330
48
100
AcDbEntity
  8
LC-001-002-----0
  6
Continuous
 62
     7
100
AcDbLine
 10
1.14913749999687
 20
-712.981749999999
 30
0.0
 11
1.19913749999614
 21
-712.981749999999
 31
0.0
  0
LINE
  5
B8
330
48
100
AcDbEntity
  8
LC-001-002-----0
  6
Continuous
 62
     7
100
AcDbLine
 10
-2.20086250000168
 20
-687.981749999999
 30
0.0
 11
-2.20086250000168
 21
-711.981749999999
 31
0.0
  0
LINE
  5
B9
330
48
100
AcDbEntity
  8
LC-001-002-----0
  6
Continuous
 62
     7
100
AcDbLine
 10
-1.20086250000168
 20
-712.981749999999
 30
0.0
 11
-1.1508625000024
 21
-712.981749999999
 31
0.0
  0
LINE
  5
BA
330
48
100
AcDbEntity
  8
LC-001-002-----0
  6
Continuous
 62
     7
100
AcDbLine
 10
2.19913749999614
 20
-687.981749999999
 30
0.0
 11
2.19913749999614
 21
-711.981749999999
 31
0.0
  0
LINE
  5
BB
330
48
100
AcDbEntity
  8
LC-001-002-----0
  6
Continuous
 62
     7
100
AcDbLine
 10
1.14913749999687
 20
-638.8121199999987
 30
0.0
 11
1.14913749999687
 21
-645.0140119999996
 31
0.0
  0
LINE
  5
BC
330
48
100
AcDbEntity
  8
LC-001-002-----0
  6
Continuous
 62
     7
100
AcDbLine
 10
-1.1508625000024
 20
-671.0140119999996
 30
0.0
 11
-1.1508625000024
 21
-675.692203999999
 31
0.0
  0
LINE
  5
BD
330
48
100
AcDbEntity
  8
LC-001-002-----0
  6
Continuous
 62
     7
100
AcDbLine
 10
1.19913749999614
 20
-671.0140119999996
 30
0.0
 11
1.14913749999687
 21
-671.0140119999996
 31
0.0
  0
LINE
  5
BE
330
48
100
AcDbEntity
  8
LC-001-002-----0
  6
Continuous
 62
     7
100
AcDbLine
 10
-1.20086250000168
 20
-671.0140119999996
 30
0.0
 11
-1.1508625000024
 21
-671.0140119999996
 31
0.0
  0
LINE
  5
BF
330
48
100
AcDbEntity
  8
LC-001-002-----0
  6
Continuous
 62
     7
100
AcDbLine
 10
1.14913749999687
 20
-645.0140119999996
 30
0.0
 11
1.19913749999614
 21
-645.0140119999996
 31
0.0
  0
LINE
  5
C0
330
48
100
AcDbEntity
  8
LC-001-002-----0
  6
Continuous
 62
     7
100
AcDbLine
 10
-2.20086250000168
 20
-670.0140119999996
 30
0.0
 11
-2.20086250000168
 21
-646.0140119999996
 31
0.0
  0
LINE
  5
C1
330
48
100
AcDbEntity
  8
LC-001-002-----0
  6
Continuous
 62
     7
100
AcDbLine
 10
-1.20086250000168
 20
-645.0140119999996
 30
0.0
 11
-1.1508625000024
 21
-645.0140119999996
 31
0.0
  0
LINE
  5
C2
330
48
100
AcDbEntity
  8
LC-001-002-----0
  6
Continuous
 62
     7
100
AcDbLine
 10
2.19913749999614
 20
-670.0140119999996
 30
0.0
 11
2.19913749999614
 21
-646.0140119999996
 31
0.0
  0
LINE
  5
C3
330
48
100
AcDbEntity
  8
LC-001-002-----0
  6
Continuous
 62
     7
100
AcDbLine
 10
1.14913749999687
 20
-718.9400579999965
 30
0.0
 11
1.14913749999687
 21
-712.981749999999
 31
0.0
  0
LINE
  5
C4
330
48
100
AcDbEntity
  8
LC-001-002-----0
  6
Continuous
 62
     7
100
AcDbLine
 10
-1.1508625000024
 20
-718.9400579999965
 30
0.0
 11
-1.1508625000024
 21
-712.981749999999
 31
0.0
  0
LINE
  5
C5
330
48
100
AcDbEntity
  8
LC-001-002-----0
  6
Continuous
 62
     7
100
AcDbLine
 10
29.05569449999894
 20
-706.4280919999983
 30
0.0
 11
3.14977649999855
 21
-680.5221749999982
 31
0.0
  0
LINE
  5
C6
330
48
100
AcDbEntity
  8
LC-001-002-----0
  6
Continuous
 62
     7
100
AcDbLine
 10
27.42934849999801
 20
-708.0544379999992
 30
0.0
 11
1.52343149999797
 21
-682.1485199999988
 31
0.0
  0
LINE
  5
C7
330
48
100
AcDbEntity
  8
LC-001-002-----0
  6
Continuous
 62
     7
100
AcDbLine
 10
-27.43107450000389
 20
-708.0544379999992
 30
0.0
 11
-1.5251565000035
 21
-682.1485199999988
 31
0.0
  0
LINE
  5
C8
330
48
100
AcDbEntity
  8
LC-001-002-----0
  6
Continuous
 62
     7
100
AcDbLine
 10
-29.05741950000083
 20
-706.4280919999983
 30
0.0
 11
-3.15150150000409
 21
-680.5221749999982
 31
0.0
  0
LINE
  5
C9
330
48
100
AcDbEntity
  8
LC-001-002-----0
  6
Continuous
 62
     7
100
AcDbLine
 10
73.54922149999766
 20
-722.7899479999978
 30
0.0
 11
36.82317649999823
 21
-701.5861549999972
 31
0.0
  0
LINE
  5
CA
330
48
100
AcDbEntity
  8
LC-001-002-----0
  6
Continuous
 62
     7
100
AcDbLine
 10
74.69922149999911
 20
-720.7980889999963
 30
0.0
 11
37.97317649999604
 21
-699.5942969999996
 31
0.0
  0
LINE
  5
CB
330
48
100
AcDbEntity
  8
LC-001-002-----0
  6
Continuous
 62
     7
100
AcDbLine
 10
82.3772844999985
 20
-702.2616059999964
 30
0.0
 11
41.41470349999872
 21
-691.2857159999985
 31
0.0
  0
LINE
  5
CC
330
48
100
AcDbEntity
  8
LC-001-002-----0
  6
Continuous
 62
     7
100
AcDbLine
 10
82.97256849999758
 20
-700.0399769999967
 30
0.0
 11
42.00998749999781
 21
-689.0640869999988
 31
0.0
  0
LINE
  5
CD
330
48
100
AcDbEntity
  8
LC-001-002-----0
  6
Continuous
 62
     7
100
AcDbLine
 10
61.33518849999746
 20
-738.7075859999968
 30
0.0
 11
31.34849749999921
 21
-708.7208959999989
 31
0.0
  0
LINE
  5
CE
330
48
100
AcDbEntity
  8
LC-001-002-----0
  6
Continuous
 62
     7
100
AcDbLine
 10
59.70884249999654
 20
-740.3339319999977
 30
0.0
 11
29.72215249999863
 21
-710.3472409999995
 31
0.0
  0
LINE
  5
CF
330
48
100
AcDbEntity
  8
LC-001-002-----0
  6
Continuous
 62
     7
100
AcDbLine
 10
43.79120349999721
 20
-752.5479649999979
 30
0.0
 11
22.58741149999696
 21
-715.8219199999985
 31
0.0
  0
LINE
  5
D0
330
48
100
AcDbEntity
  8
LC-001-002-----0
  6
Continuous
 62
     7
100
AcDbLine
 10
41.79934549999598
 20
-753.6979649999994
 30
0.0
 11
20.59555349999573
 21
-716.9719199999963
 31
0.0
  0
LINE
  5
D1
330
48
100
AcDbEntity
  8
LC-001-002-----0
  6
Continuous
 62
     7
100
AcDbLine
 10
21.04123349999645
 20
-761.9713119999979
 30
0.0
 11
10.06534349999856
 21
-721.0087309999981
 31
0.0
  0
LINE
  5
D2
330
48
100
AcDbEntity
  8
LC-001-002-----0
  6
Continuous
 62
     7
100
AcDbLine
 10
23.26286249999612
 20
-761.3760279999988
 30
0.0
 11
12.28697249999823
 21
-720.413446999999
 31
0.0
  0
LINE
  5
D3
330
48
100
AcDbEntity
  8
LC-001-002-----0
  6
Continuous
 62
     7
100
AcDbLine
 10
-1.1508625000024
 20
-764.5901559999984
 30
0.0
 11
-1.1508625000024
 21
-722.1825719999979
 31
0.0
  0
LINE
  5
D4
330
48
100
AcDbEntity
  8
LC-001-002-----0
  6
Continuous
 62
     7
100
AcDbLine
 10
1.14913749999687
 20
-764.5901559999984
 30
0.0
 11
1.14913749999687
 21
-722.1825719999979
 31
0.0
  0
LINE
  5
D5
330
48
100
AcDbEntity
  8
LC-001-002-----0
  6
Continuous
 62
     7
100
AcDbLine
 10
-21.04295850000199
 20
-761.9713119999979
 30
0.0
 11
-10.0670685000041
 21
-721.0087309999981
 31
0.0
  0
LINE
  5
D6
330
48
100
AcDbEntity
  8
LC-001-002-----0
  6
Continuous
 62
     7
100
AcDbLine
 10
-23.26458850000199
 20
-761.3760279999988
 30
0.0
 11
-12.28869750000376
 21
-720.413446999999
 31
0.0
  0
LINE
  5
D7
330
48
100
AcDbEntity
  8
LC-001-002-----0
  6
Continuous
 62
     7
100
AcDbLine
 10
-41.80107050000152
 20
-753.6979649999994
 30
0.0
 11
-20.59727850000127
 21
-716.9719199999963
 31
0.0
  0
LINE
  5
D8
330
48
100
AcDbEntity
  8
LC-001-002-----0
  6
Continuous
 62
     7
100
AcDbLine
 10
-43.79292950000308
 20
-752.5479649999979
 30
0.0
 11
-22.58913750000284
 21
-715.8219199999985
 31
0.0
  0
LINE
  5
D9
330
48
100
AcDbEntity
  8
LC-001-002-----0
  6
Continuous
 62
     7
100
AcDbLine
 10
-59.71056750000207
 20
-740.3339319999977
 30
0.0
 11
-29.72387750000416
 21
-710.3472409999995
 31
0.0
  0
LINE
  5
DA
330
48
100
AcDbEntity
  8
LC-001-002-----0
  6
Continuous
 62
     7
100
AcDbLine
 10
-61.33691350000299
 20
-738.7075859999968
 30
0.0
 11
-31.35022250000111
 21
-708.7208959999989
 31
0.0
  0
LINE
  5
DB
330
48
100
AcDbEntity
  8
LC-001-002-----0
  6
Continuous
 62
     7
100
AcDbLine
 10
-73.55094650000319
 20
-722.7899479999978
 30
0.0
 11
-36.82490150000376
 21
-701.5861549999972
 31
0.0
  0
LINE
  5
DC
330
48
100
AcDbEntity
  8
LC-001-002-----0
  6
Continuous
 62
     7
100
AcDbLine
 10
-82.37900950000403
 20
-702.2616059999964
 30
0.0
 11
-41.41642850000426
 21
-691.2857159999985
 31
0.0
  0
LINE
  5
DD
330
48
100
AcDbEntity
  8
LC-001-002-----0
  6
Continuous
 62
     7
100
AcDbLine
 10
-82.97429350000311
 20
-700.0399769999967
 30
0.0
 11
-42.01171250000334
 21
-689.0640869999988
 31
0.0
  0
LINE
  5
DE
330
48
100
AcDbEntity
  8
LC-001-002-----0
  6
Continuous
 62
     7
100
AcDbLine
 10
85.59141249999811
 20
-680.1478809999971
 30
0.0
 11
43.18382749999728
 21
-680.1478809999971
 31
0.0
  0
LINE
  5
DF
330
48
100
AcDbEntity
  8
LC-001-002-----0
  6
Continuous
 62
     7
100
AcDbLine
 10
85.59141249999811
 20
-677.8478809999979
 30
0.0
 11
43.18382749999728
 21
-677.8478809999979
 31
0.0
  0
LINE
  5
E0
330
48
100
AcDbEntity
  8
LC-001-002-----0
  6
Continuous
 62
     7
100
AcDbLine
 10
82.97256849999758
 20
-657.9557849999983
 30
0.0
 11
42.00998749999781
 21
-668.9316749999962
 31
0.0
  0
LINE
  5
E1
330
48
100
AcDbEntity
  8
LC-001-002-----0
  6
Continuous
 62
     7
100
AcDbLine
 10
82.3772844999985
 20
-655.7341549999983
 30
0.0
 11
41.41470349999872
 21
-666.7100459999965
 31
0.0
  0
LINE
  5
E2
330
48
100
AcDbEntity
  8
LC-001-002-----0
  6
Continuous
 62
     7
100
AcDbLine
 10
73.54922149999766
 20
-635.2058139999972
 30
0.0
 11
36.82317649999823
 21
-656.4096059999974
 31
0.0
  0
LINE
  5
E3
330
48
100
AcDbEntity
  8
LC-001-002-----0
  6
Continuous
 62
     7
100
AcDbLine
 10
74.69922149999911
 20
-637.1976729999988
 30
0.0
 11
37.97317649999604
 21
-658.401464999999
 31
0.0
  0
LINE
  5
E4
330
48
100
AcDbEntity
  8
LC-001-002-----0
  6
Continuous
 62
     7
100
AcDbLine
 10
61.33518849999746
 20
-619.2881759999982
 30
0.0
 11
31.34849749999921
 21
-649.2748659999961
 31
0.0
  0
LINE
  5
E5
330
48
100
AcDbEntity
  8
LC-001-002-----0
  6
Continuous
 62
     7
100
AcDbLine
 10
59.70884249999654
 20
-617.6618299999973
 30
0.0
 11
29.72215249999863
 21
-647.6485209999992
 31
0.0
  0
LINE
  5
E6
330
48
100
AcDbEntity
  8
LC-001-002-----0
  6
Continuous
 62
     7
100
AcDbLine
 10
43.79120349999721
 20
-605.4477969999971
 30
0.0
 11
22.58741149999696
 21
-642.1738419999965
 31
0.0
  0
LINE
  5
E7
330
48
100
AcDbEntity
  8
LC-001-002-----0
  6
Continuous
 62
     7
100
AcDbLine
 10
41.79934549999598
 20
-604.2977969999993
 30
0.0
 11
20.59555349999573
 21
-641.0238419999987
 31
0.0
  0
LINE
  5
E8
330
48
100
AcDbEntity
  8
LC-001-002-----0
  6
Continuous
 62
     7
100
AcDbLine
 10
23.26286249999612
 20
-596.6197339999962
 30
0.0
 11
12.28697249999823
 21
-637.5823149999997
 31
0.0
  0
LINE
  5
E9
330
48
100
AcDbEntity
  8
LC-001-002-----0
  6
Continuous
 62
     7
100
AcDbLine
 10
21.04123349999645
 20
-596.0244499999972
 30
0.0
 11
10.06534349999856
 21
-636.9870309999969
 31
0.0
  0
LINE
  5
EA
330
48
100
AcDbEntity
  8
LC-001-002-----0
  6
Continuous
 62
     7
100
AcDbLine
 10
39.94131449999622
 20
-677.8478809999979
 30
0.0
 11
3.3048144999957
 21
-677.8478809999979
 31
0.0
  0
LINE
  5
EB
330
48
100
AcDbEntity
  8
LC-001-002-----0
  6
Continuous
 62
     7
100
AcDbLine
 10
39.94131449999622
 20
-680.1478809999971
 30
0.0
 11
3.3048144999957
 21
-680.1478809999971
 31
0.0
  0
LINE
  5
EC
330
48
100
AcDbEntity
  8
LC-001-002-----0
  6
Continuous
 62
     7
100
AcDbLine
 10
-74.70094650000101
 20
-720.7980889999963
 30
0.0
 11
-37.97490150000158
 21
-699.5942969999996
 31
0.0
  0
LINE
  5
ED
330
48
100
AcDbEntity
  8
LC-001-002-----0
  6
Continuous
 62
     7
100
AcDbLine
 10
27.42934849999801
 20
-649.9413239999994
 30
0.0
 11
1.52343149999797
 21
-675.8472419999962
 31
0.0
  0
LINE
  5
EE
330
48
100
AcDbEntity
  8
LC-001-002-----0
  6
Continuous
 62
     7
100
AcDbLine
 10
29.05569449999894
 20
-651.5676699999967
 30
0.0
 11
3.14977649999855
 21
-677.4735869999968
 31
0.0
  0
LINE
  5
EF
330
48
100
AcDbEntity
  8
LC-001-002-----0
  6
Continuous
 62
     7
100
AcDbLine
 10
-1.1508625000024
 20
-638.8121199999987
 30
0.0
 11
-1.1508625000024
 21
-645.0140119999996
 31
0.0
  0
LINE
  5
F0
330
48
100
AcDbEntity
  8
LC-001-002-----0
  6
Continuous
 62
     7
100
AcDbLine
 10
1.14913749999687
 20
-671.0140119999996
 30
0.0
 11
1.14913749999687
 21
-675.692203999999
 31
0.0
  0
LINE
  5
F1
330
48
100
AcDbEntity
  8
LC-001-002-----0
  6
Continuous
 62
     7
100
AcDbLine
 10
-29.05741950000083
 20
-651.5676699999967
 30
0.0
 11
-3.15150150000409
 21
-677.4735869999968
 31
0.0
  0
LINE
  5
F2
330
48
100
AcDbEntity
  8
LC-001-002-----0
  6
Continuous
 62
     7
100
AcDbLine
 10
-27.43107450000389
 20
-649.9413239999994
 30
0.0
 11
-1.5251565000035
 21
-675.8472419999962
 31
0.0
  0
LINE
  5
F3
330
48
100
AcDbEntity
  8
LC-001-002-----0
  6
Continuous
 62
     7
100
AcDbLine
 10
-21.04295850000199
 20
-596.0244499999972
 30
0.0
 11
-10.0670685000041
 21
-636.9870309999969
 31
0.0
  0
LINE
  5
F4
330
48
100
AcDbEntity
  8
LC-001-002-----0
  6
Continuous
 62
     7
100
AcDbLine
 10
-23.26458850000199
 20
-596.6197339999962
 30
0.0
 11
-12.28869750000376
 21
-637.5823149999997
 31
0.0
  0
LINE
  5
F5
330
48
100
AcDbEntity
  8
LC-001-002-----0
  6
Continuous
 62
     7
100
AcDbLine
 10
-43.79292950000308
 20
-605.4477969999971
 30
0.0
 11
-22.58913750000284
 21
-642.1738419999965
 31
0.0
  0
LINE
  5
F6
330
48
100
AcDbEntity
  8
LC-001-002-----0
  6
Continuous
 62
     7
100
AcDbLine
 10
-41.80107050000152
 20
-604.2977969999993
 30
0.0
 11
-20.59727850000127
 21
-641.0238419999987
 31
0.0
  0
LINE
  5
F7
330
48
100
AcDbEntity
  8
LC-001-002-----0
  6
Continuous
 62
     7
100
AcDbLine
 10
-61.33691350000299
 20
-619.2881759999982
 30
0.0
 11
-31.35022250000111
 21
-649.2748659999961
 31
0.0
  0
LINE
  5
F8
330
48
100
AcDbEntity
  8
LC-001-002-----0
  6
Continuous
 62
     7
100
AcDbLine
 10
-59.71056750000207
 20
-617.6618299999973
 30
0.0
 11
-29.72387750000416
 21
-647.6485209999992
 31
0.0
  0
LINE
  5
F9
330
48
100
AcDbEntity
  8
LC-001-002-----0
  6
Continuous
 62
     7
100
AcDbLine
 10
-73.55094650000319
 20
-635.2058139999972
 30
0.0
 11
-36.82490150000376
 21
-656.4096059999974
 31
0.0
  0
LINE
  5
FA
330
48
100
AcDbEntity
  8
LC-001-002-----0
  6
Continuous
 62
     7
100
AcDbLine
 10
-74.70094650000101
 20
-637.1976729999988
 30
0.0
 11
-37.97490150000158
 21
-658.401464999999
 31
0.0
  0
LINE
  5
FB
330
48
100
AcDbEntity
  8
LC-001-002-----0
  6
Continuous
 62
     7
100
AcDbLine
 10
-82.97429350000311
 20
-657.9557849999983
 30
0.0
 11
-42.01171250000334
 21
-668.9316749999962
 31
0.0
  0
LINE
  5
FC
330
48
100
AcDbEntity
  8
LC-001-002-----0
  6
Continuous
 62
     7
100
AcDbLine
 10
-82.37900950000403
 20
-655.7341549999983
 30
0.0
 11
-41.41642850000426
 21
-666.7100459999965
 31
0.0
  0
LINE
  5
FD
330
48
100
AcDbEntity
  8
LC-001-002-----0
  6
Continuous
 62
     7
100
AcDbLine
 10
-39.94303950000176
 20
-677.8478809999979
 30
0.0
 11
-3.30653950000124
 21
-677.8478809999979
 31
0.0
  0
LINE
  5
FE
330
48
100
AcDbEntity
  8
LC-001-002-----0
  6
Continuous
 62
     7
100
AcDbLine
 10
-63.36388450000231
 20
-680.1478809999971
 30
0.0
 11
-3.30653950000124
 21
-680.1478809999971
 31
0.0
  0
LINE
  5
FF
330
48
100
AcDbEntity
  8
LC-001-002-----0
  6
Continuous
 62
     7
100
AcDbLine
 10
-85.59313750000365
 20
-680.1478809999971
 30
0.0
 11
-43.18555350000315
 21
-680.1478809999971
 31
0.0
  0
LINE
  5
100
330
48
100
AcDbEntity
  8
LC-001-002-----0
  6
Continuous
 62
     7
100
AcDbLine
 10
-85.59313750000365
 20
-677.8478809999979
 30
0.0
 11
-43.18555350000315
 21
-677.8478809999979
 31
0.0
  0
LINE
  5
101
330
48
100
AcDbEntity
  8
LC-001-002-----0
  6
Continuous
 62
     7
100
AcDbLine
 10
-189.0010145000015
 20
-499.9986769999996
 30
0.0
 11
-189.0002405000014
 21
-857.9986769999996
 31
0.0
  0
LINE
  5
102
330
48
100
AcDbEntity
  8
LC-001-002-----0
  6
Continuous
 62
     7
100
AcDbLine
 10
-179.0010585000018
 20
-489.9986549999994
 30
0.0
 11
178.9989414999982
 21
-489.9971069999992
 31
0.0
  0
LINE
  5
103
330
48
100
AcDbEntity
  8
LC-001-002-----0
  6
Continuous
 62
     7
100
AcDbLine
 10
188.9989854999985
 20
-499.9970849999991
 30
0.0
 11
188.9997594999986
 21
-857.9970849999991
 31
0.0
  0
LINE
  5
104
330
48
100
AcDbEntity
  8
LC-001-002-----0
  6
Continuous
 62
     7
100
AcDbLine
 10
-179.0001975000014
 20
-867.9986549999994
 30
0.0
 11
178.9998024999986
 21
-867.9971069999992
 31
0.0
  0
LINE
  5
105
330
48
100
AcDbEntity
  8
LC-001-002-----0
  6
DASHDOT_3
 62
     2
100
AcDbLine
 10
-0.00062750000143
 20
-489.9978809999993
 30
0.0
 11
-0.00062750000143
 21
-867.9978809999993
 31
0.0
  0
LINE
  5
106
330
48
100
AcDbEntity
  8
LC-001-002-----0
  6
DASHDOT_3
 62
     2
100
AcDbLine
 10
-189.0006275000014
 20
-678.9974949999996
 30
0.0
 11
188.9993724999986
 21
-678.9971379999988
 31
0.0
  0
ARC
  5
107
330
48
100
AcDbEntity
  8
LC-001-002-----0
  6
Continuous
 62
     7
100
AcDbCircle
 10
46.99937349999891
 20
-760.4034589999974
 30
0.0
 40
7.100000000003013
100
AcDbArc
 50
-141.9031259999951
 51
21.90337400000669
  0
ARC
  5
108
330
48
100
AcDbEntity
  8
LC-001-002-----0
  6
Continuous
 62
     7
100
AcDbCircle
 10
93.99867149999773
 20
-678.9974739999961
 30
0.0
 40
7.100000000003241
100
AcDbArc
 50
-81.90350200001211
 51
81.9030059999961
  0
ARC
  5
109
330
48
100
AcDbEntity
  8
LC-001-002-----0
  6
Continuous
 62
     7
100
AcDbCircle
 10
46.99866949999705
 20
-597.5918959999981
 30
0.0
 40
7.099999999999909
100
AcDbArc
 50
158.0966260000042
 51
-38.09687399998177
  0
ARC
  5
10A
330
48
100
AcDbEntity
  8
LC-001-002-----0
  6
Continuous
 62
     7
100
AcDbCircle
 10
-46.99992550000388
 20
-760.4038659999969
 30
0.0
 40
7.099999999998757
100
AcDbArc
 50
158.0967500000141
 51
-38.09675000000042
  0
ARC
  5
10B
330
48
100
AcDbEntity
  8
LC-001-002-----0
  6
Continuous
 62
     7
100
AcDbCircle
 10
46.99902149999616
 20
-760.403661999997
 30
0.0
 40
5.999999999999434
100
AcDbArc
 50
39.59419199998214
 51
-159.593943999994
  0
ARC
  5
10C
330
48
100
AcDbEntity
  8
LC-002-002-RND-0
  6
Continuous
 62
     7
100
AcDbCircle
 10
60.23980149999625
 20
-753.3364069999989
 30
0.0
 40
0.4999999999974583
100
AcDbArc
 50
-59.99987599987023
 51
30.00012399992022
  0
ARC
  5
10D
330
48
100
AcDbEntity
  8
LC-002-002-RND-0
  6
Continuous
 62
     7
100
AcDbCircle
 10
59.73979949999921
 20
-752.4703829999962
 30
0.0
 40
0.4999999999974547
100
AcDbArc
 50
30.00012400012907
 51
120.0001240004901
  0
ARC
  5
10E
330
48
100
AcDbEntity
  8
LC-002-002-RND-0
  6
Continuous
 62
     7
100
AcDbCircle
 10
33.75824249999641
 20
-767.4709169999987
 30
0.0
 40
0.5000000000006088
100
AcDbArc
 50
120.0001239999213
 51
-149.9998759998709
  0
ARC
  5
10F
330
48
100
AcDbEntity
  8
LC-002-002-RND-0
  6
Continuous
 62
     7
100
AcDbCircle
 10
34.25824449999709
 20
-768.3369419999981
 30
0.0
 40
0.5000000000006053
100
AcDbArc
 50
-149.9998760000794
 51
-59.99987600007939
  0
ARC
  5
110
330
48
100
AcDbEntity
  8
LC-001-002-----0
  6
Continuous
 62
     7
100
AcDbCircle
 10
46.99902149999616
 20
-760.403661999997
 30
0.0
 40
5.999999999998949
100
AcDbArc
 50
-140.4058079999689
 51
20.40605600000597
  0
ARC
  5
111
330
48
100
AcDbEntity
  8
LC-001-002-----0
  6
Continuous
 62
     7
100
AcDbCircle
 10
-47.00045350000437
 20
-760.4035609999992
 30
0.0
 40
5.999999999999858
100
AcDbArc
 50
-20.40593199996777
 51
140.4059319999768
  0
ARC
  5
112
330
48
100
AcDbEntity
  8
LC-002-002-RND-0
  6
Continuous
 62
     7
100
AcDbCircle
 10
-34.25965850000284
 20
-768.3368119999977
 30
0.0
 40
0.4999999999990565
100
AcDbArc
 50
-120.0000000000624
 51
-30.00000000006242
  0
ARC
  5
113
330
48
100
AcDbEntity
  8
LC-002-002-RND-0
  6
Continuous
 62
     7
100
AcDbCircle
 10
-33.75965850000284
 20
-767.4707869999984
 30
0.0
 40
0.4999999999990565
100
AcDbArc
 50
-30.00000000006242
 51
59.99999999993758
  0
ARC
  5
114
330
48
100
AcDbEntity
  8
LC-002-002-RND-0
  6
Continuous
 62
     7
100
AcDbCircle
 10
-59.74124850000226
 20
-752.4703089999966
 30
0.0
 40
0.4999999999990565
100
AcDbArc
 50
59.99999999993758
 51
149.9999999999376
  0
ARC
  5
115
330
48
100
AcDbEntity
  8
LC-002-002-RND-0
  6
Continuous
 62
     7
100
AcDbCircle
 10
-60.24124850000226
 20
-753.3363339999996
 30
0.0
 40
0.4999999999990565
100
AcDbArc
 50
149.9999999999376
 51
-120.0000000000624
  0
ARC
  5
116
330
48
100
AcDbEntity
  8
LC-001-002-----0
  6
Continuous
 62
     7
100
AcDbCircle
 10
-47.00062950000211
 20
-597.5923029999976
 30
0.0
 40
7.100000000003003
100
AcDbArc
 50
-141.9031259999951
 51
21.90337399999574
  0
ARC
  5
117
330
48
100
AcDbEntity
  8
LC-001-002-----0
  6
Continuous
 62
     7
100
AcDbCircle
 10
-47.00045350000437
 20
-760.4035609999992
 30
0.0
 40
5.999999999997716
100
AcDbArc
 50
159.5940679999875
 51
-39.59406799997426
  0
ARC
  5
118
330
48
100
AcDbEntity
  8
LC-001-002-----0
  6
Continuous
 62
     7
100
AcDbCircle
 10
-93.99992750000092
 20
-678.9974739999961
 30
0.0
 40
6.000000000001127
100
AcDbArc
 50
-80.40642800000408
 51
80.40543700003593
  0
ARC
  5
119
330
48
100
AcDbEntity
  8
LC-002-002-RND-0
  6
Continuous
 62
     7
100
AcDbCircle
 10
-94.50005750000128
 20
-693.9979479999965
 30
0.0
 40
0.5000000000005452
100
AcDbArc
 50
179.9995040000335
 51
-90.00049600038344
  0
ARC
  5
11A
330
48
100
AcDbEntity
  8
LC-002-002-RND-0
  6
Continuous
 62
     7
100
AcDbCircle
 10
-93.50005750000128
 20
-693.9979569999996
 30
0.0
 40
0.4999999999969073
100
AcDbArc
 50
-90.00049600038344
 51
-0.00049599996655
  0
ARC
  5
11B
330
48
100
AcDbEntity
  8
LC-002-002-RND-0
  6
Continuous
 62
     7
100
AcDbCircle
 10
-93.4997975000042
 20
-663.9970009999961
 30
0.0
 40
0.5000000000005453
100
AcDbArc
 50
-0.00049600038343
 51
89.99950399961658
  0
ARC
  5
11C
330
48
100
AcDbEntity
  8
LC-002-002-RND-0
  6
Continuous
 62
     7
100
AcDbCircle
 10
-94.4997975000042
 20
-663.9969919999967
 30
0.0
 40
0.4999999999969073
100
AcDbArc
 50
89.99950399961658
 51
179.9995040000335
  0
ARC
  5
11D
330
48
100
AcDbEntity
  8
LC-001-002-----0
  6
Continuous
 62
     7
100
AcDbCircle
 10
-93.99992750000092
 20
-678.9982869999985
 30
0.0
 40
7.09999999999846
100
AcDbArc
 50
-81.90374600001144
 51
81.90275500001397
  0
ARC
  5
11E
330
48
100
AcDbEntity
  8
LC-001-002-----0
  6
Continuous
 62
     7
100
AcDbCircle
 10
-93.99992750000092
 20
-678.9974739999961
 30
0.0
 40
5.999999999998146
100
AcDbArc
 50
99.59357200003596
 51
-99.59456299999253
  0
ARC
  5
11F
330
48
100
AcDbEntity
  8
LC-001-002-----0
  6
Continuous
 62
     7
100
AcDbCircle
 10
93.99867149999773
 20
-678.9974739999961
 30
0.0
 40
5.999999999998738
100
AcDbArc
 50
99.59381999999609
 51
-99.59431500001934
  0
ARC
  5
120
330
48
100
AcDbEntity
  8
LC-002-002-RND-0
  6
Continuous
 62
     7
100
AcDbCircle
 10
-170.0006275000014
 20
-508.9971941828335
 30
0.0
 40
10.0
100
AcDbArc
 50
90.0
 51
180.0
  0
ARC
  5
121
330
48
100
AcDbEntity
  8
LC-002-002-RND-0
  6
Continuous
 62
     7
100
AcDbCircle
 10
-170.0006275000014
 20
-848.9974411301519
 30
0.0
 40
10.0
100
AcDbArc
 50
180.0
 51
-90.0
  0
ARC
  5
122
330
48
100
AcDbEntity
  8
LC-002-002-RND-0
  6
Continuous
 62
     7
100
AcDbCircle
 10
169.9993724999986
 20
-848.9974411301519
 30
0.0
 40
10.0
100
AcDbArc
 50
-90.0
 51
0.0
  0
ARC
  5
123
330
48
100
AcDbEntity
  8
LC-002-002-RND-0
  6
Continuous
 62
     7
100
AcDbCircle
 10
169.9993724999986
 20
-508.9971941828335
 30
0.0
 40
10.0
100
AcDbArc
 50
0.0
 51
90.0
  0
ARC
  5
124
330
48
100
AcDbEntity
  8
LC-002-002-RND-0
  6
Continuous
 62
     7
100
AcDbCircle
 10
94.49873549999757
 20
-663.996998999999
 30
0.0
 40
0.5000000000010458
100
AcDbArc
 50
-0.00024799998327
 51
89.99975200001673
  0
ARC
  5
125
330
48
100
AcDbEntity
  8
LC-002-002-RND-0
  6
Continuous
 62
     7
100
AcDbCircle
 10
93.49873549999757
 20
-663.9969939999974
 30
0.0
 40
0.4999999999974079
100
AcDbArc
 50
89.99975200001673
 51
179.9997520000167
  0
ARC
  5
126
330
48
100
AcDbEntity
  8
LC-002-002-RND-0
  6
Continuous
 62
     7
100
AcDbCircle
 10
93.49860649999755
 20
-693.9979499999972
 30
0.0
 40
0.5000000000010458
100
AcDbArc
 50
179.9997520000167
 51
-90.00024799998327
  0
ARC
  5
127
330
48
100
AcDbEntity
  8
LC-002-002-RND-0
  6
Continuous
 62
     7
100
AcDbCircle
 10
94.49860649999755
 20
-693.9979549999989
 30
0.0
 40
0.4999999999974079
100
AcDbArc
 50
-90.00024799998327
 51
-0.00024799998327
  0
ARC
  5
128
330
48
100
AcDbEntity
  8
LC-001-002-----0
  6
Continuous
 62
     7
100
AcDbCircle
 10
93.99867149999773
 20
-678.9974739999961
 30
0.0
 40
6.000000000002324
100
AcDbArc
 50
-80.40618000000971
 51
80.40568500000911
  0
ARC
  5
129
330
48
100
AcDbEntity
  8
LC-001-002-----0
  6
Continuous
 62
     7
100
AcDbCircle
 10
46.99866949999705
 20
-597.5918959999981
 30
0.0
 40
5.999999999999369
100
AcDbArc
 50
159.593943999994
 51
-39.594192000009
  0
ARC
  5
12A
330
48
100
AcDbEntity
  8
LC-002-002-RND-0
  6
Continuous
 62
     7
100
AcDbCircle
 10
34.25789249999798
 20
-589.6586169999973
 30
0.0
 40
0.5000000000006053
100
AcDbArc
 50
59.99987600007939
 51
149.9998760000794
  0
ARC
  5
12B
330
48
100
AcDbEntity
  8
LC-002-002-RND-0
  6
Continuous
 62
     7
100
AcDbCircle
 10
33.7578904999973
 20
-590.5246419999967
 30
0.0
 40
0.5000000000006115
100
AcDbArc
 50
149.9998760000798
 51
-120.0001239999206
  0
ARC
  5
12C
330
48
100
AcDbEntity
  8
LC-002-002-RND-0
  6
Continuous
 62
     7
100
AcDbCircle
 10
59.73944749999646
 20
-605.5251759999992
 30
0.0
 40
0.4999999999974547
100
AcDbArc
 50
-120.0001240001291
 51
-30.00012399992022
  0
ARC
  5
12D
330
48
100
AcDbEntity
  8
LC-002-002-RND-0
  6
Continuous
 62
     7
100
AcDbCircle
 10
60.23944949999714
 20
-604.6591509999962
 30
0.0
 40
0.5000000000024182
100
AcDbArc
 50
-30.00012400028206
 51
59.99987599987094
  0
ARC
  5
12E
330
48
100
AcDbEntity
  8
LC-001-002-----0
  6
Continuous
 62
     7
100
AcDbCircle
 10
46.99866949999705
 20
-597.5918959999981
 30
0.0
 40
5.999999999999369
100
AcDbArc
 50
-20.40605600000602
 51
140.405807999991
  0
ARC
  5
12F
330
48
100
AcDbEntity
  8
LC-001-002-----0
  6
Continuous
 62
     7
100
AcDbCircle
 10
-47.00062950000211
 20
-597.5923029999976
 30
0.0
 40
6.000000000001742
100
AcDbArc
 50
-140.405807999991
 51
20.40605600000597
  0
ARC
  5
130
330
48
100
AcDbEntity
  8
LC-001-002-----0
  6
DASHED
 62
     7
100
AcDbCircle
 10
-0.00062750000143
 20
-678.9974739999961
 30
0.0
 40
142.0501739999994
100
AcDbArc
 50
88.4771690000003
 51
91.52283099999971
  0
ARC
  5
131
330
48
100
AcDbEntity
  8
LC-001-002-----0
  6
DASHED
 62
     7
100
AcDbCircle
 10
-0.00062750000143
 20
-678.9974739999961
 30
0.0
 40
142.0501739999993
100
AcDbArc
 50
178.4771690000003
 51
-178.4771689999988
  0
ARC
  5
132
330
48
100
AcDbEntity
  8
LC-002-002-RND-0
  6
Continuous
 62
     7
100
AcDbCircle
 10
-60.24140950000219
 20
-604.6595579999994
 30
0.0
 40
0.5000000000006053
100
AcDbArc
 50
120.0001239999206
 51
-149.9998760000794
  0
ARC
  5
133
330
48
100
AcDbEntity
  8
LC-002-002-RND-0
  6
Continuous
 62
     7
100
AcDbCircle
 10
-59.74140750000152
 20
-605.5255819999984
 30
0.0
 40
0.5000000000005992
100
AcDbArc
 50
-149.999876000079
 51
-59.99987600007939
  0
ARC
  5
134
330
48
100
AcDbEntity
  8
LC-002-002-RND-0
  6
Continuous
 62
     7
100
AcDbCircle
 10
-33.75985050000236
 20
-590.5250479999995
 30
0.0
 40
0.4999999999974547
100
AcDbArc
 50
-59.99987599987094
 51
30.00012399992062
  0
ARC
  5
135
330
48
100
AcDbEntity
  8
LC-002-002-RND-0
  6
Continuous
 62
     7
100
AcDbCircle
 10
-34.2598515000027
 20
-589.6590239999969
 30
0.0
 40
0.5000000000006115
100
AcDbArc
 50
30.00012399992022
 51
120.0001240001291
  0
ARC
  5
136
330
48
100
AcDbEntity
  8
LC-001-002-----0
  6
Continuous
 62
     7
100
AcDbCircle
 10
-47.00062950000211
 20
-597.5923029999976
 30
0.0
 40
6.000000000001753
100
AcDbArc
 50
39.59419200000891
 51
-159.593943999994
  0
ARC
  5
137
330
48
100
AcDbEntity
  8
LC-001-002-----0
  6
Continuous
 62
     7
100
AcDbCircle
 10
-0.00062750000143
 20
-678.9974739999961
 30
0.0
 40
59.50050100000257
100
AcDbArc
 50
-178.8921509999985
 51
-166.1071369999981
  0
ARC
  5
138
330
48
100
AcDbEntity
  8
LC-001-002-----0
  6
Continuous
 62
     7
100
AcDbCircle
 10
-0.00062750000143
 20
-678.9974739999961
 30
0.0
 40
63.00057100000204
100
AcDbArc
 50
-178.9537059999984
 51
-166.0456219999987
  0
ARC
  5
139
330
48
100
AcDbEntity
  8
LC-001-002-----0
  6
Continuous
 62
     7
100
AcDbCircle
 10
-0.00062750000143
 20
-678.9978809999993
 30
0.0
 40
75.00035700000264
100
AcDbArc
 50
-179.1214340000022
 51
-165.8786120000015
  0
ARC
  5
13A
330
48
100
AcDbEntity
  8
LC-001-002-----0
  6
Continuous
 62
     7
100
AcDbCircle
 10
-0.00062750000143
 20
-678.9978809999993
 30
0.0
 40
79.00004900000089
100
AcDbArc
 50
-179.1659190000003
 51
-165.8341250000002
  0
ARC
  5
13B
330
48
100
AcDbEntity
  8
LC-001-002-----0
  6
Continuous
 62
     7
100
AcDbCircle
 10
-0.00062750000143
 20
-678.9978809999993
 30
0.0
 40
79.00004900000228
100
AcDbArc
 50
-164.1659630000006
 51
-150.8341670000005
  0
ARC
  5
13C
330
48
100
AcDbEntity
  8
LC-001-002-----0
  6
Continuous
 62
     7
100
AcDbCircle
 10
-0.00062750000143
 20
-678.9978809999993
 30
0.0
 40
75.00035700000065
100
AcDbArc
 50
-164.1214810000013
 51
-150.8786550000019
  0
ARC
  5
13D
330
48
100
AcDbEntity
  8
LC-001-002-----0
  6
Continuous
 62
     7
100
AcDbCircle
 10
-0.00062750000143
 20
-678.9974739999961
 30
0.0
 40
63.00057100000365
100
AcDbArc
 50
-163.9537739999977
 51
-151.0457099999978
  0
ARC
  5
13E
330
48
100
AcDbEntity
  8
LC-001-002-----0
  6
Continuous
 62
     7
100
AcDbCircle
 10
-0.00062750000143
 20
-678.9974739999961
 30
0.0
 40
59.50050100000082
100
AcDbArc
 50
-163.8922230000004
 51
-151.1072309999998
  0
ARC
  5
13F
330
48
100
AcDbEntity
  8
LC-001-002-----0
  6
Continuous
 62
     7
100
AcDbCircle
 10
-0.00062750000143
 20
-678.9974739999961
 30
0.0
 40
59.50050100000036
100
AcDbArc
 50
-148.8923169999987
 51
-136.1073400000004
  0
ARC
  5
140
330
48
100
AcDbEntity
  8
LC-001-002-----0
  6
Continuous
 62
     7
100
AcDbCircle
 10
-0.00062750000143
 20
-678.9974739999961
 30
0.0
 40
63.00057100000353
100
AcDbArc
 50
-148.9538629999987
 51
-136.0458129999996
  0
ARC
  5
141
330
48
100
AcDbEntity
  8
LC-001-002-----0
  6
Continuous
 62
     7
100
AcDbCircle
 10
-0.00062750000143
 20
-678.9978809999993
 30
0.0
 40
75.00035700000022
100
AcDbArc
 50
-149.1215240000024
 51
-135.8786920000017
  0
ARC
  5
142
330
48
100
AcDbEntity
  8
LC-001-002-----0
  6
Continuous
 62
     7
100
AcDbCircle
 10
-0.00062750000143
 20
-678.9978809999993
 30
0.0
 40
79.0000490000008
100
AcDbArc
 50
-149.1660039999998
 51
-135.8342020000018
  0
ARC
  5
143
330
48
100
AcDbEntity
  8
LC-001-002-----0
  6
Continuous
 62
     7
100
AcDbCircle
 10
-0.00062750000143
 20
-678.9974739999961
 30
0.0
 40
59.50050100000269
100
AcDbArc
 50
-133.8924260000008
 51
-121.107456999998
  0
ARC
  5
144
330
48
100
AcDbEntity
  8
LC-001-002-----0
  6
Continuous
 62
     7
100
AcDbCircle
 10
-0.00062750000143
 20
-678.9974739999961
 30
0.0
 40
63.00057100000336
100
AcDbArc
 50
-133.9539659999994
 51
-121.0459240000004
  0
ARC
  5
145
330
48
100
AcDbEntity
  8
LC-001-002-----0
  6
Continuous
 62
     7
100
AcDbCircle
 10
-0.00062750000143
 20
-678.9978809999993
 30
0.0
 40
75.00035700000069
100
AcDbArc
 50
-134.1215610000016
 51
-120.8787210000026
  0
ARC
  5
146
330
48
100
AcDbEntity
  8
LC-001-002-----0
  6
Continuous
 62
     7
100
AcDbCircle
 10
-0.00062750000143
 20
-678.9978809999993
 30
0.0
 40
79.00004900000003
100
AcDbArc
 50
-119.1660660000005
 51
-105.8342460000009
  0
ARC
  5
147
330
48
100
AcDbEntity
  8
LC-001-002-----0
  6
Continuous
 62
     7
100
AcDbCircle
 10
-0.00062750000143
 20
-678.9978809999993
 30
0.0
 40
75.00035699999698
100
AcDbArc
 50
-119.1215900000005
 51
-105.8787390000019
  0
ARC
  5
148
330
48
100
AcDbEntity
  8
LC-001-002-----0
  6
Continuous
 62
     7
100
AcDbCircle
 10
-0.00062750000143
 20
-678.9974739999961
 30
0.0
 40
63.00057100000047
100
AcDbArc
 50
-118.9540760000001
 51
-106.0460340000013
  0
ARC
  5
149
330
48
100
AcDbEntity
  8
LC-001-002-----0
  6
Continuous
 62
     7
100
AcDbCircle
 10
-0.00062750000143
 20
-678.9974739999961
 30
0.0
 40
59.5005010000031
100
AcDbArc
 50
-118.8925429999993
 51
-106.1075739999995
  0
ARC
  5
14A
330
48
100
AcDbEntity
  8
LC-001-002-----0
  6
Continuous
 62
     7
100
AcDbCircle
 10
-0.00062750000143
 20
-678.9974739999961
 30
0.0
 40
63.0005710000008
100
AcDbArc
 50
-103.9541870000003
 51
-91.04613700000277
  0
ARC
  5
14B
330
48
100
AcDbEntity
  8
LC-001-002-----0
  6
Continuous
 62
     7
100
AcDbCircle
 10
-0.00062750000143
 20
-678.9978809999993
 30
0.0
 40
79.00004899999728
100
AcDbArc
 50
-89.16608900000121
 51
-75.83424600000133
  0
ARC
  5
14C
330
48
100
AcDbEntity
  8
LC-001-002-----0
  6
Continuous
 62
     7
100
AcDbCircle
 10
-0.00062750000143
 20
-678.9978809999993
 30
0.0
 40
75.00035699999766
100
AcDbArc
 50
-89.12161400000005
 51
-75.87873899999963
  0
ARC
  5
14D
330
48
100
AcDbEntity
  8
LC-001-002-----0
  6
Continuous
 62
     7
100
AcDbCircle
 10
-0.00062750000143
 20
-678.9974739999961
 30
0.0
 40
63.00057100000243
100
AcDbArc
 50
-88.95429000000189
 51
-76.04622600000287
  0
ARC
  5
14E
330
48
100
AcDbEntity
  8
LC-001-002-----0
  6
Continuous
 62
     7
100
AcDbCircle
 10
-0.00062750000143
 20
-678.9974739999961
 30
0.0
 40
59.50050100000247
100
AcDbArc
 50
-88.8927689999993
 51
-76.10777700000173
  0
ARC
  5
14F
330
48
100
AcDbEntity
  8
LC-001-002-----0
  6
Continuous
 62
     7
100
AcDbCircle
 10
-0.00062750000143
 20
-678.9974739999961
 30
0.0
 40
59.50050100000074
100
AcDbArc
 50
-73.89286300000241
 51
-61.10784900000156
  0
ARC
  5
150
330
48
100
AcDbEntity
  8
LC-001-002-----0
  6
Continuous
 62
     7
100
AcDbCircle
 10
-0.00062750000143
 20
-678.9974739999961
 30
0.0
 40
63.00057100000212
100
AcDbArc
 50
-73.95437800000082
 51
-61.04629400000287
  0
ARC
  5
151
330
48
100
AcDbEntity
  8
LC-001-002-----0
  6
Continuous
 62
     7
100
AcDbCircle
 10
-0.00062750000143
 20
-678.9978809999993
 30
0.0
 40
79.0000489999964
100
AcDbArc
 50
-74.16608300000051
 51
-60.8342290000008
  0
ARC
  5
152
330
48
100
AcDbEntity
  8
LC-001-002-----0
  6
Continuous
 62
     7
100
AcDbCircle
 10
-0.00062750000143
 20
-678.9978809999993
 30
0.0
 40
79.00004899999757
100
AcDbArc
 50
-59.16606600000063
 51
-45.83420199999994
  0
ARC
  5
153
330
48
100
AcDbEntity
  8
LC-001-002-----0
  6
Continuous
 62
     7
100
AcDbCircle
 10
-0.00062750000143
 20
-678.9978809999993
 30
0.0
 40
75.00035699999894
100
AcDbArc
 50
-59.12158999999937
 51
-45.87869199999982
  0
ARC
  5
154
330
48
100
AcDbEntity
  8
LC-001-002-----0
  6
Continuous
 62
     7
100
AcDbCircle
 10
-0.00062750000143
 20
-678.9978809999993
 30
0.0
 40
79.0000489999975
100
AcDbArc
 50
-44.1660390000004
 51
-30.83416700000032
  0
ARC
  5
155
330
48
100
AcDbEntity
  8
LC-001-002-----0
  6
Continuous
 62
     7
100
AcDbCircle
 10
-0.00062750000143
 20
-678.9978809999993
 30
0.0
 40
75.00035699999817
100
AcDbArc
 50
-44.12156099999965
 51
-30.87865499999933
  0
ARC
  5
156
330
48
100
AcDbEntity
  8
LC-001-002-----0
  6
Continuous
 62
     7
100
AcDbCircle
 10
-0.00062750000143
 20
-678.9974739999961
 30
0.0
 40
63.0005710000002
100
AcDbArc
 50
-43.95448800000053
 51
-31.0463510000018
  0
ARC
  5
157
330
48
100
AcDbEntity
  8
LC-001-002-----0
  6
Continuous
 62
     7
100
AcDbCircle
 10
-0.00062750000143
 20
-678.9974739999961
 30
0.0
 40
59.50050100000217
100
AcDbArc
 50
-43.89298000000275
 51
-31.10790900000154
  0
ARC
  5
158
330
48
100
AcDbEntity
  8
LC-001-002-----0
  6
Continuous
 62
     7
100
AcDbCircle
 10
-0.00062750000143
 20
-678.9978809999993
 30
0.0
 40
79.00004899999851
100
AcDbArc
 50
-29.16600399999809
 51
-15.83412499999803
  0
ARC
  5
159
330
48
100
AcDbEntity
  8
LC-001-002-----0
  6
Continuous
 62
     7
100
AcDbCircle
 10
-0.00062750000143
 20
-678.9978809999993
 30
0.0
 40
75.00035699999871
100
AcDbArc
 50
-29.12152399999994
 51
-15.87861199999984
  0
ARC
  5
15A
330
48
100
AcDbEntity
  8
LC-001-002-----0
  6
Continuous
 62
     7
100
AcDbCircle
 10
-0.00062750000143
 20
-678.9974739999961
 30
0.0
 40
63.00057100000127
100
AcDbArc
 50
-28.95450300000335
 51
-16.04633600000237
  0
ARC
  5
15B
330
48
100
AcDbEntity
  8
LC-001-002-----0
  6
Continuous
 62
     7
100
AcDbCircle
 10
-0.00062750000143
 20
-678.9974739999961
 30
0.0
 40
59.50050099999987
100
AcDbArc
 50
-28.89299500000272
 51
-16.10789400000082
  0
ARC
  5
15C
330
48
100
AcDbEntity
  8
LC-001-002-----0
  6
Continuous
 62
     7
100
AcDbCircle
 10
-0.00062750000143
 20
-678.9974739999961
 30
0.0
 40
59.5005009999988
100
AcDbArc
 50
-13.89298000000271
 51
-1.10784900000161
  0
ARC
  5
15D
330
48
100
AcDbEntity
  8
LC-001-002-----0
  6
Continuous
 62
     7
100
AcDbCircle
 10
-0.00062750000143
 20
-678.9974739999961
 30
0.0
 40
63.00057099999995
100
AcDbArc
 50
-13.95448800000052
 51
-1.04629400000162
  0
ARC
  5
15E
330
48
100
AcDbEntity
  8
LC-001-002-----0
  6
Continuous
 62
     7
100
AcDbCircle
 10
-0.00062750000143
 20
-678.9978809999993
 30
0.0
 40
75.00035699999904
100
AcDbArc
 50
-14.12148099999787
 51
-0.87856599999789
  0
ARC
  5
15F
330
48
100
AcDbEntity
  8
LC-001-002-----0
  6
Continuous
 62
     7
100
AcDbCircle
 10
-0.00062750000143
 20
-678.9978809999993
 30
0.0
 40
79.00004899999725
100
AcDbArc
 50
0.83408099999969
 51
14.16596300000062
  0
ARC
  5
160
330
48
100
AcDbEntity
  8
LC-001-002-----0
  6
Continuous
 62
     7
100
AcDbCircle
 10
-0.00062750000143
 20
-678.9978809999993
 30
0.0
 40
75.00035699999906
100
AcDbArc
 50
0.87856600000067
 51
14.12148100000056
  0
ARC
  5
161
330
48
100
AcDbEntity
  8
LC-001-002-----0
  6
Continuous
 62
     7
100
AcDbCircle
 10
-0.00062750000143
 20
-678.9974739999961
 30
0.0
 40
63.00057099999992
100
AcDbArc
 50
1.04555399999725
 51
13.95377399999873
  0
ARC
  5
162
330
48
100
AcDbEntity
  8
LC-001-002-----0
  6
Continuous
 62
     7
100
AcDbCircle
 10
-0.00062750000143
 20
-678.9974739999961
 30
0.0
 40
59.50050099999996
100
AcDbArc
 50
1.10706599999858
 51
13.89222299999911
  0
ARC
  5
163
330
48
100
AcDbEntity
  8
LC-001-002-----0
  6
Continuous
 62
     7
100
AcDbCircle
 10
-0.00062750000143
 20
-678.9974739999961
 30
0.0
 40
59.50050099999724
100
AcDbArc
 50
16.10713699999856
 51
28.8923169999988
  0
ARC
  5
164
330
48
100
AcDbEntity
  8
LC-001-002-----0
  6
Continuous
 62
     7
100
AcDbCircle
 10
-0.00062750000143
 20
-678.9974739999961
 30
0.0
 40
63.00057099999862
100
AcDbArc
 50
16.0456220000001
 51
28.95386299999867
  0
ARC
  5
165
330
48
100
AcDbEntity
  8
LC-001-002-----0
  6
Continuous
 62
     7
100
AcDbCircle
 10
-0.00062750000143
 20
-678.9978809999993
 30
0.0
 40
75.000357
100
AcDbArc
 50
15.87861199999984
 51
29.12152400000237
  0
ARC
  5
166
330
48
100
AcDbEntity
  8
LC-001-002-----0
  6
Continuous
 62
     7
100
AcDbCircle
 10
-0.00062750000143
 20
-678.9978809999993
 30
0.0
 40
79.00004900000064
100
AcDbArc
 50
15.83412500000057
 51
29.16600400000039
  0
ARC
  5
167
330
48
100
AcDbEntity
  8
LC-001-002-----0
  6
Continuous
 62
     7
100
AcDbCircle
 10
-0.00062750000143
 20
-678.9978809999993
 30
0.0
 40
79.0000489999988
100
AcDbArc
 50
30.83416700000259
 51
44.16603900000229
  0
ARC
  5
168
330
48
100
AcDbEntity
  8
LC-001-002-----0
  6
Continuous
 62
     7
100
AcDbCircle
 10
-0.00062750000143
 20
-678.9978809999993
 30
0.0
 40
75.00035699999813
100
AcDbArc
 50
30.87865500000171
 51
44.12156100000164
  0
ARC
  5
169
330
48
100
AcDbEntity
  8
LC-001-002-----0
  6
Continuous
 62
     7
100
AcDbCircle
 10
-0.00062750000143
 20
-678.9974739999961
 30
0.0
 40
63.00057099999922
100
AcDbArc
 50
31.04570999999936
 51
43.95396599999935
  0
ARC
  5
16A
330
48
100
AcDbEntity
  8
LC-001-002-----0
  6
Continuous
 62
     7
100
AcDbCircle
 10
-0.00062750000143
 20
-678.9974739999961
 30
0.0
 40
59.50050099999825
100
AcDbArc
 50
31.10723099999982
 51
43.89242600000065
  0
ARC
  5
16B
330
48
100
AcDbEntity
  8
LC-001-002-----0
  6
Continuous
 62
     7
100
AcDbCircle
 10
-0.00062750000143
 20
-678.9974739999961
 30
0.0
 40
63.00057099999839
100
AcDbArc
 50
46.04581299999967
 51
58.95407600000072
  0
ARC
  5
16C
330
48
100
AcDbEntity
  8
LC-001-002-----0
  6
Continuous
 62
     7
100
AcDbCircle
 10
-0.00062750000143
 20
-678.9974739999961
 30
0.0
 40
59.50050099999704
100
AcDbArc
 50
46.10734000000055
 51
58.89254300000024
  0
ARC
  5
16D
330
48
100
AcDbEntity
  8
LC-001-002-----0
  6
Continuous
 62
     7
100
AcDbCircle
 10
-0.00062750000143
 20
-678.9978809999993
 30
0.0
 40
75.00035699999934
100
AcDbArc
 50
45.87869200000175
 51
59.12159000000079
  0
ARC
  5
16E
330
48
100
AcDbEntity
  8
LC-001-002-----0
  6
Continuous
 62
     7
100
AcDbCircle
 10
-0.00062750000143
 20
-678.9978809999993
 30
0.0
 40
79.00004900000135
100
AcDbArc
 50
45.83420200000178
 51
59.16606600000198
  0
ARC
  5
16F
330
48
100
AcDbEntity
  8
LC-001-002-----0
  6
Continuous
 62
     7
100
AcDbCircle
 10
-0.00062750000143
 20
-678.9974739999961
 30
0.0
 40
59.50050099999817
100
AcDbArc
 50
61.10745700000214
 51
73.89266000000049
  0
ARC
  5
170
330
48
100
AcDbEntity
  8
LC-001-002-----0
  6
Continuous
 62
     7
100
AcDbCircle
 10
-0.00062750000143
 20
-678.9974739999961
 30
0.0
 40
63.00057100000047
100
AcDbArc
 50
61.04592399999994
 51
73.9541870000016
  0
ARC
  5
171
330
48
100
AcDbEntity
  8
LC-001-002-----0
  6
Continuous
 62
     7
100
AcDbCircle
 10
-0.00062750000143
 20
-678.9978809999993
 30
0.0
 40
75.00035700000028
100
AcDbArc
 50
60.878721000001
 51
74.1216080000005
  0
ARC
  5
172
330
48
100
AcDbEntity
  8
LC-001-002-----0
  6
Continuous
 62
     7
100
AcDbCircle
 10
-0.00062750000143
 20
-678.9978809999993
 30
0.0
 40
79.00004900000174
100
AcDbArc
 50
60.83422900000208
 51
74.16608300000124
  0
ARC
  5
173
330
48
100
AcDbEntity
  8
LC-001-002-----0
  6
Continuous
 62
     7
100
AcDbCircle
 10
-0.00062750000143
 20
-678.9978809999993
 30
0.0
 40
79.00004900000015
100
AcDbArc
 50
75.83424600000133
 51
89.16608900000124
  0
ARC
  5
174
330
48
100
AcDbEntity
  8
LC-001-002-----0
  6
Continuous
 62
     7
100
AcDbCircle
 10
-0.00062750000143
 20
-678.9978809999993
 30
0.0
 40
75.00035700000223
100
AcDbArc
 50
75.87873900000031
 51
89.1216140000001
  0
ARC
  5
175
330
48
100
AcDbEntity
  8
LC-001-002-----0
  6
Continuous
 62
     7
100
AcDbCircle
 10
-0.00062750000143
 20
-678.9974739999961
 30
0.0
 40
59.50050099999935
100
AcDbArc
 50
91.10768300000277
 51
103.8928630000019
  0
ARC
  5
176
330
48
100
AcDbEntity
  8
LC-001-002-----0
  6
Continuous
 62
     7
100
AcDbCircle
 10
-0.00062750000143
 20
-678.9974739999961
 30
0.0
 40
63.00057100000033
100
AcDbArc
 50
91.04613700000277
 51
103.9543780000021
  0
ARC
  5
177
330
48
100
AcDbEntity
  8
LC-001-002-----0
  6
Continuous
 62
     7
100
AcDbCircle
 10
-0.00062750000143
 20
-678.9978809999993
 30
0.0
 40
75.00035700000105
100
AcDbArc
 50
90.87874500000096
 51
104.1216080000008
  0
ARC
  5
178
330
48
100
AcDbEntity
  8
LC-001-002-----0
  6
Continuous
 62
     7
100
AcDbCircle
 10
-0.00062750000143
 20
-678.9978809999993
 30
0.0
 40
79.00004900000243
100
AcDbArc
 50
90.83425200000127
 51
104.1660829999991
  0
ARC
  5
179
330
48
100
AcDbEntity
  8
LC-001-002-----0
  6
Continuous
 62
     7
100
AcDbCircle
 10
-0.00062750000143
 20
-678.9978809999993
 30
0.0
 40
79.00004900000017
100
AcDbArc
 50
105.8342460000009
 51
119.1660660000005
  0
ARC
  5
17A
330
48
100
AcDbEntity
  8
LC-001-002-----0
  6
Continuous
 62
     7
100
AcDbCircle
 10
-0.00062750000143
 20
-678.9978809999993
 30
0.0
 40
75.00035700000316
100
AcDbArc
 50
105.8787390000011
 51
119.1215899999991
  0
ARC
  5
17B
330
48
100
AcDbEntity
  8
LC-001-002-----0
  6
Continuous
 62
     7
100
AcDbCircle
 10
-0.00062750000143
 20
-678.9974739999961
 30
0.0
 40
59.50050099999732
100
AcDbArc
 50
106.1077770000006
 51
118.8929340000015
  0
ARC
  5
17C
330
48
100
AcDbEntity
  8
LC-001-002-----0
  6
Continuous
 62
     7
100
AcDbCircle
 10
-0.00062750000143
 20
-678.9974739999961
 30
0.0
 40
63.00057099999914
100
AcDbArc
 50
106.0462260000001
 51
118.954446000002
  0
ARC
  5
17D
330
48
100
AcDbEntity
  8
LC-001-002-----0
  6
Continuous
 62
     7
100
AcDbCircle
 10
-0.00062750000143
 20
-678.9974739999961
 30
0.0
 40
59.50050099999957
100
AcDbArc
 50
121.1078490000032
 51
133.8929800000002
  0
ARC
  5
17E
330
48
100
AcDbEntity
  8
LC-001-002-----0
  6
Continuous
 62
     7
100
AcDbCircle
 10
-0.00062750000143
 20
-678.9974739999961
 30
0.0
 40
63.00057099999756
100
AcDbArc
 50
121.0462940000022
 51
133.9544880000005
  0
ARC
  5
17F
330
48
100
AcDbEntity
  8
LC-001-002-----0
  6
Continuous
 62
     7
100
AcDbCircle
 10
-0.00062750000143
 20
-678.9978809999993
 30
0.0
 40
75.00035700000198
100
AcDbArc
 50
120.8787210000012
 51
134.1215609999997
  0
ARC
  5
180
330
48
100
AcDbEntity
  8
LC-001-002-----0
  6
Continuous
 62
     7
100
AcDbCircle
 10
-0.00062750000143
 20
-678.9978809999993
 30
0.0
 40
79.0000490000034
100
AcDbArc
 50
120.8342289999997
 51
134.1660390000004
  0
ARC
  5
181
330
48
100
AcDbEntity
  8
LC-001-002-----0
  6
Continuous
 62
     7
100
AcDbCircle
 10
-0.00062750000143
 20
-678.9978809999993
 30
0.0
 40
79.00004900000128
100
AcDbArc
 50
135.834201999998
 51
149.1660039999998
  0
ARC
  5
182
330
48
100
AcDbEntity
  8
LC-001-002-----0
  6
Continuous
 62
     7
100
AcDbCircle
 10
-0.00062750000143
 20
-678.9978809999993
 30
0.0
 40
75.00035700000187
100
AcDbArc
 50
135.8786919999998
 51
149.121524
  0
ARC
  5
183
330
48
100
AcDbEntity
  8
LC-001-002-----0
  6
Continuous
 62
     7
100
AcDbCircle
 10
-0.00062750000143
 20
-678.9974739999961
 30
0.0
 40
59.50050099999975
100
AcDbArc
 50
136.1078940000029
 51
148.8929950000033
  0
ARC
  5
184
330
48
100
AcDbEntity
  8
LC-001-002-----0
  6
Continuous
 62
     7
100
AcDbCircle
 10
-0.00062750000143
 20
-678.9974739999961
 30
0.0
 40
63.00057100000027
100
AcDbArc
 50
136.0463360000035
 51
148.9545030000004
  0
ARC
  5
185
330
48
100
AcDbEntity
  8
LC-001-002-----0
  6
Continuous
 62
     7
100
AcDbCircle
 10
-0.00062750000143
 20
-678.9978809999993
 30
0.0
 40
79.00004900000086
100
AcDbArc
 50
150.8341670000005
 51
164.1659630000006
  0
ARC
  5
186
330
48
100
AcDbEntity
  8
LC-001-002-----0
  6
Continuous
 62
     7
100
AcDbCircle
 10
-0.00062750000143
 20
-678.9978809999993
 30
0.0
 40
75.00035700000049
100
AcDbArc
 50
150.8786549999995
 51
164.1214809999986
  0
ARC
  5
187
330
48
100
AcDbEntity
  8
LC-001-002-----0
  6
Continuous
 62
     7
100
AcDbCircle
 10
-0.00062750000143
 20
-678.9974739999961
 30
0.0
 40
63.00057099999952
100
AcDbArc
 50
151.0463510000008
 51
163.9544880000007
  0
ARC
  5
188
330
48
100
AcDbEntity
  8
LC-001-002-----0
  6
Continuous
 62
     7
100
AcDbCircle
 10
-0.00062750000143
 20
-678.9974739999961
 30
0.0
 40
59.50050100000017
100
AcDbArc
 50
151.1079090000018
 51
163.8929800000022
  0
ARC
  5
189
330
48
100
AcDbEntity
  8
LC-001-002-----0
  6
Continuous
 62
     7
100
AcDbCircle
 10
-0.00062750000143
 20
-678.9974739999961
 30
0.0
 40
63.00057099999711
100
AcDbArc
 50
76.04603399999922
 51
88.95429000000182
  0
ARC
  5
18A
330
48
100
AcDbEntity
  8
LC-001-002-----0
  6
Continuous
 62
     7
100
AcDbCircle
 10
-0.00062750000143
 20
-678.9974739999961
 30
0.0
 40
63.00057100000038
100
AcDbArc
 50
-58.95444600000197
 51
-46.04633600000353
  0
ARC
  5
18B
330
48
100
AcDbEntity
  8
LC-001-002-----0
  6
Continuous
 62
     7
100
AcDbCircle
 10
-0.00086250000095
 20
-678.9978809999993
 30
0.0
 40
57.90000000000146
100
AcDbArc
 50
166.1380740000005
 51
178.8619259999994
  0
ARC
  5
18C
330
48
100
AcDbEntity
  8
LC-001-002-----0
  6
Continuous
 62
     7
100
AcDbCircle
 10
-0.00086250000095
 20
-678.9978809999993
 30
0.0
 40
56.20000000000304
100
AcDbArc
 50
166.172504
 51
178.8274959999978
  0
ARC
  5
18D
330
48
100
AcDbEntity
  8
LC-001-002-----0
  6
Continuous
 62
     7
100
AcDbCircle
 10
-0.00086250000095
 20
-678.9978809999993
 30
0.0
 40
57.90000000000009
100
AcDbArc
 50
-178.8619260000031
 51
-166.1380740000005
  0
ARC
  5
18E
330
48
100
AcDbEntity
  8
LC-001-002-----0
  6
Continuous
 62
     7
100
AcDbCircle
 10
-0.00086250000095
 20
-678.9978809999993
 30
0.0
 40
56.2000000000038
100
AcDbArc
 50
-178.8274960000015
 51
-166.1725040000036
  0
ARC
  5
18F
330
48
100
AcDbEntity
  8
LC-001-002-----0
  6
Continuous
 62
     7
100
AcDbCircle
 10
-0.00086250000095
 20
-678.9978809999993
 30
0.0
 40
57.90000000000253
100
AcDbArc
 50
-163.8619260000025
 51
-151.138074000002
  0
ARC
  5
190
330
48
100
AcDbEntity
  8
LC-001-002-----0
  6
Continuous
 62
     7
100
AcDbCircle
 10
-0.00086250000095
 20
-678.9978809999993
 30
0.0
 40
56.20000000000154
100
AcDbArc
 50
-163.8274960000012
 51
-151.1725040000024
  0
ARC
  5
191
330
48
100
AcDbEntity
  8
LC-001-002-----0
  6
Continuous
 62
     7
100
AcDbCircle
 10
-0.00086250000095
 20
-678.9978809999993
 30
0.0
 40
57.90000000000247
100
AcDbArc
 50
-148.8619260000033
 51
-136.1380740000025
  0
ARC
  5
192
330
48
100
AcDbEntity
  8
LC-001-002-----0
  6
Continuous
 62
     7
100
AcDbCircle
 10
-0.00086250000095
 20
-678.9978809999993
 30
0.0
 40
56.19999999999934
100
AcDbArc
 50
-148.8274960000024
 51
-136.1725040000007
  0
ARC
  5
193
330
48
100
AcDbEntity
  8
LC-001-002-----0
  6
Continuous
 62
     7
100
AcDbCircle
 10
-0.00086250000095
 20
-678.9978809999993
 30
0.0
 40
57.90000000000202
100
AcDbArc
 50
-133.8619260000026
 51
-121.1380740000017
  0
ARC
  5
194
330
48
100
AcDbEntity
  8
LC-001-002-----0
  6
Continuous
 62
     7
100
AcDbCircle
 10
-0.00086250000095
 20
-678.9978809999993
 30
0.0
 40
56.19999999999817
100
AcDbArc
 50
-133.8274960000018
 51
-121.1725040000027
  0
ARC
  5
195
330
48
100
AcDbEntity
  8
LC-001-002-----0
  6
Continuous
 62
     7
100
AcDbCircle
 10
-0.00086250000095
 20
-678.9978809999993
 30
0.0
 40
57.90000000000148
100
AcDbArc
 50
-118.8619260000011
 51
-106.138074000002
  0
ARC
  5
196
330
48
100
AcDbEntity
  8
LC-001-002-----0
  6
Continuous
 62
     7
100
AcDbCircle
 10
-0.00086250000095
 20
-678.9978809999993
 30
0.0
 40
56.20000000000056
100
AcDbArc
 50
-118.8274960000027
 51
-106.1725040000034
  0
ARC
  5
197
330
48
100
AcDbEntity
  8
LC-001-002-----0
  6
Continuous
 62
     7
100
AcDbCircle
 10
-0.00086250000095
 20
-678.9978809999993
 30
0.0
 40
57.89999999999793
100
AcDbArc
 50
-103.8619260000004
 51
-91.13807400000056
  0
ARC
  5
198
330
48
100
AcDbEntity
  8
LC-001-002-----0
  6
Continuous
 62
     7
100
AcDbCircle
 10
-0.00086250000095
 20
-678.9978809999993
 30
0.0
 40
56.19999999999951
100
AcDbArc
 50
-103.8274960000009
 51
-91.17250400000226
  0
ARC
  5
199
330
48
100
AcDbEntity
  8
LC-001-002-----0
  6
Continuous
 62
     7
100
AcDbCircle
 10
-0.00086250000095
 20
-678.9978809999993
 30
0.0
 40
57.90000000000009
100
AcDbArc
 50
-88.86192600000304
 51
-76.13807399999965
  0
ARC
  5
19A
330
48
100
AcDbEntity
  8
LC-001-002-----0
  6
Continuous
 62
     7
100
AcDbCircle
 10
-0.00086250000095
 20
-678.9978809999993
 30
0.0
 40
56.20000000000017
100
AcDbArc
 50
-88.82749600000146
 51
-76.17250400000272
  0
ARC
  5
19B
330
48
100
AcDbEntity
  8
LC-001-002-----0
  6
Continuous
 62
     7
100
AcDbCircle
 10
-0.00086250000095
 20
-678.9978809999993
 30
0.0
 40
56.19999999999805
100
AcDbArc
 50
-73.82749600000017
 51
-61.17250400000059
  0
ARC
  5
19C
330
48
100
AcDbEntity
  8
LC-001-002-----0
  6
Continuous
 62
     7
100
AcDbCircle
 10
-0.00086250000095
 20
-678.9978809999993
 30
0.0
 40
57.89999999999904
100
AcDbArc
 50
-73.8619260000015
 51
-61.13807400000204
  0
ARC
  5
19D
330
48
100
AcDbEntity
  8
LC-001-002-----0
  6
Continuous
 62
     7
100
AcDbCircle
 10
-0.00086250000095
 20
-678.9978809999993
 30
0.0
 40
56.19999999999624
100
AcDbArc
 50
-58.8274960000005
 51
-46.17250399999818
  0
ARC
  5
19E
330
48
100
AcDbEntity
  8
LC-001-002-----0
  6
Continuous
 62
     7
100
AcDbCircle
 10
-0.00086250000095
 20
-678.9978809999993
 30
0.0
 40
57.89999999999936
100
AcDbArc
 50
-58.86192600000141
 51
-46.13807400000003
  0
ARC
  5
19F
330
48
100
AcDbEntity
  8
LC-001-002-----0
  6
Continuous
 62
     7
100
AcDbCircle
 10
-0.00086250000095
 20
-678.9978809999993
 30
0.0
 40
56.19999999999816
100
AcDbArc
 50
-43.82749600000182
 51
-31.17250399999951
  0
ARC
  5
1A0
330
48
100
AcDbEntity
  8
LC-001-002-----0
  6
Continuous
 62
     7
100
AcDbCircle
 10
-0.00086250000095
 20
-678.9978809999993
 30
0.0
 40
57.89999999999949
100
AcDbArc
 50
-43.86192599999997
 51
-31.13807399999859
  0
ARC
  5
1A1
330
48
100
AcDbEntity
  8
LC-001-002-----0
  6
Continuous
 62
     7
100
AcDbCircle
 10
-0.00086250000095
 20
-678.9978809999993
 30
0.0
 40
56.19999999999881
100
AcDbArc
 50
-28.82749599999941
 51
-16.17250399999984
  0
ARC
  5
1A2
330
48
100
AcDbEntity
  8
LC-001-002-----0
  6
Continuous
 62
     7
100
AcDbCircle
 10
-0.00086250000095
 20
-678.9978809999993
 30
0.0
 40
57.89999999999654
100
AcDbArc
 50
-28.86192599999969
 51
-16.1380739999985
  0
ARC
  5
1A3
330
48
100
AcDbEntity
  8
LC-001-002-----0
  6
Continuous
 62
     7
100
AcDbCircle
 10
-0.00086250000095
 20
-678.9978809999993
 30
0.0
 40
57.89999999999792
100
AcDbArc
 50
-13.86192600000035
 51
-1.13807399999696
  0
ARC
  5
1A4
330
48
100
AcDbEntity
  8
LC-001-002-----0
  6
Continuous
 62
     7
100
AcDbCircle
 10
-0.00086250000095
 20
-678.9978809999993
 30
0.0
 40
56.19999999999865
100
AcDbArc
 50
-13.82749599999728
 51
-1.17250399999854
  0
ARC
  5
1A5
330
48
100
AcDbEntity
  8
LC-001-002-----0
  6
Continuous
 62
     7
100
AcDbCircle
 10
-0.00086250000095
 20
-678.9978809999993
 30
0.0
 40
56.20000000000024
100
AcDbArc
 50
1.17250400000225
 51
13.82749600000089
  0
ARC
  5
1A6
330
48
100
AcDbEntity
  8
LC-001-002-----0
  6
Continuous
 62
     7
100
AcDbCircle
 10
-0.00086250000095
 20
-678.9978809999993
 30
0.0
 40
57.90000000000016
100
AcDbArc
 50
1.13807400000056
 51
13.86192600000035
  0
ARC
  5
1A7
330
48
100
AcDbEntity
  8
LC-001-002-----0
  6
Continuous
 62
     7
100
AcDbCircle
 10
-0.00086250000095
 20
-678.9978809999993
 30
0.0
 40
56.19999999999806
100
AcDbArc
 50
16.17250399999984
 51
28.82749600000266
  0
ARC
  5
1A8
330
48
100
AcDbEntity
  8
LC-001-002-----0
  6
Continuous
 62
     7
100
AcDbCircle
 10
-0.00086250000095
 20
-678.9978809999993
 30
0.0
 40
57.90000000000005
100
AcDbArc
 50
16.13807400000196
 51
28.86192600000285
  0
ARC
  5
1A9
330
48
100
AcDbEntity
  8
LC-001-002-----0
  6
Continuous
 62
     7
100
AcDbCircle
 10
-0.00086250000095
 20
-678.9978809999993
 30
0.0
 40
56.19999999999812
100
AcDbArc
 50
31.17250400000269
 51
43.82749600000182
  0
ARC
  5
1AA
330
48
100
AcDbEntity
  8
LC-001-002-----0
  6
Continuous
 62
     7
100
AcDbCircle
 10
-0.00086250000095
 20
-678.9978809999993
 30
0.0
 40
57.90000000000125
100
AcDbArc
 50
31.13807400000168
 51
43.86192599999997
  0
ARC
  5
1AB
330
48
100
AcDbEntity
  8
LC-001-002-----0
  6
Continuous
 62
     7
100
AcDbCircle
 10
-0.00086250000095
 20
-678.9978809999993
 30
0.0
 40
56.20000000000079
100
AcDbArc
 50
46.17250400000076
 51
58.82749600000242
  0
ARC
  5
1AC
330
48
100
AcDbEntity
  8
LC-001-002-----0
  6
Continuous
 62
     7
100
AcDbCircle
 10
-93.99992750000092
 20
-678.9982869999985
 30
0.0
 40
7.100000000002574
100
AcDbArc
 50
98.0962540000135
 51
-98.0972450000151
  0
ARC
  5
1AD
330
48
100
AcDbEntity
  8
LC-001-002-----0
  6
Continuous
 62
     7
100
AcDbCircle
 10
-47.00062950000211
 20
-597.5923029999976
 30
0.0
 40
7.099999999997906
100
AcDbArc
 50
38.09687399999989
 51
-158.0966260000042
  0
ARC
  5
1AE
330
48
100
AcDbEntity
  8
LC-001-002-----0
  6
Continuous
 62
     7
100
AcDbCircle
 10
46.99866949999705
 20
-597.5918959999981
 30
0.0
 40
7.099999999999915
100
AcDbArc
 50
-21.90337399999576
 51
141.9031260000001
  0
ARC
  5
1AF
330
48
100
AcDbEntity
  8
LC-001-002-----0
  6
Continuous
 62
     7
100
AcDbCircle
 10
93.99867149999773
 20
-678.9974739999961
 30
0.0
 40
7.099999999997443
100
AcDbArc
 50
89.9997560000139
 51
-90.00025200000394
  0
ARC
  5
1B0
330
48
100
AcDbEntity
  8
LC-001-002-----0
  6
Continuous
 62
     7
100
AcDbCircle
 10
-0.00062750000143
 20
-678.9978809999993
 30
0.0
 40
75.00035699999768
100
AcDbArc
 50
-74.12160799999974
 51
-60.878721000001
  0
ARC
  5
1B1
330
48
100
AcDbEntity
  8
LC-001-002-----0
  6
Continuous
 62
     7
100
AcDbCircle
 10
-0.00062750000143
 20
-678.9978809999993
 30
0.0
 40
79.00004899999871
100
AcDbArc
 50
-14.16596299999807
 51
-0.83408099999969
  0
ARC
  5
1B2
330
48
100
AcDbEntity
  8
LC-001-002-----0
  6
Continuous
 62
     7
100
AcDbCircle
 10
46.99937349999891
 20
-760.4034589999974
 30
0.0
 40
7.099999999997906
100
AcDbArc
 50
38.09687399999989
 51
-158.0966260000042
  0
ARC
  5
1B3
330
48
100
AcDbEntity
  8
LC-001-002-----0
  6
Continuous
 62
     7
100
AcDbCircle
 10
-46.99992550000388
 20
-760.4038659999969
 30
0.0
 40
7.10000000000012
100
AcDbArc
 50
-21.90325000001308
 51
141.9032499999996
  0
ARC
  5
1B4
330
48
100
AcDbEntity
  8
LC-001-002-----0
  6
Continuous
 62
     7
100
AcDbCircle
 10
-0.00086250000095
 20
-678.9978809999993
 30
0.0
 40
57.90000000000212
100
AcDbArc
 50
46.13807400000253
 51
58.03765000000372
  0
ARC
  5
1B5
330
48
100
AcDbEntity
  8
LC-001-002-----0
  6
Continuous
 62
     7
100
AcDbCircle
 10
-0.00086250000095
 20
-678.9978809999993
 30
0.0
 40
56.200000000002
100
AcDbArc
 50
61.17250400000238
 51
73.82749600000119
  0
ARC
  5
1B6
330
48
100
AcDbEntity
  8
LC-001-002-----0
  6
Continuous
 62
     7
100
AcDbCircle
 10
-0.00086250000095
 20
-678.9978809999993
 30
0.0
 40
57.89999999999972
100
AcDbArc
 50
61.13807400000204
 51
73.8619260000025
  0
ARC
  5
1B7
330
48
100
AcDbEntity
  8
LC-001-002-----0
  6
Continuous
 62
     7
100
AcDbCircle
 10
-0.00086250000095
 20
-678.9978809999993
 30
0.0
 40
57.90000000000146
100
AcDbArc
 50
76.13807400000051
 51
88.86192600000304
  0
ARC
  5
1B8
330
48
100
AcDbEntity
  8
LC-001-002-----0
  6
Continuous
 62
     7
100
AcDbCircle
 10
-0.00086250000095
 20
-678.9978809999993
 30
0.0
 40
56.20000000000217
100
AcDbArc
 50
76.1725040000036
 51
88.82749600000146
  0
ARC
  5
1B9
330
48
100
AcDbEntity
  8
LC-001-002-----0
  6
Continuous
 62
     7
100
AcDbCircle
 10
-0.00086250000095
 20
-678.9978809999993
 30
0.0
 40
57.90000000000016
100
AcDbArc
 50
91.13807400000056
 51
103.8619259999995
  0
ARC
  5
1BA
330
48
100
AcDbEntity
  8
LC-001-002-----0
  6
Continuous
 62
     7
100
AcDbCircle
 10
-0.00086250000095
 20
-678.9978809999993
 30
0.0
 40
56.20000000000024
100
AcDbArc
 50
91.17250400000226
 51
103.827496
  0
ARC
  5
1BB
330
48
100
AcDbEntity
  8
LC-001-002-----0
  6
Continuous
 62
     7
100
AcDbCircle
 10
-0.00086250000095
 20
-678.9978809999993
 30
0.0
 40
57.90000000000354
100
AcDbArc
 50
106.138074000001
 51
118.8619260000011
  0
ARC
  5
1BC
330
48
100
AcDbEntity
  8
LC-001-002-----0
  6
Continuous
 62
     7
100
AcDbCircle
 10
-0.00086250000095
 20
-678.9978809999993
 30
0.0
 40
56.20000000000256
100
AcDbArc
 50
106.1725040000024
 51
118.8274960000009
  0
ARC
  5
1BD
330
48
100
AcDbEntity
  8
LC-001-002-----0
  6
Continuous
 62
     7
100
AcDbCircle
 10
-0.00086250000095
 20
-678.9978809999993
 30
0.0
 40
57.90000000000124
100
AcDbArc
 50
121.1380740000017
 51
133.8619260000001
  0
ARC
  5
1BE
330
48
100
AcDbEntity
  8
LC-001-002-----0
  6
Continuous
 62
     7
100
AcDbCircle
 10
-0.00086250000095
 20
-678.9978809999993
 30
0.0
 40
56.20000000000123
100
AcDbArc
 50
121.1725040000008
 51
133.8274959999993
  0
ARC
  5
1BF
330
48
100
AcDbEntity
  8
LC-001-002-----0
  6
Continuous
 62
     7
100
AcDbCircle
 10
-0.00086250000095
 20
-678.9978809999993
 30
0.0
 40
57.90000000000212
100
AcDbArc
 50
136.1380740000025
 51
148.8619260000002
  0
ARC
  5
1C0
330
48
100
AcDbEntity
  8
LC-001-002-----0
  6
Continuous
 62
     7
100
AcDbCircle
 10
-0.00086250000095
 20
-678.9978809999993
 30
0.0
 40
56.20000000000078
100
AcDbArc
 50
136.1725040000007
 51
148.8274959999992
  0
ARC
  5
1C1
330
48
100
AcDbEntity
  8
LC-001-002-----0
  6
Continuous
 62
     7
100
AcDbCircle
 10
-0.00086250000095
 20
-678.9978809999993
 30
0.0
 40
57.90000000000148
100
AcDbArc
 50
151.1380739999989
 51
163.861925999999
  0
ARC
  5
1C2
330
48
100
AcDbEntity
  8
LC-001-002-----0
  6
Continuous
 62
     7
100
AcDbCircle
 10
-0.00086250000095
 20
-678.9978809999993
 30
0.0
 40
56.20000000000375
100
AcDbArc
 50
151.1725039999991
 51
163.8274960000012
  0
ARC
  5
1C3
330
48
100
AcDbEntity
  8
LC-001-002-----0
  6
Continuous
 62
     7
100
AcDbCircle
 10
-0.00086250000095
 20
-678.9978809999993
 30
0.0
 40
70.49999999999972
100
AcDbArc
 50
-164.0653470000027
 51
-150.9346530000028
  0
ARC
  5
1C4
330
48
100
AcDbEntity
  8
LC-001-002-----0
  6
Continuous
 62
     7
100
AcDbCircle
 10
-0.00086250000095
 20
-678.9978809999993
 30
0.0
 40
73.00000000000036
100
AcDbArc
 50
-164.0973579999998
 51
-150.9026420000011
  0
ARC
  5
1C5
330
48
100
AcDbEntity
  8
LC-001-002-----0
  6
Continuous
 62
     7
100
AcDbCircle
 10
-0.00086250000095
 20
-678.9978809999993
 30
0.0
 40
70.50000000000131
100
AcDbArc
 50
-179.0653470000025
 51
-165.9346530000019
  0
ARC
  5
1C6
330
48
100
AcDbEntity
  8
LC-001-002-----0
  6
Continuous
 62
     7
100
AcDbCircle
 10
-0.00086250000095
 20
-678.9978809999993
 30
0.0
 40
73.00000000000173
100
AcDbArc
 50
-179.097358000001
 51
-165.9026420000015
  0
ARC
  5
1C7
330
48
100
AcDbEntity
  8
LC-001-002-----0
  6
Continuous
 62
     7
100
AcDbCircle
 10
-0.00086250000095
 20
-678.9978809999993
 30
0.0
 40
73.00000000000111
100
AcDbArc
 50
-149.0973580000011
 51
-135.9026420000031
  0
ARC
  5
1C8
330
48
100
AcDbEntity
  8
LC-001-002-----0
  6
Continuous
 62
     7
100
AcDbCircle
 10
-0.00086250000095
 20
-678.9978809999993
 30
0.0
 40
70.50000000000186
100
AcDbArc
 50
-149.0653470000008
 51
-135.9346530000015
  0
ARC
  5
1C9
330
48
100
AcDbEntity
  8
LC-001-002-----0
  6
Continuous
 62
     7
100
AcDbCircle
 10
-0.00086250000095
 20
-678.9978809999993
 30
0.0
 40
72.99999999999895
100
AcDbArc
 50
-134.097358000001
 51
-120.9026420000029
  0
ARC
  5
1CA
330
48
100
AcDbEntity
  8
LC-001-002-----0
  6
Continuous
 62
     7
100
AcDbCircle
 10
-0.00086250000095
 20
-678.9978809999993
 30
0.0
 40
70.49999999999962
100
AcDbArc
 50
-134.0653470000006
 51
-120.9346530000007
  0
ARC
  5
1CB
330
48
100
AcDbEntity
  8
LC-001-002-----0
  6
Continuous
 62
     7
100
AcDbCircle
 10
-0.00086250000095
 20
-678.9978809999993
 30
0.0
 40
73.00000000000153
100
AcDbArc
 50
-119.0973580000015
 51
-105.9026420000002
  0
ARC
  5
1CC
330
48
100
AcDbEntity
  8
LC-001-002-----0
  6
Continuous
 62
     7
100
AcDbCircle
 10
-0.00086250000095
 20
-678.9978809999993
 30
0.0
 40
70.49999999999979
100
AcDbArc
 50
-119.0653470000013
 51
-105.9346530000009
  0
ARC
  5
1CD
330
48
100
AcDbEntity
  8
LC-001-002-----0
  6
Continuous
 62
     7
100
AcDbCircle
 10
-0.00086250000095
 20
-678.9978809999993
 30
0.0
 40
72.9999999999981
100
AcDbArc
 50
-89.09735800000092
 51
-75.90264200000074
  0
ARC
  5
1CE
330
48
100
AcDbEntity
  8
LC-001-002-----0
  6
Continuous
 62
     7
100
AcDbCircle
 10
-0.00086250000095
 20
-678.9978809999993
 30
0.0
 40
70.49999999999767
100
AcDbArc
 50
-89.06534700000245
 51
-75.93465300000115
  0
ARC
  5
1CF
330
48
100
AcDbEntity
  8
LC-001-002-----0
  6
Continuous
 62
     7
100
AcDbCircle
 10
-0.00086250000095
 20
-678.9978809999993
 30
0.0
 40
73.00000000000036
100
AcDbArc
 50
-74.09735799999979
 51
-60.90264200000104
  0
ARC
  5
1D0
330
48
100
AcDbEntity
  8
LC-001-002-----0
  6
Continuous
 62
     7
100
AcDbCircle
 10
-0.00086250000095
 20
-678.9978809999993
 30
0.0
 40
70.49999999999622
100
AcDbArc
 50
-74.06534700000192
 51
-60.93465300000134
  0
ARC
  5
1D1
330
48
100
AcDbEntity
  8
LC-001-002-----0
  6
Continuous
 62
     7
100
AcDbCircle
 10
-0.00086250000095
 20
-678.9978809999993
 30
0.0
 40
72.99999999999798
100
AcDbArc
 50
-59.0973579999996
 51
-45.90264200000107
  0
ARC
  5
1D2
330
48
100
AcDbEntity
  8
LC-001-002-----0
  6
Continuous
 62
     7
100
AcDbCircle
 10
-0.00086250000095
 20
-678.9978809999993
 30
0.0
 40
70.49999999999874
100
AcDbArc
 50
-59.06534699999929
 51
-45.93465299999941
  0
ARC
  5
1D3
330
48
100
AcDbEntity
  8
LC-001-002-----0
  6
Continuous
 62
     7
100
AcDbCircle
 10
-0.00086250000095
 20
-678.9978809999993
 30
0.0
 40
72.99999999999642
100
AcDbArc
 50
-44.09735799999893
 51
-30.9026420000004
  0
ARC
  5
1D4
330
48
100
AcDbEntity
  8
LC-001-002-----0
  6
Continuous
 62
     7
100
AcDbCircle
 10
-0.00086250000095
 20
-678.9978809999993
 30
0.0
 40
70.49999999999962
100
AcDbArc
 50
-44.0653470000006
 51
-30.93465300000073
  0
ARC
  5
1D5
330
48
100
AcDbEntity
  8
LC-001-002-----0
  6
Continuous
 62
     7
100
AcDbCircle
 10
-0.00086250000095
 20
-678.9978809999993
 30
0.0
 40
72.9999999999966
100
AcDbArc
 50
-29.09735800000034
 51
-15.90264200000022
  0
ARC
  5
1D6
330
48
100
AcDbEntity
  8
LC-001-002-----0
  6
Continuous
 62
     7
100
AcDbCircle
 10
-0.00086250000095
 20
-678.9978809999993
 30
0.0
 40
70.49999999999801
100
AcDbArc
 50
-29.06534699999867
 51
-15.93465299999809
  0
ARC
  5
1D7
330
48
100
AcDbEntity
  8
LC-001-002-----0
  6
Continuous
 62
     7
100
AcDbCircle
 10
-0.00086250000095
 20
-678.9978809999993
 30
0.0
 40
72.99999999999815
100
AcDbArc
 50
0.90264200000194
 51
14.09735800000203
  0
ARC
  5
1D8
330
48
100
AcDbEntity
  8
LC-001-002-----0
  6
Continuous
 62
     7
100
AcDbCircle
 10
-0.00086250000095
 20
-678.9978809999993
 30
0.0
 40
70.49999999999773
100
AcDbArc
 50
0.93465300000051
 51
14.06534700000173
  0
ARC
  5
1D9
330
48
100
AcDbEntity
  8
LC-001-002-----0
  6
Continuous
 62
     7
100
AcDbCircle
 10
-0.00086250000095
 20
-678.9978809999993
 30
0.0
 40
73.00000000000036
100
AcDbArc
 50
15.90264200000022
 51
29.09735800000283
  0
ARC
  5
1DA
330
48
100
AcDbEntity
  8
LC-001-002-----0
  6
Continuous
 62
     7
100
AcDbCircle
 10
-0.00086250000095
 20
-678.9978809999993
 30
0.0
 40
70.49999999999721
100
AcDbArc
 50
15.93465300000093
 51
29.06534700000125
  0
ARC
  5
1DB
330
48
100
AcDbEntity
  8
LC-001-002-----0
  6
Continuous
 62
     7
100
AcDbCircle
 10
-0.00086250000095
 20
-678.9978809999993
 30
0.0
 40
72.99999999999984
100
AcDbArc
 50
30.90264200000285
 51
44.09735800000098
  0
ARC
  5
1DC
330
48
100
AcDbEntity
  8
LC-001-002-----0
  6
Continuous
 62
     7
100
AcDbCircle
 10
-0.00086250000095
 20
-678.9978809999993
 30
0.0
 40
72.99999999999903
100
AcDbArc
 50
45.90264200000306
 51
59.09735800000108
  0
ARC
  5
1DD
330
48
100
AcDbEntity
  8
LC-001-002-----0
  6
Continuous
 62
     7
100
AcDbCircle
 10
-0.00086250000095
 20
-678.9978809999993
 30
0.0
 40
72.99999999999977
100
AcDbArc
 50
60.90264200000104
 51
74.09735799999979
  0
ARC
  5
1DE
330
48
100
AcDbEntity
  8
LC-001-002-----0
  6
Continuous
 62
     7
100
AcDbCircle
 10
-0.00086250000095
 20
-678.9978809999993
 30
0.0
 40
70.49999999999874
100
AcDbArc
 50
30.93465300000073
 51
44.0653470000006
  0
ARC
  5
1DF
330
48
100
AcDbEntity
  8
LC-001-002-----0
  6
Continuous
 62
     7
100
AcDbCircle
 10
-0.00086250000095
 20
-678.9978809999993
 30
0.0
 40
70.50000000000223
100
AcDbArc
 50
45.93465300000146
 51
59.06534700000081
  0
ARC
  5
1E0
330
48
100
AcDbEntity
  8
LC-001-002-----0
  6
Continuous
 62
     7
100
AcDbCircle
 10
-0.00086250000095
 20
-678.9978809999993
 30
0.0
 40
70.5000000000012
100
AcDbArc
 50
60.93465300000278
 51
74.06534700000273
  0
ARC
  5
1E1
330
48
100
AcDbEntity
  8
LC-001-002-----0
  6
Continuous
 62
     7
100
AcDbCircle
 10
-0.00086250000095
 20
-678.9978809999993
 30
0.0
 40
73.00000000000179
100
AcDbArc
 50
90.9026420000019
 51
104.0973580000013
  0
ARC
  5
1E2
330
48
100
AcDbEntity
  8
LC-001-002-----0
  6
Continuous
 62
     7
100
AcDbCircle
 10
-0.00086250000095
 20
-678.9978809999993
 30
0.0
 40
70.50000000000136
100
AcDbArc
 50
90.93465300000047
 51
104.065347000001
  0
ARC
  5
1E3
330
48
100
AcDbEntity
  8
LC-001-002-----0
  6
Continuous
 62
     7
100
AcDbCircle
 10
-0.00086250000095
 20
-678.9978809999993
 30
0.0
 40
73.00000000000036
100
AcDbArc
 50
105.9026420000002
 51
119.0973580000015
  0
ARC
  5
1E4
330
48
100
AcDbEntity
  8
LC-001-002-----0
  6
Continuous
 62
     7
100
AcDbCircle
 10
-0.00086250000095
 20
-678.9978809999993
 30
0.0
 40
70.50000000000071
100
AcDbArc
 50
105.9346530000001
 51
119.0653469999998
  0
ARC
  5
1E5
330
48
100
AcDbEntity
  8
LC-001-002-----0
  6
Continuous
 62
     7
100
AcDbCircle
 10
-0.00086250000095
 20
-678.9978809999993
 30
0.0
 40
73.00000000000297
100
AcDbArc
 50
120.9026420000014
 51
134.097357999999
  0
ARC
  5
1E6
330
48
100
AcDbEntity
  8
LC-001-002-----0
  6
Continuous
 62
     7
100
AcDbCircle
 10
-0.00086250000095
 20
-678.9978809999993
 30
0.0
 40
70.50000000000186
100
AcDbArc
 50
120.9346529999992
 51
134.0653469999986
  0
ARC
  5
1E7
330
48
100
AcDbEntity
  8
LC-001-002-----0
  6
Continuous
 62
     7
100
AcDbCircle
 10
-0.00086250000095
 20
-678.9978809999993
 30
0.0
 40
73.00000000000156
100
AcDbArc
 50
135.902642000001
 51
149.0973579999986
  0
ARC
  5
1E8
330
48
100
AcDbEntity
  8
LC-001-002-----0
  6
Continuous
 62
     7
100
AcDbCircle
 10
-0.00086250000095
 20
-678.9978809999993
 30
0.0
 40
70.50000000000223
100
AcDbArc
 50
135.9346530000015
 51
149.0653470000008
  0
ARC
  5
1E9
330
48
100
AcDbEntity
  8
LC-001-002-----0
  6
Continuous
 62
     7
100
AcDbCircle
 10
-0.00086250000095
 20
-678.9978809999993
 30
0.0
 40
70.50000000000296
100
AcDbArc
 50
150.9346530000002
 51
164.0653469999999
  0
ARC
  5
1EA
330
48
100
AcDbEntity
  8
LC-001-002-----0
  6
Continuous
 62
     7
100
AcDbCircle
 10
-0.00086250000095
 20
-678.9978809999993
 30
0.0
 40
73.00000000000153
100
AcDbArc
 50
150.9026419999986
 51
164.0973579999998
  0
ARC
  5
1EB
330
48
100
AcDbEntity
  8
LC-001-002-----0
  6
Continuous
 62
     7
100
AcDbCircle
 10
-0.00062750000143
 20
-678.9974739999961
 30
0.0
 40
59.50050100000049
100
AcDbArc
 50
-103.8926600000006
 51
-91.1076830000027
  0
ARC
  5
1EC
330
48
100
AcDbEntity
  8
LC-001-002-----0
  6
Continuous
 62
     7
100
AcDbCircle
 10
-0.00062750000143
 20
-678.9978809999993
 30
0.0
 40
75.00035699999881
100
AcDbArc
 50
-104.1216080000015
 51
-90.878745000001
  0
ARC
  5
1ED
330
48
100
AcDbEntity
  8
LC-001-002-----0
  6
Continuous
 62
     7
100
AcDbCircle
 10
-0.00062750000143
 20
-678.9974739999961
 30
0.0
 40
63.00057099999933
100
AcDbArc
 50
166.0463360000009
 51
178.9544460000027
  0
ARC
  5
1EE
330
48
100
AcDbEntity
  8
LC-001-002-----0
  6
Continuous
 62
     7
100
AcDbCircle
 10
-0.00062750000143
 20
-678.9974739999961
 30
0.0
 40
59.50050100000242
100
AcDbArc
 50
-58.89293400000223
 51
-46.10789400000287
  0
ARC
  5
1EF
330
48
100
AcDbEntity
  8
LC-001-002-----0
  6
Continuous
 62
     7
100
AcDbCircle
 10
-0.00062750000143
 20
-678.9978809999993
 30
0.0
 40
79.00004900000003
100
AcDbArc
 50
-134.1660390000023
 51
-120.8342290000011
  0
ARC
  5
1F0
330
48
100
AcDbEntity
  8
LC-001-002-----0
  6
DASHED
 62
     7
100
AcDbCircle
 10
-0.00086250000095
 20
-678.9978809999993
 30
0.0
 40
78.40000000000126
100
AcDbArc
 50
134.1595340000012
 51
135.8404660000007
  0
ARC
  5
1F1
330
48
100
AcDbEntity
  8
LC-001-002-----0
  6
Continuous
 62
     7
100
AcDbCircle
 10
-0.00086250000095
 20
-678.9978809999993
 30
0.0
 40
72.99999999999656
100
AcDbArc
 50
-14.09735799999926
 51
-0.90264199999909
  0
ARC
  5
1F2
330
48
100
AcDbEntity
  8
LC-001-002-----0
  6
Continuous
 62
     7
100
AcDbCircle
 10
-0.00086250000095
 20
-678.9978809999993
 30
0.0
 40
70.49999999999652
100
AcDbArc
 50
-14.06534699999886
 51
-0.93465299999756
  0
ARC
  5
1F3
330
48
100
AcDbEntity
  8
LC-001-002-----0
  6
Continuous
 62
     7
100
AcDbCircle
 10
-0.00086250000095
 20
-678.9978809999993
 30
0.0
 40
72.99999999999744
100
AcDbArc
 50
-104.097358000002
 51
-90.90264200000195
  0
ARC
  5
1F4
330
48
100
AcDbEntity
  8
LC-001-002-----0
  6
Continuous
 62
     7
100
AcDbCircle
 10
-0.00086250000095
 20
-678.9978809999993
 30
0.0
 40
70.4999999999974
100
AcDbArc
 50
-104.0653470000017
 51
-90.93465300000051
  0
ARC
  5
1F5
330
48
100
AcDbEntity
  8
LC-001-002-----0
  6
Continuous
 62
     7
100
AcDbCircle
 10
-0.00086250000095
 20
-678.9978809999993
 30
0.0
 40
73.90000000000101
100
AcDbArc
 50
-99.188046000002
 51
-90.8916480000018
  0
ARC
  5
1F6
330
48
100
AcDbEntity
  8
LC-001-002-----0
  6
Continuous
 62
     7
100
AcDbCircle
 10
-0.00062750000143
 20
-678.9978809999993
 30
0.0
 40
75.00035700000073
100
AcDbArc
 50
165.8786119999988
 51
179.1214339999994
  0
ARC
  5
1F7
330
48
100
AcDbEntity
  8
LC-001-002-----0
  6
Continuous
 62
     7
100
AcDbCircle
 10
-0.00086250000095
 20
-678.9978809999993
 30
0.0
 40
73.89999999999803
100
AcDbArc
 50
-89.10835200000103
 51
-80.8119540000008
  0
ARC
  5
1F8
330
48
100
AcDbEntity
  8
LC-001-002-----0
  6
Continuous
 62
     7
100
AcDbCircle
 10
-0.00062750000143
 20
-678.9978809999993
 30
0.0
 40
79.00004899999966
100
AcDbArc
 50
-104.1660829999998
 51
-90.83425200000131
  0
ARC
  5
1F9
330
48
100
AcDbEntity
  8
LC-001-002-----0
  6
Continuous
 62
     7
100
AcDbCircle
 10
-0.00086250000095
 20
-678.9978809999993
 30
0.0
 40
73.89999999999684
100
AcDbArc
 50
-9.18804599999967
 51
-0.89164799999897
  0
ARC
  5
1FA
330
48
100
AcDbEntity
  8
LC-001-002-----0
  6
Continuous
 62
     7
100
AcDbCircle
 10
-0.00062750000143
 20
-678.9978809999993
 30
0.0
 40
79.00004900000155
100
AcDbArc
 50
165.8341249999976
 51
179.1659190000003
  0
ARC
  5
1FB
330
48
100
AcDbEntity
  8
LC-001-002-----0
  6
Continuous
 62
     7
100
AcDbCircle
 10
-0.00086250000095
 20
-678.9978809999993
 30
0.0
 40
73.89999999999809
100
AcDbArc
 50
0.89164800000179
 51
9.18804600000245
  0
ARC
  5
1FC
330
48
100
AcDbEntity
  8
LC-001-002-----0
  6
Continuous
 62
     7
100
AcDbCircle
 10
-0.00086250000095
 20
-678.9978809999993
 30
0.0
 40
75.39999999999705
100
AcDbArc
 50
0.87390900000243
 51
9.00372500000244
  0
ARC
  5
1FD
330
48
100
AcDbEntity
  8
LC-001-002-----0
  6
Continuous
 62
     7
100
AcDbCircle
 10
-0.00086250000095
 20
-678.9978809999993
 30
0.0
 40
73.90000000000043
100
AcDbArc
 50
80.8119540000008
 51
89.10835200000108
  0
ARC
  5
1FE
330
48
100
AcDbEntity
  8
LC-001-002-----0
  6
Continuous
 62
     7
100
AcDbCircle
 10
-0.00062750000143
 20
-678.9974739999961
 30
0.0
 40
59.50050099999857
100
AcDbArc
 50
76.10757399999996
 51
88.89276899999922
  0
ARC
  5
1FF
330
48
100
AcDbEntity
  8
LC-001-002-----0
  6
Continuous
 62
     7
100
AcDbCircle
 10
-0.00086250000095
 20
-678.9978809999993
 30
0.0
 40
73.90000000000174
100
AcDbArc
 50
90.89164800000175
 51
99.188046000002
  0
ARC
  5
200
330
48
100
AcDbEntity
  8
LC-001-002-----0
  6
Continuous
 62
     7
100
AcDbCircle
 10
-0.00062750000143
 20
-678.9974739999961
 30
0.0
 40
59.50050100000171
100
AcDbArc
 50
166.1078940000022
 51
178.8929340000014
  0
ARC
  5
201
330
48
100
AcDbEntity
  8
LC-001-002-----0
  6
Continuous
 62
     7
100
AcDbCircle
 10
-0.00086250000095
 20
-678.9978809999993
 30
0.0
 40
73.90000000000101
100
AcDbArc
 50
170.811953999998
 51
179.1083519999982
  0
ARC
  5
202
330
48
100
AcDbEntity
  8
LC-001-002-----0
  6
Continuous
 62
     7
100
AcDbCircle
 10
-0.00086250000095
 20
-678.9978809999993
 30
0.0
 40
70.50000000000004
100
AcDbArc
 50
75.93465300000186
 51
89.0653470000025
  0
ARC
  5
203
330
48
100
AcDbEntity
  8
LC-001-002-----0
  6
Continuous
 62
     7
100
AcDbCircle
 10
-0.00086250000095
 20
-678.9978809999993
 30
0.0
 40
73.00000000000009
100
AcDbArc
 50
75.90264200000144
 51
89.09735800000095
  0
ARC
  5
204
330
48
100
AcDbEntity
  8
LC-001-002-----0
  6
Continuous
 62
     7
100
AcDbCircle
 10
-0.00086250000095
 20
-678.9978809999993
 30
0.0
 40
73.00000000000097
100
AcDbArc
 50
165.9026419999987
 51
179.0973579999981
  0
ARC
  5
205
330
48
100
AcDbEntity
  8
LC-001-002-----0
  6
Continuous
 62
     7
100
AcDbCircle
 10
-0.00086250000095
 20
-678.9978809999993
 30
0.0
 40
73.90000000000168
100
AcDbArc
 50
-179.1083520000011
 51
-170.8119540000008
  0
ARC
  5
206
330
48
100
AcDbEntity
  8
LC-001-002-----0
  6
Continuous
 62
     7
100
AcDbCircle
 10
-0.00086250000095
 20
-678.9978809999993
 30
0.0
 40
70.50000000000092
100
AcDbArc
 50
165.934652999999
 51
179.0653469999995
  0
ARC
  5
207
330
48
100
AcDbEntity
  8
LC-002-002-RND-0
  6
Continuous
 62
     7
100
AcDbCircle
 10
1.19913749999614
 20
-687.981749999999
 30
0.0
 40
0.9999999999999998
100
AcDbArc
 50
0.0
 51
90.0
  0
ARC
  5
208
330
48
100
AcDbEntity
  8
LC-002-002-RND-0
  6
Continuous
 62
     7
100
AcDbCircle
 10
-1.20086250000168
 20
-687.981749999999
 30
0.0
 40
1.0
100
AcDbArc
 50
90.0
 51
180.0
  0
ARC
  5
209
330
48
100
AcDbEntity
  8
LC-002-002-RND-0
  6
Continuous
 62
     7
100
AcDbCircle
 10
-1.20086250000168
 20
-711.981749999999
 30
0.0
 40
1.0
100
AcDbArc
 50
180.0
 51
-90.0
  0
ARC
  5
20A
330
48
100
AcDbEntity
  8
LC-002-002-RND-0
  6
Continuous
 62
     7
100
AcDbCircle
 10
1.19913749999614
 20
-711.981749999999
 30
0.0
 40
1.0
100
AcDbArc
 50
-90.0
 51
0.0
  0
ARC
  5
20B
330
48
100
AcDbEntity
  8
LC-002-002-RND-0
  6
Continuous
 62
     7
100
AcDbCircle
 10
1.19913749999614
 20
-670.0140119999996
 30
0.0
 40
1.0
100
AcDbArc
 50
-90.0
 51
0.0
  0
ARC
  5
20C
330
48
100
AcDbEntity
  8
LC-002-002-RND-0
  6
Continuous
 62
     7
100
AcDbCircle
 10
-1.20086250000168
 20
-670.0140119999996
 30
0.0
 40
1.0
100
AcDbArc
 50
180.0
 51
-90.0
  0
ARC
  5
20D
330
48
100
AcDbEntity
  8
LC-002-002-RND-0
  6
Continuous
 62
     7
100
AcDbCircle
 10
-1.20086250000168
 20
-646.0140119999996
 30
0.0
 40
1.0
100
AcDbArc
 50
90.0
 51
180.0
  0
ARC
  5
20E
330
48
100
AcDbEntity
  8
LC-002-002-RND-0
  6
Continuous
 62
     7
100
AcDbCircle
 10
1.19913749999614
 20
-646.0140119999996
 30
0.0
 40
0.9999999999999998
100
AcDbArc
 50
0.0
 51
90.0
  0
ARC
  5
20F
330
48
100
AcDbEntity
  8
LC-001-002-----0
  6
Continuous
 62
     7
100
AcDbCircle
 10
-0.00086250000095
 20
-678.9978809999993
 30
0.0
 40
44.8400000000005
100
AcDbArc
 50
61.46961100000569
 51
73.53038900000053
  0
ARC
  5
210
330
48
100
AcDbEntity
  8
LC-001-002-----0
  6
Continuous
 62
     7
100
AcDbCircle
 10
-0.00086250000095
 20
-678.9978809999993
 30
0.0
 40
44.83999999999953
100
AcDbArc
 50
46.46961099999983
 51
58.53038900000283
  0
ARC
  5
211
330
48
100
AcDbEntity
  8
LC-001-002-----0
  6
Continuous
 62
     7
100
AcDbCircle
 10
-0.00086250000095
 20
-678.9978809999993
 30
0.0
 40
44.83999999999771
100
AcDbArc
 50
31.46961100000356
 51
43.53038900000017
  0
ARC
  5
212
330
48
100
AcDbEntity
  8
LC-001-002-----0
  6
Continuous
 62
     7
100
AcDbCircle
 10
-0.00086250000095
 20
-678.9978809999993
 30
0.0
 40
44.83999999999741
100
AcDbArc
 50
16.46961100000079
 51
28.53038900000061
  0
ARC
  5
213
330
48
100
AcDbEntity
  8
LC-001-002-----0
  6
Continuous
 62
     7
100
AcDbCircle
 10
-0.00086250000095
 20
-678.9978809999993
 30
0.0
 40
44.83999999999757
100
AcDbArc
 50
1.46961100000307
 51
13.53038900000185
  0
ARC
  5
214
330
48
100
AcDbEntity
  8
LC-001-002-----0
  6
Continuous
 62
     7
100
AcDbCircle
 10
-0.00086250000095
 20
-678.9978809999993
 30
0.0
 40
44.83999999999912
100
AcDbArc
 50
-13.53038899999733
 51
-1.46961099999842
  0
ARC
  5
215
330
48
100
AcDbEntity
  8
LC-001-002-----0
  6
Continuous
 62
     7
100
AcDbCircle
 10
-0.00086250000095
 20
-678.9978809999993
 30
0.0
 40
44.83999999999731
100
AcDbArc
 50
-28.53038899999653
 51
-16.46961100000079
  0
ARC
  5
216
330
48
100
AcDbEntity
  8
LC-001-002-----0
  6
Continuous
 62
     7
100
AcDbCircle
 10
-0.00086250000095
 20
-678.9978809999993
 30
0.0
 40
44.83999999999953
100
AcDbArc
 50
-43.53038900000017
 51
-31.4696109999996
  0
ARC
  5
217
330
48
100
AcDbEntity
  8
LC-001-002-----0
  6
Continuous
 62
     7
100
AcDbCircle
 10
-0.00086250000095
 20
-678.9978809999993
 30
0.0
 40
44.83999999999581
100
AcDbArc
 50
-58.5303890000004
 51
-46.46961099999983
  0
ARC
  5
218
330
48
100
AcDbEntity
  8
LC-001-002-----0
  6
Continuous
 62
     7
100
AcDbCircle
 10
-0.00086250000095
 20
-678.9978809999993
 30
0.0
 40
44.8399999999974
100
AcDbArc
 50
-73.5303889999992
 51
-61.46961100000347
  0
ARC
  5
219
330
48
100
AcDbEntity
  8
LC-001-002-----0
  6
Continuous
 62
     7
100
AcDbCircle
 10
-0.00086250000095
 20
-678.9978809999993
 30
0.0
 40
44.83999999999747
100
AcDbArc
 50
-88.53038900000158
 51
-76.46961100000267
  0
ARC
  5
21A
330
48
100
AcDbEntity
  8
LC-001-002-----0
  6
Continuous
 62
     7
100
AcDbCircle
 10
-0.00086250000095
 20
-678.9978809999993
 30
0.0
 40
44.83999999999997
100
AcDbArc
 50
-103.5303890000018
 51
-91.46961100000308
  0
ARC
  5
21B
330
48
100
AcDbEntity
  8
LC-001-002-----0
  6
Continuous
 62
     7
100
AcDbCircle
 10
-0.00086250000095
 20
-678.9978809999993
 30
0.0
 40
44.83999999999904
100
AcDbArc
 50
-118.5303890000006
 51
-106.4696110000052
  0
ARC
  5
21C
330
48
100
AcDbEntity
  8
LC-001-002-----0
  6
Continuous
 62
     7
100
AcDbCircle
 10
-0.00086250000095
 20
-678.9978809999993
 30
0.0
 40
44.83999999999953
100
AcDbArc
 50
-133.5303890000002
 51
-121.4696110000036
  0
ARC
  5
21D
330
48
100
AcDbEntity
  8
LC-001-002-----0
  6
Continuous
 62
     7
100
AcDbCircle
 10
-0.00086250000095
 20
-678.9978809999993
 30
0.0
 40
44.83999999999891
100
AcDbArc
 50
-148.5303890000028
 51
-136.4696110000031
  0
ARC
  5
21E
330
48
100
AcDbEntity
  8
LC-001-002-----0
  6
Continuous
 62
     7
100
AcDbCircle
 10
-0.00086250000095
 20
-678.9978809999993
 30
0.0
 40
44.84000000000089
100
AcDbArc
 50
-163.5303890000005
 51
-151.4696110000057
  0
ARC
  5
21F
330
48
100
AcDbEntity
  8
LC-001-002-----0
  6
Continuous
 62
     7
100
AcDbCircle
 10
-0.00086250000095
 20
-678.9978809999993
 30
0.0
 40
44.84000000000111
100
AcDbArc
 50
-178.5303890000017
 51
-166.4696110000038
  0
ARC
  5
220
330
48
100
AcDbEntity
  8
LC-001-002-----0
  6
Continuous
 62
     7
100
AcDbCircle
 10
-0.00086250000095
 20
-678.9978809999993
 30
0.0
 40
41.00000000000049
100
AcDbArc
 50
-131.9188670000022
 51
-93.08113300000188
  0
ARC
  5
221
330
48
100
AcDbEntity
  8
LC-002-002-RND-0
  6
Continuous
 62
     7
100
AcDbCircle
 10
-2.1508625000024
 20
-718.9400579999965
 30
0.0
 40
0.9999999999999203
100
AcDbArc
 50
-93.08113299999174
 51
0.0
  0
ARC
  5
222
330
48
100
AcDbEntity
  8
LC-002-002-RND-0
  6
Continuous
 62
     7
100
AcDbCircle
 10
2.14913749999687
 20
-718.9400579999965
 30
0.0
 40
1.0
100
AcDbArc
 50
180.0
 51
-86.91886700000823
  0
ARC
  5
223
330
48
100
AcDbEntity
  8
LC-001-002-----0
  6
Continuous
 62
     7
100
AcDbCircle
 10
-0.00086250000095
 20
-678.9978809999993
 30
0.0
 40
40.99999999999693
100
AcDbArc
 50
-86.9188670000032
 51
-48.08113300000156
  0
ARC
  5
224
330
48
100
AcDbEntity
  8
LC-001-002-----0
  6
Continuous
 62
     7
100
AcDbCircle
 10
-0.00086250000095
 20
-678.9978809999993
 30
0.0
 40
41.00000000000057
100
AcDbArc
 50
-176.9188670000035
 51
-138.0811330000016
  0
ARC
  5
225
330
48
100
AcDbEntity
  8
LC-002-002-RND-0
  6
Continuous
 62
     7
100
AcDbCircle
 10
26.72224149999602
 20
-708.7615449999976
 30
0.0
 40
1.000000000000168
100
AcDbArc
 50
-48.08113299989649
 51
45.00000000000029
  0
ARC
  5
226
330
48
100
AcDbEntity
  8
LC-002-002-RND-0
  6
Continuous
 62
     7
100
AcDbCircle
 10
29.7628014999973
 20
-705.7209859999966
 30
0.0
 40
1.000000000000169
100
AcDbArc
 50
-134.9999999998526
 51
-41.91886700010365
  0
ARC
  5
227
330
48
100
AcDbEntity
  8
LC-002-002-RND-0
  6
Continuous
 62
     7
100
AcDbCircle
 10
-26.72396750000189
 20
-708.7615449999976
 30
0.0
 40
1.000000000002744
100
AcDbArc
 50
135.0000000000001
 51
-131.9188670001034
  0
ARC
  5
228
330
48
100
AcDbEntity
  8
LC-002-002-RND-0
  6
Continuous
 62
     7
100
AcDbCircle
 10
-29.76452650000283
 20
-705.7209859999966
 30
0.0
 40
1.000000000000171
100
AcDbArc
 50
-138.0811329998966
 51
-44.99999999999986
  0
ARC
  5
229
330
48
100
AcDbEntity
  8
LC-001-002-----0
  6
Continuous
 62
     7
100
AcDbCircle
 10
-0.00086250000095
 20
-678.9978809999993
 30
0.0
 40
40.99999999999806
100
AcDbArc
 50
-41.91886699999844
 51
-3.0811329999968
  0
ARC
  5
22A
330
48
100
AcDbEntity
  8
LC-001-002-----0
  6
Continuous
 62
     7
100
AcDbCircle
 10
-0.00086250000095
 20
-678.9978809999993
 30
0.0
 40
40.99999999999712
100
AcDbArc
 50
3.08113300000188
 51
41.91886700000222
  0
ARC
  5
22B
330
48
100
AcDbEntity
  8
LC-001-002-----0
  6
Continuous
 62
     7
100
AcDbCircle
 10
-0.00086250000095
 20
-678.9978809999993
 30
0.0
 40
40.99999999999805
100
AcDbArc
 50
48.08113300000156
 51
86.91886700000347
  0
ARC
  5
22C
330
48
100
AcDbEntity
  8
LC-001-002-----0
  6
Continuous
 62
     7
100
AcDbCircle
 10
-0.00086250000095
 20
-678.9978809999993
 30
0.0
 40
41.00000000000076
100
AcDbArc
 50
93.08113300000161
 51
131.9188670000022
  0
ARC
  5
22D
330
48
100
AcDbEntity
  8
LC-001-002-----0
  6
Continuous
 62
     7
100
AcDbCircle
 10
-0.00086250000095
 20
-678.9978809999993
 30
0.0
 40
44.83999999999912
100
AcDbArc
 50
76.46961100000267
 51
88.5303890000017
  0
ARC
  5
22E
330
48
100
AcDbEntity
  8
LC-001-002-----0
  6
Continuous
 62
     7
100
AcDbCircle
 10
-0.00086250000095
 20
-678.9978809999993
 30
0.0
 40
44.8400000000012
100
AcDbArc
 50
91.46961100000296
 51
103.5303890000018
  0
ARC
  5
22F
330
48
100
AcDbEntity
  8
LC-001-002-----0
  6
Continuous
 62
     7
100
AcDbCircle
 10
-0.00086250000095
 20
-678.9978809999993
 30
0.0
 40
44.84000000000192
100
AcDbArc
 50
106.4696110000039
 51
118.5303889999984
  0
ARC
  5
230
330
48
100
AcDbEntity
  8
LC-001-002-----0
  6
Continuous
 62
     7
100
AcDbCircle
 10
-0.00086250000095
 20
-678.9978809999993
 30
0.0
 40
44.84000000000081
100
AcDbArc
 50
121.4696110000011
 51
133.474585
  0
ARC
  5
231
330
48
100
AcDbEntity
  8
LC-001-002-----0
  6
Continuous
 62
     7
100
AcDbCircle
 10
-0.00086250000095
 20
-678.9978809999993
 30
0.0
 40
44.84000000000218
100
AcDbArc
 50
136.4696110000031
 51
148.5303889999989
  0
ARC
  5
232
330
48
100
AcDbEntity
  8
LC-001-002-----0
  6
Continuous
 62
     7
100
AcDbCircle
 10
-0.00086250000095
 20
-678.9978809999993
 30
0.0
 40
44.84000000000224
100
AcDbArc
 50
151.4696110000016
 51
163.5303890000005
  0
ARC
  5
233
330
48
100
AcDbEntity
  8
LC-002-002-RND-0
  6
Continuous
 62
     7
100
AcDbCircle
 10
39.94131449999622
 20
-676.8478809999979
 30
0.0
 40
1.0
100
AcDbArc
 50
-90.0
 51
3.08113299999168
  0
ARC
  5
234
330
48
100
AcDbEntity
  8
LC-002-002-RND-0
  6
Continuous
 62
     7
100
AcDbCircle
 10
39.94131449999622
 20
-681.1478809999971
 30
0.0
 40
0.9999999999999345
100
AcDbArc
 50
-3.08113299999168
 51
90.0
  0
ARC
  5
235
330
48
100
AcDbEntity
  8
LC-002-002-RND-0
  6
Continuous
 62
     7
100
AcDbCircle
 10
26.72224149999602
 20
-649.2342169999974
 30
0.0
 40
1.000000000002736
100
AcDbArc
 50
-45.00000000000029
 51
48.08113299989649
  0
ARC
  5
236
330
48
100
AcDbEntity
  8
LC-002-002-RND-0
  6
Continuous
 62
     7
100
AcDbCircle
 10
29.7628014999973
 20
-652.2747759999984
 30
0.0
 40
1.000000000000165
100
AcDbArc
 50
41.91886700010365
 51
134.9999999998526
  0
ARC
  5
237
330
48
100
AcDbEntity
  8
LC-002-002-RND-0
  6
Continuous
 62
     7
100
AcDbCircle
 10
-2.1508625000024
 20
-639.0557039999985
 30
0.0
 40
1.0
100
AcDbArc
 50
0.0
 51
93.08113299999174
  0
ARC
  5
238
330
48
100
AcDbEntity
  8
LC-002-002-RND-0
  6
Continuous
 62
     7
100
AcDbCircle
 10
2.14913749999687
 20
-639.0557039999985
 30
0.0
 40
0.9999999999999203
100
AcDbArc
 50
86.91886700000823
 51
180.0
  0
ARC
  5
239
330
48
100
AcDbEntity
  8
LC-002-002-RND-0
  6
Continuous
 62
     7
100
AcDbCircle
 10
-29.76452650000283
 20
-652.2747759999984
 30
0.0
 40
1.000000000002744
100
AcDbArc
 50
44.99999999999986
 51
138.0811329998966
  0
ARC
  5
23A
330
48
100
AcDbEntity
  8
LC-002-002-RND-0
  6
Continuous
 62
     7
100
AcDbCircle
 10
-26.72396750000189
 20
-649.2342169999974
 30
0.0
 40
1.000000000000166
100
AcDbArc
 50
131.9188670001034
 51
-135.0000000000001
  0
ARC
  5
23B
330
48
100
AcDbEntity
  8
LC-001-002-----0
  6
Continuous
 62
     7
100
AcDbCircle
 10
-0.00086250000095
 20
-678.9978809999993
 30
0.0
 40
44.8400000000035
100
AcDbArc
 50
166.4696109999992
 51
178.5303889999971
  0
ARC
  5
23C
330
48
100
AcDbEntity
  8
LC-002-002-RND-0
  6
Continuous
 62
     7
100
AcDbCircle
 10
-39.94303950000176
 20
-681.1478809999971
 30
0.0
 40
1.0
100
AcDbArc
 50
90.0
 51
-176.9188670000083
  0
ARC
  5
23D
330
48
100
AcDbEntity
  8
LC-002-002-RND-0
  6
Continuous
 62
     7
100
AcDbCircle
 10
-39.94303950000176
 20
-676.8478809999979
 30
0.0
 40
0.9999999999999203
100
AcDbArc
 50
176.9188670000083
 51
-90.0
  0
ARC
  5
23E
330
48
100
AcDbEntity
  8
LC-001-002-----0
  6
Continuous
 62
     7
100
AcDbCircle
 10
-0.00086250000095
 20
-678.9978809999993
 30
0.0
 40
41.00000000000049
100
AcDbArc
 50
138.0811329999978
 51
176.9188669999984
  0
ARC
  5
23F
330
48
100
AcDbEntity
  8
LC-001-002-----0
  6
Continuous
 62
     7
100
AcDbCircle
 10
-0.00086250000095
 20
-678.9978809999993
 30
0.0
 40
3.500000000003042
100
AcDbArc
 50
109.1820900000414
 51
115.8179100000039
  0
ARC
  5
240
330
48
100
AcDbEntity
  8
LC-001-002-----0
  6
Continuous
 62
     7
100
AcDbCircle
 10
-0.00086250000095
 20
-678.9978809999993
 30
0.0
 40
85.59999999999603
100
AcDbArc
 50
-15.76976799999914
 51
-14.2302320000005
  0
ARC
  5
241
330
48
100
AcDbEntity
  8
LC-001-002-----0
  6
Continuous
 62
     7
100
AcDbCircle
 10
-0.00086250000095
 20
-678.9978809999993
 30
0.0
 40
85.59999999999923
100
AcDbArc
 50
-30.76976800000082
 51
-29.23023200000019
  0
ARC
  5
242
330
48
100
AcDbEntity
  8
LC-001-002-----0
  6
Continuous
 62
     7
100
AcDbCircle
 10
-0.00086250000095
 20
-678.9978809999993
 30
0.0
 40
85.59999999999687
100
AcDbArc
 50
-45.7697679999989
 51
-44.2302320000011
  0
ARC
  5
243
330
48
100
AcDbEntity
  8
LC-001-002-----0
  6
Continuous
 62
     7
100
AcDbCircle
 10
-0.00086250000095
 20
-678.9978809999993
 30
0.0
 40
85.59999999999594
100
AcDbArc
 50
-60.76976799999981
 51
-59.23023200000128
  0
ARC
  5
244
330
48
100
AcDbEntity
  8
LC-001-002-----0
  6
Continuous
 62
     7
100
AcDbCircle
 10
-0.00086250000095
 20
-678.9978809999993
 30
0.0
 40
85.59999999999675
100
AcDbArc
 50
-75.76976799999952
 51
-74.23023200000154
  0
ARC
  5
245
330
48
100
AcDbEntity
  8
LC-001-002-----0
  6
Continuous
 62
     7
100
AcDbCircle
 10
-0.00086250000095
 20
-678.9978809999993
 30
0.0
 40
85.5999999999989
100
AcDbArc
 50
-0.76976799999841
 51
0.76976800000084
  0
ARC
  5
246
330
48
100
AcDbEntity
  8
LC-001-002-----0
  6
Continuous
 62
     7
100
AcDbCircle
 10
-0.00086250000095
 20
-678.9978809999993
 30
0.0
 40
85.59999999999675
100
AcDbArc
 50
14.2302320000005
 51
15.76976800000148
  0
ARC
  5
247
330
48
100
AcDbEntity
  8
LC-001-002-----0
  6
Continuous
 62
     7
100
AcDbCircle
 10
-0.00086250000095
 20
-678.9978809999993
 30
0.0
 40
85.59999999999772
100
AcDbArc
 50
29.23023200000232
 51
30.76976800000082
  0
ARC
  5
248
330
48
100
AcDbEntity
  8
LC-001-002-----0
  6
Continuous
 62
     7
100
AcDbCircle
 10
-0.00086250000095
 20
-678.9978809999993
 30
0.0
 40
85.5999999999994
100
AcDbArc
 50
44.23023200000285
 51
45.7697680000006
  0
ARC
  5
249
330
48
100
AcDbEntity
  8
LC-001-002-----0
  6
Continuous
 62
     7
100
AcDbCircle
 10
-0.00086250000095
 20
-678.9978809999993
 30
0.0
 40
85.60000000000049
100
AcDbArc
 50
59.23023200000252
 51
60.76976800000219
  0
ARC
  5
24A
330
48
100
AcDbEntity
  8
LC-001-002-----0
  6
Continuous
 62
     7
100
AcDbCircle
 10
-0.00086250000095
 20
-678.9978809999993
 30
0.0
 40
85.59999999999954
100
AcDbArc
 50
74.23023200000154
 51
75.76976800000011
  0
ARC
  5
24B
330
48
100
AcDbEntity
  8
LC-001-002-----0
  6
Continuous
 62
     7
100
AcDbCircle
 10
-0.00086250000095
 20
-678.9978809999993
 30
0.0
 40
85.60000000000254
100
AcDbArc
 50
89.23023200000162
 51
90.76976800000081
  0
ARC
  5
24C
330
48
100
AcDbEntity
  8
LC-001-002-----0
  6
Continuous
 62
     7
100
AcDbCircle
 10
-0.00086250000095
 20
-678.9978809999993
 30
0.0
 40
85.60000000000117
100
AcDbArc
 50
104.2302320000023
 51
105.7697680000008
  0
ARC
  5
24D
330
48
100
AcDbEntity
  8
LC-001-002-----0
  6
Continuous
 62
     7
100
AcDbCircle
 10
-0.00086250000095
 20
-678.9978809999993
 30
0.0
 40
85.60000000000089
100
AcDbArc
 50
119.2302320000011
 51
120.7697679999996
  0
ARC
  5
24E
330
48
100
AcDbEntity
  8
LC-001-002-----0
  6
Continuous
 62
     7
100
AcDbCircle
 10
-0.00086250000095
 20
-678.9978809999993
 30
0.0
 40
85.60000000000201
100
AcDbArc
 50
134.2302320000011
 51
135.7697679999989
  0
ARC
  5
24F
330
48
100
AcDbEntity
  8
LC-001-002-----0
  6
Continuous
 62
     7
100
AcDbCircle
 10
-0.00086250000095
 20
-678.9978809999993
 30
0.0
 40
85.59999999999894
100
AcDbArc
 50
-90.76976800000084
 51
-89.2302320000016
  0
ARC
  5
250
330
48
100
AcDbEntity
  8
LC-001-002-----0
  6
Continuous
 62
     7
100
AcDbCircle
 10
-0.00086250000095
 20
-678.9978809999993
 30
0.0
 40
85.60000000000052
100
AcDbArc
 50
-105.7697680000008
 51
-104.2302320000029
  0
ARC
  5
251
330
48
100
AcDbEntity
  8
LC-001-002-----0
  6
Continuous
 62
     7
100
AcDbCircle
 10
-0.00086250000095
 20
-678.9978809999993
 30
0.0
 40
85.59999999999923
100
AcDbArc
 50
-120.7697680000008
 51
-119.2302320000023
  0
ARC
  5
252
330
48
100
AcDbEntity
  8
LC-001-002-----0
  6
Continuous
 62
     7
100
AcDbCircle
 10
-0.00086250000095
 20
-678.9978809999993
 30
0.0
 40
85.59999999999947
100
AcDbArc
 50
-135.7697680000006
 51
-134.2302320000028
  0
ARC
  5
253
330
48
100
AcDbEntity
  8
LC-001-002-----0
  6
Continuous
 62
     7
100
AcDbCircle
 10
-0.00086250000095
 20
-678.9978809999993
 30
0.0
 40
85.59999999999911
100
AcDbArc
 50
-150.769768000001
 51
-149.2302320000004
  0
ARC
  5
254
330
48
100
AcDbEntity
  8
LC-001-002-----0
  6
Continuous
 62
     7
100
AcDbCircle
 10
-0.00086250000095
 20
-678.9978809999993
 30
0.0
 40
85.60000000000028
100
AcDbArc
 50
-165.7697680000001
 51
-164.2302320000015
  0
ARC
  5
255
330
48
100
AcDbEntity
  8
LC-001-002-----0
  6
Continuous
 62
     7
100
AcDbCircle
 10
-0.00086250000095
 20
-678.9978809999993
 30
0.0
 40
85.60000000000258
100
AcDbArc
 50
179.2302319999992
 51
-179.2302320000016
  0
ARC
  5
256
330
48
100
AcDbEntity
  8
LC-001-002-----0
  6
Continuous
 62
     7
100
AcDbCircle
 10
-0.00086250000095
 20
-678.9978809999993
 30
0.0
 40
85.60000000000235
100
AcDbArc
 50
149.2302320000004
 51
150.7697679999989
  0
ARC
  5
257
330
48
100
AcDbEntity
  8
LC-001-002-----0
  6
Continuous
 62
     7
100
AcDbCircle
 10
-0.00086250000095
 20
-678.9978809999993
 30
0.0
 40
85.60000000000052
100
AcDbArc
 50
164.2302319999992
 51
165.7697680000001
  0
ARC
  5
258
330
48
100
AcDbEntity
  8
LC-001-002-----0
  6
Continuous
 62
     7
100
AcDbCircle
 10
-0.00086250000095
 20
-678.9978809999993
 30
0.0
 40
3.500000000000681
100
AcDbArc
 50
154.1820899999961
 51
160.8179100000148
  0
ARC
  5
259
330
48
100
AcDbEntity
  8
LC-001-002-----0
  6
Continuous
 62
     7
100
AcDbCircle
 10
-0.00086250000095
 20
-678.9978809999993
 30
0.0
 40
3.500000000001847
100
AcDbArc
 50
-160.8179100000148
 51
-154.1820900000497
  0
ARC
  5
25A
330
48
100
AcDbEntity
  8
LC-001-002-----0
  6
Continuous
 62
     7
100
AcDbCircle
 10
-0.00086250000095
 20
-678.9978809999993
 30
0.0
 40
3.500000000000681
100
AcDbArc
 50
-115.8179100000039
 51
-109.182090000061
  0
ARC
  5
25B
330
48
100
AcDbEntity
  8
LC-001-002-----0
  6
Continuous
 62
     7
100
AcDbCircle
 10
-0.00086250000095
 20
-678.9978809999993
 30
0.0
 40
3.499999999998411
100
AcDbArc
 50
-70.81790999999528
 51
-64.1820900000497
  0
ARC
  5
25C
330
48
100
AcDbEntity
  8
LC-001-002-----0
  6
Continuous
 62
     7
100
AcDbCircle
 10
-0.00086250000095
 20
-678.9978809999993
 30
0.0
 40
3.499999999995823
100
AcDbArc
 50
-25.81790999997623
 51
-19.18209000000473
  0
ARC
  5
25D
330
48
100
AcDbEntity
  8
LC-001-002-----0
  6
Continuous
 62
     7
100
AcDbCircle
 10
-0.00086250000095
 20
-678.9978809999993
 30
0.0
 40
3.49999999999841
100
AcDbArc
 50
19.18209000000473
 51
25.81791000002984
  0
ARC
  5
25E
330
48
100
AcDbEntity
  8
LC-001-002-----0
  6
Continuous
 62
     7
100
AcDbCircle
 10
-0.00086250000095
 20
-678.9978809999993
 30
0.0
 40
3.499999999999097
100
AcDbArc
 50
64.1820900000497
 51
70.81791000001485
  0
ARC
  5
25F
330
48
100
AcDbEntity
  8
LC-002-002-RND-0
  6
Continuous
 62
     7
100
AcDbCircle
 10
-179.0002405000014
 20
-857.9986549999994
 30
0.0
 40
10.00000000000162
100
AcDbArc
 50
-179.9998760000084
 51
-89.9997520000169
  0
ARC
  5
260
330
48
100
AcDbEntity
  8
LC-002-002-RND-0
  6
Continuous
 62
     7
100
AcDbCircle
 10
178.9997594999986
 20
-857.9971069999992
 30
0.0
 40
9.999999999999089
100
AcDbArc
 50
-89.99975199997503
 51
0.00012400001248
  0
ARC
  5
261
330
48
100
AcDbEntity
  8
LC-002-002-RND-0
  6
Continuous
 62
     7
100
AcDbCircle
 10
178.9989854999985
 20
-499.9971069999992
 30
0.0
 40
10.00000000000162
100
AcDbArc
 50
0.00012400001248
 51
90.00024800002497
  0
ARC
  5
262
330
48
100
AcDbEntity
  8
LC-002-002-RND-0
  6
Continuous
 62
     7
100
AcDbCircle
 10
-179.0010145000015
 20
-499.9986549999994
 30
0.0
 40
10.00000000000267
100
AcDbArc
 50
90.0002480000038
 51
-179.9998760000084
  0
CIRCLE
  5
263
330
48
100
AcDbEntity
  8
LC-001-002-----0
  6
Continuous
 62
     7
100
AcDbCircle
 10
129.4993724999986
 20
-808.4974789999978
 30
0.0
 40
8.0
  0
CIRCLE
  5
264
330
48
100
AcDbEntity
  8
LC-001-002-----0
  6
Continuous
 62
     7
100
AcDbCircle
 10
129.4993724999986
 20
-808.4974789999978
 30
0.0
 40
4.75
  0
CIRCLE
  5
265
330
48
100
AcDbEntity
  8
LC-001-002-----0
  6
Continuous
 62
     7
100
AcDbCircle
 10
-129.5006275000014
 20
-808.4974789999978
 30
0.0
 40
8.0
  0
CIRCLE
  5
266
330
48
100
AcDbEntity
  8
LC-001-002-----0
  6
Continuous
 62
     7
100
AcDbCircle
 10
-129.5006275000014
 20
-808.4974789999978
 30
0.0
 40
4.75
  0
CIRCLE
  5
267
330
48
100
AcDbEntity
  8
LC-001-002-----0
  6
Continuous
 62
     7
100
AcDbCircle
 10
129.4993724999986
 20
-549.4974699999984
 30
0.0
 40
8.0
  0
CIRCLE
  5
268
330
48
100
AcDbEntity
  8
LC-001-002-----0
  6
Continuous
 62
     7
100
AcDbCircle
 10
129.4993724999986
 20
-549.4974699999984
 30
0.0
 40
4.75
  0
CIRCLE
  5
269
330
48
100
AcDbEntity
  8
LC-001-002-----0
  6
Continuous
 62
     7
100
AcDbCircle
 10
-129.5006275000014
 20
-549.4974739999961
 30
0.0
 40
8.0
  0
CIRCLE
  5
26A
330
48
100
AcDbEntity
  8
LC-001-002-----0
  6
Continuous
 62
     7
100
AcDbCircle
 10
-129.5006275000014
 20
-549.4974739999961
 30
0.0
 40
4.75
  0
CIRCLE
  5
26B
330
48
100
AcDbEntity
  8
LC-001-002-----0
  6
Continuous
 62
     7
100
AcDbCircle
 10
129.4993724999986
 20
-808.4974739999961
 30
0.0
 40
2.5
  0
CIRCLE
  5
26C
330
48
100
AcDbEntity
  8
LC-001-002-----0
  6
Continuous
 62
     7
100
AcDbCircle
 10
-129.5006275000014
 20
-808.4974739999961
 30
0.0
 40
2.5
  0
CIRCLE
  5
26D
330
48
100
AcDbEntity
  8
LC-001-002-----0
  6
Continuous
 62
     7
100
AcDbCircle
 10
-129.5006275000014
 20
-549.4974739999961
 30
0.0
 40
2.5
  0
CIRCLE
  5
26E
330
48
100
AcDbEntity
  8
LC-001-002-----0
  6
Continuous
 62
     7
100
AcDbCircle
 10
46.99902149999616
 20
-760.403661999997
 30
0.0
 40
3.0
  0
CIRCLE
  5
26F
330
48
100
AcDbEntity
  8
LC-001-002-----0
  6
Continuous
 62
     7
100
AcDbCircle
 10
46.99902149999616
 20
-760.403661999997
 30
0.0
 40
5.0
  0
CIRCLE
  5
270
330
48
100
AcDbEntity
  8
LC-001-002-----0
  6
Continuous
 62
     7
100
AcDbCircle
 10
-47.00045350000437
 20
-760.4035609999992
 30
0.0
 40
3.0
  0
CIRCLE
  5
271
330
48
100
AcDbEntity
  8
LC-001-002-----0
  6
Continuous
 62
     7
100
AcDbCircle
 10
129.4993724999986
 20
-549.4974739999961
 30
0.0
 40
2.5
  0
CIRCLE
  5
272
330
48
100
AcDbEntity
  8
LC-001-002-----0
  6
Continuous
 62
     7
100
AcDbCircle
 10
-47.00045350000437
 20
-760.4035609999992
 30
0.0
 40
5.0
  0
CIRCLE
  5
273
330
48
100
AcDbEntity
  8
LC-001-002-----0
  6
Continuous
 62
     7
100
AcDbCircle
 10
-93.99992750000092
 20
-678.9974739999961
 30
0.0
 40
3.0
  0
CIRCLE
  5
274
330
48
100
AcDbEntity
  8
LC-001-002-----0
  6
Continuous
 62
     7
100
AcDbCircle
 10
-93.99992750000092
 20
-678.9974739999961
 30
0.0
 40
5.0
  0
CIRCLE
  5
275
330
48
100
AcDbEntity
  8
LC-001-002-----0
  6
Continuous
 62
     7
100
AcDbCircle
 10
129.4993764999963
 20
-808.4974789999978
 30
0.0
 40
3.500004000001326
  0
CIRCLE
  5
276
330
48
100
AcDbEntity
  8
LC-001-002-----0
  6
Continuous
 62
     7
100
AcDbCircle
 10
129.4993764999963
 20
-808.4974739999961
 30
0.0
 40
9.0
  0
CIRCLE
  5
277
330
48
100
AcDbEntity
  8
LC-001-002-----0
  6
Continuous
 62
     7
100
AcDbCircle
 10
-129.5006325000031
 20
-808.4974739999961
 30
0.0
 40
8.999999999999986
  0
CIRCLE
  5
278
330
48
100
AcDbEntity
  8
LC-001-002-----0
  6
Continuous
 62
     7
100
AcDbCircle
 10
93.99867149999773
 20
-678.9974739999961
 30
0.0
 40
3.0
  0
CIRCLE
  5
279
330
48
100
AcDbEntity
  8
LC-001-002-----0
  6
Continuous
 62
     7
100
AcDbCircle
 10
93.99867149999773
 20
-678.9974739999961
 30
0.0
 40
5.0
  0
CIRCLE
  5
27A
330
48
100
AcDbEntity
  8
LC-001-002-----0
  6
Continuous
 62
     7
100
AcDbCircle
 10
129.4993764999963
 20
-549.4974699999984
 30
0.0
 40
3.500004000001326
  0
CIRCLE
  5
27B
330
48
100
AcDbEntity
  8
LC-001-002-----0
  6
Continuous
 62
     7
100
AcDbCircle
 10
129.4993764999963
 20
-549.4974739999961
 30
0.0
 40
9.0
  0
CIRCLE
  5
27C
330
48
100
AcDbEntity
  8
LC-001-002-----0
  6
Continuous
 62
     7
100
AcDbCircle
 10
-129.5006325000031
 20
-549.4974699999984
 30
0.0
 40
3.500004000001297
  0
CIRCLE
  5
27D
330
48
100
AcDbEntity
  8
LC-001-002-----0
  6
Continuous
 62
     7
100
AcDbCircle
 10
-129.5006325000031
 20
-549.4974739999961
 30
0.0
 40
8.999999999999986
  0
CIRCLE
  5
27E
330
48
100
AcDbEntity
  8
LC-001-002-----0
  6
Continuous
 62
     7
100
AcDbCircle
 10
46.99866949999705
 20
-597.5918959999981
 30
0.0
 40
3.0
  0
CIRCLE
  5
27F
330
48
100
AcDbEntity
  8
LC-001-002-----0
  6
Continuous
 62
     7
100
AcDbCircle
 10
46.99866949999705
 20
-597.5918959999981
 30
0.0
 40
5.0
  0
CIRCLE
  5
280
330
48
100
AcDbEntity
  8
LC-001-002-----0
  6
Continuous
 62
     7
100
AcDbCircle
 10
-0.00062750000143
 20
-678.9974739999961
 30
0.0
 40
142.0501739999999
  0
CIRCLE
  5
281
330
48
100
AcDbEntity
  8
LC-001-002-----0
  6
Continuous
 62
     7
100
AcDbCircle
 10
-47.00062950000211
 20
-597.5923029999976
 30
0.0
 40
5.0
  0
CIRCLE
  5
282
330
48
100
AcDbEntity
  8
LC-001-002-----0
  6
Continuous
 62
     7
100
AcDbCircle
 10
-0.00086250000095
 20
-678.9978809999993
 30
0.0
 40
139.5000000000001
  0
CIRCLE
  5
283
330
48
100
AcDbEntity
  8
LC-001-002-----0
  6
Continuous
 62
     7
100
AcDbCircle
 10
-0.00062750000143
 20
-678.9978809999993
 30
0.0
 40
101.8928789999991
  0
CIRCLE
  5
284
330
48
100
AcDbEntity
  8
LC-001-002-----0
  6
Continuous
 62
     7
100
AcDbCircle
 10
-0.00062750000143
 20
-678.9978809999993
 30
0.0
 40
123.4566239999985
  0
CIRCLE
  5
285
330
48
100
AcDbEntity
  8
LC-001-002-----0
  6
Continuous
 62
     7
100
AcDbCircle
 10
-0.00062750000143
 20
-678.9978809999993
 30
0.0
 40
124.5749289999985
  0
CIRCLE
  5
286
330
48
100
AcDbEntity
  8
LC-001-002-----0
  6
Continuous
 62
     7
100
AcDbCircle
 10
-47.00027750000299
 20
-597.592099999998
 30
0.0
 40
3.5
  0
CIRCLE
  5
287
330
48
100
AcDbEntity
  8
LC-001-002-----0
  6
Continuous
 62
     7
100
AcDbCircle
 10
-0.00086250000095
 20
-678.9978809999993
 30
0.0
 40
43.19999999999709
  0
ENDBLK
  5
4A
330
48
100
AcDbEntity
  8
0
100
AcDbBlockEnd
  0
BLOCK
  5
4C
330
4B
100
AcDbEntity
  8
0
100
AcDbBlockBegin
  2
060_1E_Laubfangkorb
 70
     0
 71
     0
 10
227.0378711237936
 20
-1241.403681963595
 30
0.0
  3
060_1E_Laubfangkorb
  1

  0
LINE
  5
288
330
4B
100
AcDbEntity
  8
1
  6
Continuous
 62
     7
100
AcDbLine
 10
47.5615319087112
 20
70.50018554230842
 30
0.0
 11
48.4484862265592
 21
70.50018554230842
 31
0.0
  0
LINE
  5
289
330
4B
100
AcDbEntity
  8
LC-001-002-----0
  6
Continuous
 62
     7
100
AcDbLine
 10
61.79717390871085
 20
11.50005554230808
 30
0.0
 11
54.12190690871213
 21
30.13788554230774
 31
0.0
  0
LINE
  5
28A
330
4B
100
AcDbEntity
  8
LC-001-002-----0
  6
Continuous
 62
     7
100
AcDbLine
 10
61.20188990871176
 20
11.50005554230808
 30
0.0
 11
53.52662290870941
 21
30.1378845423074
 31
0.0
  0
LINE
  5
28B
330
4B
100
AcDbEntity
  8
LC-001-002-----0
  6
Continuous
 62
     7
100
AcDbLine
 10
52.20191390870897
 20
34.80019854230847
 30
0.0
 11
43.59506790871021
 21
55.70018054230746
 31
0.0
  0
LINE
  5
28C
330
4B
100
AcDbEntity
  8
LC-001-002-----0
  6
Continuous
 62
     7
100
AcDbLine
 10
51.60663090871023
 20
34.80019654230779
 30
0.0
 11
42.99978390871112
 21
55.70017954230713
 31
0.0
  0
LINE
  5
28D
330
4B
100
AcDbEntity
  8
LC-001-002-----0
  6
Continuous
 62
     7
100
AcDbLine
 10
51.60663090871023
 20
34.80019654230779
 30
0.0
 11
42.99978390871112
 21
55.70017954230713
 31
0.0
  0
LINE
  5
28E
330
4B
100
AcDbEntity
  8
LC-001-002-----0
  6
Continuous
 62
     7
100
AcDbLine
 10
47.11105890871042
 20
34.80018454230736
 30
0.0
 11
39.39436390871126
 21
55.70017454230907
 31
0.0
  0
LINE
  5
28F
330
4B
100
AcDbEntity
  8
LC-001-002-----0
  6
Continuous
 62
     7
100
AcDbLine
 10
45.9610599087093
 20
34.80018154230999
 30
0.0
 11
38.2443639087098
 21
55.70017254230839
 31
0.0
  0
LINE
  5
290
330
4B
100
AcDbEntity
  8
LC-001-002-----0
  6
Continuous
 62
     7
100
AcDbLine
 10
58.85232412608013
 20
3.0
 30
0.0
 11
48.83247790871175
 21
30.13787154230664
 31
0.0
  0
LINE
  5
291
330
4B
100
AcDbEntity
  8
LC-001-002-----0
  6
Continuous
 62
     7
100
AcDbLine
 10
57.70232311033334
 20
3.0
 30
0.0
 11
47.68247890871063
 21
30.13786854230926
 31
0.0
  0
LINE
  5
292
330
4B
100
AcDbEntity
  8
LC-001-002-----0
  6
Continuous
 62
     7
100
AcDbLine
 10
45.83385690870929
 20
11.50005554230808
 30
0.0
 11
40.21517190871165
 21
30.13784754230943
 31
0.0
  0
LINE
  5
293
330
4B
100
AcDbEntity
  8
LC-001-002-----0
  6
Continuous
 62
     7
100
AcDbLine
 10
44.19909090871008
 20
11.50005554230808
 30
0.0
 11
38.57060090871093
 21
30.13784354230808
 31
0.0
  0
LINE
  5
294
330
4B
100
AcDbEntity
  8
LC-001-002-----0
  6
Continuous
 62
     7
100
AcDbLine
 10
32.65035892639688
 20
3.0
 30
0.0
 11
26.86538490870882
 21
30.13781154230816
 31
0.0
  0
LINE
  5
295
330
4B
100
AcDbEntity
  8
LC-001-002-----0
  6
Continuous
 62
     7
100
AcDbLine
 10
34.64221877572416
 20
3.0
 30
0.0
 11
28.85724290871005
 21
30.13781654230985
 31
0.0
  0
LINE
  5
296
330
4B
100
AcDbEntity
  8
LC-001-002-----0
  6
Continuous
 62
     7
100
AcDbLine
 10
38.80963690870996
 20
34.80016154230685
 30
0.0
 11
32.50896990871044
 21
55.70016454230932
 31
0.0
  0
LINE
  5
297
330
4B
100
AcDbEntity
  8
LC-001-002-----0
  6
Continuous
 62
     7
100
AcDbLine
 10
37.16261190871157
 20
34.80015754230914
 30
0.0
 11
30.85094690871048
 21
55.70016254230865
 31
0.0
  0
LINE
  5
298
330
4B
100
AcDbEntity
  8
LC-001-002-----0
  6
Continuous
 62
     7
100
AcDbLine
 10
27.863375908709
 20
34.80013154230761
 30
0.0
 11
23.40811290870917
 21
55.7001525423089
 31
0.0
  0
LINE
  5
299
330
4B
100
AcDbEntity
  8
LC-001-002-----0
  6
Continuous
 62
     7
100
AcDbLine
 10
25.87151790871141
 20
34.80012654230956
 30
0.0
 11
21.41625490871158
 21
55.70014954230788
 31
0.0
  0
LINE
  5
29A
330
4B
100
AcDbEntity
  8
LC-001-002-----0
  6
Continuous
 62
     7
100
AcDbLine
 10
15.01824390871044
 20
34.80009654230668
 30
0.0
 11
12.7120019087117
 21
55.70013754230746
 31
0.0
  0
LINE
  5
29B
330
4B
100
AcDbEntity
  8
LC-001-002-----0
  6
Continuous
 62
     7
100
AcDbLine
 10
12.79661490871078
 20
34.80009054230828
 30
0.0
 11
10.49037190871169
 21
55.70013454230644
 31
0.0
  0
LINE
  5
29C
330
4B
100
AcDbEntity
  8
LC-001-002-----0
  6
Continuous
 62
     7
100
AcDbLine
 10
17.58931790870994
 20
11.50005554230808
 30
0.0
 11
15.53271390871234
 21
30.13778054230858
 31
0.0
  0
LINE
  5
29D
330
4B
100
AcDbEntity
  8
LC-001-002-----0
  6
Continuous
 62
     7
100
AcDbLine
 10
15.36768790870994
 20
11.50005554230808
 30
0.0
 11
13.31108490870903
 21
30.13777354230984
 31
0.0
  0
LINE
  5
29E
330
4B
100
AcDbEntity
  8
LC-001-002-----0
  6
Continuous
 62
     7
100
AcDbLine
 10
-12.79675409129121
 20
34.80005554230735
 30
0.0
 11
-10.49056909128993
 21
55.70010554230754
 31
0.0
  0
LINE
  5
29F
330
4B
100
AcDbEntity
  8
LC-001-002-----0
  6
Continuous
 62
     7
100
AcDbLine
 10
-15.01838409129121
 20
34.80005554230735
 30
0.0
 11
-12.7121980912896
 21
55.70010254230652
 31
0.0
  0
LINE
  5
2A0
330
4B
100
AcDbEntity
  8
LC-001-002-----0
  6
Continuous
 62
     7
100
AcDbLine
 10
-25.8716570912882
 20
34.80005554230735
 30
0.0
 11
-21.41645109128948
 21
55.70009054230974
 31
0.0
  0
LINE
  5
2A1
330
4B
100
AcDbEntity
  8
LC-001-002-----0
  6
Continuous
 62
     7
100
AcDbLine
 10
-27.86351509128943
 20
34.80005554230735
 30
0.0
 11
-23.40831009129104
 21
55.70008854230906
 31
0.0
  0
LINE
  5
2A2
330
4B
100
AcDbEntity
  8
LC-001-002-----0
  6
Continuous
 62
     7
100
AcDbLine
 10
-37.1627520912887
 20
34.80005554230735
 30
0.0
 11
-30.85114309128838
 21
55.70007754230898
 31
0.0
  0
LINE
  5
2A3
330
4B
100
AcDbEntity
  8
LC-001-002-----0
  6
Continuous
 62
     7
100
AcDbLine
 10
-38.80977709129073
 20
34.80005554230735
 30
0.0
 11
-32.50916709128868
 21
55.7000755423083
 31
0.0
  0
LINE
  5
2A4
330
4B
100
AcDbEntity
  8
LC-001-002-----0
  6
Continuous
 62
     7
100
AcDbLine
 10
-61.79717909128957
 20
11.50005554230808
 30
0.0
 11
-54.12203309128816
 21
30.13773754230857
 31
0.0
  0
LINE
  5
2A5
330
4B
100
AcDbEntity
  8
LC-001-002-----0
  6
Continuous
 62
     7
100
AcDbLine
 10
-61.20189609129082
 20
11.50005554230808
 30
0.0
 11
-53.52674909128908
 21
30.13773754230857
 31
0.0
  0
LINE
  5
2A6
330
4B
100
AcDbEntity
  8
LC-001-002-----0
  6
Continuous
 62
     7
100
AcDbLine
 10
-45.96119909128973
 20
34.80005554230735
 30
0.0
 11
-38.24456109128804
 21
55.70006754230923
 31
0.0
  0
LINE
  5
2A7
330
4B
100
AcDbEntity
  8
LC-001-002-----0
  6
Continuous
 62
     7
100
AcDbLine
 10
-47.11119809129085
 20
34.80005554230735
 30
0.0
 11
-39.39456109128949
 21
55.70006654230889
 31
0.0
  0
LINE
  5
2A8
330
4B
100
AcDbEntity
  8
LC-001-002-----0
  6
Continuous
 62
     7
100
AcDbLine
 10
-45.83389509128827
 20
11.50005554230808
 30
0.0
 11
-40.21529909128802
 21
30.13773754230857
 31
0.0
  0
LINE
  5
2A9
330
4B
100
AcDbEntity
  8
LC-001-002-----0
  6
Continuous
 62
     7
100
AcDbLine
 10
-44.19913009128939
 20
11.50005554230808
 30
0.0
 11
-38.57072709129059
 21
30.13773754230857
 31
0.0
  0
LINE
  5
2AA
330
4B
100
AcDbEntity
  8
LC-001-002-----0
  6
Continuous
 62
     7
100
AcDbLine
 10
-52.2020530912894
 20
34.80005554230735
 30
0.0
 11
-43.5952640912881
 21
55.70006054230686
 31
0.0
  0
LINE
  5
2AB
330
4B
100
AcDbEntity
  8
LC-001-002-----0
  6
Continuous
 62
     7
100
AcDbLine
 10
-58.8523160416498
 20
3.0
 30
0.0
 11
-48.83260509128812
 21
30.13773754230857
 31
0.0
  0
LINE
  5
2AC
330
4B
100
AcDbEntity
  8
LC-001-002-----0
  6
Continuous
 62
     7
100
AcDbLine
 10
-15.36775909128917
 20
11.50005554230808
 30
0.0
 11
-13.3112110912887
 21
30.13773754230857
 31
0.0
  0
LINE
  5
2AD
330
4B
100
AcDbEntity
  8
LC-001-002-----0
  6
Continuous
 62
     7
100
AcDbLine
 10
-17.58938809128884
 20
11.50005554230808
 30
0.0
 11
-15.53284009128837
 21
30.13773754230857
 31
0.0
  0
LINE
  5
2AE
330
4B
100
AcDbEntity
  8
LC-001-002-----0
  6
Continuous
 62
     7
100
AcDbLine
 10
-34.64225034751353
 20
3.0
 30
0.0
 11
-28.85736909128971
 21
30.13773754230857
 31
0.0
  0
LINE
  5
2AF
330
4B
100
AcDbEntity
  8
LC-001-002-----0
  6
Continuous
 62
     7
100
AcDbLine
 10
-32.6503923475123
 20
3.0
 30
0.0
 11
-26.86551109128848
 21
30.13773754230857
 31
0.0
  0
LINE
  5
2B0
330
4B
100
AcDbEntity
  8
LC-001-002-----0
  6
Continuous
 62
     7
100
AcDbLine
 10
-57.70231587021788
 20
3.0
 30
0.0
 11
-47.6826050912903
 21
30.13773754230857
 31
0.0
  0
LINE
  5
2B1
330
4B
100
AcDbEntity
  8
LC-001-002-----0
  6
Continuous
 62
     7
100
AcDbLine
 10
-51.60677009129066
 20
34.80005554230735
 30
0.0
 11
-42.99998009128902
 21
55.7000615423072
 31
0.0
  0
LINE
  5
2B2
330
4B
100
AcDbEntity
  8
LC-001-002-----0
  6
Continuous
 62
     7
100
AcDbLine
 10
1.15024490871221
 20
30.13773754230857
 30
0.0
 11
1.15024490871221
 21
3.0
 31
0.0
  0
LINE
  5
2B3
330
4B
100
AcDbEntity
  8
LC-001-002-----0
  6
Continuous
 62
     7
100
AcDbLine
 10
-1.1497550912907
 20
30.13773754230857
 30
0.0
 11
-1.1497550912907
 21
3.0
 31
0.0
  0
LINE
  5
2B4
330
4B
100
AcDbEntity
  8
LC-001-002-----0
  6
Continuous
 62
     7
100
AcDbLine
 10
-57.89266709128859
 20
30.13773754230857
 30
0.0
 11
57.89254090870892
 21
30.13773754230857
 31
0.0
  0
LINE
  5
2B5
330
4B
100
AcDbEntity
  8
LC-001-002-----0
  6
Continuous
 62
     7
100
AcDbLine
 10
-56.1957220912889
 20
34.80005554230735
 30
0.0
 11
56.19558290871211
 21
34.80005554230735
 31
0.0
  0
LINE
  5
2B6
330
4B
100
AcDbEntity
  8
LC-001-002-----0
  6
Continuous
 62
     7
100
AcDbLine
 10
-48.58874509128944
 20
55.70005354230813
 30
0.0
 11
48.58854890871155
 21
55.7001865423095
 31
0.0
  0
LINE
  5
2B7
330
4B
100
AcDbEntity
  8
LC-001-002-----0
  6
Continuous
 62
     7
100
AcDbLine
 10
-57.89266709128859
 20
30.13773754230857
 30
0.0
 11
-56.1957220912889
 21
30.43695454230834
 31
0.0
  0
LINE
  5
2B8
330
4B
100
AcDbEntity
  8
LC-001-002-----0
  6
Continuous
 62
     7
100
AcDbLine
 10
-56.1957220912889
 20
34.80005554230735
 30
0.0
 11
-56.1957220912889
 21
30.43695454230834
 31
0.0
  0
LINE
  5
2B9
330
4B
100
AcDbEntity
  8
LC-001-002-----0
  6
Continuous
 62
     7
100
AcDbLine
 10
-1.1497550912907
 20
55.7001185423083
 30
0.0
 11
-1.1497550912907
 21
34.80005554230735
 31
0.0
  0
LINE
  5
2BA
330
4B
100
AcDbEntity
  8
LC-001-002-----0
  6
Continuous
 62
     7
100
AcDbLine
 10
1.15024490871221
 20
55.70012154230932
 30
0.0
 11
1.15024490871221
 21
34.80005554230735
 31
0.0
  0
LINE
  5
2BB
330
4B
100
AcDbEntity
  8
LC-001-002-----0
  6
Continuous
 62
     7
100
AcDbLine
 10
57.99202590871138
 20
30.12035454231005
 30
0.0
 11
56.1955949087089
 21
30.43710854230955
 31
0.0
  0
LINE
  5
2BC
330
4B
100
AcDbEntity
  8
LC-001-002-----0
  6
Continuous
 62
     7
100
AcDbLine
 10
56.19558290871211
 20
34.80020954230855
 30
0.0
 11
56.1955949087089
 21
30.43710854230955
 31
0.0
  0
LINE
  5
2BD
330
4B
100
AcDbEntity
  8
LC-001-002-----0
  6
Continuous
 62
     7
100
AcDbLine
 10
-44.83985109128915
 20
66.00005554230812
 30
0.0
 11
-42.4869860912884
 21
66.41492854230961
 31
0.0
  0
LINE
  5
2BE
330
4B
100
AcDbEntity
  8
LC-001-002-----0
  6
Continuous
 62
     7
100
AcDbLine
 10
-42.4869860912884
 20
66.41492854230961
 30
0.0
 11
-41.00011909128878
 21
70.50006454230751
 31
0.0
  0
LINE
  5
2BF
330
4B
100
AcDbEntity
  8
LC-001-002-----0
  6
Continuous
 62
     7
100
AcDbLine
 10
-64.67622909128912
 20
11.50005554230808
 30
0.0
 11
-43.20198309129117
 21
70.50006154230651
 31
0.0
  0
LINE
  5
2C0
330
4B
100
AcDbEntity
  8
LC-001-002-----0
  6
Continuous
 62
     7
100
AcDbLine
 10
44.83962590871235
 20
66.00017854230971
 30
0.0
 11
42.48675990871126
 21
66.41504554230922
 31
0.0
  0
LINE
  5
2C1
330
4B
100
AcDbEntity
  8
LC-001-002-----0
  6
Continuous
 62
     7
100
AcDbLine
 10
42.48675990871126
 20
66.41504554230922
 30
0.0
 11
40.99988090871122
 21
70.50017654230902
 31
0.0
  0
LINE
  5
2C2
330
4B
100
AcDbEntity
  8
LC-001-002-----0
  6
Continuous
 62
     7
100
AcDbLine
 10
64.676217908712
 20
11.50005554230808
 30
0.0
 11
43.20174590871031
 21
70.50017954230641
 31
0.0
  0
LINE
  5
2C3
330
4B
100
AcDbEntity
  8
LC-001-002-----0
  6
Continuous
 62
     7
100
AcDbLine
 10
-48.44872409129019
 20
70.50005354230741
 30
0.0
 11
47.5615319087112
 21
70.50018554230842
 31
0.0
  0
LINE
  5
2C4
330
4B
100
AcDbEntity
  8
LC-001-002-----0
  6
Continuous
 62
     7
100
AcDbLine
 10
83.51985854035946
 20
3.0
 30
0.0
 11
62.54388290870995
 21
60.63052754230881
 31
0.0
  0
LINE
  5
2C5
330
4B
100
AcDbEntity
  8
LC-001-002-----0
  6
Continuous
 62
     7
100
AcDbLine
 10
-83.51982720872263
 20
3.0
 30
0.0
 11
-62.54409309128894
 21
60.63035654230912
 31
0.0
  0
LINE
  5
2C6
330
4B
100
AcDbEntity
  8
LC-001-002-----0
  6
Continuous
 62
     7
100
AcDbLine
 10
3.3052349087113
 20
55.7001245423067
 30
0.0
 11
3.30519490871231
 21
70.50012454230962
 31
0.0
  0
LINE
  5
2C7
330
4B
100
AcDbEntity
  8
LC-001-002-----0
  6
Continuous
 62
     7
100
AcDbLine
 10
-3.30543209128953
 20
55.70011554230729
 30
0.0
 11
-3.30543209128953
 21
70.50011554230652
 31
0.0
  0
LINE
  5
2C8
330
4B
100
AcDbEntity
  8
LC-001-002-----0
  6
Continuous
 62
     7
100
AcDbLine
 10
15.0785539087112
 20
11.50005554230808
 30
0.0
 11
19.21061890870916
 21
11.50005554230808
 31
0.0
  0
LINE
  5
2C9
330
4B
100
AcDbEntity
  8
LC-001-002-----0
  6
Continuous
 62
     7
100
AcDbLine
 10
15.0785539087112
 20
11.50005554230808
 30
0.0
 11
15.0785539087112
 21
3.0
 31
0.0
  0
LINE
  5
2CA
330
4B
100
AcDbEntity
  8
LC-001-002-----0
  6
Continuous
 62
     7
100
AcDbLine
 10
17.01040590870909
 20
11.50005554230808
 30
0.0
 11
17.01040590870909
 21
3.0
 31
0.0
  0
LINE
  5
2CB
330
4B
100
AcDbEntity
  8
LC-001-002-----0
  6
Continuous
 62
     7
100
AcDbLine
 10
19.21061890870916
 20
11.50005554230808
 30
0.0
 11
19.21061890870916
 21
3.0
 31
0.0
  0
LINE
  5
2CC
330
4B
100
AcDbEntity
  8
LC-001-002-----0
  6
Continuous
 62
     7
100
AcDbLine
 10
-15.0789810912909
 20
11.50005554230808
 30
0.0
 11
-19.21104609128887
 21
11.50005554230808
 31
0.0
  0
LINE
  5
2CD
330
4B
100
AcDbEntity
  8
LC-001-002-----0
  6
Continuous
 62
     7
100
AcDbLine
 10
-59.62100509128939
 20
11.50005554230808
 30
0.0
 11
-68.349952091289
 21
11.50005554230808
 31
0.0
  0
LINE
  5
2CE
330
4B
100
AcDbEntity
  8
LC-001-002-----0
  6
Continuous
 62
     7
100
AcDbLine
 10
0.99978690871214
 20
11.50005554230808
 30
0.0
 11
-1.00021309128786
 21
11.50005554230808
 31
0.0
  0
LINE
  5
2CF
330
4B
100
AcDbEntity
  8
LC-001-002-----0
  6
Continuous
 62
     7
100
AcDbLine
 10
-15.0789810912909
 20
11.50005554230808
 30
0.0
 11
-15.0789810912909
 21
3.0
 31
0.0
  0
LINE
  5
2D0
330
4B
100
AcDbEntity
  8
LC-001-002-----0
  6
Continuous
 62
     7
100
AcDbLine
 10
-17.01083309128879
 20
11.50005554230808
 30
0.0
 11
-17.01083309128879
 21
3.0
 31
0.0
  0
LINE
  5
2D1
330
4B
100
AcDbEntity
  8
LC-001-002-----0
  6
Continuous
 62
     7
100
AcDbLine
 10
-19.21104609128887
 20
11.50005554230808
 30
0.0
 11
-19.21104609128887
 21
3.0
 31
0.0
  0
LINE
  5
2D2
330
4B
100
AcDbEntity
  8
LC-001-002-----0
  6
Continuous
 62
     7
100
AcDbLine
 10
-68.349952091289
 20
3.0
 30
0.0
 11
-68.349952091289
 21
11.50005554230808
 31
0.0
  0
LINE
  5
2D3
330
4B
100
AcDbEntity
  8
LC-001-002-----0
  6
Continuous
 62
     7
100
AcDbLine
 10
43.12759690871027
 20
11.50005554230808
 30
0.0
 11
43.12759690871027
 21
3.0
 31
0.0
  0
LINE
  5
2D4
330
4B
100
AcDbEntity
  8
LC-001-002-----0
  6
Continuous
 62
     7
100
AcDbLine
 10
44.54181090871063
 20
11.50005554230808
 30
0.0
 11
44.54181090871063
 21
3.0
 31
0.0
  0
LINE
  5
2D5
330
4B
100
AcDbEntity
  8
LC-001-002-----0
  6
Continuous
 62
     7
100
AcDbLine
 10
43.12759690871027
 20
11.50005554230808
 30
0.0
 11
50.55290590871229
 21
11.50005554230808
 31
0.0
  0
LINE
  5
2D6
330
4B
100
AcDbEntity
  8
LC-001-002-----0
  6
Continuous
 62
     7
100
AcDbLine
 10
50.55290590871229
 20
11.50005554230808
 30
0.0
 11
50.55290590871229
 21
3.0
 31
0.0
  0
LINE
  5
2D7
330
4B
100
AcDbEntity
  8
LC-001-002-----0
  6
Continuous
 62
     7
100
AcDbLine
 10
-43.12802409128997
 20
11.50005554230808
 30
0.0
 11
-43.12802409128997
 21
3.0
 31
0.0
  0
LINE
  5
2D8
330
4B
100
AcDbEntity
  8
LC-001-002-----0
  6
Continuous
 62
     7
100
AcDbLine
 10
-44.54223809129033
 20
11.50005554230808
 30
0.0
 11
-44.54223809129033
 21
3.0
 31
0.0
  0
LINE
  5
2D9
330
4B
100
AcDbEntity
  8
LC-001-002-----0
  6
Continuous
 62
     7
100
AcDbLine
 10
-43.12802409128997
 20
11.50005554230808
 30
0.0
 11
-50.55333309128835
 21
11.50005554230808
 31
0.0
  0
LINE
  5
2DA
330
4B
100
AcDbEntity
  8
LC-001-002-----0
  6
Continuous
 62
     7
100
AcDbLine
 10
-50.55333309128835
 20
11.50005554230808
 30
0.0
 11
-50.55333309128835
 21
3.0
 31
0.0
  0
LINE
  5
2DB
330
4B
100
AcDbEntity
  8
LC-001-002-----0
  6
Continuous
 62
     7
100
AcDbLine
 10
-1.00021309128786
 20
3.0
 30
0.0
 11
-1.00021309128786
 21
11.50005554230808
 31
0.0
  0
LINE
  5
2DC
330
4B
100
AcDbEntity
  8
LC-001-002-----0
  6
Continuous
 62
     7
100
AcDbLine
 10
0.99978690871214
 20
3.0
 30
0.0
 11
0.99978690871214
 21
11.50005554230808
 31
0.0
  0
LINE
  5
2DD
330
4B
100
AcDbEntity
  8
LC-001-002-----0
  6
Continuous
 62
     7
100
AcDbLine
 10
-59.62100509128939
 20
11.50005554230808
 30
0.0
 11
-59.62100509128939
 21
3.0
 31
0.0
  0
LINE
  5
2DE
330
4B
100
AcDbEntity
  8
LC-001-002-----0
  6
Continuous
 62
     7
100
AcDbLine
 10
59.62057890871003
 20
11.50005554230808
 30
0.0
 11
59.62057890871003
 21
3.0
 31
0.0
  0
LINE
  5
2DF
330
4B
100
AcDbEntity
  8
LC-001-002-----0
  6
Continuous
 62
     7
100
AcDbLine
 10
60.1382169087112
 20
11.50005554230808
 30
0.0
 11
60.1382169087112
 21
3.0
 31
0.0
  0
LINE
  5
2E0
330
4B
100
AcDbEntity
  8
LC-001-002-----0
  6
Continuous
 62
     7
100
AcDbLine
 10
59.62057890871003
 20
11.50005554230808
 30
0.0
 11
68.3495249087093
 21
11.50005554230808
 31
0.0
  0
LINE
  5
2E1
330
4B
100
AcDbEntity
  8
LC-001-002-----0
  6
Continuous
 62
     7
100
AcDbLine
 10
68.3495249087093
 20
3.0
 30
0.0
 11
68.3495249087093
 21
11.50005554230808
 31
0.0
  0
LINE
  5
2E2
330
4B
100
AcDbEntity
  8
LC-001-002-----0
  6
Continuous
 62
     7
100
AcDbLine
 10
-60.13864309129056
 20
11.50005554230808
 30
0.0
 11
-60.13864309129056
 21
3.0
 31
0.0
  0
LINE
  5
2E3
330
4B
100
AcDbEntity
  8
1
  6
PHANTOM
 62
     2
100
AcDbLine
 10
0.00003553120698
 20
-41.86285316379366
 30
0.0
 11
-0.00012475593101
 21
74.84218428447781
 31
0.0
  0
ARC
  5
2E4
330
4B
100
AcDbEntity
  8
LC-002-002-RND-0
  6
Continuous
 62
     7
100
AcDbCircle
 10
-48.44870309129036
 20
55.5000535423074
 30
0.0
 40
14.99999999999968
100
AcDbArc
 50
90.0000789999923
 51
159.9999999999947
  0
ARC
  5
2E5
330
4B
100
AcDbEntity
  8
LC-002-002-RND-0
  6
Continuous
 62
     7
100
AcDbCircle
 10
48.44850690870882
 20
55.50018654230877
 30
0.0
 40
14.99999999999946
100
AcDbArc
 50
20.00015699999171
 51
90.00007899999233
  0
ENDBLK
  5
4D
330
4B
100
AcDbEntity
  8
0
100
AcDbBlockEnd
  0
BLOCK
  5
4F
330
4E
100
AcDbEntity
  8
0
100
AcDbBlockBegin
  2
Körper
 70
     0
 71
     0
 10
208.557962
 20
113.766932
 30
0.0
  3
Körper
  1

  0
POINT
  5
2E6
330
4E
100
AcDbEntity
  8
0
 62
     7
100
AcDbPoint
 10
180.0
 20
1.0
 30
0.0
  0
POINT
  5
2E7
330
4E
100
AcDbEntity
  8
0
 62
     7
100
AcDbPoint
 10
186.9999995
 20
-97.5
 30
0.0
  0
POINT
  5
2E8
330
4E
100
AcDbEntity
  8
0
 62
     7
100
AcDbPoint
 10
142.0501745000001
 20
0.0
 30
0.0
  0
POINT
  5
2E9
330
4E
100
AcDbEntity
  8
0
 62
     7
100
AcDbPoint
 10
77.4999995
 20
-270.498651
 30
0.0
  0
POINT
  5
2EA
330
4E
100
AcDbEntity
  8
0
 62
     7
100
AcDbPoint
 10
188.9999995
 20
-100.0
 30
0.0
  0
POINT
  5
2EB
330
4E
100
AcDbEntity
  8
0
 62
     7
100
AcDbPoint
 10
-85.50007149999999
 20
-265.498651
 30
0.0
  0
POINT
  5
2EC
330
4E
100
AcDbEntity
  8
0
 62
     7
100
AcDbPoint
 10
85.4999995
 20
-265.498651
 30
0.0
  0
POINT
  5
2ED
330
4E
100
AcDbEntity
  8
0
 62
     7
100
AcDbPoint
 10
-55.0000005
 20
-336.49788
 30
0.0
  0
POINT
  5
2EE
330
4E
100
AcDbEntity
  8
0
 62
     7
100
AcDbPoint
 10
55.00000050000001
 20
-336.49788
 30
0.0
  0
POINT
  5
2EF
330
4E
100
AcDbEntity
  8
0
 62
     7
100
AcDbPoint
 10
-188.9999995
 20
-100.0
 30
0.0
  0
POINT
  5
2F0
330
4E
100
AcDbEntity
  8
0
 62
     7
100
AcDbPoint
 10
-142.0501745
 20
0.0
 30
0.0
  0
POINT
  5
2F1
330
4E
100
AcDbEntity
  8
0
 62
     7
100
AcDbPoint
 10
-186.9999995
 20
-97.5
 30
0.0
  0
POINT
  5
2F2
330
4E
100
AcDbEntity
  8
0
 62
     7
100
AcDbPoint
 10
-180.0
 20
1.0
 30
0.0
  0
LINE
  5
2F3
330
4E
100
AcDbEntity
  8
LC-001-002-----0
  6
Continuous
 62
     7
100
AcDbLine
 10
62.5017565
 20
-266.053177
 30
0.0
 11
62.50075850000003
 21
-266.053177
 31
0.0
  0
LINE
  5
2F4
330
4E
100
AcDbEntity
  8
LC-001-002-----0
  6
Continuous
 62
     7
100
AcDbLine
 10
188.9999995
 20
-99.5
 30
0.0
 11
188.9999995
 21
-100.0
 31
0.0
  0
LINE
  5
2F5
330
4E
100
AcDbEntity
  8
LC-001-002-----0
  6
Continuous
 62
     7
100
AcDbLine
 10
188.9999995
 20
-100.0
 30
0.0
 11
0.0
 21
-100.0
 31
0.0
  0
LINE
  5
2F6
330
4E
100
AcDbEntity
  8
LC-001-002-----0
  6
Continuous
 62
     7
100
AcDbLine
 10
-62.5017575
 20
-266.053177
 30
0.0
 11
-62.50075849999996
 21
-266.053177
 31
0.0
  0
LINE
  5
2F7
330
4E
100
AcDbEntity
  8
LC-001-002-----0
  6
Continuous
 62
     7
100
AcDbLine
 10
137.5357035
 20
-97.5
 30
0.0
 11
186.9999995
 21
-97.5
 31
0.0
  0
LINE
  5
2F8
330
4E
100
AcDbEntity
  8
LC-001-002-----0
  6
Continuous
 62
     7
100
AcDbLine
 10
142.0501745000001
 20
-82.000002
 30
0.0
 11
137.5357035
 21
-82.00001100000003
 31
0.0
  0
LINE
  5
2F9
330
4E
100
AcDbEntity
  8
LC-001-002-----0
  6
Continuous
 62
     7
100
AcDbLine
 10
-150.9605975
 20
-289.1535259999999
 30
0.0
 11
-151.1291195
 21
-287.6603
 31
0.0
  0
LINE
  5
2FA
330
4E
100
AcDbEntity
  8
LC-001-002-----0
  6
Continuous
 62
     7
100
AcDbLine
 10
142.0501745000001
 20
0.0
 30
0.0
 11
142.0501745000001
 21
0.0
 31
0.0
  0
LINE
  5
2FB
330
4E
100
AcDbEntity
  8
LC-001-002-----0
  6
Continuous
 62
     7
100
AcDbLine
 10
142.0501745000001
 20
0.0
 30
0.0
 11
142.0501745000001
 21
-82.000002
 31
0.0
  0
LINE
  5
2FC
330
4E
100
AcDbEntity
  8
LC-001-002-----0
  6
Continuous
 62
     7
100
AcDbLine
 10
-151.2137855
 20
-284.854542
 30
0.0
 11
-151.2137855
 21
-286.354542
 31
0.0
  0
LINE
  5
2FD
330
4E
100
AcDbEntity
  8
LC-001-002-----0
  6
Continuous
 62
     7
100
AcDbLine
 10
142.0501745000001
 20
0.0
 30
0.0
 11
180.0
 21
1.0
 31
0.0
  0
LINE
  5
2FE
330
4E
100
AcDbEntity
  8
LC-001-002-----0
  6
Continuous
 62
     7
100
AcDbLine
 10
140.9184065
 20
3.0
 30
0.0
 11
178.0
 21
3.0
 31
0.0
  0
LINE
  5
2FF
330
4E
100
AcDbEntity
  8
LC-001-002-----0
  6
Continuous
 62
     7
100
AcDbLine
 10
140.9184065
 20
3.0
 30
0.0
 11
-0.00239568698356
 21
3.0
 31
0.0
  0
LINE
  5
300
330
4E
100
AcDbEntity
  8
LC-001-002-----0
  6
Continuous
 62
     7
100
AcDbLine
 10
97.05054150000001
 20
8.43817899999998
 30
0.0
 11
97.05054150000001
 21
19.94560000000001
 31
0.0
  0
LINE
  5
301
330
4E
100
AcDbEntity
  8
LC-001-002-----0
  6
Continuous
 62
     7
100
AcDbLine
 10
-55.0000005
 20
-336.49788
 30
0.0
 11
-54.06217849999995
 21
-339.997881
 31
0.0
  0
LINE
  5
302
330
4E
100
AcDbEntity
  8
LC-001-002-----0
  6
Continuous
 62
     7
100
AcDbLine
 10
-55.0000005
 20
-274.997879
 30
0.0
 11
-62.50067249999995
 21
-274.997879
 31
0.0
  0
LINE
  5
303
330
4E
100
AcDbEntity
  8
LC-001-002-----0
  6
Continuous
 62
     7
100
AcDbLine
 10
62.50069350000001
 20
-274.997879
 30
0.0
 11
55.00000050000001
 21
-274.997879
 31
0.0
  0
LINE
  5
304
330
4E
100
AcDbEntity
  8
LC-001-002-----0
  6
Continuous
 62
     7
100
AcDbLine
 10
-112.8449765
 20
-288.854542
 30
0.0
 11
-126.2137855
 21
-288.854542
 31
0.0
  0
LINE
  5
305
330
4E
100
AcDbEntity
  8
LC-001-002-----0
  6
Continuous
 62
     7
100
AcDbLine
 10
-151.1010325
 20
-283.2999139999999
 30
0.0
 11
-158.1020735
 21
-282.933005
 31
0.0
  0
LINE
  5
306
330
4E
100
AcDbEntity
  8
LC-001-002-----0
  6
Continuous
 62
     7
100
AcDbLine
 10
89.05054150000001
 20
8.43817899999998
 30
0.0
 11
99.05054150000001
 21
8.43817899999998
 31
0.0
  0
LINE
  5
307
330
4E
100
AcDbEntity
  8
LC-001-002-----0
  6
Continuous
 62
     7
100
AcDbLine
 10
100.7384415
 20
14.12600500000001
 30
0.0
 11
99.05054150000001
 21
8.43817899999998
 31
0.0
  0
LINE
  5
308
330
4E
100
AcDbEntity
  8
LC-001-002-----0
  6
Continuous
 62
     7
100
AcDbLine
 10
99.05054150000001
 20
8.43817899999998
 30
0.0
 11
99.65478361111111
 21
3.0
 31
0.0
  0
LINE
  5
309
330
4E
100
AcDbEntity
  8
LC-001-002-----0
  6
Continuous
 62
     7
100
AcDbLine
 10
87.36264150000005
 20
14.12600500000001
 30
0.0
 11
89.05054150000001
 21
8.43817899999998
 31
0.0
  0
LINE
  5
30A
330
4E
100
AcDbEntity
  8
LC-001-002-----0
  6
Continuous
 62
     7
100
AcDbLine
 10
79.49565750000005
 20
9.41353600000003
 30
0.0
 11
84.9959174415564
 21
3.0
 31
0.0
  0
LINE
  5
30B
330
4E
100
AcDbEntity
  8
LC-001-002-----0
  6
Continuous
 62
     7
100
AcDbLine
 10
108.6054255
 20
9.41353600000003
 30
0.0
 11
103.1051655584436
 21
3.0
 31
0.0
  0
LINE
  5
30C
330
4E
100
AcDbEntity
  8
LC-001-002-----0
  6
Continuous
 62
     7
100
AcDbLine
 10
-55.0000005
 20
-274.997879
 30
0.0
 11
-55.0000005
 21
-336.49788
 31
0.0
  0
LINE
  5
30D
330
4E
100
AcDbEntity
  8
LC-001-002-----0
  6
Continuous
 62
     7
100
AcDbLine
 10
96.05054150000001
 20
8.43817899999998
 30
0.0
 11
96.05054150000001
 21
20.94560000000001
 31
0.0
  0
LINE
  5
30E
330
4E
100
AcDbEntity
  8
LC-001-002-----0
  6
Continuous
 62
     7
100
AcDbLine
 10
92.05054150000001
 20
8.43817899999998
 30
0.0
 11
92.05054150000001
 21
20.94560000000001
 31
0.0
  0
LINE
  5
30F
330
4E
100
AcDbEntity
  8
LC-001-002-----0
  6
Continuous
 62
     7
100
AcDbLine
 10
91.05054150000001
 20
8.43817899999998
 30
0.0
 11
91.05054150000001
 21
19.94560000000001
 31
0.0
  0
LINE
  5
310
330
4E
100
AcDbEntity
  8
LC-001-002-----0
  6
Continuous
 62
     7
100
AcDbLine
 10
-151.2137855
 20
-285.104542
 30
0.0
 11
-158.2137855
 21
-285.104542
 31
0.0
  0
LINE
  5
311
330
4E
100
AcDbEntity
  8
LC-001-002-----0
  6
Continuous
 62
     7
100
AcDbLine
 10
97.05054150000001
 20
19.94560000000001
 30
0.0
 11
96.05054150000001
 21
20.94560000000001
 31
0.0
  0
LINE
  5
312
330
4E
100
AcDbEntity
  8
LC-001-002-----0
  6
Continuous
 62
     7
100
AcDbLine
 10
91.05054150000001
 20
19.94560000000001
 30
0.0
 11
92.05054150000001
 21
20.94560000000001
 31
0.0
  0
LINE
  5
313
330
4E
100
AcDbEntity
  8
LC-001-002-----0
  6
Continuous
 62
     7
100
AcDbLine
 10
97.05054150000001
 20
19.94560000000001
 30
0.0
 11
91.05054150000001
 21
19.94560000000001
 31
0.0
  0
LINE
  5
314
330
4E
100
AcDbEntity
  8
LC-001-002-----0
  6
Continuous
 62
     7
100
AcDbLine
 10
92.05054150000001
 20
20.94560000000001
 30
0.0
 11
96.05054150000001
 21
20.94560000000001
 31
0.0
  0
LINE
  5
315
330
4E
100
AcDbEntity
  8
LC-001-002-----0
  6
Continuous
 62
     7
100
AcDbLine
 10
85.49992850000001
 20
-265.498651
 30
0.0
 11
85.49992850000001
 21
-100.0
 31
0.0
  0
LINE
  5
316
330
4E
100
AcDbEntity
  8
LC-001-002-----0
  6
Continuous
 62
     7
100
AcDbLine
 10
69.4999995
 20
-267.998651
 30
0.0
 11
77.4999995
 21
-267.998651
 31
0.0
  0
LINE
  5
317
330
4E
100
AcDbEntity
  8
LC-001-002-----0
  6
Continuous
 62
     7
100
AcDbLine
 10
-77.5000005
 20
-267.998651
 30
0.0
 11
-77.5000005
 21
-270.498651
 31
0.0
  0
LINE
  5
318
330
4E
100
AcDbEntity
  8
LC-001-002-----0
  6
Continuous
 62
     7
100
AcDbLine
 10
-77.5000005
 20
-270.498651
 30
0.0
 11
-69.5000005
 21
-270.498651
 31
0.0
  0
LINE
  5
319
330
4E
100
AcDbEntity
  8
LC-001-002-----0
  6
Continuous
 62
     7
100
AcDbLine
 10
-69.5000005
 20
-270.498651
 30
0.0
 11
-69.5000005
 21
-267.998651
 31
0.0
  0
LINE
  5
31A
330
4E
100
AcDbEntity
  8
LC-001-002-----0
  6
Continuous
 62
     7
100
AcDbLine
 10
-69.5000005
 20
-267.998651
 30
0.0
 11
-62.50074049999995
 21
-267.998651
 31
0.0
  0
LINE
  5
31B
330
4E
100
AcDbEntity
  8
LC-001-002-----0
  6
Continuous
 62
     7
100
AcDbLine
 10
62.50073950000001
 20
-267.998651
 30
0.0
 11
69.4999995
 21
-267.998651
 31
0.0
  0
LINE
  5
31C
330
4E
100
AcDbEntity
  8
LC-001-002-----0
  6
Continuous
 62
     7
100
AcDbLine
 10
69.4999995
 20
-267.998651
 30
0.0
 11
69.4999995
 21
-270.498651
 31
0.0
  0
LINE
  5
31D
330
4E
100
AcDbEntity
  8
LC-001-002-----0
  6
Continuous
 62
     7
100
AcDbLine
 10
69.4999995
 20
-270.498651
 30
0.0
 11
77.4999995
 21
-270.498651
 31
0.0
  0
LINE
  5
31E
330
4E
100
AcDbEntity
  8
LC-001-002-----0
  6
Continuous
 62
     7
100
AcDbLine
 10
77.4999995
 20
-270.498651
 30
0.0
 11
77.4999995
 21
-267.998651
 31
0.0
  0
LINE
  5
31F
330
4E
100
AcDbEntity
  8
LC-001-002-----0
  6
Continuous
 62
     7
100
AcDbLine
 10
77.4999995
 20
-267.998651
 30
0.0
 11
82.9999995
 21
-267.998651
 31
0.0
  0
LINE
  5
320
330
4E
100
AcDbEntity
  8
LC-001-002-----0
  6
Continuous
 62
     7
100
AcDbLine
 10
-77.5000005
 20
-267.998651
 30
0.0
 11
-83.0000005
 21
-267.998651
 31
0.0
  0
LINE
  5
321
330
4E
100
AcDbEntity
  8
LC-001-002-----0
  6
Continuous
 62
     7
100
AcDbLine
 10
-77.5000005
 20
-267.998651
 30
0.0
 11
-69.5000005
 21
-267.998651
 31
0.0
  0
LINE
  5
322
330
4E
100
AcDbEntity
  8
LC-001-002-----0
  6
Continuous
 62
     7
100
AcDbLine
 10
-63.0000005
 20
-267.998651
 30
0.0
 11
-63.10000049999997
 21
-267.998651
 31
0.0
  0
LINE
  5
323
330
4E
100
AcDbEntity
  8
LC-001-002-----0
  6
Continuous
 62
     7
100
AcDbLine
 10
63.09999950000002
 20
-267.998651
 30
0.0
 11
62.9999995
 21
-267.998651
 31
0.0
  0
LINE
  5
324
330
4E
100
AcDbEntity
  8
LC-001-002-----0
  6
Continuous
 62
     7
100
AcDbLine
 10
-158.0029015
 20
-289.272255
 30
0.0
 11
-158.1020735
 21
-288.27608
 31
0.0
  0
LINE
  5
325
330
4E
100
AcDbEntity
  8
LC-001-002-----0
  6
DASHDOT_3
 62
     7
100
AcDbLine
 10
-110.8449765
 20
-277.241473
 30
0.0
 11
-110.8449765
 21
-290.924995
 31
0.0
  0
LINE
  5
326
330
4E
100
AcDbEntity
  8
LC-001-002-----0
  6
Continuous
 62
     7
100
AcDbLine
 10
-150.9886845
 20
-282.304429
 30
0.0
 11
-158.0029015
 21
-281.93683
 31
0.0
  0
LINE
  5
327
330
4E
100
AcDbEntity
  8
LC-001-002-----0
  6
Continuous
 62
     7
100
AcDbLine
 10
-158.0029015
 20
-281.93683
 30
0.0
 11
-158.1020735
 21
-282.933005
 31
0.0
  0
LINE
  5
328
330
4E
100
AcDbEntity
  8
LC-001-002-----0
  6
Continuous
 62
     7
100
AcDbLine
 10
-150.9605975
 20
-282.055558
 30
0.0
 11
-151.1291195
 21
-283.548785
 31
0.0
  0
LINE
  5
329
330
4E
100
AcDbEntity
  8
LC-001-002-----0
  6
DASHDOT_3
 62
     7
100
AcDbLine
 10
-112.8449765
 20
-277.241473
 30
0.0
 11
-112.8449765
 21
-290.924995
 31
0.0
  0
LINE
  5
32A
330
4E
100
AcDbEntity
  8
LC-001-002-----0
  6
Continuous
 62
     7
100
AcDbLine
 10
-0.00062749999995
 20
-339.997881
 30
0.0
 11
-54.06217849999995
 21
-339.997881
 31
0.0
  0
LINE
  5
32B
330
4E
100
AcDbEntity
  8
LC-001-002-----0
  6
Continuous
 62
     7
100
AcDbLine
 10
0.00062750000001
 20
-339.997881
 30
0.0
 11
54.06217850000002
 21
-339.997881
 31
0.0
  0
LINE
  5
32C
330
4E
100
AcDbEntity
  8
LC-001-002-----0
  6
Continuous
 62
     7
100
AcDbLine
 10
-158.2137855
 20
-285.104542
 30
0.0
 11
-158.2137855
 21
-286.104542
 31
0.0
  0
LINE
  5
32D
330
4E
100
AcDbEntity
  8
LC-001-002-----0
  6
Continuous
 62
     7
100
AcDbLine
 10
-112.8449765
 20
-282.354542
 30
0.0
 11
-126.2137855
 21
-282.354542
 31
0.0
  0
LINE
  5
32E
330
4E
100
AcDbEntity
  8
LC-001-002-----0
  6
Continuous
 62
     7
100
AcDbLine
 10
-126.2137855
 20
-282.354542
 30
0.0
 11
-126.2137855
 21
-288.854542
 31
0.0
  0
LINE
  5
32F
330
4E
100
AcDbEntity
  8
LC-001-002-----0
  6
Continuous
 62
     7
100
AcDbLine
 10
-126.2137855
 20
-283.352484
 30
0.0
 11
-150.9605975
 21
-282.055558
 31
0.0
  0
LINE
  5
330
330
4E
100
AcDbEntity
  8
LC-001-002-----0
  6
Continuous
 62
     7
100
AcDbLine
 10
-126.2137855
 20
-284.854542
 30
0.0
 11
-151.1291195
 21
-283.548785
 31
0.0
  0
LINE
  5
331
330
4E
100
AcDbEntity
  8
LC-001-002-----0
  6
Continuous
 62
     7
100
AcDbLine
 10
-126.2137855
 20
-284.854542
 30
0.0
 11
-151.2137855
 21
-284.854542
 31
0.0
  0
LINE
  5
332
330
4E
100
AcDbEntity
  8
LC-001-002-----0
  6
Continuous
 62
     7
100
AcDbLine
 10
-126.2137855
 20
-286.354542
 30
0.0
 11
-151.2137855
 21
-286.354542
 31
0.0
  0
LINE
  5
333
330
4E
100
AcDbEntity
  8
LC-001-002-----0
  6
Continuous
 62
     7
100
AcDbLine
 10
-126.2137855
 20
-286.354542
 30
0.0
 11
-151.1291195
 21
-287.6603
 31
0.0
  0
LINE
  5
334
330
4E
100
AcDbEntity
  8
LC-001-002-----0
  6
Continuous
 62
     7
100
AcDbLine
 10
-126.2137855
 20
-287.856601
 30
0.0
 11
-150.9605975
 21
-289.1535259999999
 31
0.0
  0
LINE
  5
335
330
4E
100
AcDbEntity
  8
LC-001-002-----0
  6
Continuous
 62
     7
100
AcDbLine
 10
-150.9886845
 20
-288.904655
 30
0.0
 11
-158.0029015
 21
-289.272255
 31
0.0
  0
LINE
  5
336
330
4E
100
AcDbEntity
  8
LC-001-002-----0
  6
Continuous
 62
     7
100
AcDbLine
 10
-151.1010325
 20
-287.909171
 30
0.0
 11
-158.1020735
 21
-288.27608
 31
0.0
  0
LINE
  5
337
330
4E
100
AcDbEntity
  8
LC-001-002-----0
  6
Continuous
 62
     7
100
AcDbLine
 10
-151.2137855
 20
-286.104542
 30
0.0
 11
-158.2137855
 21
-286.104542
 31
0.0
  0
LINE
  5
338
330
4E
100
AcDbEntity
  8
LC-001-002-----0
  6
Continuous
 62
     7
100
AcDbLine
 10
-74.34497649999997
 20
-282.354542
 30
0.0
 11
-110.8449765
 21
-282.354542
 31
0.0
  0
LINE
  5
339
330
4E
100
AcDbEntity
  8
LC-001-002-----0
  6
Continuous
 62
     7
100
AcDbLine
 10
-74.34497649999997
 20
-288.854542
 30
0.0
 11
-110.8449765
 21
-288.854542
 31
0.0
  0
LINE
  5
33A
330
4E
100
AcDbEntity
  8
LC-001-002-----0
  6
Continuous
 62
     7
100
AcDbLine
 10
-70.84497649999997
 20
-270.498651
 30
0.0
 11
-70.84497649999997
 21
-278.854542
 31
0.0
  0
LINE
  5
33B
330
4E
100
AcDbEntity
  8
LC-001-002-----0
  6
Continuous
 62
     7
100
AcDbLine
 10
-64.34497649999997
 20
-267.998651
 30
0.0
 11
-64.34497649999997
 21
-278.854542
 31
0.0
  0
LINE
  5
33C
330
4E
100
AcDbEntity
  8
LC-001-002-----0
  6
Continuous
 62
     7
100
AcDbLine
 10
55.00000050000001
 20
-274.997879
 30
0.0
 11
55.00000050000001
 21
-336.49788
 31
0.0
  0
LINE
  5
33D
330
4E
100
AcDbEntity
  8
LC-001-002-----0
  6
Continuous
 62
     7
100
AcDbLine
 10
54.06217850000002
 20
-339.997881
 30
0.0
 11
55.00000050000001
 21
-336.49788
 31
0.0
  0
LINE
  5
33E
330
4E
100
AcDbEntity
  8
LC-001-002-----0
  6
Continuous
 62
     7
100
AcDbLine
 10
88.44629938888889
 20
3.0
 30
0.0
 11
89.05054150000001
 21
8.43817899999998
 31
0.0
  0
LINE
  5
33F
330
4E
100
AcDbEntity
  8
1
  6
Continuous
 62
     7
100
AcDbLine
 10
137.5357035
 20
-97.5
 30
0.0
 11
0.0
 21
-97.5
 31
0.0
  0
LINE
  5
340
330
4E
100
AcDbEntity
  8
1
  6
Continuous
 62
     7
100
AcDbLine
 10
-55.0000005
 20
-274.997879
 30
0.0
 11
55.00000050000001
 21
-274.997879
 31
0.0
  0
LINE
  5
341
330
4E
100
AcDbEntity
  8
1
  6
Continuous
 62
     7
100
AcDbLine
 10
-55.0000005
 20
-336.49788
 30
0.0
 11
55.00000050000001
 21
-336.49788
 31
0.0
  0
LINE
  5
342
330
4E
100
AcDbEntity
  8
1
  6
PHANTOM
 62
     2
100
AcDbLine
 10
0.0
 20
3.0
 30
0.0
 11
0.0
 21
-339.9978810000001
 31
0.0
  0
LINE
  5
343
330
4E
100
AcDbEntity
  8
1
  6
Continuous
 62
     7
100
AcDbLine
 10
142.0501745000001
 20
0.0
 30
0.0
 11
0.0
 21
0.0
 31
0.0
  0
LINE
  5
344
330
4E
100
AcDbEntity
  8
1
  6
Continuous
 62
     7
100
AcDbLine
 10
180.0
 20
1.0
 30
0.0
 11
0.0
 21
1.0
 31
0.0
  0
LINE
  5
345
330
4E
100
AcDbEntity
  8
1
  6
Continuous
 62
     7
100
AcDbLine
 10
137.5357035
 20
-82.00001100000003
 30
0.0
 11
0.0
 21
-82.00001100000003
 31
0.0
  0
LINE
  5
346
330
4E
100
AcDbEntity
  8
LC-001-002-----0
  6
Continuous
 62
     7
100
AcDbLine
 10
137.5357035
 20
-82.00001100000003
 30
0.0
 11
137.5357035
 21
-97.5
 31
0.0
  0
LINE
  5
347
330
4E
100
AcDbEntity
  8
1
  6
Continuous
 62
     7
100
AcDbLine
 10
62.50069350000001
 20
-274.997879
 30
0.0
 11
62.50069350000001
 21
-267.998651
 31
0.0
  0
LINE
  5
348
330
4E
100
AcDbEntity
  8
1
  6
Continuous
 62
     7
100
AcDbLine
 10
-62.50067249999995
 20
-274.997879
 30
0.0
 11
-62.50067249999995
 21
-267.998651
 31
0.0
  0
LINE
  5
349
330
4E
100
AcDbEntity
  8
LC-001-002-----0
  6
Continuous
 62
     7
100
AcDbLine
 10
-85.4999285
 20
-100.0
 30
0.0
 11
-85.4999285
 21
-265.498651
 31
0.0
  0
LINE
  5
34A
330
4E
100
AcDbEntity
  8
LC-001-002-----0
  6
Continuous
 62
     7
100
AcDbLine
 10
-137.5357035
 20
-97.5
 30
0.0
 11
-137.5357035
 21
-82.00001100000003
 31
0.0
  0
LINE
  5
34B
330
4E
100
AcDbEntity
  8
1
  6
Continuous
 62
     7
100
AcDbLine
 10
0.0
 20
-82.00001100000003
 30
0.0
 11
-137.5357035
 21
-82.00001100000003
 31
0.0
  0
LINE
  5
34C
330
4E
100
AcDbEntity
  8
1
  6
Continuous
 62
     7
100
AcDbLine
 10
0.0
 20
1.0
 30
0.0
 11
-180.0
 21
1.0
 31
0.0
  0
LINE
  5
34D
330
4E
100
AcDbEntity
  8
1
  6
Continuous
 62
     7
100
AcDbLine
 10
0.0
 20
0.0
 30
0.0
 11
-142.0501745
 21
0.0
 31
0.0
  0
LINE
  5
34E
330
4E
100
AcDbEntity
  8
1
  6
Continuous
 62
     7
100
AcDbLine
 10
0.0
 20
-97.5
 30
0.0
 11
-137.5357035
 21
-97.5
 31
0.0
  0
LINE
  5
34F
330
4E
100
AcDbEntity
  8
LC-001-002-----0
  6
Continuous
 62
     7
100
AcDbLine
 10
-89.0505415
 20
8.43817899999998
 30
0.0
 11
-88.44629938888887
 21
3.0
 31
0.0
  0
LINE
  5
350
330
4E
100
AcDbEntity
  8
LC-001-002-----0
  6
Continuous
 62
     7
100
AcDbLine
 10
-96.0505415
 20
20.94560000000001
 30
0.0
 11
-92.0505415
 21
20.94560000000001
 31
0.0
  0
LINE
  5
351
330
4E
100
AcDbEntity
  8
LC-001-002-----0
  6
Continuous
 62
     7
100
AcDbLine
 10
-91.0505415
 20
19.94560000000001
 30
0.0
 11
-97.0505415
 21
19.94560000000001
 31
0.0
  0
LINE
  5
352
330
4E
100
AcDbEntity
  8
LC-001-002-----0
  6
Continuous
 62
     7
100
AcDbLine
 10
-92.0505415
 20
20.94560000000001
 30
0.0
 11
-91.0505415
 21
19.94560000000001
 31
0.0
  0
LINE
  5
353
330
4E
100
AcDbEntity
  8
LC-001-002-----0
  6
Continuous
 62
     7
100
AcDbLine
 10
-96.0505415
 20
20.94560000000001
 30
0.0
 11
-97.0505415
 21
19.94560000000001
 31
0.0
  0
LINE
  5
354
330
4E
100
AcDbEntity
  8
LC-001-002-----0
  6
Continuous
 62
     7
100
AcDbLine
 10
-91.0505415
 20
19.94560000000001
 30
0.0
 11
-91.0505415
 21
8.43817899999998
 31
0.0
  0
LINE
  5
355
330
4E
100
AcDbEntity
  8
LC-001-002-----0
  6
Continuous
 62
     7
100
AcDbLine
 10
-92.0505415
 20
20.94560000000001
 30
0.0
 11
-92.0505415
 21
8.43817899999998
 31
0.0
  0
LINE
  5
356
330
4E
100
AcDbEntity
  8
LC-001-002-----0
  6
Continuous
 62
     7
100
AcDbLine
 10
-96.0505415
 20
20.94560000000001
 30
0.0
 11
-96.0505415
 21
8.43817899999998
 31
0.0
  0
LINE
  5
357
330
4E
100
AcDbEntity
  8
LC-001-002-----0
  6
Continuous
 62
     7
100
AcDbLine
 10
-103.1051655584436
 20
3.0
 30
0.0
 11
-108.6054255
 21
9.41353600000003
 31
0.0
  0
LINE
  5
358
330
4E
100
AcDbEntity
  8
LC-001-002-----0
  6
Continuous
 62
     7
100
AcDbLine
 10
-84.99591744155639
 20
3.0
 30
0.0
 11
-79.4956575
 21
9.41353600000003
 31
0.0
  0
LINE
  5
359
330
4E
100
AcDbEntity
  8
LC-001-002-----0
  6
Continuous
 62
     7
100
AcDbLine
 10
-89.0505415
 20
8.43817899999998
 30
0.0
 11
-87.36264150000004
 21
14.12600500000001
 31
0.0
  0
LINE
  5
35A
330
4E
100
AcDbEntity
  8
LC-001-002-----0
  6
Continuous
 62
     7
100
AcDbLine
 10
-99.6547836111111
 20
3.0
 30
0.0
 11
-99.0505415
 21
8.43817899999998
 31
0.0
  0
LINE
  5
35B
330
4E
100
AcDbEntity
  8
LC-001-002-----0
  6
Continuous
 62
     7
100
AcDbLine
 10
-99.0505415
 20
8.43817899999998
 30
0.0
 11
-100.7384415
 21
14.12600500000001
 31
0.0
  0
LINE
  5
35C
330
4E
100
AcDbEntity
  8
LC-001-002-----0
  6
Continuous
 62
     7
100
AcDbLine
 10
-99.0505415
 20
8.43817899999998
 30
0.0
 11
-89.0505415
 21
8.43817899999998
 31
0.0
  0
LINE
  5
35D
330
4E
100
AcDbEntity
  8
LC-001-002-----0
  6
Continuous
 62
     7
100
AcDbLine
 10
-97.0505415
 20
19.94560000000001
 30
0.0
 11
-97.0505415
 21
8.43817899999998
 31
0.0
  0
LINE
  5
35E
330
4E
100
AcDbEntity
  8
LC-001-002-----0
  6
Continuous
 62
     7
100
AcDbLine
 10
0.00239568698357
 20
3.0
 30
0.0
 11
-140.9184065
 21
3.0
 31
0.0
  0
LINE
  5
35F
330
4E
100
AcDbEntity
  8
LC-001-002-----0
  6
Continuous
 62
     7
100
AcDbLine
 10
-178.0
 20
3.0
 30
0.0
 11
-140.9184065
 21
3.0
 31
0.0
  0
LINE
  5
360
330
4E
100
AcDbEntity
  8
LC-001-002-----0
  6
Continuous
 62
     7
100
AcDbLine
 10
-180.0
 20
1.0
 30
0.0
 11
-142.0501745
 21
0.0
 31
0.0
  0
LINE
  5
361
330
4E
100
AcDbEntity
  8
LC-001-002-----0
  6
Continuous
 62
     7
100
AcDbLine
 10
-142.0501745000001
 20
-82.000002
 30
0.0
 11
-142.0501745
 21
0.0
 31
0.0
  0
LINE
  5
362
330
4E
100
AcDbEntity
  8
LC-001-002-----0
  6
Continuous
 62
     7
100
AcDbLine
 10
-142.0501745
 20
0.0
 30
0.0
 11
-142.0501745
 21
0.0
 31
0.0
  0
LINE
  5
363
330
4E
100
AcDbEntity
  8
LC-001-002-----0
  6
Continuous
 62
     7
100
AcDbLine
 10
-137.5357035
 20
-82.00001100000003
 30
0.0
 11
-142.0501745000001
 21
-82.000002
 31
0.0
  0
LINE
  5
364
330
4E
100
AcDbEntity
  8
LC-001-002-----0
  6
Continuous
 62
     7
100
AcDbLine
 10
-186.9999995
 20
-97.5
 30
0.0
 11
-137.5357035
 21
-97.5
 31
0.0
  0
LINE
  5
365
330
4E
100
AcDbEntity
  8
LC-001-002-----0
  6
Continuous
 62
     7
100
AcDbLine
 10
0.0
 20
-100.0
 30
0.0
 11
-188.9999995
 21
-100.0
 31
0.0
  0
LINE
  5
366
330
4E
100
AcDbEntity
  8
LC-001-002-----0
  6
Continuous
 62
     7
100
AcDbLine
 10
-188.9999995
 20
-100.0
 30
0.0
 11
-188.9999995
 21
-99.5
 31
0.0
  0
LINE
  5
367
330
4E
100
AcDbEntity
  8
1
  6
Continuous
 62
     7
100
AcDbLine
 10
-85.50007149999999
 20
-265.498651
 30
0.0
 11
85.49992850000001
 21
-265.498651
 31
0.0
  0
LINE
  5
368
330
4E
100
AcDbEntity
  8
1
  6
Continuous
 62
     7
100
AcDbLine
 10
-62.50067249999995
 20
-267.998651
 30
0.0
 11
62.50069350000001
 21
-267.998651
 31
0.0
  0
ARC
  5
369
330
4E
100
AcDbEntity
  8
LC-002-002-RND-0
  6
Continuous
 62
     7
100
AcDbCircle
 10
186.9999995
 20
-99.5
 30
0.0
 40
2.0
100
AcDbArc
 50
0.0
 51
90.0
  0
ARC
  5
36A
330
4E
100
AcDbEntity
  8
LC-002-002-RND-0
  6
Continuous
 62
     7
100
AcDbCircle
 10
178.0
 20
1.0
 30
0.0
 40
2.0
100
AcDbArc
 50
0.0
 51
90.0
  0
ARC
  5
36B
330
4E
100
AcDbEntity
  8
LC-002-002-RND-0
  6
Continuous
 62
     7
100
AcDbCircle
 10
104.3540075
 20
12.51318900000002
 30
0.0
 40
3.925000000000302
100
AcDbArc
 50
89.87258999999295
 51
155.894104999999
  0
ARC
  5
36C
330
4E
100
AcDbEntity
  8
LC-001-002-----0
  6
Continuous
 62
     7
100
AcDbCircle
 10
104.3628325
 20
10.90542099999999
 30
0.0
 40
5.576109000000048
100
AcDbArc
 50
40.088251000003
 51
90.09138399999975
  0
ARC
  5
36D
330
4E
100
AcDbEntity
  8
LC-002-002-RND-0
  6
Continuous
 62
     7
100
AcDbCircle
 10
105.6260195
 20
11.968681
 30
0.0
 40
3.924999999999867
100
AcDbArc
 50
-44.49581399999605
 51
40.08825100000305
  0
ARC
  5
36E
330
4E
100
AcDbEntity
  8
LC-002-002-RND-0
  6
Continuous
 62
     7
100
AcDbCircle
 10
82.47506350000003
 20
11.968681
 30
0.0
 40
3.924999999999584
100
AcDbArc
 50
139.911748999997
 51
-135.504186000004
  0
ARC
  5
36F
330
4E
100
AcDbEntity
  8
LC-002-002-RND-0
  6
Continuous
 62
     7
100
AcDbCircle
 10
83.74707550000005
 20
12.51318900000002
 30
0.0
 40
3.925000000000348
100
AcDbArc
 50
24.10589500000129
 51
90.12741000000767
  0
ARC
  5
370
330
4E
100
AcDbEntity
  8
LC-001-002-----0
  6
Continuous
 62
     7
100
AcDbCircle
 10
83.73825050000005
 20
10.90542099999999
 30
0.0
 40
5.576109000000131
100
AcDbArc
 50
89.90861600000039
 51
139.9117489999971
  0
ARC
  5
371
330
4E
100
AcDbEntity
  8
LC-002-002-RND-0
  6
Continuous
 62
     7
100
AcDbCircle
 10
-83.0000005
 20
-265.498651
 30
0.0
 40
2.5
100
AcDbArc
 50
180.0
 51
-90.0
  0
ARC
  5
372
330
4E
100
AcDbEntity
  8
LC-002-002-RND-0
  6
Continuous
 62
     7
100
AcDbCircle
 10
82.9999995
 20
-265.498651
 30
0.0
 40
2.5
100
AcDbArc
 50
-90.0
 51
0.0
  0
ARC
  5
373
330
4E
100
AcDbEntity
  8
LC-002-002-RND-0
  6
Continuous
 62
     7
100
AcDbCircle
 10
-74.34497649999997
 20
-278.854542
 30
0.0
 40
3.5
100
AcDbArc
 50
-90.0
 51
0.0
  0
ARC
  5
374
330
4E
100
AcDbEntity
  8
LC-002-002-RND-0
  6
Continuous
 62
     7
100
AcDbCircle
 10
-74.34497649999997
 20
-278.854542
 30
0.0
 40
10.0
100
AcDbArc
 50
-90.0
 51
0.0
  0
ARC
  5
375
330
4E
100
AcDbEntity
  8
LC-001-002-----0
  6
Continuous
 62
     7
100
AcDbCircle
 10
-83.73825050000004
 20
10.90542099999999
 30
0.0
 40
5.576109000000091
100
AcDbArc
 50
40.08825100000262
 51
90.09138399999917
  0
ARC
  5
376
330
4E
100
AcDbEntity
  8
LC-002-002-RND-0
  6
Continuous
 62
     7
100
AcDbCircle
 10
-83.74707550000004
 20
12.51318900000002
 30
0.0
 40
3.925000000000302
100
AcDbArc
 50
89.87258999999234
 51
155.8941049999987
  0
ARC
  5
377
330
4E
100
AcDbEntity
  8
LC-002-002-RND-0
  6
Continuous
 62
     7
100
AcDbCircle
 10
-82.47506350000002
 20
11.968681
 30
0.0
 40
3.924999999999867
100
AcDbArc
 50
-44.49581399999605
 51
40.08825100000305
  0
ARC
  5
378
330
4E
100
AcDbEntity
  8
LC-002-002-RND-0
  6
Continuous
 62
     7
100
AcDbCircle
 10
-105.6260195
 20
11.968681
 30
0.0
 40
3.924999999999584
100
AcDbArc
 50
139.911748999997
 51
-135.504186000004
  0
ARC
  5
379
330
4E
100
AcDbEntity
  8
LC-001-002-----0
  6
Continuous
 62
     7
100
AcDbCircle
 10
-104.3628325
 20
10.90542099999999
 30
0.0
 40
5.576109000000131
100
AcDbArc
 50
89.90861600000025
 51
139.911748999997
  0
ARC
  5
37A
330
4E
100
AcDbEntity
  8
LC-002-002-RND-0
  6
Continuous
 62
     7
100
AcDbCircle
 10
-104.3540075
 20
12.51318900000002
 30
0.0
 40
3.925000000000387
100
AcDbArc
 50
24.10589500000104
 51
90.12741000000705
  0
ARC
  5
37B
330
4E
100
AcDbEntity
  8
LC-002-002-RND-0
  6
Continuous
 62
     7
100
AcDbCircle
 10
-178.0
 20
1.0
 30
0.0
 40
2.0
100
AcDbArc
 50
90.0
 51
180.0
  0
ARC
  5
37C
330
4E
100
AcDbEntity
  8
LC-002-002-RND-0
  6
Continuous
 62
     7
100
AcDbCircle
 10
-186.9999995
 20
-99.5
 30
0.0
 40
2.0
100
AcDbArc
 50
90.0
 51
180.0
  0
ENDBLK
  5
50
330
4E
100
AcDbEntity
  8
0
100
AcDbBlockEnd
  0
BLOCK
  5
385
330
37D
100
AcDbEntity
  8
0
100
AcDbBlockBegin
  2
*D4
 70
     1
 71
     0
 10
0.0
 20
0.0
 30
0.0
  3
*D4
  1

  0
LINE
  5
37E
330
37D
100
AcDbEntity
  8
1
  6
Continuous
 62
     4
100
AcDbLine
 10
239.096787920685
 20
-270.498651
 30
0.0
 11
239.096787920685
 21
1.0
 31
0.0
  0
LINE
  5
37F
330
37D
100
AcDbEntity
  8
1
  6
Continuous
 62
     4
100
AcDbLine
 10
180.0
 20
1.0
 30
0.0
 11
241.096787920685
 21
1.0
 31
0.0
  0
LINE
  5
380
330
37D
100
AcDbEntity
  8
1
  6
Continuous
 62
     4
100
AcDbLine
 10
77.4999995
 20
-270.498651
 30
0.0
 11
241.096787920685
 21
-270.498651
 31
0.0
  0
SOLID
  5
381
330
37D
100
AcDbEntity
  8
1
 62
     4
100
AcDbTrace
 10
237.5169579496362
 20
-258.498651
 30
0.0
 11
240.6766178917337
 21
-258.498651
 31
0.0
 12
239.096787920685
 22
-270.498651
 32
0.0
 13
239.096787920685
 23
-270.498651
 33
0.0
  0
SOLID
  5
382
330
37D
100
AcDbEntity
  8
1
 62
     4
100
AcDbTrace
 10
240.6766178917337
 20
-11.0
 30
0.0
 11
237.5169579496362
 21
-11.0
 31
0.0
 12
239.096787920685
 22
1.0
 32
0.0
 13
239.096787920685
 23
1.0
 33
0.0
  0
MTEXT
  5
384
330
37D
100
AcDbEntity
  8
1
 62
     1
100
AcDbMText
 10
237.096787920685
 20
-149.001040766037
 30
0.0
 40
12.0
 41
0.0
 71
     7
 72
     1
  1
271
  7
CONVERTER_11
 11
0.0
 21
1.0
 31
0.0
 73
     1
 44
0.60024009603842
  0
ENDBLK
  5
386
330
37D
100
AcDbEntity
  8
0
100
AcDbBlockEnd
  0
BLOCK
  5
390
330
389
100
AcDbEntity
  8
0
100
AcDbBlockBegin
  2
*D5
 70
     1
 71
     0
 10
0.0
 20
0.0
 30
0.0
  3
*D5
  1

  0
LINE
  5
38A
330
389
100
AcDbEntity
  8
1
  6
Continuous
 62
     4
100
AcDbLine
 10
206.429049750142
 20
1.0
 30
0.0
 11
206.429049750142
 21
-97.5
 31
0.0
  0
LINE
  5
38B
330
389
100
AcDbEntity
  8
1
  6
Continuous
 62
     4
100
AcDbLine
 10
180.0
 20
1.0
 30
0.0
 11
208.429049750142
 21
1.0
 31
0.0
  0
LINE
  5
38C
330
389
100
AcDbEntity
  8
1
  6
Continuous
 62
     4
100
AcDbLine
 10
186.9999995
 20
-97.5
 30
0.0
 11
208.429049750142
 21
-97.5
 31
0.0
  0
SOLID
  5
38D
330
389
100
AcDbEntity
  8
1
 62
     4
100
AcDbTrace
 10
208.0088797211908
 20
-11.0
 30
0.0
 11
204.8492197790933
 21
-11.0
 31
0.0
 12
206.429049750142
 22
1.0
 32
0.0
 13
206.429049750142
 23
1.0
 33
0.0
  0
SOLID
  5
38E
330
389
100
AcDbEntity
  8
1
 62
     4
100
AcDbTrace
 10
204.8492197790933
 20
-85.5
 30
0.0
 11
208.0088797211908
 21
-85.5
 31
0.0
 12
206.429049750142
 22
-97.5
 32
0.0
 13
206.429049750142
 23
-97.5
 33
0.0
  0
MTEXT
  5
38F
330
389
100
AcDbEntity
  8
1
 62
     1
100
AcDbMText
 10
204.429049750142
 20
-80.08569197552599
 30
0.0
 40
12.0
 41
0.0
 71
     7
 72
     1
  1
100-160
  7
CONVERTER_11
 11
0.0
 21
1.0
 31
0.0
 73
     1
 44
0.60024009603842
  0
ENDBLK
  5
391
330
389
100
AcDbEntity
  8
0
100
AcDbBlockEnd
  0
BLOCK
  5
39B
330
394
100
AcDbEntity
  8
0
100
AcDbBlockBegin
  2
*D6
 70
     1
 71
     0
 10
0.0
 20
0.0
 30
0.0
  3
*D6
  1

  0
LINE
  5
395
330
394
100
AcDbEntity
  8
1
  6
Continuous
 62
     4
100
AcDbLine
 10
198.9999995
 20
-270.498651
 30
0.0
 11
198.9999995
 21
-100.0
 31
0.0
  0
LINE
  5
396
330
394
100
AcDbEntity
  8
1
  6
Continuous
 62
     4
100
AcDbLine
 10
188.9999995
 20
-100.0
 30
0.0
 11
200.9999995
 21
-100.0
 31
0.0
  0
LINE
  5
397
330
394
100
AcDbEntity
  8
1
  6
Continuous
 62
     4
100
AcDbLine
 10
77.4999995
 20
-270.498651
 30
0.0
 11
200.9999995
 21
-270.498651
 31
0.0
  0
SOLID
  5
398
330
394
100
AcDbEntity
  8
1
 62
     4
100
AcDbTrace
 10
197.4201695289512
 20
-258.498651
 30
0.0
 11
200.5798294710488
 21
-258.498651
 31
0.0
 12
198.9999995
 22
-270.498651
 32
0.0
 13
198.9999995
 23
-270.498651
 33
0.0
  0
SOLID
  5
399
330
394
100
AcDbEntity
  8
1
 62
     4
100
AcDbTrace
 10
200.5798294710488
 20
-112.0
 30
0.0
 11
197.4201695289512
 21
-112.0
 31
0.0
 12
198.9999995
 22
-100.0
 32
0.0
 13
198.9999995
 23
-100.0
 33
0.0
  0
MTEXT
  5
39A
330
394
100
AcDbEntity
  8
1
 62
     1
100
AcDbMText
 10
196.9999995
 20
-222.872919080979
 30
0.0
 40
12.0
 41
0.0
 71
     7
 72
     1
  1
\C1;(\C1;111-171\C1;)
  7
CONVERTER_11
 11
0.0
 21
1.0
 31
0.0
 73
     1
 44
0.60024009603842
  0
ENDBLK
  5
39C
330
394
100
AcDbEntity
  8
0
100
AcDbBlockEnd
  0
BLOCK
  5
3A7
330
39F
100
AcDbEntity
  8
0
100
AcDbBlockBegin
  2
*D7
 70
     1
 71
     0
 10
0.0
 20
0.0
 30
0.0
  3
*D7
  1

  0
LINE
  5
3A0
330
39F
100
AcDbEntity
  8
1
  6
Continuous
 62
     4
100
AcDbLine
 10
-55.00000050000001
 20
-361.476862633776
 30
0.0
 11
55.00000049999998
 21
-361.476862633776
 31
0.0
  0
LINE
  5
3A1
330
39F
100
AcDbEntity
  8
1
  6
Continuous
 62
     4
100
AcDbLine
 10
55.00000049999998
 20
-361.476862633776
 30
0.0
 11
126.4504985876378
 21
-361.476862633776
 31
0.0
  0
LINE
  5
3A2
330
39F
100
AcDbEntity
  8
1
  6
Continuous
 62
     4
100
AcDbLine
 10
55.00000049999998
 20
-336.49788
 30
0.0
 11
55.00000049999998
 21
-363.476862633776
 31
0.0
  0
LINE
  5
3A3
330
39F
100
AcDbEntity
  8
1
  6
Continuous
 62
     4
100
AcDbLine
 10
-55.00000050000001
 20
-336.49788
 30
0.0
 11
-55.00000050000001
 21
-363.476862633776
 31
0.0
  0
SOLID
  5
3A4
330
39F
100
AcDbEntity
  8
1
 62
     4
100
AcDbTrace
 10
-43.00000050000001
 20
-359.8970326627273
 30
0.0
 11
-43.00000050000001
 21
-363.0566926048248
 31
0.0
 12
-55.00000050000001
 22
-361.476862633776
 32
0.0
 13
-55.00000050000001
 23
-361.476862633776
 33
0.0
  0
SOLID
  5
3A5
330
39F
100
AcDbEntity
  8
1
 62
     4
100
AcDbTrace
 10
43.00000049999998
 20
-363.0566926048248
 30
0.0
 11
43.00000049999998
 21
-359.8970326627273
 31
0.0
 12
55.00000049999998
 22
-361.476862633776
 32
0.0
 13
55.00000049999998
 23
-361.476862633776
 33
0.0
  0
MTEXT
  5
3A6
330
39F
100
AcDbEntity
  8
1
 62
     1
100
AcDbMText
 10
85.17049858769562
 20
-359.4769103394423
 30
0.0
 40
12.0
 41
0.0
 71
     7
 72
     1
  1
\C1;DN\C1;110
  7
CONVERTER_11
 11
0.9999999999970619
 21
2.424068405545306E-6
 31
0.0
 73
     1
 44
0.60024009603842
  0
ENDBLK
  5
3A8
330
39F
100
AcDbEntity
  8
0
100
AcDbBlockEnd
  0
BLOCK
  5
3B3
330
3AB
100
AcDbEntity
  8
0
100
AcDbBlockBegin
  2
*D8
 70
     1
 71
     0
 10
0.0
 20
0.0
 30
0.0
  3
*D8
  1

  0
LINE
  5
3AC
330
3AB
100
AcDbEntity
  8
1
  6
Continuous
 62
     4
100
AcDbLine
 10
-85.5000005
 20
-397.163442102485
 30
0.0
 11
85.4999995
 21
-397.163442102485
 31
0.0
  0
LINE
  5
3AD
330
3AB
100
AcDbEntity
  8
1
  6
Continuous
 62
     4
100
AcDbLine
 10
85.4999995
 20
-265.498651
 30
0.0
 11
85.4999995
 21
-330.3855982882341
 31
0.0
  0
LINE
  5
3AE
330
3AB
100
AcDbEntity
  8
1
  6
Continuous
 62
     4
100
AcDbLine
 10
85.4999995
 20
-374.99382262412
 30
0.0
 11
85.4999995
 21
-399.163442102485
 31
0.0
  0
LINE
  5
3AF
330
3AB
100
AcDbEntity
  8
1
  6
Continuous
 62
     4
100
AcDbLine
 10
-85.5000005
 20
-265.498651
 30
0.0
 11
-85.5000005
 21
-399.163442102485
 31
0.0
  0
SOLID
  5
3B0
330
3AB
100
AcDbEntity
  8
1
 62
     4
100
AcDbTrace
 10
-73.5000005
 20
-395.5836121314363
 30
0.0
 11
-73.5000005
 21
-398.7432720735338
 31
0.0
 12
-85.5000005
 22
-397.163442102485
 32
0.0
 13
-85.5000005
 23
-397.163442102485
 33
0.0
  0
SOLID
  5
3B1
330
3AB
100
AcDbEntity
  8
1
 62
     4
100
AcDbTrace
 10
73.4999995
 20
-398.7432720735338
 30
0.0
 11
73.4999995
 21
-395.5836121314363
 31
0.0
 12
85.4999995
 22
-397.163442102485
 32
0.0
 13
85.4999995
 23
-397.163442102485
 33
0.0
  0
MTEXT
  5
3B2
330
3AB
100
AcDbEntity
  8
1
 62
     1
100
AcDbMText
 10
-22.39869772893486
 20
-395.1634898081513
 30
0.0
 40
12.0
 41
0.0
 71
     7
 72
     1
  1
\C1;\U+00d8\C1;171
  7
CONVERTER_11
 11
0.9999999999970619
 21
2.424068405545306E-6
 31
0.0
 73
     1
 44
0.60024009603842
  0
ENDBLK
  5
3B4
330
3AB
100
AcDbEntity
  8
0
100
AcDbBlockEnd
  0
BLOCK
  5
3BE
330
3B7
100
AcDbEntity
  8
0
100
AcDbBlockBegin
  2
*D9
 70
     1
 71
     0
 10
0.0
 20
0.0
 30
0.0
  3
*D9
  1

  0
LINE
  5
3B8
330
3B7
100
AcDbEntity
  8
1
  6
Continuous
 62
     4
100
AcDbLine
 10
-142.0501745
 20
92.83187209666
 30
0.0
 11
142.0501745000001
 21
92.83187209666
 31
0.0
  0
LINE
  5
3B9
330
3B7
100
AcDbEntity
  8
1
  6
Continuous
 62
     4
100
AcDbLine
 10
142.0501745000001
 20
0.0
 30
0.0
 11
142.0501745000001
 21
94.83187209666
 31
0.0
  0
LINE
  5
3BA
330
3B7
100
AcDbEntity
  8
1
  6
Continuous
 62
     4
100
AcDbLine
 10
-142.0501745
 20
0.0
 30
0.0
 11
-142.0501745
 21
94.83187209666
 31
0.0
  0
SOLID
  5
3BB
330
3B7
100
AcDbEntity
  8
1
 62
     4
100
AcDbTrace
 10
-130.0501745
 20
94.41170206770876
 30
0.0
 11
-130.0501745
 21
91.25204212561125
 31
0.0
 12
-142.0501745
 22
92.83187209666
 32
0.0
 13
-142.0501745
 23
92.83187209666
 33
0.0
  0
SOLID
  5
3BC
330
3B7
100
AcDbEntity
  8
1
 62
     4
100
AcDbTrace
 10
130.0501745000001
 20
91.25204212561125
 30
0.0
 11
130.0501745000001
 21
94.41170206770876
 31
0.0
 12
142.0501745000001
 22
92.83187209666
 32
0.0
 13
142.0501745000001
 23
92.83187209666
 33
0.0
  0
MTEXT
  5
3BD
330
3B7
100
AcDbEntity
  8
1
 62
     1
100
AcDbMText
 10
-59.78473030529905
 20
94.83177668532757
 30
0.0
 40
12.0
 41
0.0
 71
     7
 72
     1
  1
\C1;284x\C1;284
  7
CONVERTER_11
 11
0.9999999999970619
 21
2.424068405545306E-6
 31
0.0
 73
     1
 44
0.60024009603842
  0
ENDBLK
  5
3BF
330
3B7
100
AcDbEntity
  8
0
100
AcDbBlockEnd
  0
BLOCK
  5
3C9
330
3C2
100
AcDbEntity
  8
0
100
AcDbBlockBegin
  2
*D10
 70
     1
 71
     0
 10
0.0
 20
0.0
 30
0.0
  3
*D10
  1

  0
LINE
  5
3C3
330
3C2
100
AcDbEntity
  8
1
  6
Continuous
 62
     4
100
AcDbLine
 10
-180.0
 20
128.066416875488
 30
0.0
 11
180.0
 21
128.066416875488
 31
0.0
  0
LINE
  5
3C4
330
3C2
100
AcDbEntity
  8
1
  6
Continuous
 62
     4
100
AcDbLine
 10
180.0
 20
1.0
 30
0.0
 11
180.0
 21
130.066416875488
 31
0.0
  0
LINE
  5
3C5
330
3C2
100
AcDbEntity
  8
1
  6
Continuous
 62
     4
100
AcDbLine
 10
-180.0
 20
1.0
 30
0.0
 11
-180.0
 21
130.066416875488
 31
0.0
  0
SOLID
  5
3C6
330
3C2
100
AcDbEntity
  8
1
 62
     4
100
AcDbTrace
 10
-168.0
 20
129.6462468465367
 30
0.0
 11
-168.0
 21
126.4865869044392
 31
0.0
 12
-180.0
 22
128.066416875488
 32
0.0
 13
-180.0
 23
128.066416875488
 33
0.0
  0
SOLID
  5
3C7
330
3C2
100
AcDbEntity
  8
1
 62
     4
100
AcDbTrace
 10
168.0
 20
126.4865869044392
 30
0.0
 11
168.0
 21
129.6462468465367
 31
0.0
 12
180.0
 22
128.066416875488
 32
0.0
 13
180.0
 23
128.066416875488
 33
0.0
  0
MTEXT
  5
3C8
330
3C2
100
AcDbEntity
  8
1
 62
     1
100
AcDbMText
 10
-0.20631822473634
 20
130.0663214641555
 30
0.0
 40
12.0
 41
0.0
 71
     7
 72
     1
  1
\C1;360x\C1;360
  7
CONVERTER_11
 11
0.9999999999970619
 21
2.424068405545306E-6
 31
0.0
 73
     1
 44
0.60024009603842
  0
ENDBLK
  5
3CA
330
3C2
100
AcDbEntity
  8
0
100
AcDbBlockEnd
  0
BLOCK
  5
3D4
330
3CD
100
AcDbEntity
  8
0
100
AcDbBlockBegin
  2
*D11
 70
     1
 71
     0
 10
0.0
 20
0.0
 30
0.0
  3
*D11
  1

  0
LINE
  5
3CE
330
3CD
100
AcDbEntity
  8
1
  6
Continuous
 62
     4
100
AcDbLine
 10
-188.9999995
 20
170.988498696968
 30
0.0
 11
188.9999995
 21
170.988498696968
 31
0.0
  0
LINE
  5
3CF
330
3CD
100
AcDbEntity
  8
1
  6
Continuous
 62
     4
100
AcDbLine
 10
188.9999995
 20
-100.0
 30
0.0
 11
188.9999995
 21
172.988498696968
 31
0.0
  0
LINE
  5
3D0
330
3CD
100
AcDbEntity
  8
1
  6
Continuous
 62
     4
100
AcDbLine
 10
-188.9999995
 20
-100.0
 30
0.0
 11
-188.9999995
 21
172.988498696968
 31
0.0
  0
SOLID
  5
3D1
330
3CD
100
AcDbEntity
  8
1
 62
     4
100
AcDbTrace
 10
-176.9999995
 20
172.5683286680168
 30
0.0
 11
-176.9999995
 21
169.4086687259193
 31
0.0
 12
-188.9999995
 22
170.988498696968
 32
0.0
 13
-188.9999995
 23
170.988498696968
 33
0.0
  0
SOLID
  5
3D2
330
3CD
100
AcDbEntity
  8
1
 62
     4
100
AcDbTrace
 10
176.9999995
 20
169.4086687259193
 30
0.0
 11
176.9999995
 21
172.5683286680168
 31
0.0
 12
188.9999995
 22
170.988498696968
 32
0.0
 13
188.9999995
 23
170.988498696968
 33
0.0
  0
MTEXT
  5
3D3
330
3CD
100
AcDbEntity
  8
1
 62
     1
100
AcDbMText
 10
-57.86284604463576
 20
172.9884032856356
 30
0.0
 40
12.0
 41
0.0
 71
     7
 72
     1
  1
\C1;378x\C1;378
  7
CONVERTER_11
 11
0.9999999999970619
 21
2.424068405545306E-6
 31
0.0
 73
     1
 44
0.60024009603842
  0
ENDBLK
  5
3D5
330
3CD
100
AcDbEntity
  8
0
100
AcDbBlockEnd
  0
ENDSEC
  0
SECTION
  2
ENTITIES
  0
INSERT
  5
51
330
1F
100
AcDbEntity
  8
1
100
AcDbBlockReference
  2
Draufsicht
 10
208.556975499996
 20
-426.4338419999986
 30
0.0
  0
INSERT
  5
52
330
1F
100
AcDbEntity
  8
0
100
AcDbBlockReference
  2
060_1E_Laubfangkorb
 10
227.0378711237936
 20
-1241.403681963595
 30
0.0
  0
INSERT
  5
53
330
1F
100
AcDbEntity
  8
1
100
AcDbBlockReference
  2
Körper
 10
208.557962
 20
113.766932
 30
0.0
  0
DIMENSION
  5
388
330
1F
100
AcDbEntity
  8
1
100
AcDbDimension
  2
*D4
 10
239.096787920685
 20
-270.498651
 30
0.0
 11
231.096787920685
 21
-136.401040766037
 31
0.0
 70
    32
  1
<>
 71
     5
 42
-1.0
 53
90.0
  3
ME10_DIM_10
100
AcDbAlignedDimension
 13
180.0
 23
1.0
 33
0.0
 14
77.4999995
 24
-270.498651
 34
0.0
 50
90.0
100
AcDbRotatedDimension
  0
DIMENSION
  5
393
330
1F
100
AcDbEntity
  8
1
100
AcDbDimension
  2
*D5
 10
206.429049750142
 20
1.0
 30
0.0
 11
198.429049750142
 21
-48.28569197552599
 31
0.0
 70
    32
  1
100-160
 71
     5
 42
-1.0
 53
90.0
  3
ME10_DIM_11
100
AcDbAlignedDimension
 13
186.9999995
 23
-97.5
 33
0.0
 14
180.0
 24
1.0
 34
0.0
 50
90.0
100
AcDbRotatedDimension
  0
DIMENSION
  5
39E
330
1F
100
AcDbEntity
  8
1
100
AcDbDimension
  2
*D6
 10
198.9999995
 20
-270.498651
 30
0.0
 11
190.9999995
 21
-186.632919080979
 31
0.0
 70
    32
  1
(111-171
 71
     5
 42
-1.0
 53
-90.0
  3
ME10_DIM_12
100
AcDbAlignedDimension
 13
188.9999995
 23
-100.0
 33
0.0
 14
77.4999995
 24
-270.498651
 34
0.0
 50
-90.0
100
AcDbRotatedDimension
  0
DIMENSION
  5
3AA
330
1F
100
AcDbEntity
  8
1
100
AcDbDimension
  2
*D7
 10
-55.00000050000001
 20
-361.476862633776
 30
0.0
 11
102.4504985876378
 21
-353.476862633776
 31
0.0
 70
    32
  1
<>
 71
     5
 42
-1.0
 53
0.00013888888889
  3
ME10_DIM_13
100
AcDbAlignedDimension
 13
55.00000050000001
 23
-336.49788
 33
0.0
 14
-55.0000005
 24
-336.49788
 34
0.0
100
AcDbRotatedDimension
  0
DIMENSION
  5
3B6
330
1F
100
AcDbEntity
  8
1
100
AcDbDimension
  2
*D8
 10
-85.5000005
 20
-397.163442102485
 30
0.0
 11
0.88130227100731
 21
-389.163442102485
 31
0.0
 70
    32
  1
<>
 71
     5
 42
-1.0
 53
0.00013888888889
  3
ME10_DIM_14
100
AcDbAlignedDimension
 13
85.4999995
 23
-265.498651
 33
0.0
 14
-85.5000005
 24
-265.498651
 34
0.0
100
AcDbRotatedDimension
  0
DIMENSION
  5
3C1
330
1F
100
AcDbEntity
  8
1
100
AcDbDimension
  2
*D9
 10
-142.0501745
 20
92.83187209666
 30
0.0
 11
-28.8247303054147
 21
100.83187209666
 31
0.0
 70
    32
  1
284x284
 71
     5
 42
-1.0
 53
0.00013888888889
  3
ME10_DIM_15
100
AcDbAlignedDimension
 13
142.0501745000001
 23
0.0
 33
0.0
 14
-142.0501745
 24
0.0
 34
0.0
100
AcDbRotatedDimension
  0
DIMENSION
  5
3CC
330
1F
100
AcDbEntity
  8
1
100
AcDbDimension
  2
*D10
 10
-180.0
 20
128.066416875488
 30
0.0
 11
30.75368177514801
 21
136.066416875488
 31
0.0
 70
    32
  1
<>
 71
     5
 42
-1.0
 53
0.00013888888889
  3
ME10_DIM_16
100
AcDbAlignedDimension
 13
180.0
 23
1.0
 33
0.0
 14
-180.0
 24
1.0
 34
0.0
100
AcDbRotatedDimension
  0
DIMENSION
  5
3D7
330
1F
100
AcDbEntity
  8
1
100
AcDbDimension
  2
*D11
 10
-188.9999995
 20
170.988498696968
 30
0.0
 11
-26.90284604475141
 21
178.988498696968
 31
0.0
 70
    32
  1
<>
 71
     5
 42
-1.0
 53
0.00013888888889
  3
ME10_DIM_17
100
AcDbAlignedDimension
 13
188.9999995
 23
-100.0
 33
0.0
 14
-188.9999995
 24
-100.0
 34
0.0
100
AcDbRotatedDimension
  0
ENDSEC
  0
SECTION
  2
OBJECTS
  0
DICTIONARY
  5
C
330
0
100
AcDbDictionary
281
     1
  3
ACAD_GROUP
350
D
  3
ACAD_LAYOUT
350
1A
  3
ACAD_MLINESTYLE
350
17
  3
ACAD_PLOTSETTINGS
350
19
  3
ACAD_PLOTSTYLENAME
350
E
  3
ACAD_TABLESTYLE
350
3D8
  3
ACAD_VISUALSTYLE
350
2A
  0
DICTIONARY
  5
D
102
{ACAD_REACTORS
330
C
102
}
330
C
100
AcDbDictionary
281
     1
  0
DICTIONARY
  5
1A
102
{ACAD_REACTORS
330
C
102
}
330
C
100
AcDbDictionary
281
     1
  3
Layout1
350
1E
  3
Layout2
350
26
  3
Model
350
22
  0
DICTIONARY
  5
17
102
{ACAD_REACTORS
330
C
102
}
330
C
100
AcDbDictionary
281
     1
  3
Standard
350
18
  0
DICTIONARY
  5
19
102
{ACAD_REACTORS
330
C
102
}
330
C
100
AcDbDictionary
281
     1
  0
ACDBDICTIONARYWDFLT
  5
E
102
{ACAD_REACTORS
330
C
102
}
330
C
100
AcDbDictionary
281
     1
  3
Normal
350
F
100
AcDbDictionaryWithDefault
340
F
  0
DICTIONARY
  5
3D8
102
{ACAD_REACTORS
330
C
102
}
330
C
100
AcDbDictionary
281
     1
  0
DICTIONARY
  5
2A
102
{ACAD_REACTORS
330
C
102
}
330
C
100
AcDbDictionary
281
     1
  3
2dWireframe
350
2F
  3
3D Hidden
350
31
  3
3dWireframe
350
30
  3
Basic
350
32
  3
Brighten
350
36
  3
ColorChange
350
3A
  3
Conceptual
350
34
  3
Dim
350
35
  3
Facepattern
350
39
  3
Flat
350
2B
  3
FlatWithEdges
350
2C
  3
Gouraud
350
2D
  3
GouraudWithEdges
350
2E
  3
Linepattern
350
38
  3
Realistic
350
33
  3
Thicken
350
37
  0
LAYOUT
  5
1E
102
{ACAD_REACTORS
330
1A
102
}
330
1A
100
AcDbPlotSettings
  1

  2
none_device
  4

  6

 40
0.0
 41
0.0
 42
0.0
 43
0.0
 44
0.0
 45
0.0
 46
0.0
 47
0.0
 48
0.0
 49
0.0
140
0.0
141
0.0
142
1.0
143
1.0
 70
   688
 72
     0
 73
     0
 74
     5
  7

 75
    16
147
1.0
148
0.0
149
0.0
100
AcDbLayout
  1
Layout1
 70
     1
 71
     1
 10
0.0
 20
0.0
 11
12.0
 21
9.0
 12
0.0
 22
0.0
 32
0.0
 14
1.00000000000000E+20
 24
1.00000000000000E+20
 34
1.00000000000000E+20
 15
-1.00000000000000E+20
 25
-1.00000000000000E+20
 35
-1.00000000000000E+20
146
0.0
 13
0.0
 23
0.0
 33
0.0
 16
1.0
 26
0.0
 36
0.0
 17
0.0
 27
1.0
 37
0.0
 76
     0
330
1B
  0
LAYOUT
  5
26
102
{ACAD_REACTORS
330
1A
102
}
330
1A
100
AcDbPlotSettings
  1

  2
none_device
  4

  6

 40
0.0
 41
0.0
 42
0.0
 43
0.0
 44
0.0
 45
0.0
 46
0.0
 47
0.0
 48
0.0
 49
0.0
140
0.0
141
0.0
142
1.0
143
1.0
 70
   688
 72
     0
 73
     0
 74
     5
  7

 75
    16
147
1.0
148
0.0
149
0.0
100
AcDbLayout
  1
Layout2
 70
     1
 71
     2
 10
0.0
 20
0.0
 11
0.0
 21
0.0
 12
0.0
 22
0.0
 32
0.0
 14
0.0
 24
0.0
 34
0.0
 15
0.0
 25
0.0
 35
0.0
146
0.0
 13
0.0
 23
0.0
 33
0.0
 16
1.0
 26
0.0
 36
0.0
 17
0.0
 27
1.0
 37
0.0
 76
     0
330
23
  0
LAYOUT
  5
22
102
{ACAD_REACTORS
330
1A
102
}
330
1A
100
AcDbPlotSettings
  1

  2
none_device
  4

  6

 40
0.0
 41
0.0
 42
0.0
 43
0.0
 44
0.0
 45
0.0
 46
0.0
 47
0.0
 48
0.0
 49
0.0
140
0.0
141
0.0
142
1.0
143
1.0
 70
  1712
 72
     0
 73
     0
 74
     0
  7

 75
     0
147
1.0
148
0.0
149
0.0
100
AcDbLayout
  1
Model
 70
     1
 71
     0
 10
0.0
 20
0.0
 11
12.0
 21
9.0
 12
0.0
 22
0.0
 32
0.0
 14
-189.0010145000031
 24
-867.9986549999994
 34
0.0
 15
241.096787920685
 25
184.988498696968
 35
0.0
146
0.0
 13
0.0
 23
0.0
 33
0.0
 16
1.0
 26
0.0
 36
0.0
 17
0.0
 27
1.0
 37
0.0
 76
     0
330
1F
331
29
  0
MLINESTYLE
  5
18
102
{ACAD_REACTORS
330
17
102
}
330
17
100
AcDbMlineStyle
  2
Standard
 70
     0
  3

 62
   256
 51
90.0
 52
90.0
 71
     2
 49
0.5
 62
   256
  6
BYLAYER
 49
-0.5
 62
   256
  6
BYLAYER
  0
ACDBPLACEHOLDER
  5
F
102
{ACAD_REACTORS
330
E
102
}
330
E
  0
VISUALSTYLE
  5
2F
102
{ACAD_REACTORS
330
2A
102
}
330
2A
100
AcDbVisualStyle
  2
2dWireframe
 70
     4
 71
     0
 72
     2
 73
     0
 90
        0
 40
-0.6
 41
-30.0
 62
     5
 63
     7
 74
     1
 91
        4
 64
     7
 65
   257
 75
     1
175
     1
 42
1.0
 92
        0
 66
   257
 43
1.0
 76
     1
 77
     6
 78
     2
 67
     7
 79
     5
170
     0
171
     0
290
     0
174
     0
 93
        1
 44
0.0
173
     0
291
     0
 45
0.0
1001
ACAD
1000
AcDbSavedByObjectVersion
1070
     0
  0
VISUALSTYLE
  5
31
102
{ACAD_REACTORS
330
2A
102
}
330
2A
100
AcDbVisualStyle
  2
3D Hidden
 70
     6
 71
     1
 72
     2
 73
     2
 90
        0
 40
-0.6
 41
-30.0
 62
     5
 63
     7
 74
     2
 91
        2
 64
     7
 65
   257
 75
     2
175
     1
 42
40.0
 92
        0
 66
   257
 43
1.0
 76
     1
 77
     6
 78
     2
 67
     7
 79
     3
170
     0
171
     0
290
     0
174
     0
 93
        1
 44
0.0
173
     0
291
     0
 45
0.0
1001
ACAD
1000
AcDbSavedByObjectVersion
1070
     0
  0
VISUALSTYLE
  5
30
102
{ACAD_REACTORS
330
2A
102
}
330
2A
100
AcDbVisualStyle
  2
3dWireframe
 70
     5
 71
     0
 72
     2
 73
     0
 90
        0
 40
-0.6
 41
-30.0
 62
     5
 63
     7
 74
     1
 91
        4
 64
     7
 65
   257
 75
     1
175
     1
 42
1.0
 92
        0
 66
   257
 43
1.0
 76
     1
 77
     6
 78
     2
 67
     7
 79
     5
170
     0
171
     0
290
     0
174
     0
 93
        1
 44
0.0
173
     0
291
     0
 45
0.0
1001
ACAD
1000
AcDbSavedByObjectVersion
1070
     0
  0
VISUALSTYLE
  5
32
102
{ACAD_REACTORS
330
2A
102
}
330
2A
100
AcDbVisualStyle
  2
Basic
 70
     7
 71
     1
 72
     0
 73
     1
 90
        0
 40
-0.6
 41
-30.0
 62
     5
 63
     7
 74
     0
 91
        4
 64
     7
 65
   257
 75
     1
175
     1
 42
1.0
 92
        8
 66
     7
 43
1.0
 76
     1
 77
     6
 78
     2
 67
     7
 79
     5
170
     0
171
     0
290
     0
174
     0
 93
        1
 44
0.0
173
     0
291
     1
 45
0.0
1001
ACAD
1000
AcDbSavedByObjectVersion
1070
     0
  0
VISUALSTYLE
  5
36
102
{ACAD_REACTORS
330
2A
102
}
330
2A
100
AcDbVisualStyle
  2
Brighten
 70
    12
 71
     2
 72
     2
 73
     0
 90
        0
 40
-0.6
 41
-30.0
 62
     5
 63
     7
 74
     1
 91
        4
 64
     7
 65
   257
 75
     1
175
     1
 42
1.0
 92
        8
 66
     7
 43
1.0
 76
     1
 77
     6
 78
     2
 67
     7
 79
     5
170
     0
171
     0
290
     0
174
     0
 93
        1
 44
50.0
173
     0
291
     1
 45
0.0
1001
ACAD
1000
AcDbSavedByObjectVersion
1070
     0
  0
VISUALSTYLE
  5
3A
102
{ACAD_REACTORS
330
2A
102
}
330
2A
100
AcDbVisualStyle
  2
ColorChange
 70
    16
 71
     2
 72
     2
 73
     3
 90
        0
 40
-0.6
 41
-30.0
 62
     5
 63
     8
 74
     1
 91
        4
 64
     7
 65
   257
 75
     1
175
     1
 42
1.0
 92
        8
 66
     8
 43
1.0
 76
     1
 77
     6
 78
     2
 67
     7
 79
     5
170
     0
171
     0
290
     0
174
     0
 93
        1
 44
0.0
173
     0
291
     1
 45
0.0
1001
ACAD
1000
AcDbSavedByObjectVersion
1070
     0
  0
VISUALSTYLE
  5
34
102
{ACAD_REACTORS
330
2A
102
}
330
2A
100
AcDbVisualStyle
  2
Conceptual
 70
     9
 71
     3
 72
     2
 73
     0
 90
        0
 40
-0.6
 41
-30.0
 62
     5
 63
     7
 74
     2
 91
        2
 64
     7
 65
   257
 75
     1
175
     1
 42
40.0
 92
        8
 66
     7
 43
1.0
 76
     1
 77
     6
 78
     2
 67
     7
 79
     3
170
     0
171
     0
290
     0
174
     0
 93
        1
 44
0.0
173
     0
291
     0
 45
0.0
1001
ACAD
1000
AcDbSavedByObjectVersion
1070
     0
  0
VISUALSTYLE
  5
35
102
{ACAD_REACTORS
330
2A
102
}
330
2A
100
AcDbVisualStyle
  2
Dim
 70
    11
 71
     2
 72
     2
 73
     0
 90
        0
 40
-0.6
 41
-30.0
 62
     5
 63
     7
 74
     1
 91
        4
 64
     7
 65
   257
 75
     1
175
     1
 42
1.0
 92
        8
 66
     7
 43
1.0
 76
     1
 77
     6
 78
     2
 67
     7
 79
     5
170
     0
171
     0
290
     0
174
     0
 93
        1
 44
-50.0
173
     0
291
     1
 45
0.0
1001
ACAD
1000
AcDbSavedByObjectVersion
1070
     0
  0
VISUALSTYLE
  5
39
102
{ACAD_REACTORS
330
2A
102
}
330
2A
100
AcDbVisualStyle
  2
Facepattern
 70
    15
 71
     2
 72
     2
 73
     0
 90
        0
 40
-0.6
 41
-30.0
 62
     5
 63
     7
 74
     1
 91
        4
 64
     7
 65
   257
 75
     1
175
     1
 42
1.0
 92
        8
 66
     7
 43
1.0
 76
     1
 77
     6
 78
     2
 67
     7
 79
     5
170
     0
171
     0
290
     0
174
     0
 93
        1
 44
0.0
173
     0
291
     1
 45
0.0
1001
ACAD
1000
AcDbSavedByObjectVersion
1070
     0
  0
VISUALSTYLE
  5
2B
102
{ACAD_REACTORS
330
2A
102
}
330
2A
100
AcDbVisualStyle
  2
Flat
 70
     0
 71
     2
 72
     1
 73
     1
 90
        2
 40
-0.6
 41
30.0
 62
     5
 63
     7
 74
     0
 91
        4
 64
     7
 65
   257
 75
     1
175
     1
 42
1.0
 92
        8
 66
     7
 43
1.0
 76
     1
 77
     6
 78
     2
 67
     7
 79
     5
170
     0
171
     0
290
     0
174
     0
 93
       13
 44
0.0
173
     0
291
     1
 45
0.0
1001
ACAD
1000
AcDbSavedByObjectVersion
1070
     0
  0
VISUALSTYLE
  5
2C
102
{ACAD_REACTORS
330
2A
102
}
330
2A
100
AcDbVisualStyle
  2
FlatWithEdges
 70
     1
 71
     2
 72
     1
 73
     1
 90
        2
 40
-0.6
 41
30.0
 62
     5
 63
     7
 74
     1
 91
        4
 64
     7
 65
   257
 75
     1
175
     1
 42
1.0
 92
        0
 66
   257
 43
1.0
 76
     1
 77
     6
 78
     2
 67
     7
 79
     5
170
     0
171
     0
290
     0
174
     0
 93
       13
 44
0.0
173
     0
291
     1
 45
0.0
1001
ACAD
1000
AcDbSavedByObjectVersion
1070
     0
  0
VISUALSTYLE
  5
2D
102
{ACAD_REACTORS
330
2A
102
}
330
2A
100
AcDbVisualStyle
  2
Gouraud
 70
     2
 71
     2
 72
     2
 73
     1
 90
        2
 40
-0.6
 41
30.0
 62
     5
 63
     7
 74
     0
 91
        4
 64
     7
 65
   257
 75
     1
175
     1
 42
1.0
 92
        0
 66
     7
 43
1.0
 76
     1
 77
     6
 78
     2
 67
     7
 79
     5
170
     0
171
     0
290
     0
174
     0
 93
       13
 44
0.0
173
     0
291
     1
 45
0.0
1001
ACAD
1000
AcDbSavedByObjectVersion
1070
     0
  0
VISUALSTYLE
  5
2E
102
{ACAD_REACTORS
330
2A
102
}
330
2A
100
AcDbVisualStyle
  2
GouraudWithEdges
 70
     3
 71
     2
 72
     2
 73
     1
 90
        2
 40
-0.6
 41
30.0
 62
     5
 63
     7
 74
     1
 91
        4
 64
     7
 65
   257
 75
     1
175
     1
 42
1.0
 92
        0
 66
   257
 43
1.0
 76
     1
 77
     6
 78
     2
 67
     7
 79
     5
170
     0
171
     0
290
     0
174
     0
 93
       13
 44
0.0
173
     0
291
     1
 45
0.0
1001
ACAD
1000
AcDbSavedByObjectVersion
1070
     0
  0
VISUALSTYLE
  5
38
102
{ACAD_REACTORS
330
2A
102
}
330
2A
100
AcDbVisualStyle
  2
Linepattern
 70
    14
 71
     2
 72
     2
 73
     0
 90
        0
 40
-0.6
 41
-30.0
 62
     5
 63
     7
 74
     1
 91
        4
 64
     7
 65
   257
 75
     7
175
     7
 42
1.0
 92
        8
 66
     7
 43
1.0
 76
     1
 77
     6
 78
     2
 67
     7
 79
     5
170
     0
171
     0
290
     0
174
     0
 93
        1
 44
0.0
173
     0
291
     1
 45
0.0
1001
ACAD
1000
AcDbSavedByObjectVersion
1070
     0
  0
VISUALSTYLE
  5
33
102
{ACAD_REACTORS
330
2A
102
}
330
2A
100
AcDbVisualStyle
  2
Realistic
 70
     8
 71
     2
 72
     2
 73
     0
 90
        0
 40
-0.6
 41
-30.0
 62
     5
 63
     7
 74
     1
 91
        0
 64
     7
 65
   257
 75
     1
175
     1
 42
1.0
 92
        8
 66
     8
 43
1.0
 76
     1
 77
     6
 78
     2
 67
     7
 79
     5
170
     0
171
     0
290
     0
174
     0
 93
       13
 44
0.0
173
     0
291
     0
 45
0.0
1001
ACAD
1000
AcDbSavedByObjectVersion
1070
     0
  0
VISUALSTYLE
  5
37
102
{ACAD_REACTORS
330
2A
102
}
330
2A
100
AcDbVisualStyle
  2
Thicken
 70
    13
 71
     2
 72
     2
 73
     0
 90
        0
 40
-0.6
 41
-30.0
 62
     5
 63
     7
 74
     1
 91
        4
 64
     7
 65
   257
 75
     1
175
     1
 42
1.0
 92
       12
 66
     7
 43
1.0
 76
     1
 77
     6
 78
     2
 67
     7
 79
     5
170
     0
171
     0
290
     0
174
     0
 93
        1
 44
0.0
173
     0
291
     1
 45
0.0
1001
ACAD
1000
AcDbSavedByObjectVersion
1070
     0
  0
ENDSEC
  0
EOF
