  0
SECTION
  2
HEADER
  9
$ACADVER
  1
AC1014
  9
$ACADMAINTVER
 70
             0
  9
$DWGCODEPAGE
  3
ANSI_1252
  9
$INSBASE
 10
0.0
 20
0.0
 30
0.0
  9
$EXTMIN
 10
-235.48191899999989
 20
-197.88643831968909
 30
0.0
  9
$EXTMAX
 10
342.43797973792869
 20
101.1905860333062
 30
0.0
  9
$LIMMIN
 10
0.0
 20
0.0
  9
$LIMMAX
 10
0.0
 20
0.0
  9
$ORTHOMODE
 70
             0
  9
$REGENMODE
 70
             1
  9
$FILLMODE
 70
             1
  9
$QTEXTMODE
 70
             0
  9
$MIRRTEXT
 70
             1
  9
$DRAGMODE
 70
             2
  9
$LTSCALE
 40
1.0
  9
$OSMODE
 70
             0
  9
$ATTMODE
 70
             1
  9
$TEXTSIZE
 40
0.2
  9
$TRACEWID
 40
0.05
  9
$TEXTSTYLE
  7
STANDARD
  9
$CLAYER
  8
0
  9
$CELTYPE
  6
CONTINUOUS
  9
$CECOLOR
 62
           256
  9
$CELTSCALE
 40
1.0
  9
$DELOBJ
 70
             1
  9
$DISPSILH
 70
             0
  9
$DIMSCALE
 40
1.0
  9
$DIMASZ
 40
0.18
  9
$DIMEXO
 40
0.0625
  9
$DIMDLI
 40
0.38
  9
$DIMRND
 40
0.0
  9
$DIMDLE
 40
0.0
  9
$DIMEXE
 40
0.18
  9
$DIMTP
 40
0.0
  9
$DIMTM
 40
0.0
  9
$DIMTXT
 40
0.18
  9
$DIMCEN
 40
0.09
  9
$DIMTSZ
 40
0.0
  9
$DIMTOL
 70
             0
  9
$DIMLIM
 70
             0
  9
$DIMTIH
 70
             1
  9
$DIMTOH
 70
             1
  9
$DIMSE1
 70
             0
  9
$DIMSE2
 70
             0
  9
$DIMTAD
 70
             0
  9
$DIMZIN
 70
             0
  9
$DIMBLK
  1

  9
$DIMASO
 70
             1
  9
$DIMSHO
 70
             1
  9
$DIMPOST
  1

  9
$DIMAPOST
  1

  9
$DIMALT
 70
             0
  9
$DIMALTD
 70
             2
  9
$DIMALTF
 40
25.4
  9
$DIMLFAC
 40
1.0
  9
$DIMTOFL
 70
             0
  9
$DIMTVP
 40
0.0
  9
$DIMTIX
 70
             0
  9
$DIMSOXD
 70
             0
  9
$DIMSAH
 70
             0
  9
$DIMBLK1
  1

  9
$DIMBLK2
  1

  9
$DIMSTYLE
  2
STANDARD
  9
$DIMCLRD
 70
             0
  9
$DIMCLRE
 70
             0
  9
$DIMCLRT
 70
             0
  9
$DIMTFAC
 40
1.0
  9
$DIMGAP
 40
0.09
  9
$DIMJUST
 70
             0
  9
$DIMSD1
 70
             0
  9
$DIMSD2
 70
             0
  9
$DIMTOLJ
 70
             1
  9
$DIMTZIN
 70
             0
  9
$DIMALTZ
 70
             0
  9
$DIMALTTZ
 70
             0
  9
$DIMFIT
 70
             3
  9
$DIMUPT
 70
             0
  9
$DIMUNIT
 70
             2
  9
$DIMDEC
 70
             4
  9
$DIMTDEC
 70
             4
  9
$DIMALTU
 70
             2
  9
$DIMALTTD
 70
             2
  9
$DIMTXSTY
  7
STANDARD
  9
$DIMAUNIT
 70
             0
  9
$LUNITS
 70
             2
  9
$LUPREC
 70
             4
  9
$SKETCHINC
 40
0.1
  9
$FILLETRAD
 40
0.0
  9
$AUNITS
 70
             0
  9
$AUPREC
 70
             0
  9
$MENU
  1
acad
  9
$ELEVATION
 40
0.0
  9
$PELEVATION
 40
0.0
  9
$THICKNESS
 40
0.0
  9
$LIMCHECK
 70
             0
  9
$BLIPMODE
 70
             1
  9
$CHAMFERA
 40
0.0
  9
$CHAMFERB
 40
0.0
  9
$CHAMFERC
 40
0.0
  9
$CHAMFERD
 40
0.0
  9
$SKPOLY
 70
             0
  9
$TDCREATE
 40
0.000000000
  9
$TDUPDATE
 40
0.000000000
  9
$TDINDWG
 40
0.0000000000
  9
$TDUSRTIMER
 40
0.0000000000
  9
$USRTIMER
 70
             1
  9
$ANGBASE
 50
0.0
  9
$ANGDIR
 70
             0
  9
$PDMODE
 70
             0
  9
$PDSIZE
 40
0.0
  9
$PLINEWID
 40
0.0
  9
$COORDS
 70
             0
  9
$SPLFRAME
 70
             0
  9
$SPLINETYPE
 70
             6
  9
$SPLINESEGS
 70
             8
  9
$ATTDIA
 70
             0
  9
$ATTREQ
 70
             1
  9
$HANDLING
 70
             1
  9
$HANDSEED
  5
145
  9
$SURFTAB1
 70
             6
  9
$SURFTAB2
 70
             6
  9
$SURFTYPE
 70
             6
  9
$SURFU
 70
             6
  9
$SURFV
 70
             6
  9
$UCSNAME
  2

  9
$UCSORG
 10
0.0
 20
0.0
 30
0.0
  9
$UCSXDIR
 10
1.0
 20
0.0
 30
0.0
  9
$UCSYDIR
 10
0.0
 20
1.0
 30
0.0
  9
$PUCSNAME
  2

  9
$PUCSORG
 10
0.0
 20
0.0
 30
0.0
  9
$PUCSXDIR
 10
1.0
 20
0.0
 30
0.0
  9
$PUCSYDIR
 10
0.0
 20
1.0
 30
0.0
  9
$USERI1
 70
             0
  9
$USERI2
 70
             0
  9
$USERI3
 70
             0
  9
$USERI4
 70
             0
  9
$USERI5
 70
             0
  9
$USERR1
 40
12.01
  9
$USERR2
 40
0.0
  9
$USERR3
 40
0.0
  9
$USERR4
 40
0.0
  9
$USERR5
 40
0.0
  9
$WORLDVIEW
 70
             1
  9
$SHADEDGE
 70
             3
  9
$SHADEDIF
 70
            70
  9
$TILEMODE
 70
             1
  9
$MAXACTVP
 70
            16
  9
$PINSBASE
 10
0.0
 20
0.0
 30
0.0
  9
$PLIMCHECK
 70
             0
  9
$PEXTMIN
 10
1.00000000000000E+20
 20
1.00000000000000E+20
 30
1.00000000000000E+20
  9
$PEXTMAX
 10
-1.00000000000000E+20
 20
-1.00000000000000E+20
 30
-1.00000000000000E+20
  9
$PLIMMIN
 10
0.0
 20
0.0
  9
$PLIMMAX
 10
12.0
 20
9.0
  9
$UNITMODE
 70
             0
  9
$VISRETAIN
 70
             0
  9
$PLINEGEN
 70
             1
  9
$PSLTSCALE
 70
             0
  9
$TREEDEPTH
 70
          3020
  9
$PICKSTYLE
 70
             1
  9
$CMLSTYLE
  2
STANDARD
  9
$CMLJUST
 70
             0
  9
$CMLSCALE
 40
1.0
  9
$PROXYGRAPHICS
 70
             0
  9
$MEASUREMENT
 70
             1
  0
ENDSEC
  0
SECTION
  2
CLASSES
  0
CLASS
  1
LWPOLYLINE
  2
AcDbPolyline
  3
"AutoCAD"
 90
        0
280
             0
281
             1
  0
CLASS
  1
IMAGE
  2
AcDbRasterImage
  3
ISM
 90
      127
280
             0
281
             1
  0
CLASS
  1
OLE2FRAME
  2
AcDbOle2Frame
  3
""
 90
        0
280
             0
281
             1
  0
CLASS
  1
HATCH
  2
AcDbHatch
  3
"ACAD_SEDONA"
 90
        0
280
             0
281
             1
  0
CLASS
  1
DICTIONARYVAR
  2
AcDbDictionaryVar
  3
"AutoCAD"
 90
        0
280
             0
281
             0
  0
CLASS
  1
RASTERVARIABLES
  2
AcDbRasterVariables
  3
ISM
 90
        0
280
             0
281
             0
  0
CLASS
  1
IMAGEDEF
  2
AcDbRasterImageDef
  3
ISM
 90
        0
280
             0
281
             0
  0
CLASS
  1
IMAGEDEF_REACTOR
  2
AcDbRasterImageDefReactor
  3
ISM
 90
        1
280
             0
281
             0
  0
CLASS
  1
IDBUFFER
  2
AcDbIdBuffer
  3
"Acad"
 90
        0
280
             0
281
             0
  0
CLASS
  1
SPATIAL_FILTER
  2
AcDbSpatialFilter
  3
"Acad"
 90
        0
280
             0
281
             0
  0
CLASS
  1
XRECORD
  2
AcDbXrecord
  3
"<Built In>"
 90
        0
280
             0
281
             0
  0
CLASS
  1
SORTENTSTABLE
  2
AcDbSortentsTable
  3
"AutoCAD"
 90
        0
280
             0
281
             0
  0
CLASS
  1
LAYER_INDEX
  2
AcDbLayerIndex
  3
"Acad"
 90
        0
280
             0
281
             0
  0
CLASS
  1
SPATIAL_INDEX
  2
AcDbSpatialIndex
  3
"Acad"
 90
        0
280
             0
281
             0
  0
CLASS
  1
OBJECT_PTR
  2
CAseDLPNTableRecord
  3
"ASE-LPNTableRecord"
 90
        1
280
             0
281
             0
  0
CLASS
  1
LAYOUT
  2
AcDbLayout
  3
"AutoCAD 2000"
 90
        0
280
             0
281
             0
  0
CLASS
  1
PLOTSETTINGS
  2
AcDbPlotSettings
  3
"AutoCAD 2000"
 90
        0
280
             0
281
             0
  0
CLASS
  1
ACDBDICTIONARYWDFLT
  2
AcDbDictionaryWithDefault
  3
"AutoCAD 2000"
 90
        0
280
             0
281
             0
  0
CLASS
  1
ACDBPLACEHOLDER
  2
AcDbPlaceHolder
  3
"AutoCAD 2000"
 90
        0
280
             0
281
             0
  0
ENDSEC
  0
SECTION
  2
TABLES
  0
TABLE
  2
VPORT
  5
7
100
AcDbSymbolTable
 70
             1
  0
VPORT
  5
15
100
AcDbSymbolTableRecord
100
AcDbViewportTableRecord
  2
*ACTIVE
 70
             0
 10
0.0
 20
0.0
 11
1.0
 21
1.0
 12
53.4780303689644
 22
-48.34792614319144
 13
0.0
 23
0.0
 14
1.0
 24
1.0
 15
0.0
 25
0.0
 16
0.0
 26
0.0
 36
1.0
 17
0.0
 27
0.0
 37
0.0
 40
396.65588593043367
 41
1.60267857142857
 42
50.0
 43
0.0
 44
0.0
 50
0.0
 51
0.0
 71
             0
 72
           100
 73
             1
 74
             1
 75
             0
 76
             0
 77
             0
 78
             0
  0
ENDTAB
  0
TABLE
  2
LTYPE
  5
4
100
AcDbSymbolTable
 70
            11
  0
LTYPE
  5
11
100
AcDbSymbolTableRecord
100
AcDbLinetypeTableRecord
  2
BYBLOCK
 70
            64
  3

 72
            65
 73
             0
 40
0.0
  0
LTYPE
  5
12
100
AcDbSymbolTableRecord
100
AcDbLinetypeTableRecord
  2
BYLAYER
 70
            64
  3

 72
            65
 73
             0
 40
0.0
  0
LTYPE
  5
13
100
AcDbSymbolTableRecord
100
AcDbLinetypeTableRecord
  2
CONTINUOUS
 70
            64
  3
Solid line
 72
            65
 73
             0
 40
0.0
  0
LTYPE
  5
1D
100
AcDbSymbolTableRecord
100
AcDbLinetypeTableRecord
  2
DASHED
 70
            64
  3
Dashed
 72
            65
 73
             2
 40
15.0
 49
7.0
 74
             0
 49
-8.0
 74
             0
  0
LTYPE
  5
1E
100
AcDbSymbolTableRecord
100
AcDbLinetypeTableRecord
  2
DOTTED
 70
            64
  3
Dotted
 72
            65
 73
             2
 40
1.0
 49
0.0
 74
             0
 49
-1.0
 74
             0
  0
LTYPE
  5
1F
100
AcDbSymbolTableRecord
100
AcDbLinetypeTableRecord
  2
DOT_CENTER
 70
            64
  3
Dot_Center
 72
            65
 73
             4
 40
14.0
 49
12.0
 74
             0
 49
-1.0
 74
             0
 49
0.0
 74
             0
 49
-1.0
 74
             0
  0
LTYPE
  5
20
100
AcDbSymbolTableRecord
100
AcDbLinetypeTableRecord
  2
LONG_DASHED
 70
            64
  3
Long_Dashed
 72
            65
 73
             2
 40
15.0
 49
10.0
 74
             0
 49
-5.0
 74
             0
  0
LTYPE
  5
21
100
AcDbSymbolTableRecord
100
AcDbLinetypeTableRecord
  2
DASH_CENTER
 70
            64
  3
Dash_Center
 72
            65
 73
             4
 40
14.0
 49
11.0
 74
             0
 49
-1.0
 74
             0
 49
1.0
 74
             0
 49
-1.0
 74
             0
  0
LTYPE
  5
22
100
AcDbSymbolTableRecord
100
AcDbLinetypeTableRecord
  2
PHANTOM
 70
            64
  3
Phantom
 72
            65
 73
             6
 40
13.0
 49
10.0
 74
             0
 49
-1.0
 74
             0
 49
0.0
 74
             0
 49
-1.0
 74
             0
 49
0.0
 74
             0
 49
-1.0
 74
             0
  0
LTYPE
  5
23
100
AcDbSymbolTableRecord
100
AcDbLinetypeTableRecord
  2
CENTER_DASH_DASH
 70
            64
  3
Center_Dash_Dash
 72
            65
 73
             6
 40
14.0
 49
9.0
 74
             0
 49
-1.0
 74
             0
 49
1.0
 74
             0
 49
-1.0
 74
             0
 49
1.0
 74
             0
 49
-1.0
 74
             0
  0
LTYPE
  5
24
100
AcDbSymbolTableRecord
100
AcDbLinetypeTableRecord
  2
DASHDOT
 70
            64
  3
DASHDOT
 72
            65
 73
             4
 40
16.0
 49
10.0
 74
             0
 49
-3.0
 74
             0
 49
0.0
 74
             0
 49
-3.0
 74
             0
  0
ENDTAB
  0
TABLE
  2
LAYER
  5
2
100
AcDbSymbolTable
 70
             6
  0
LAYER
  5
14
100
AcDbSymbolTableRecord
100
AcDbLayerTableRecord
  2
0
 70
             0
 62
             7
  6
CONTINUOUS
  0
LAYER
  5
25
100
AcDbSymbolTableRecord
100
AcDbLayerTableRecord
  2
1
 70
             0
 62
             7
  6
CONTINUOUS
  0
LAYER
  5
26
100
AcDbSymbolTableRecord
100
AcDbLayerTableRecord
  2
LC-002-002-----0
 70
             0
 62
             7
  6
CONTINUOUS
  0
LAYER
  5
27
100
AcDbSymbolTableRecord
100
AcDbLayerTableRecord
  2
LC-003-002-RND-0
 70
             0
 62
             7
  6
CONTINUOUS
  0
LAYER
  5
28
100
AcDbSymbolTableRecord
100
AcDbLayerTableRecord
  2
LC-004-002-RND-0
 70
             0
 62
             7
  6
CONTINUOUS
  0
LAYER
  5
29
100
AcDbSymbolTableRecord
100
AcDbLayerTableRecord
  2
LC-004-005-----0
 70
             0
 62
             7
  6
CONTINUOUS
  0
ENDTAB
  0
TABLE
  2
STYLE
  5
3
100
AcDbSymbolTable
 70
             2
  0
STYLE
  5
17
100
AcDbSymbolTableRecord
100
AcDbTextStyleTableRecord
  2
STANDARD
 70
             0
 40
0.0
 41
1.0
 50
0.0
 71
             0
 42
0.0
  3
txt
  4

  0
STYLE
  5
11E
100
AcDbSymbolTableRecord
100
AcDbTextStyleTableRecord
  2
CONVERTER_1
 70
             0
 40
0.0
 41
0.9
 50
0.0
 71
             0
 42
0.0
  3
txt.shx
  4

  0
ENDTAB
  0
TABLE
  2
VIEW
  5
5
100
AcDbSymbolTable
 70
             0
  0
ENDTAB
  0
TABLE
  2
UCS
  5
6
100
AcDbSymbolTable
 70
             0
  0
ENDTAB
  0
TABLE
  2
APPID
  5
8
100
AcDbSymbolTable
 70
             1
  0
APPID
  5
16
100
AcDbSymbolTableRecord
100
AcDbRegAppTableRecord
  2
ACAD
 70
             0
  0
ENDTAB
  0
TABLE
  2
DIMSTYLE
  5
9
100
AcDbSymbolTable
 70
             5
  0
DIMSTYLE
105
18
100
AcDbSymbolTableRecord
100
AcDbDimStyleTableRecord
  2
STANDARD
 70
             0
  3

  4

  5

  6

  7

 40
1.0
 41
0.18
 42
0.0625
 43
0.38
 44
0.18
 45
0.0
 46
0.0
 47
0.0
 48
0.0
 71
             0
 72
             0
 73
             1
 74
             1
 75
             0
 76
             0
 77
             0
 78
             0
140
0.18
141
0.09
142
0.0
143
25.4
144
1.0
145
0.0
146
1.0
147
0.09
170
             0
171
             2
172
             0
173
             0
174
             0
175
             0
176
             0
177
             0
178
             0
270
             2
271
             4
272
             4
273
             2
274
             2
275
             0
280
             0
281
             0
282
             0
283
             1
284
             0
285
             0
286
             0
287
             3
288
             0
340
17
  0
DIMSTYLE
105
121
100
AcDbSymbolTableRecord
100
AcDbDimStyleTableRecord
  2
ME10_DIM_0
 70
             0
  3
Ø<>
  4

  5

  6

  7

 40
1.0
 41
12.0
 42
0.0
 43
0.38
 44
2.0
 45
0.0
 46
0.0
 47
0.0
 48
0.0
 71
             0
 72
             0
 73
             0
 74
             0
 75
             0
 76
             0
 77
             1
 78
             8
140
12.0
141
0.09
142
0.0
143
25.4
144
1.0
145
0.0
146
1.0
147
0.625
170
             0
171
             2
172
             1
173
             1
174
             0
175
             0
176
             4
177
             4
178
             1
270
             2
271
             2
272
             4
273
             2
274
             2
275
             0
280
             0
281
             0
282
             0
283
             1
284
             0
285
             0
286
             0
287
             3
288
             0
340
11E
  0
DIMSTYLE
105
12C
100
AcDbSymbolTableRecord
100
AcDbDimStyleTableRecord
  2
ME10_DIM_1
 70
             0
  3

  4

  5

  6

  7

 40
1.0
 41
12.0
 42
0.0
 43
0.38
 44
2.0
 45
0.0
 46
0.0
 47
0.0
 48
0.0
 71
             0
 72
             0
 73
             0
 74
             0
 75
             0
 76
             0
 77
             1
 78
             8
140
12.0
141
0.09
142
0.0
143
25.4
144
1.0
145
0.0
146
1.0
147
0.625
170
             0
171
             2
172
             1
173
             1
174
             0
175
             0
176
             4
177
             4
178
             1
270
             2
271
             0
272
             4
273
             2
274
             2
275
             0
280
             0
281
             0
282
             0
283
             1
284
             0
285
             0
286
             0
287
             3
288
             0
340
11E
  0
DIMSTYLE
105
137
100
AcDbSymbolTableRecord
100
AcDbDimStyleTableRecord
  2
ME10_DIM_2
 70
             0
  3
DN<>
  4

  5

  6

  7

 40
1.0
 41
10.0
 42
0.0
 43
0.38
 44
2.0
 45
0.0
 46
0.0
 47
0.0
 48
0.0
 71
             0
 72
             0
 73
             0
 74
             0
 75
             0
 76
             0
 77
             1
 78
             8
140
10.0
141
0.09
142
0.0
143
25.4
144
1.0
145
0.0
146
1.0
147
0.625
170
             0
171
             2
172
             1
173
             1
174
             0
175
             0
176
             4
177
             4
178
             1
270
             2
271
             2
272
             4
273
             2
274
             2
275
             0
280
             0
281
             0
282
             0
283
             1
284
             0
285
             0
286
             0
287
             3
288
             0
340
11E
  0
DIMSTYLE
105
142
100
AcDbSymbolTableRecord
100
AcDbDimStyleTableRecord
  2
ME10_DIM_3
 70
             0
  3
DN<>
  4

  5

  6

  7

 40
1.0
 41
10.0
 42
0.0
 43
0.38
 44
2.0
 45
0.0
 46
0.0
 47
0.0
 48
0.0
 71
             0
 72
             0
 73
             0
 74
             0
 75
             0
 76
             0
 77
             1
 78
             8
140
10.0
141
0.09
142
0.0
143
25.4
144
1.0
145
0.0
146
1.0
147
0.625
170
             0
171
             2
172
             1
173
             1
174
             0
175
             0
176
             4
177
             4
178
             1
270
             2
271
             2
272
             4
273
             2
274
             2
275
             0
280
             0
281
             0
282
             0
283
             1
284
             0
285
             0
286
             0
287
             3
288
             0
340
11E
  0
ENDTAB
  0
TABLE
  2
BLOCK_RECORD
  5
1
100
AcDbSymbolTable
 70
             7
  0
BLOCK_RECORD
  5
A
100
AcDbSymbolTableRecord
100
AcDbBlockTableRecord
  2
*MODEL_SPACE
  0
BLOCK_RECORD
  5
B
100
AcDbSymbolTableRecord
100
AcDbBlockTableRecord
  2
*PAPER_SPACE
  0
BLOCK_RECORD
  5
2A
100
AcDbSymbolTableRecord
100
AcDbBlockTableRecord
  2
HL_64__FLACHDACHABLAUF
  0
BLOCK_RECORD
  5
2C
100
AcDbSymbolTableRecord
100
AcDbBlockTableRecord
  2
0317_4E_REDUKTION
  0
BLOCK_RECORD
  5
2E
100
AcDbSymbolTableRecord
100
AcDbBlockTableRecord
  2
HL_64_1_FLACHDACHABLAUF__1
  0
BLOCK_RECORD
  5
117
100
AcDbSymbolTableRecord
100
AcDbBlockTableRecord
  2
*D3
  0
BLOCK_RECORD
  5
123
100
AcDbSymbolTableRecord
100
AcDbBlockTableRecord
  2
*D4
  0
BLOCK_RECORD
  5
12E
100
AcDbSymbolTableRecord
100
AcDbBlockTableRecord
  2
*D5
  0
BLOCK_RECORD
  5
139
100
AcDbSymbolTableRecord
100
AcDbBlockTableRecord
  2
*D6
  0
ENDTAB
  0
ENDSEC
  0
SECTION
  2
BLOCKS
  0
BLOCK
  5
D
100
AcDbEntity
  8
0
100
AcDbBlockBegin
  2
*MODEL_SPACE
 70
             0
 10
0.0
 20
0.0
 30
0.0
  3
*MODEL_SPACE
  1

  0
ENDBLK
  5
E
100
AcDbEntity
  8
0
100
AcDbBlockEnd
  0
BLOCK
  5
F
100
AcDbEntity
 67
             1
  8
0
100
AcDbBlockBegin
  2
*PAPER_SPACE
 70
             0
 10
0.0
 20
0.0
 30
0.0
  3
*PAPER_SPACE
  1

  0
ENDBLK
  5
10
100
AcDbEntity
 67
             1
  8
0
100
AcDbBlockEnd
  0
BLOCK
  5
2B
100
AcDbEntity
  8
0
100
AcDbBlockBegin
  2
HL_64__FLACHDACHABLAUF
 70
             0
 10
-0.00000000000003
 20
-0.00000000000004
 30
0.0
  3
HL_64__FLACHDACHABLAUF
  1

  0
ARC
  5
FA
100
AcDbEntity
  8
LC-004-002-RND-0
  6
CONTINUOUS
 62
             7
100
AcDbCircle
 10
174.5000040000001
 20
-1.99935431968904
 40
2.0
100
AcDbArc
 50
0.0
 51
90.08222699422473
  0
ARC
  5
F9
100
AcDbEntity
  8
LC-002-002-----0
  6
CONTINUOUS
 62
             7
100
AcDbCircle
 10
-175.499987
 20
-2.00064731968907
 40
1.99999999999971
100
AcDbArc
 50
90.0002119999987
 51
-179.99975200000372
  0
ARC
  5
F8
100
AcDbEntity
  8
LC-002-002-----0
  6
CONTINUOUS
 62
             7
100
AcDbCircle
 10
84.96853400000006
 20
8.27612268031098
 40
3.14000000000002
100
AcDbArc
 50
139.8963500000053
 51
-123.1233439999979
  0
ARC
  5
F7
100
AcDbEntity
  8
LC-002-002-----0
  6
CONTINUOUS
 62
             7
100
AcDbCircle
 10
85.97885500000004
 20
7.42524368031102
 40
4.46088700000049
100
AcDbArc
 50
89.89321799999995
 51
139.89634999999322
  0
ARC
  5
F6
100
AcDbEntity
  8
LC-002-002-----0
  6
CONTINUOUS
 62
             7
100
AcDbCircle
 10
85.98632500000005
 20
8.74612268031101
 40
3.13999999999991
100
AcDbArc
 50
21.06779399999194
 51
90.11201199999573
  0
ARC
  5
F5
100
AcDbEntity
  8
LC-002-002-----0
  6
CONTINUOUS
 62
             7
100
AcDbCircle
 10
102.47206
 20
8.74169268031094
 40
3.13999999999987
100
AcDbArc
 50
89.85719199999627
 51
158.90141000000338
  0
ARC
  5
F4
100
AcDbEntity
  8
LC-002-002-----0
  6
CONTINUOUS
 62
             7
100
AcDbCircle
 10
102.478819
 20
7.42080868031097
 40
4.46088699999992
100
AcDbArc
 50
40.07285300000014
 51
90.07598599999521
  0
ARC
  5
F3
100
AcDbEntity
  8
LC-002-002-----0
  6
CONTINUOUS
 62
             7
100
AcDbCircle
 10
103.489598
 20
8.27114468031094
 40
3.14000000000015
100
AcDbArc
 50
-40.63184699999663
 51
40.07285300000724
  0
ARC
  5
F2
100
AcDbEntity
  8
LC-002-002-----0
  6
CONTINUOUS
 62
             7
100
AcDbCircle
 10
-104.476545
 20
8.26191768031093
 40
3.14000000000017
100
AcDbArc
 50
139.91174900000888
 51
-139.3835509999906
  0
ARC
  5
F1
100
AcDbEntity
  8
LC-002-002-----0
  6
CONTINUOUS
 62
             7
100
AcDbCircle
 10
-103.46599499999989
 20
7.41131068031096
 40
4.46088700000003
100
AcDbArc
 50
89.90861599999536
 51
139.91174900000016
  0
ARC
  5
F0
100
AcDbEntity
  8
LC-002-002-----0
  6
CONTINUOUS
 62
             7
100
AcDbCircle
 10
-103.45887999999989
 20
8.73219168031094
 40
3.14000000000006
100
AcDbArc
 50
21.08319200000862
 51
90.12740999999608
  0
ARC
  5
EF
100
AcDbEntity
  8
LC-004-002-RND-0
  6
CONTINUOUS
 62
             7
100
AcDbCircle
 10
48.44498000000002
 20
55.05744768031102
 40
15.00000000000033
100
AcDbArc
 50
19.99999999999931
 51
89.99992099999859
  0
ARC
  5
EE
100
AcDbEntity
  8
LC-004-002-RND-0
  6
CONTINUOUS
 62
             7
100
AcDbCircle
 10
-49.44497999999996
 20
55.05744768031102
 40
15.00000000000017
100
AcDbArc
 50
90.00007900000145
 51
160.00000000000068
  0
ARC
  5
ED
100
AcDbEntity
  8
LC-002-002-----0
  6
CONTINUOUS
 62
             7
100
AcDbCircle
 10
-85.95548099999994
 20
8.26191768031093
 40
3.14000000000008
100
AcDbArc
 50
-40.61644900000856
 51
40.08825099999162
  0
ARC
  5
EC
100
AcDbEntity
  8
LC-002-002-----0
  6
CONTINUOUS
 62
             7
100
AcDbCircle
 10
-86.96602999999996
 20
7.41131068031096
 40
4.46088700000054
100
AcDbArc
 50
40.08825100000068
 51
90.09138400000482
  0
ARC
  5
EB
100
AcDbEntity
  8
LC-002-002-----0
  6
CONTINUOUS
 62
             7
100
AcDbCircle
 10
-86.97314499999996
 20
8.73219168031094
 40
3.1399999999999
100
AcDbArc
 50
89.87259000000394
 51
158.91680799999196
  0
ARC
  5
EA
100
AcDbEntity
  8
LC-004-002-RND-0
  6
CONTINUOUS
 62
             7
100
AcDbCircle
 10
82.00000000000003
 20
-140.32158531968909
 40
5.0
100
AcDbArc
 50
-90.0
 51
0.0
  0
ARC
  5
E9
100
AcDbEntity
  8
LC-004-002-RND-0
  6
CONTINUOUS
 62
             7
100
AcDbCircle
 10
-33.30642499999996
 20
-140.32158531968909
 40
4.99999999999982
100
AcDbArc
 50
-149.99999999999881
 51
-90.0
  0
ARC
  5
E8
100
AcDbEntity
  8
LC-004-002-RND-0
  6
CONTINUOUS
 62
             7
100
AcDbCircle
 10
-81.99999999999997
 20
-55.98183931968904
 40
5.0
100
AcDbArc
 50
180.0
 51
-149.99999999999881
  0
ARC
  5
E7
100
AcDbEntity
  8
LC-003-002-RND-0
  6
CONTINUOUS
 62
             7
100
AcDbCircle
 10
-113.3022659999999
 20
-139.76664331968911
 40
40.0
100
AcDbArc
 50
-90.0
 51
0.0
  0
ARC
  5
E6
100
AcDbEntity
  8
LC-003-002-RND-0
  6
CONTINUOUS
 62
             7
100
AcDbCircle
 10
-113.3022659999999
 20
-139.76664331968911
 40
46.5
100
AcDbArc
 50
-90.0
 51
0.0
  0
LINE
  5
E5
100
AcDbEntity
  8
1
  6
PHANTOM
 62
             2
100
AcDbLine
 10
89.26792078579643
 20
-100.32769380855041
 11
152.71384640330439
 21
-103.65275434101071
  0
LINE
  5
E4
100
AcDbEntity
  8
1
  6
CONTINUOUS
 62
             7
100
AcDbLine
 10
150.7523470000001
 20
-141.08038731968909
 11
154.67534500000011
 21
-66.22512131968915
  0
LINE
  5
E3
100
AcDbEntity
  8
LC-002-002-----0
  6
CONTINUOUS
 62
             7
100
AcDbLine
 10
154.8029590000001
 20
-140.2194023196891
 11
158.5395280000001
 21
-68.92140431968915
  0
LINE
  5
E2
100
AcDbEntity
  8
LC-002-002-----0
  6
CONTINUOUS
 62
             7
100
AcDbLine
 10
150.7523470000001
 20
-141.08038731968909
 11
154.8029590000001
 21
-140.2194023196891
  0
LINE
  5
E1
100
AcDbEntity
  8
LC-002-002-----0
  6
CONTINUOUS
 62
             7
100
AcDbLine
 10
87.3046950000001
 20
-137.78827631968909
 11
150.7523470000001
 21
-141.08038731968909
  0
LINE
  5
E0
100
AcDbEntity
  8
LC-004-005-----0
  6
CONTINUOUS
 62
             3
100
AcDbLine
 10
86.63429600000001
 20
-60.49030231968914
 11
87.50000000000006
 21
-59.62459831968909
  0
LINE
  5
DF
100
AcDbEntity
  8
LC-004-005-----0
  6
CONTINUOUS
 62
             3
100
AcDbLine
 10
88.92816700000009
 20
-65.26749931968914
 11
91.32365800000008
 21
-62.87200831968914
  0
LINE
  5
DE
100
AcDbEntity
  8
LC-002-002-----0
  6
CONTINUOUS
 62
             7
100
AcDbLine
 10
91.23114700000002
 20
-62.86711131968912
 11
90.78922300000005
 21
-62.3763053196891
  0
LINE
  5
DD
100
AcDbEntity
  8
LC-002-002-----0
  6
CONTINUOUS
 62
             7
100
AcDbLine
 10
158.5395280000001
 20
-68.92140431968915
 11
158.61376999999999
 21
-67.50479231968916
  0
LINE
  5
DC
100
AcDbEntity
  8
LC-002-002-----0
  6
CONTINUOUS
 62
             7
100
AcDbLine
 10
154.67534500000011
 20
-66.22512131968915
 11
158.61376999999999
 21
-67.50479231968916
  0
LINE
  5
DB
100
AcDbEntity
  8
LC-002-002-----0
  6
CONTINUOUS
 62
             7
100
AcDbLine
 10
87.50000000000006
 20
-57.2215853196891
 11
87.50000000000006
 21
-60.49030231968914
  0
LINE
  5
DA
100
AcDbEntity
  8
LC-002-002-----0
  6
CONTINUOUS
 62
             7
100
AcDbLine
 10
91.23114700000002
 20
-62.86711131968912
 11
154.67534500000011
 21
-66.22512131968915
  0
LINE
  5
D9
100
AcDbEntity
  8
1
  6
CONTINUOUS
 62
             7
100
AcDbLine
 10
126.7004340000001
 20
-2.99911531968907
 11
-127.6967029999999
 21
-2.99911531968907
  0
LINE
  5
D8
100
AcDbEntity
  8
LC-002-002-----0
  6
CONTINUOUS
 62
             7
100
AcDbLine
 10
-122.362168462946
 20
-4.57547631968898
 11
-126.7004340000001
 21
-2.99911531968907
  0
LINE
  5
D7
100
AcDbEntity
  8
1
  6
PHANTOM
 62
             2
100
AcDbLine
 10
0.0
 20
70.05748377693917
 11
0.0
 21
-131.06643533867879
  0
LINE
  5
D6
100
AcDbEntity
  8
1
  6
CONTINUOUS
 62
             7
100
AcDbLine
 10
125.23006600000009
 20
-5.38280731968907
 11
-125.23006599999989
 21
-5.38280731968907
  0
LINE
  5
D5
100
AcDbEntity
  8
1
  6
CONTINUOUS
 62
             7
100
AcDbLine
 10
122.362168462946
 20
-4.57547631968898
 11
-124.936221
 21
-4.57547631968898
  0
LINE
  5
D4
100
AcDbEntity
  8
1
  6
CONTINUOUS
 62
             7
100
AcDbLine
 10
104.0
 20
-12.54952631968901
 11
-104.0
 21
-12.54952631968901
  0
LINE
  5
D3
100
AcDbEntity
  8
1
  6
CONTINUOUS
 62
             7
100
AcDbLine
 10
-86.99999999999997
 20
-33.32158531968903
 11
87.00000000000003
 21
-33.32158531968903
  0
LINE
  5
D2
100
AcDbEntity
  8
1
  6
CONTINUOUS
 62
             7
100
AcDbLine
 10
124.936221
 20
-4.57547631968898
 11
122.362168462946
 21
-4.57547631968898
  0
LINE
  5
D1
100
AcDbEntity
  8
LC-002-002-----0
  6
CONTINUOUS
 62
             7
100
AcDbLine
 10
87.00000000000003
 20
-124.5208835901975
 11
87.00000000000003
 21
-33.32158531968903
  0
LINE
  5
D0
100
AcDbEntity
  8
1
  6
CONTINUOUS
 62
             7
100
AcDbLine
 10
90.28922300000002
 20
-62.376305319689
 11
87.00000000000003
 21
-124.5208835901975
  0
LINE
  5
CF
100
AcDbEntity
  8
LC-002-002-----0
  6
CONTINUOUS
 62
             7
100
AcDbLine
 10
87.00000000000003
 20
-140.32158531968909
 11
87.00000000000003
 21
-124.5208835901975
  0
LINE
  5
CE
100
AcDbEntity
  8
LC-002-002-----0
  6
CONTINUOUS
 62
             7
100
AcDbLine
 10
87.00000000000003
 20
-62.20219246998189
 11
90.28922300000002
 21
-62.376305319689
  0
LINE
  5
CD
100
AcDbEntity
  8
1
  6
PHANTOM
 62
             2
100
AcDbLine
 10
-95.21601299999998
 20
11.87219200635193
 11
-95.21601299999998
 21
-1.76248331968909
  0
LINE
  5
CC
100
AcDbEntity
  8
1
  6
PHANTOM
 62
             2
100
AcDbLine
 10
94.22992270307086
 20
11.46113441700911
 11
94.22637200446835
 21
-1.7507673600028
  0
LINE
  5
CB
100
AcDbEntity
  8
LC-002-002-----0
  6
CONTINUOUS
 62
             7
100
AcDbLine
 10
-85.44703375816988
 20
-0.0003151655226
 11
-63.54036999999997
 21
60.18774968031094
  0
LINE
  5
CA
100
AcDbEntity
  8
LC-002-002-----0
  6
CONTINUOUS
 62
             7
100
AcDbLine
 10
84.4468061260197
 20
0.00031147625159
 11
62.54036900000003
 21
60.18774968031094
  0
LINE
  5
C9
100
AcDbEntity
  8
LC-002-002-----0
  6
CONTINUOUS
 62
             7
100
AcDbLine
 10
-177.499987
 20
-2.00065631968905
 11
-177.49998299999999
 21
-3.00854531968903
  0
LINE
  5
C8
100
AcDbEntity
  8
LC-002-002-----0
  6
CONTINUOUS
 62
             7
100
AcDbLine
 10
-175.4999939999999
 20
-0.00064731968907
 11
174.49713373741889
 21
0.00064362070779
  0
LINE
  5
C7
100
AcDbEntity
  8
LC-002-002-----0
  6
CONTINUOUS
 62
             7
100
AcDbLine
 10
-177.49998199999999
 20
-3.00065431968905
 11
-127.6967029999999
 21
-3.00047131968906
  0
LINE
  5
C6
100
AcDbEntity
  8
LC-002-002-----0
  6
CONTINUOUS
 62
             7
100
AcDbLine
 10
176.5000040000001
 20
-1.99935431968904
 11
176.5000040000001
 21
-2.99904431968903
  0
LINE
  5
C5
100
AcDbEntity
  8
LC-002-002-----0
  6
CONTINUOUS
 62
             7
100
AcDbLine
 10
176.49982100000011
 20
-2.99904431968903
 11
126.7004340000001
 21
-2.99911531968907
  0
LINE
  5
C4
100
AcDbEntity
  8
LC-002-002-----0
  6
CONTINUOUS
 62
             7
100
AcDbLine
 10
90.73114700000005
 20
-62.86711131968902
 11
90.28922300000002
 21
-62.376305319689
  0
LINE
  5
C3
100
AcDbEntity
  8
LC-002-002-----0
  6
CONTINUOUS
 62
             7
100
AcDbLine
 10
126.7004340000001
 20
-2.99911531968907
 11
122.362168462946
 21
-4.57547631968898
  0
LINE
  5
C2
100
AcDbEntity
  8
LC-002-002-----0
  6
CONTINUOUS
 62
             7
100
AcDbLine
 10
90.22845700000002
 20
5.45030768031095
 11
98.22845700000002
 21
5.44815768031093
  0
LINE
  5
C1
100
AcDbEntity
  8
LC-002-002-----0
  6
CONTINUOUS
 62
             7
100
AcDbLine
 10
83.37502100000003
 20
5.31031868031093
 11
87.92640509672344
 21
0.0003243105137
  0
LINE
  5
C0
100
AcDbEntity
  8
LC-002-002-----0
  6
CONTINUOUS
 62
             7
100
AcDbLine
 10
88.91643400000007
 20
9.87486668031099
 11
90.22815700000004
 21
5.45030768031095
  0
LINE
  5
BF
100
AcDbEntity
  8
LC-002-002-----0
  6
CONTINUOUS
 62
             7
100
AcDbLine
 10
99.5425580000001
 20
9.87201068031094
 11
98.22845700000002
 21
5.44815768031093
  0
LINE
  5
BE
100
AcDbEntity
  8
LC-002-002-----0
  6
CONTINUOUS
 62
             7
100
AcDbLine
 10
105.872573
 20
6.22638868031093
 11
100.5302248856588
 21
0.0003707988384
  0
LINE
  5
BD
100
AcDbEntity
  8
LC-002-002-----0
  6
CONTINUOUS
 62
             7
100
AcDbLine
 10
96.62917200000007
 20
8.667776680311
 11
91.82917200000006
 21
8.66906668031092
  0
LINE
  5
BC
100
AcDbEntity
  8
LC-002-002-----0
  6
CONTINUOUS
 62
             7
100
AcDbLine
 10
96.22927900000005
 20
9.06788368031093
 11
92.22928000000005
 21
9.06895868031096
  0
LINE
  5
BB
100
AcDbEntity
  8
LC-002-002-----0
  6
CONTINUOUS
 62
             7
100
AcDbLine
 10
96.22927900000005
 20
9.06788368031093
 11
96.62917200000007
 21
8.667776680311
  0
LINE
  5
BA
100
AcDbEntity
  8
LC-002-002-----0
  6
CONTINUOUS
 62
             7
100
AcDbLine
 10
92.22928000000005
 20
9.06895868031096
 11
91.82917200000006
 21
8.66906668031092
  0
LINE
  5
B9
100
AcDbEntity
  8
LC-002-002-----0
  6
CONTINUOUS
 62
             7
100
AcDbLine
 10
91.82917200000006
 20
8.66906668031092
 11
91.82830700000002
 21
5.44987768031101
  0
LINE
  5
B8
100
AcDbEntity
  8
LC-002-002-----0
  6
CONTINUOUS
 62
             7
100
AcDbLine
 10
92.22928000000005
 20
9.06895868031096
 11
92.22830700000006
 21
5.44976968031094
  0
LINE
  5
B7
100
AcDbEntity
  8
LC-002-002-----0
  6
CONTINUOUS
 62
             7
100
AcDbLine
 10
96.22927900000005
 20
9.06788368031093
 11
96.22830700000006
 21
5.44869468031094
  0
LINE
  5
B6
100
AcDbEntity
  8
LC-002-002-----0
  6
CONTINUOUS
 62
             7
100
AcDbLine
 10
96.62917200000007
 20
8.667776680311
 11
96.62830700000004
 21
5.44858768031098
  0
LINE
  5
B5
100
AcDbEntity
  8
LC-002-002-----0
  6
CONTINUOUS
 62
             7
100
AcDbLine
 10
90.22815700000004
 20
5.45030768031095
 11
89.62112117866818
 21
0.00033056135771
  0
LINE
  5
B4
100
AcDbEntity
  8
LC-002-002-----0
  6
CONTINUOUS
 62
             7
100
AcDbLine
 10
98.22845700000002
 20
5.44815768031093
 11
98.83228522396712
 21
0.00036453610444
  0
LINE
  5
B3
100
AcDbEntity
  8
LC-002-002-----0
  6
CONTINUOUS
 62
             7
100
AcDbLine
 10
-91.21586299999999
 20
5.43751668031095
 11
-90.6116573449785
 21
-0.00033421488242
  0
LINE
  5
B2
100
AcDbEntity
  8
LC-002-002-----0
  6
CONTINUOUS
 62
             7
100
AcDbLine
 10
-106.86006999999999
 20
6.217802680311
 11
-101.52735057467
 21
-0.00037447666811
  0
LINE
  5
B1
100
AcDbEntity
  8
LC-002-002-----0
  6
CONTINUOUS
 62
             7
100
AcDbLine
 10
-100.52907500000001
 20
9.86172268031098
 11
-99.21616299999997
 21
5.43751668031095
  0
LINE
  5
B0
100
AcDbEntity
  8
LC-002-002-----0
  6
CONTINUOUS
 62
             7
100
AcDbLine
 10
-99.21616299999997
 20
5.43751668031095
 11
-99.82037242898967
 21
-0.00036818059631
  0
LINE
  5
AF
100
AcDbEntity
  8
LC-002-002-----0
  6
CONTINUOUS
 62
             7
100
AcDbLine
 10
-91.21616299999997
 20
5.43751668031095
 11
-99.21616299999997
 21
5.43751668031095
  0
LINE
  5
AE
100
AcDbEntity
  8
LC-002-002-----0
  6
CONTINUOUS
 62
             7
100
AcDbLine
 10
-97.21601299999995
 20
9.05670568031097
 11
-97.21601299999995
 21
5.43751668031095
  0
LINE
  5
AD
100
AcDbEntity
  8
LC-002-002-----0
  6
CONTINUOUS
 62
             7
100
AcDbLine
 10
-97.61601299999998
 20
8.65670568031099
 11
-97.61601299999998
 21
5.43751668031095
  0
LINE
  5
AC
100
AcDbEntity
  8
LC-002-002-----0
  6
CONTINUOUS
 62
             7
100
AcDbLine
 10
-97.21601299999995
 20
9.05670568031097
 11
-97.61601299999998
 21
8.65670568031099
  0
LINE
  5
AB
100
AcDbEntity
  8
LC-002-002-----0
  6
CONTINUOUS
 62
             7
100
AcDbLine
 10
125.23006600000009
 20
-5.38280731968907
 11
124.936221
 21
-4.57547631968898
  0
LINE
  5
AA
100
AcDbEntity
  8
LC-002-002-----0
  6
CONTINUOUS
 62
             7
100
AcDbLine
 10
104.0
 20
-12.54952631968901
 11
105.53966800000001
 21
-12.54952631968901
  0
LINE
  5
A9
100
AcDbEntity
  8
LC-002-002-----0
  6
CONTINUOUS
 62
             7
100
AcDbLine
 10
125.23006600000009
 20
-5.38280731968907
 11
105.53966800000001
 21
-12.54952631968901
  0
LINE
  5
A8
100
AcDbEntity
  8
LC-002-002-----0
  6
CONTINUOUS
 62
             7
100
AcDbLine
 10
1.14603200000002
 20
29.69513168031094
 11
1.14603200000002
 21
0.00000422706042
  0
LINE
  5
A7
100
AcDbEntity
  8
LC-002-002-----0
  6
CONTINUOUS
 62
             7
100
AcDbLine
 10
56.19199900000004
 20
34.35744968031097
 11
-0.00365399999995
 21
34.35744968031097
  0
LINE
  5
A6
100
AcDbEntity
  8
LC-002-002-----0
  6
CONTINUOUS
 62
             7
100
AcDbLine
 10
48.58502200000007
 20
55.25744768031095
 11
-0.00362499999997
 21
55.25751468031101
  0
LINE
  5
A5
100
AcDbEntity
  8
LC-002-002-----0
  6
CONTINUOUS
 62
             7
100
AcDbLine
 10
27.85979200000006
 20
34.35744968031097
 11
23.40458600000002
 21
55.25748268031099
  0
LINE
  5
A4
100
AcDbEntity
  8
LC-002-002-----0
  6
CONTINUOUS
 62
             7
100
AcDbLine
 10
48.44500100000002
 20
70.05744768031103
 11
-0.00360499999996
 21
70.05751468031097
  0
LINE
  5
A3
100
AcDbEntity
  8
LC-002-002-----0
  6
CONTINUOUS
 62
             7
100
AcDbLine
 10
38.80605300000005
 20
34.35744968031097
 11
32.50544300000004
 21
55.25746968031101
  0
LINE
  5
A2
100
AcDbEntity
  8
LC-002-002-----0
  6
CONTINUOUS
 62
             7
100
AcDbLine
 10
57.88894400000007
 20
29.69513168031094
 11
56.19199900000004
 21
29.99434868031094
  0
LINE
  5
A1
100
AcDbEntity
  8
LC-002-002-----0
  6
CONTINUOUS
 62
             7
100
AcDbLine
 10
37.15902800000006
 20
34.35744968031097
 11
30.84742000000003
 21
55.25747168031101
  0
LINE
  5
A0
100
AcDbEntity
  8
LC-002-002-----0
  6
CONTINUOUS
 62
             7
100
AcDbLine
 10
56.19199900000004
 20
34.35744968031097
 11
56.19199900000004
 21
29.99434868031094
  0
LINE
  5
9F
100
AcDbEntity
  8
LC-002-002-----0
  6
CONTINUOUS
 62
             7
100
AcDbLine
 10
1.14603200000002
 20
55.25751268031102
 11
1.14603200000002
 21
34.35744968031097
  0
LINE
  5
9E
100
AcDbEntity
  8
LC-002-002-----0
  6
CONTINUOUS
 62
             7
100
AcDbLine
 10
51.60304700000003
 20
34.35744968031097
 11
42.99625700000004
 21
55.25745568031093
  0
LINE
  5
9D
100
AcDbEntity
  8
LC-002-002-----0
  6
CONTINUOUS
 62
             7
100
AcDbLine
 10
58.64274611286211
 20
0.00021629974631
 11
47.67888200000002
 21
29.69513168031094
  0
LINE
  5
9C
100
AcDbEntity
  8
LC-002-002-----0
  6
CONTINUOUS
 62
             7
100
AcDbLine
 10
33.19179624673686
 20
0.00012242566359
 11
26.86178800000002
 21
29.69513168031094
  0
LINE
  5
9B
100
AcDbEntity
  8
LC-002-002-----0
  6
CONTINUOUS
 62
             7
100
AcDbLine
 10
35.183652680633
 20
0.00012977248941
 11
28.85364600000006
 21
29.69513168031094
  0
LINE
  5
9A
100
AcDbEntity
  8
LC-002-002-----0
  6
CONTINUOUS
 62
             7
100
AcDbLine
 10
18.80577491135812
 20
0.00006936381074
 11
15.52911700000007
 21
29.69513168031094
  0
LINE
  5
99
100
AcDbEntity
  8
LC-002-002-----0
  6
CONTINUOUS
 62
             7
100
AcDbLine
 10
16.58414681554865
 20
0.0000611694879
 11
13.30748800000006
 21
29.69513168031094
  0
LINE
  5
98
100
AcDbEntity
  8
LC-002-002-----0
  6
CONTINUOUS
 62
             7
100
AcDbLine
 10
59.7927445467584
 20
0.00022054143665
 11
48.82888200000005
 21
29.69513168031094
  0
LINE
  5
97
100
AcDbEntity
  8
LC-002-002-----0
  6
CONTINUOUS
 62
             7
100
AcDbLine
 10
52.19833000000003
 20
34.35744968031097
 11
43.59154100000004
 21
55.25745468031094
  0
LINE
  5
96
100
AcDbEntity
  8
LC-002-002-----0
  6
CONTINUOUS
 62
             7
100
AcDbLine
 10
47.53459793954762
 20
0.00017532810376
 11
38.56700400000003
 21
29.69513168031094
  0
LINE
  5
95
100
AcDbEntity
  8
LC-002-002-----0
  6
CONTINUOUS
 62
             7
100
AcDbLine
 10
49.16354294081299
 20
0.00018133635566
 11
40.21157600000007
 21
29.69513168031094
  0
LINE
  5
94
100
AcDbEntity
  8
LC-002-002-----0
  6
CONTINUOUS
 62
             7
100
AcDbLine
 10
15.01466000000002
 20
34.35744968031097
 11
12.70847500000005
 21
55.25749668031094
  0
LINE
  5
93
100
AcDbEntity
  8
LC-002-002-----0
  6
CONTINUOUS
 62
             7
100
AcDbLine
 10
47.10747500000005
 20
34.35744968031097
 11
39.39083800000006
 21
55.25746068031092
  0
LINE
  5
92
100
AcDbEntity
  8
LC-002-002-----0
  6
CONTINUOUS
 62
             7
100
AcDbLine
 10
45.95747500000002
 20
34.35744968031097
 11
38.24083800000003
 21
55.25746168031091
  0
LINE
  5
91
100
AcDbEntity
  8
LC-002-002-----0
  6
CONTINUOUS
 62
             7
100
AcDbLine
 10
65.75161844448597
 20
0.00024252033426
 11
53.52302600000005
 21
29.69513168031094
  0
LINE
  5
90
100
AcDbEntity
  8
LC-002-002-----0
  6
CONTINUOUS
 62
             7
100
AcDbLine
 10
12.79303100000007
 20
34.35744968031097
 11
10.48684600000004
 21
55.25749968031094
  0
LINE
  5
8F
100
AcDbEntity
  8
LC-002-002-----0
  6
CONTINUOUS
 62
             7
100
AcDbLine
 10
44.83612800000006
 20
65.55744968031102
 11
42.48326300000005
 21
65.97232268031097
  0
LINE
  5
8E
100
AcDbEntity
  8
LC-002-002-----0
  6
CONTINUOUS
 62
             7
100
AcDbLine
 10
42.48326300000005
 20
65.97232268031097
 11
40.99639500000004
 21
70.057458680311
  0
LINE
  5
8D
100
AcDbEntity
  8
LC-002-002-----0
  6
CONTINUOUS
 62
             7
100
AcDbLine
 10
68.69699562765734
 20
0.00025338415595
 11
43.19826000000003
 21
70.05745568031101
  0
LINE
  5
8C
100
AcDbEntity
  8
LC-002-002-----0
  6
CONTINUOUS
 62
             7
100
AcDbLine
 10
25.86793400000002
 20
34.35744968031097
 11
21.41272800000005
 21
55.25748468031097
  0
LINE
  5
8B
100
AcDbEntity
  8
LC-002-002-----0
  6
CONTINUOUS
 62
             7
100
AcDbLine
 10
-13.79303099999996
 20
34.35744968031097
 11
-11.48684599999993
 21
55.25749968031094
  0
LINE
  5
8A
100
AcDbEntity
  8
LC-002-002-----0
  6
CONTINUOUS
 62
             7
100
AcDbLine
 10
-2.14603199999996
 20
29.69513168031094
 11
-2.14603199999996
 21
-0.00000791549182
  0
LINE
  5
89
100
AcDbEntity
  8
LC-002-002-----0
  6
CONTINUOUS
 62
             7
100
AcDbLine
 10
-57.19199899999998
 20
34.35744968031097
 11
-0.00365399999995
 21
34.35744968031097
  0
LINE
  5
88
100
AcDbEntity
  8
LC-002-002-----0
  6
CONTINUOUS
 62
             7
100
AcDbLine
 10
-49.58502199999995
 20
55.25744768031095
 11
-0.00362499999997
 21
55.25751568031102
  0
LINE
  5
87
100
AcDbEntity
  8
LC-002-002-----0
  6
CONTINUOUS
 62
             7
100
AcDbLine
 10
-28.85979199999994
 20
34.35744968031097
 11
-24.40458699999996
 21
55.25748268031099
  0
LINE
  5
86
100
AcDbEntity
  8
LC-002-002-----0
  6
CONTINUOUS
 62
             7
100
AcDbLine
 10
-49.44500099999996
 20
70.05744768031103
 11
-0.00360499999996
 21
70.05751568031097
  0
LINE
  5
85
100
AcDbEntity
  8
LC-002-002-----0
  6
CONTINUOUS
 62
             7
100
AcDbLine
 10
-39.80605299999993
 20
34.35744968031097
 11
-33.50544399999998
 21
55.25746968031101
  0
LINE
  5
84
100
AcDbEntity
  8
LC-002-002-----0
  6
CONTINUOUS
 62
             7
100
AcDbLine
 10
-58.88894399999995
 20
29.69513168031094
 11
-57.19199899999998
 21
29.99434868031094
  0
LINE
  5
83
100
AcDbEntity
  8
LC-002-002-----0
  6
CONTINUOUS
 62
             7
100
AcDbLine
 10
-38.15902899999995
 20
34.35744968031097
 11
-31.84741999999997
 21
55.25747168031101
  0
LINE
  5
82
100
AcDbEntity
  8
LC-002-002-----0
  6
CONTINUOUS
 62
             7
100
AcDbLine
 10
-57.19199899999998
 20
34.35744968031097
 11
-57.19199899999998
 21
29.99434868031094
  0
LINE
  5
81
100
AcDbEntity
  8
LC-002-002-----0
  6
CONTINUOUS
 62
             7
100
AcDbLine
 10
-2.14603199999996
 20
55.25751268031102
 11
-2.14603199999996
 21
34.35744968031097
  0
LINE
  5
80
100
AcDbEntity
  8
LC-002-002-----0
  6
CONTINUOUS
 62
             7
100
AcDbLine
 10
-52.60304699999997
 20
34.35744968031097
 11
-43.99625699999993
 21
55.25745568031093
  0
LINE
  5
7F
100
AcDbEntity
  8
LC-002-002-----0
  6
CONTINUOUS
 62
             7
100
AcDbLine
 10
-59.64290805526363
 20
-0.00021998877503
 11
-48.67888199999996
 21
29.69513168031094
  0
LINE
  5
7E
100
AcDbEntity
  8
LC-002-002-----0
  6
CONTINUOUS
 62
             7
100
AcDbLine
 10
-34.1918492273553
 20
-0.00012611429041
 11
-27.86178799999996
 21
29.69513168031094
  0
LINE
  5
7D
100
AcDbEntity
  8
LC-002-002-----0
  6
CONTINUOUS
 62
             7
100
AcDbLine
 10
-36.18370879346158
 20
-0.00013346112779
 11
-29.85364599999994
 21
29.69513168031094
  0
LINE
  5
7C
100
AcDbEntity
  8
LC-002-002-----0
  6
CONTINUOUS
 62
             7
100
AcDbLine
 10
-19.80579148336361
 20
-0.00007305230327
 11
-16.52911699999996
 21
29.69513168031094
  0
LINE
  5
7B
100
AcDbEntity
  8
LC-002-002-----0
  6
CONTINUOUS
 62
             7
100
AcDbLine
 10
-17.5841607218628
 20
-0.0000648579706
 11
-14.30748799999995
 21
29.69513168031094
  0
LINE
  5
7A
100
AcDbEntity
  8
LC-002-002-----0
  6
CONTINUOUS
 62
             7
100
AcDbLine
 10
-60.79290962137169
 20
-0.00022423047692
 11
-49.82888199999994
 21
29.69513168031094
  0
LINE
  5
79
100
AcDbEntity
  8
LC-002-002-----0
  6
CONTINUOUS
 62
             7
100
AcDbLine
 10
-53.19832999999997
 20
34.35744968031097
 11
-44.59154099999998
 21
55.25745468031094
  0
LINE
  5
78
100
AcDbEntity
  8
LC-002-002-----0
  6
CONTINUOUS
 62
             7
100
AcDbLine
 10
-48.53470580568538
 20
-0.00017901693302
 11
-39.56700399999997
 21
29.69513168031094
  0
LINE
  5
77
100
AcDbEntity
  8
LC-002-002-----0
  6
CONTINUOUS
 62
             7
100
AcDbLine
 10
-50.1636533857352
 20
-0.00018502519443
 11
-41.21157599999995
 21
29.69513168031094
  0
LINE
  5
76
100
AcDbEntity
  8
LC-002-002-----0
  6
CONTINUOUS
 62
             7
100
AcDbLine
 10
-16.01466099999996
 20
34.35744968031097
 11
-13.70847499999994
 21
55.25749668031094
  0
LINE
  5
75
100
AcDbEntity
  8
LC-002-002-----0
  6
CONTINUOUS
 62
             7
100
AcDbLine
 10
-48.10747499999994
 20
34.35744968031097
 11
-40.39083799999994
 21
55.25746068031092
  0
LINE
  5
74
100
AcDbEntity
  8
LC-002-002-----0
  6
CONTINUOUS
 62
             7
100
AcDbLine
 10
-46.95747599999996
 20
34.35744968031097
 11
-39.24083799999997
 21
55.25746168031091
  0
LINE
  5
73
100
AcDbEntity
  8
LC-002-002-----0
  6
CONTINUOUS
 62
             7
100
AcDbLine
 10
-66.75181970733702
 20
-0.00024620950801
 11
-54.52302599999993
 21
29.69513168031094
  0
LINE
  5
72
100
AcDbEntity
  8
LC-002-002-----0
  6
CONTINUOUS
 62
             7
100
AcDbLine
 10
-85.28576799999993
 20
0.44275968031102
 11
-82.95907199999996
 21
6.83530368031095
  0
LINE
  5
71
100
AcDbEntity
  8
LC-002-002-----0
  6
CONTINUOUS
 62
             7
100
AcDbLine
 10
-45.83612799999994
 20
65.55744968031102
 11
-43.48326299999994
 21
65.97232268031097
  0
LINE
  5
70
100
AcDbEntity
  8
LC-002-002-----0
  6
CONTINUOUS
 62
             7
100
AcDbLine
 10
-43.48326299999994
 20
65.97232268031097
 11
-41.99639499999998
 21
70.057458680311
  0
LINE
  5
6F
100
AcDbEntity
  8
LC-002-002-----0
  6
CONTINUOUS
 62
             7
100
AcDbLine
 10
-69.69718235306598
 20
-0.00025707327608
 11
-44.19825999999998
 21
70.05745568031101
  0
LINE
  5
6E
100
AcDbEntity
  8
LC-002-002-----0
  6
CONTINUOUS
 62
             7
100
AcDbLine
 10
-26.86793399999996
 20
34.35744968031097
 11
-22.41272799999993
 21
55.25748468031097
  0
LINE
  5
6D
100
AcDbEntity
  8
LC-002-002-----0
  6
CONTINUOUS
 62
             7
100
AcDbLine
 10
-67.34710461153044
 20
-0.00024840517554
 11
-55.11830999999998
 21
29.69513168031094
  0
LINE
  5
6C
100
AcDbEntity
  8
LC-002-002-----0
  6
CONTINUOUS
 62
             7
100
AcDbLine
 10
-58.88894399999995
 20
29.69513168031094
 11
-0.00365999999994
 21
29.69513168031094
  0
LINE
  5
6B
100
AcDbEntity
  8
LC-002-002-----0
  6
CONTINUOUS
 62
             7
100
AcDbLine
 10
-4.30170899999993
 20
55.25750968031091
 11
-4.30170899999993
 21
70.05750968031099
  0
LINE
  5
6A
100
AcDbEntity
  8
LC-002-002-----0
  6
CONTINUOUS
 62
             7
100
AcDbLine
 10
-97.21601299999995
 20
9.05670568031097
 11
-93.21601299999995
 21
9.05670568031097
  0
LINE
  5
69
100
AcDbEntity
  8
LC-002-002-----0
  6
CONTINUOUS
 62
             7
100
AcDbLine
 10
-97.61601299999998
 20
8.65670568031099
 11
-92.81601299999997
 21
8.65670568031099
  0
LINE
  5
68
100
AcDbEntity
  8
LC-002-002-----0
  6
CONTINUOUS
 62
             7
100
AcDbLine
 10
-83.57195599999997
 20
6.217802680311
 11
-88.90463549709307
 21
-0.00032791864943
  0
LINE
  5
67
100
AcDbEntity
  8
LC-002-002-----0
  6
CONTINUOUS
 62
             7
100
AcDbLine
 10
66.34690154029528
 20
0.00024471599512
 11
54.11831000000004
 21
29.69513168031094
  0
LINE
  5
66
100
AcDbEntity
  8
LC-002-002-----0
  6
CONTINUOUS
 62
             7
100
AcDbLine
 10
-89.90295099999995
 20
9.86172268031098
 11
-91.21586299999999
 21
5.43751668031095
  0
LINE
  5
65
100
AcDbEntity
  8
LC-002-002-----0
  6
CONTINUOUS
 62
             7
100
AcDbLine
 10
-93.21601299999995
 20
9.05670568031097
 11
-92.81601299999997
 21
8.65670568031099
  0
LINE
  5
64
100
AcDbEntity
  8
LC-002-002-----0
  6
CONTINUOUS
 62
             7
100
AcDbLine
 10
-92.81601299999997
 20
8.65670568031099
 11
-92.81601299999997
 21
5.43751668031095
  0
LINE
  5
63
100
AcDbEntity
  8
LC-002-002-----0
  6
CONTINUOUS
 62
             7
100
AcDbLine
 10
57.88894400000007
 20
29.69513168031094
 11
-0.00365999999994
 21
29.69513168031094
  0
LINE
  5
62
100
AcDbEntity
  8
LC-002-002-----0
  6
CONTINUOUS
 62
             7
100
AcDbLine
 10
-93.21601299999995
 20
9.05670568031097
 11
-93.21601299999995
 21
5.43751668031095
  0
LINE
  5
61
100
AcDbEntity
  8
LC-002-002-----0
  6
CONTINUOUS
 62
             7
100
AcDbLine
 10
3.30170900000005
 20
55.25750968031091
 11
3.30170900000005
 21
70.05750968031099
  0
LINE
  5
60
100
AcDbEntity
  8
LC-002-002-----0
  6
CONTINUOUS
 62
             7
100
AcDbLine
 10
87.00000000000003
 20
-33.32158531968903
 11
89.25000000000003
 21
-33.32158531968903
  0
LINE
  5
5F
100
AcDbEntity
  8
LC-002-002-----0
  6
CONTINUOUS
 62
             7
100
AcDbLine
 10
-125.23006599999989
 20
-5.38280731968907
 11
-124.936221
 21
-4.57547631968898
  0
LINE
  5
5E
100
AcDbEntity
  8
LC-002-002-----0
  6
CONTINUOUS
 62
             7
100
AcDbLine
 10
-104.0
 20
-12.54952631968901
 11
-105.53966800000001
 21
-12.54952631968901
  0
LINE
  5
5D
100
AcDbEntity
  8
LC-002-002-----0
  6
CONTINUOUS
 62
             7
100
AcDbLine
 10
-125.23006599999989
 20
-5.38280731968907
 11
-105.53966800000001
 21
-12.54952631968901
  0
LINE
  5
5C
100
AcDbEntity
  8
LC-002-002-----0
  6
CONTINUOUS
 62
             7
100
AcDbLine
 10
89.25000000000003
 20
-33.32158531968903
 11
104.0
 21
-33.32158531968903
  0
LINE
  5
5B
100
AcDbEntity
  8
LC-002-002-----0
  6
CONTINUOUS
 62
             7
100
AcDbLine
 10
-33.30642499999996
 20
-145.32158531968909
 11
82.00000000000003
 21
-145.32158531968909
  0
LINE
  5
5A
100
AcDbEntity
  8
LC-002-002-----0
  6
CONTINUOUS
 62
             7
100
AcDbLine
 10
-86.99999999999997
 20
-33.32158531968903
 11
-86.99999999999997
 21
-55.98183931968904
  0
LINE
  5
59
100
AcDbEntity
  8
LC-002-002-----0
  6
CONTINUOUS
 62
             7
100
AcDbLine
 10
-104.0
 20
-12.54952631968901
 11
-104.0
 21
-33.32158531968903
  0
LINE
  5
58
100
AcDbEntity
  8
LC-002-002-----0
  6
CONTINUOUS
 62
             7
100
AcDbLine
 10
104.0
 20
-33.32158531968903
 11
104.0
 21
-12.54952631968901
  0
LINE
  5
57
100
AcDbEntity
  8
LC-002-002-----0
  6
CONTINUOUS
 62
             7
100
AcDbLine
 10
-86.33012699999998
 20
-58.48183931968904
 11
-37.63655199999997
 21
-142.82158531968909
  0
LINE
  5
56
100
AcDbEntity
  8
LC-002-002-----0
  6
CONTINUOUS
 62
             7
100
AcDbLine
 10
-86.99999999999997
 20
-33.32158531968903
 11
-104.0
 21
-33.32158531968903
  0
LINE
  5
55
100
AcDbEntity
  8
LC-002-002-----0
  6
DASHDOT
 62
             3
100
AcDbLine
 10
-155.72800299999989
 20
-170.22704831968909
 11
-155.72800299999989
 21
-197.88643831968909
  0
LINE
  5
54
100
AcDbEntity
  8
LC-002-002-----0
  6
DASHDOT
 62
             3
100
AcDbLine
 10
-153.72800299999989
 20
-170.22704831968909
 11
-153.72800299999989
 21
-197.88643831968909
  0
LINE
  5
53
100
AcDbEntity
  8
LC-002-002-----0
  6
CONTINUOUS
 62
             7
100
AcDbLine
 10
-235.2710349999999
 20
-179.34893031968909
 11
-235.37020599999991
 21
-180.34510531968911
  0
LINE
  5
52
100
AcDbEntity
  8
LC-002-002-----0
  6
CONTINUOUS
 62
             7
100
AcDbLine
 10
-235.48191899999989
 20
-182.51664331968911
 11
-235.48191899999989
 21
-183.51664331968911
  0
LINE
  5
51
100
AcDbEntity
  8
LC-002-002-----0
  6
CONTINUOUS
 62
             7
100
AcDbLine
 10
-235.2710349999999
 20
-186.6843553196891
 11
-235.37020599999991
 21
-185.68818031968911
  0
LINE
  5
50
100
AcDbEntity
  8
LC-002-002-----0
  6
CONTINUOUS
 62
             7
100
AcDbLine
 10
-228.2287309999999
 20
-186.56562731968921
 11
-228.39725299999989
 21
-185.07240031968919
  0
LINE
  5
4F
100
AcDbEntity
  8
LC-002-002-----0
  6
CONTINUOUS
 62
             7
100
AcDbLine
 10
-228.48191899999989
 20
-182.26664331968911
 11
-228.48191899999989
 21
-183.76664331968911
  0
LINE
  5
4E
100
AcDbEntity
  8
LC-002-002-----0
  6
CONTINUOUS
 62
             7
100
AcDbLine
 10
-228.2287309999999
 20
-179.46765931968909
 11
-228.39725299999989
 21
-180.96088531968911
  0
LINE
  5
4D
100
AcDbEntity
  8
LC-002-002-----0
  6
CONTINUOUS
 62
             7
100
AcDbLine
 10
-228.2568179999999
 20
-179.71653031968901
 11
-235.2710349999999
 21
-179.34893031968909
  0
LINE
  5
4C
100
AcDbEntity
  8
LC-002-002-----0
  6
CONTINUOUS
 62
             7
100
AcDbLine
 10
-228.36916599999989
 20
-180.71201431968919
 11
-235.37020599999991
 21
-180.34510531968911
  0
LINE
  5
4B
100
AcDbEntity
  8
LC-002-002-----0
  6
CONTINUOUS
 62
             7
100
AcDbLine
 10
-228.48191899999989
 20
-182.51664331968911
 11
-235.48191899999989
 21
-182.51664331968911
  0
LINE
  5
4A
100
AcDbEntity
  8
LC-002-002-----0
  6
CONTINUOUS
 62
             7
100
AcDbLine
 10
-228.48191899999989
 20
-183.51664331968911
 11
-235.48191899999989
 21
-183.51664331968911
  0
LINE
  5
49
100
AcDbEntity
  8
LC-002-002-----0
  6
CONTINUOUS
 62
             7
100
AcDbLine
 10
-228.36916599999989
 20
-185.32127131968909
 11
-235.37020599999991
 21
-185.68818031968911
  0
LINE
  5
48
100
AcDbEntity
  8
LC-002-002-----0
  6
CONTINUOUS
 62
             7
100
AcDbLine
 10
-228.2568179999999
 20
-186.31675631968909
 11
-235.2710349999999
 21
-186.6843553196891
  0
LINE
  5
47
100
AcDbEntity
  8
LC-002-002-----0
  6
CONTINUOUS
 62
             7
100
AcDbLine
 10
-203.48191899999989
 20
-185.26870131968909
 11
-228.2287309999999
 21
-186.56562731968921
  0
LINE
  5
46
100
AcDbEntity
  8
LC-002-002-----0
  6
CONTINUOUS
 62
             7
100
AcDbLine
 10
-203.48191899999989
 20
-183.76664331968911
 11
-228.39725299999989
 21
-185.07240031968919
  0
LINE
  5
45
100
AcDbEntity
  8
LC-002-002-----0
  6
CONTINUOUS
 62
             7
100
AcDbLine
 10
-203.48191899999989
 20
-183.76664331968911
 11
-228.48191899999989
 21
-183.76664331968911
  0
LINE
  5
44
100
AcDbEntity
  8
LC-002-002-----0
  6
CONTINUOUS
 62
             7
100
AcDbLine
 10
-203.48191899999989
 20
-182.26664331968911
 11
-228.48191899999989
 21
-182.26664331968911
  0
LINE
  5
43
100
AcDbEntity
  8
LC-002-002-----0
  6
CONTINUOUS
 62
             7
100
AcDbLine
 10
-203.48191899999989
 20
-182.26664331968911
 11
-228.39725299999989
 21
-180.96088531968911
  0
LINE
  5
42
100
AcDbEntity
  8
LC-002-002-----0
  6
CONTINUOUS
 62
             7
100
AcDbLine
 10
-203.48191899999989
 20
-180.76458431968919
 11
-228.2287309999999
 21
-179.46765931968909
  0
LINE
  5
41
100
AcDbEntity
  8
LC-002-002-----0
  6
CONTINUOUS
 62
             7
100
AcDbLine
 10
-203.48191899999989
 20
-179.76664331968911
 11
-203.48191899999989
 21
-186.26664331968911
  0
LINE
  5
40
100
AcDbEntity
  8
LC-002-002-----0
  6
CONTINUOUS
 62
             7
100
AcDbLine
 10
-155.72800299999989
 20
-179.76664331968911
 11
-203.48191899999989
 21
-179.76664331968911
  0
LINE
  5
3F
100
AcDbEntity
  8
LC-002-002-----0
  6
CONTINUOUS
 62
             7
100
AcDbLine
 10
-155.72800299999989
 20
-186.26664331968911
 11
-203.48191899999989
 21
-186.26664331968911
  0
LINE
  5
3E
100
AcDbEntity
  8
LC-002-002-----0
  6
CONTINUOUS
 62
             7
100
AcDbLine
 10
-113.3022659999999
 20
-186.26664331968911
 11
-153.72800299999989
 21
-186.26664331968911
  0
LINE
  5
3D
100
AcDbEntity
  8
LC-002-002-----0
  6
CONTINUOUS
 62
             7
100
AcDbLine
 10
-113.3022659999999
 20
-179.76664331968911
 11
-153.72800299999989
 21
-179.76664331968911
  0
LINE
  5
3C
100
AcDbEntity
  8
LC-002-002-----0
  6
CONTINUOUS
 62
             7
100
AcDbLine
 10
-66.80226599999995
 20
-92.30508677406694
 11
-66.80226599999995
 21
-139.76664331968911
  0
LINE
  5
3B
100
AcDbEntity
  8
LC-002-002-----0
  6
CONTINUOUS
 62
             7
100
AcDbLine
 10
-73.30226599999995
 20
-81.04675651180953
 11
-73.30226599999995
 21
-139.76664331968911
  0
POINT
  5
3A
100
AcDbEntity
  8
0
 62
             7
100
AcDbPoint
 10
159.0395280000001
 20
-68.92140431968915
  0
POINT
  5
39
100
AcDbEntity
  8
0
 62
             7
100
AcDbPoint
 10
176.5000040000001
 20
-2.99904431968903
  0
POINT
  5
38
100
AcDbEntity
  8
0
 62
             7
100
AcDbPoint
 10
-177.49998299999999
 20
-3.00854531968903
  0
POINT
  5
37
100
AcDbEntity
  8
0
 62
             7
100
AcDbPoint
 10
-33.30642499999996
 20
-145.32158531968909
  0
POINT
  5
36
100
AcDbEntity
  8
0
 62
             7
100
AcDbPoint
 10
-175.4999939999999
 20
-0.00064731968907
  0
POINT
  5
35
100
AcDbEntity
  8
0
 62
             7
100
AcDbPoint
 10
-104.0
 20
-33.32158531968903
  0
ENDBLK
  5
FB
100
AcDbEntity
  8
0
100
AcDbBlockEnd
  0
BLOCK
  5
2D
100
AcDbEntity
  8
0
100
AcDbBlockBegin
  2
0317_4E_REDUKTION
 70
             0
 10
201.55119946718679
 20
162.3983033017401
 30
0.0
  3
0317_4E_REDUKTION
  1

  0
ARC
  5
113
100
AcDbEntity
  8
LC-003-002-RND-0
  6
CONTINUOUS
 62
             7
100
AcDbCircle
 10
211.1614864671869
 20
-145.80354594018311
 40
4.99999999999976
100
AcDbArc
 50
-138.00000000000369
 51
-93.00000000000428
  0
ARC
  5
112
100
AcDbEntity
  8
LC-003-002-RND-0
  6
CONTINUOUS
 62
             7
100
AcDbCircle
 10
226.57633346718691
 20
-60.49338194018299
 40
1.99999999999984
100
AcDbArc
 50
86.99999999999662
 51
176.99999999999747
  0
ARC
  5
111
100
AcDbEntity
  8
LC-003-002-RND-0
  6
CONTINUOUS
 62
             7
100
AcDbCircle
 10
215.24369046718689
 20
-67.91044194018303
 40
5.00000000000016
100
AcDbArc
 50
86.99999999999808
 51
131.99999999999793
  0
ARC
  5
110
100
AcDbEntity
  8
LC-003-002-RND-0
  6
CONTINUOUS
 62
             7
100
AcDbCircle
 10
221.0287214671869
 20
-166.348111940183
 40
1.99999999999993
100
AcDbArc
 50
177.00000000000244
 51
-93.00000000000307
  0
LINE
  5
10F
100
AcDbEntity
  8
1
  6
CONTINUOUS
 62
             7
100
AcDbLine
 10
205.04640246718699
 20
-146.48443994018299
 11
209.23327946718689
 21
-66.59407694018296
  0
LINE
  5
10E
100
AcDbEntity
  8
1
  6
CONTINUOUS
 62
             7
100
AcDbLine
 10
288.83085846718689
 20
-171.90421694018301
 11
294.58781346718678
 21
-62.05496794018302
  0
LINE
  5
10D
100
AcDbEntity
  8
1
  6
CONTINUOUS
 62
             7
100
AcDbLine
 10
219.8165014671869
 20
-151.263997940183
 11
224.42206646718691
 21
-63.38459794018297
  0
LINE
  5
10C
100
AcDbEntity
  8
1
  6
CONTINUOUS
 62
             7
100
AcDbLine
 10
226.68100537967291
 20
-58.49612287067401
 11
294.58781346718678
 21
-62.05496794018302
  0
LINE
  5
10B
100
AcDbEntity
  8
LC-002-002-----0
  6
CONTINUOUS
 62
             7
100
AcDbLine
 10
205.73807546718689
 20
-66.41090094018296
 11
205.63340346718689
 21
-68.40815994018311
  0
LINE
  5
10A
100
AcDbEntity
  8
LC-002-002-----0
  6
CONTINUOUS
 62
             7
100
AcDbLine
 10
205.73807546718689
 20
-66.41090094018296
 11
209.23327946718689
 21
-66.59407694018296
  0
LINE
  5
109
100
AcDbEntity
  8
LC-002-002-----0
  6
CONTINUOUS
 62
             7
100
AcDbLine
 10
209.23327946718689
 20
-66.59407694018296
 11
211.8980374671869
 21
-64.19471794018301
  0
LINE
  5
108
100
AcDbEntity
  8
LC-002-002-----0
  6
CONTINUOUS
 62
             7
100
AcDbLine
 10
201.6558714671869
 20
-144.30400494018301
 11
201.55119946718679
 21
-146.30126394018311
  0
LINE
  5
107
100
AcDbEntity
  8
LC-002-002-----0
  6
CONTINUOUS
 62
             7
100
AcDbLine
 10
219.03146246718691
 20
-166.24344094018301
 11
219.8165014671869
 21
-151.263997940183
  0
LINE
  5
106
100
AcDbEntity
  8
LC-002-002-----0
  6
CONTINUOUS
 62
             7
100
AcDbLine
 10
210.89980646718689
 20
-150.79669294018299
 11
219.8165014671869
 21
-151.263997940183
  0
LINE
  5
105
100
AcDbEntity
  8
LC-002-002-----0
  6
CONTINUOUS
 62
             7
100
AcDbLine
 10
205.04640246718699
 20
-146.48443994018299
 11
207.44576246718691
 21
-149.149198940183
  0
LINE
  5
104
100
AcDbEntity
  8
LC-002-002-----0
  6
CONTINUOUS
 62
             7
100
AcDbLine
 10
201.55119946718679
 20
-146.30126394018311
 11
205.04640246718699
 21
-146.48443994018299
  0
LINE
  5
103
100
AcDbEntity
  8
LC-002-002-----0
  6
CONTINUOUS
 62
             7
100
AcDbLine
 10
300.52422146718698
 20
-63.42549494018311
 11
297.49176946718688
 21
-121.28812594018299
  0
LINE
  5
102
100
AcDbEntity
  8
LC-002-002-----0
  6
CONTINUOUS
 62
             7
100
AcDbLine
 10
294.87800446718688
 20
-171.1617199401831
 11
297.49176946718688
 21
-121.28812594018299
  0
LINE
  5
101
100
AcDbEntity
  8
LC-002-002-----0
  6
CONTINUOUS
 62
             7
100
AcDbLine
 10
224.57907346718679
 20
-60.38870994018305
 11
224.42206646718691
 21
-63.38459794018297
  0
LINE
  5
100
100
AcDbEntity
  8
LC-002-002-----0
  6
CONTINUOUS
 62
             7
100
AcDbLine
 10
215.50537046718691
 20
-62.91729394018302
 11
224.42206646718691
 21
-63.38459794018297
  0
LINE
  5
FF
100
AcDbEntity
  8
LC-002-002-----0
  6
CONTINUOUS
 62
             7
100
AcDbLine
 10
294.58781346718678
 20
-62.05496794018302
 11
300.52422146718698
 21
-63.42549494018311
  0
LINE
  5
FE
100
AcDbEntity
  8
LC-002-002-----0
  6
CONTINUOUS
 62
             7
100
AcDbLine
 10
220.9240494671869
 20
-168.34537194018301
 11
288.83085846718689
 21
-171.90421694018301
  0
LINE
  5
FD
100
AcDbEntity
  8
LC-002-002-----0
  6
CONTINUOUS
 62
             7
100
AcDbLine
 10
288.83085846718689
 20
-171.90421694018301
 11
294.87800446718688
 21
-171.1617199401831
  0
LINE
  5
FC
100
AcDbEntity
  8
1
  6
CONTINUOUS
 62
             7
100
AcDbLine
 10
201.6558714671869
 20
-144.30400494018301
 11
205.63340346718689
 21
-68.40815994018311
  0
ENDBLK
  5
114
100
AcDbEntity
  8
0
100
AcDbBlockEnd
  0
BLOCK
  5
2F
100
AcDbEntity
  8
0
100
AcDbBlockBegin
  2
HL_64_1_FLACHDACHABLAUF__1
 70
             0
 10
266.43233096746332
 20
-72.80947957113274
 30
0.0
  3
HL_64_1_FLACHDACHABLAUF__1
  1

  0
INSERT
  5
30
100
AcDbEntity
  8
1
100
AcDbBlockReference
  2
0317_4E_REDUKTION
 10
201.55119946718679
 20
162.3983033017401
  0
ENDBLK
  5
115
100
AcDbEntity
  8
0
100
AcDbBlockEnd
  0
BLOCK
  5
118
100
AcDbEntity
  8
0
100
AcDbBlockBegin
  2
*D3
 70
             1
 10
0.0
 20
0.0
 30
0.0
  3
*D3
  1

  0
LINE
  5
119
100
AcDbEntity
  8
0
  6
CONTINUOUS
 62
             4
100
AcDbLine
 10
-177.49998300000004
 20
87.19058603330623
 11
176.50000400000005
 21
87.19058603330623
  0
LINE
  5
11A
100
AcDbEntity
  8
0
  6
CONTINUOUS
 62
             4
100
AcDbLine
 10
-177.49998300000004
 20
-3.00854531968902
 11
-177.49998300000004
 21
89.19058603330623
  0
LINE
  5
11B
100
AcDbEntity
  8
0
  6
CONTINUOUS
 62
             4
100
AcDbLine
 10
176.50000400000005
 20
-1.99935431968903
 11
176.50000400000005
 21
89.19058603330623
  0
SOLID
  5
11C
100
AcDbEntity
  8
0
 62
             4
100
AcDbTrace
 10
164.50000400000005
 20
85.61075606225748
 11
164.50000400000005
 21
88.77041600435499
 12
176.50000400000005
 22
87.19058603330623
 13
176.50000400000005
 23
87.19058603330623
  0
SOLID
  5
11D
100
AcDbEntity
  8
0
 62
             4
100
AcDbTrace
 10
-165.49998300000004
 20
88.77041600435499
 11
-165.49998300000004
 21
85.61075606225748
 12
-177.49998300000004
 22
87.19058603330623
 13
-177.49998300000004
 23
87.19058603330623
  0
MTEXT
  5
11F
100
AcDbEntity
  8
0
 62
             1
100
AcDbMText
 10
-26.22528136421053
 20
89.19056218047312
 30
0.0
 40
12.0
 41
0.0
 71
             7
 72
             1
  1
\C1;Ø\C1;354
  7
CONVERTER_1
 11
0.99999999999706
 21
0.00000242406841
 31
0.0
  0
ENDBLK
  5
120
100
AcDbEntity
  8
0
100
AcDbBlockEnd
  0
BLOCK
  5
124
100
AcDbEntity
  8
0
100
AcDbBlockBegin
  2
*D4
 70
             1
 10
0.0
 20
0.0
 30
0.0
  3
*D4
  1

  0
LINE
  5
125
100
AcDbEntity
  8
0
  6
CONTINUOUS
 62
             4
100
AcDbLine
 10
-185.4999939999999
 20
-145.32158531968906
 11
-185.4999939999999
 21
-0.00064731968907
  0
LINE
  5
126
100
AcDbEntity
  8
0
  6
CONTINUOUS
 62
             4
100
AcDbLine
 10
-33.30642499999999
 20
-145.32158531968906
 11
-187.4999939999999
 21
-145.32158531968906
  0
LINE
  5
127
100
AcDbEntity
  8
0
  6
CONTINUOUS
 62
             4
100
AcDbLine
 10
-175.4999939999999
 20
-0.00064731968907
 11
-187.4999939999999
 21
-0.00064731968907
  0
SOLID
  5
128
100
AcDbEntity
  8
0
 62
             4
100
AcDbTrace
 10
-187.07982397104865
 20
-133.32158531968906
 11
-183.92016402895115
 21
-133.32158531968906
 12
-185.4999939999999
 22
-145.32158531968906
 13
-185.4999939999999
 23
-145.32158531968906
  0
SOLID
  5
129
100
AcDbEntity
  8
0
 62
             4
100
AcDbTrace
 10
-183.92016402895115
 20
-12.00064731968907
 11
-187.07982397104865
 21
-12.00064731968907
 12
-185.4999939999999
 22
-0.00064731968907
 13
-185.4999939999999
 23
-0.00064731968907
  0
MTEXT
  5
12A
100
AcDbEntity
  8
0
 62
             1
100
AcDbMText
 10
-187.4999939999999
 20
-85.59440610961768
 30
0.0
 40
12.0
 41
0.0
 71
             7
 72
             1
  1
145
  7
CONVERTER_1
 11
0.0
 21
1.0
 31
0.0
  0
ENDBLK
  5
12B
100
AcDbEntity
  8
0
100
AcDbBlockEnd
  0
BLOCK
  5
12F
100
AcDbEntity
  8
0
100
AcDbBlockBegin
  2
*D5
 70
             1
 10
0.0
 20
0.0
 30
0.0
  3
*D5
  1

  0
LINE
  5
130
100
AcDbEntity
  8
0
  6
CONTINUOUS
 62
             4
100
AcDbLine
 10
340.44072066843006
 20
-64.45801698488045
 11
334.68376546195589
 21
-174.30726597405953
  0
LINE
  5
131
100
AcDbEntity
  8
0
  6
CONTINUOUS
 62
             4
100
AcDbLine
 10
294.58781346718689
 20
-62.05496794018303
 11
342.43797973792874
 21
-64.56268889756655
  0
LINE
  5
132
100
AcDbEntity
  8
0
  6
CONTINUOUS
 62
             4
100
AcDbLine
 10
288.83085846718694
 20
-171.90421694018301
 11
336.68102453145457
 21
-174.41193788674565
  0
SOLID
  5
133
100
AcDbEntity
  8
0
 62
             4
100
AcDbTrace
 10
341.23208182914266
 20
-74.51321392603558
 11
338.60264038085688
 21
-74.37541073871188
 12
340.44072066843006
 22
-64.45801698488045
 13
340.44072066843006
 23
-64.45801698488045
  0
SOLID
  5
134
100
AcDbEntity
  8
0
 62
             4
100
AcDbTrace
 10
333.89240430124329
 20
-164.25206903290439
 11
336.52184574952906
 21
-164.38987222022809
 12
334.68376546195589
 22
-174.30726597405953
 13
334.68376546195589
 23
-174.30726597405953
  0
MTEXT
  5
135
100
AcDbEntity
  8
0
 62
             1
100
AcDbMText
 10
334.98261886747281
 20
-130.39015815923256
 30
0.0
 40
10.0
 41
0.0
 71
             7
 72
             1
  1
\C1;DN\C1;110
  7
CONVERTER_1
 11
0.05233595634305
 21
0.99862953474933
 31
0.0
  0
ENDBLK
  5
136
100
AcDbEntity
  8
0
100
AcDbBlockEnd
  0
BLOCK
  5
13A
100
AcDbEntity
  8
0
100
AcDbBlockBegin
  2
*D6
 70
             1
 10
0.0
 20
0.0
 30
0.0
  3
*D6
  1

  0
LINE
  5
13B
100
AcDbEntity
  8
0
  6
CONTINUOUS
 62
             4
100
AcDbLine
 10
183.07289359550313
 20
-67.71337398736682
 11
179.14989478887563
 21
-142.56863994509322
  0
LINE
  5
13C
100
AcDbEntity
  8
0
  6
CONTINUOUS
 62
             4
100
AcDbLine
 10
154.67534500000008
 20
-66.22512131968918
 11
185.07015266424511
 21
-67.81804591449117
  0
LINE
  5
13D
100
AcDbEntity
  8
0
  6
CONTINUOUS
 62
             4
100
AcDbLine
 10
150.7523470000001
 20
-141.08038731968915
 11
181.14715385761761
 21
-142.67331187221757
  0
SOLID
  5
13E
100
AcDbEntity
  8
0
 62
             4
100
AcDbTrace
 10
183.86425468352621
 20
-77.76857093424275
 11
181.23481323623662
 21
-77.63076772791069
 12
183.07289359550313
 22
-67.71337398736682
 13
183.07289359550313
 23
-67.71337398736682
  0
SOLID
  5
13F
100
AcDbEntity
  8
0
 62
             4
100
AcDbTrace
 10
178.35853370085255
 20
-132.5134429982173
 11
180.98797514814214
 21
-132.65124620454935
 12
179.14989478887563
 22
-142.56863994509322
 13
179.14989478887563
 23
-142.56863994509322
  0
MTEXT
  5
140
100
AcDbEntity
  8
0
 62
             1
100
AcDbMText
 10
178.41093187148769
 20
-118.45425052734234
 30
0.0
 40
10.0
 41
0.0
 71
             7
 72
             1
  1
\C1;DN\C1;75
  7
CONVERTER_1
 11
0.05233596356217
 21
0.99862953437099
 31
0.0
  0
ENDBLK
  5
141
100
AcDbEntity
  8
0
100
AcDbBlockEnd
  0
ENDSEC
  0
SECTION
  2
ENTITIES
  0
DIMENSION
  5
143
100
AcDbEntity
  8
1
100
AcDbDimension
  2
*D6
 10
183.07289359550313
 20
-67.71337398736682
 11
174.0929181295848
 21
-105.31024971614571
 31
0.0
 53
86.99999958006362
  1
DN75
  3
ME10_DIM_3
100
AcDbAlignedDimension
 13
150.7523470000001
 23
-141.08038731968909
 14
154.67534500000011
 24
-66.22512131968915
 50
86.99999958006362
100
AcDbRotatedDimension
  0
DIMENSION
  5
138
100
AcDbEntity
  8
1
100
AcDbDimension
  2
*D5
 10
340.44072066843006
 20
-64.45801698488045
 11
330.74310896506603
 21
-115.74821307712701
 31
0.0
 53
86.99999999425671
  1
<>
  3
ME10_DIM_2
100
AcDbAlignedDimension
 13
288.83085846718689
 23
-171.90421694018301
 14
294.58781346718678
 24
-62.05496794018302
 50
86.99999999425671
100
AcDbRotatedDimension
  0
DIMENSION
  5
12D
100
AcDbEntity
  8
1
100
AcDbDimension
  2
*D4
 10
-185.4999939999999
 20
-145.32158531968906
 11
-193.4999939999999
 21
-72.99440610961769
 31
0.0
 53
90.0
  1
<>
  3
ME10_DIM_1
100
AcDbAlignedDimension
 13
-175.4999939999999
 23
-0.00064731968907
 14
-33.30642499999996
 24
-145.32158531968909
 50
90.0
100
AcDbRotatedDimension
  0
DIMENSION
  5
122
100
AcDbEntity
  8
1
100
AcDbDimension
  2
*D3
 10
176.50000400000005
 20
87.19058603330623
 11
-9.18528136423944
 21
95.19058603330623
 31
0.0
 53
180.0
  1
<>
  3
ME10_DIM_0
100
AcDbAlignedDimension
 13
-177.49998299999999
 23
-3.00854531968903
 14
176.5000040000001
 24
-1.99935431968904
 50
180.0
100
AcDbRotatedDimension
  0
INSERT
  5
33
100
AcDbEntity
  8
1
100
AcDbBlockReference
  2
HL_64__FLACHDACHABLAUF
 10
-0.00000000000003
 20
-0.00000000000004
  0
INSERT
  5
34
100
AcDbEntity
  8
0
100
AcDbBlockReference
  2
HL_64_1_FLACHDACHABLAUF__1
 10
266.43233096746332
 20
-72.80947957113274
  0
ENDSEC
  0
SECTION
  2
OBJECTS
  0
DICTIONARY
  5
19
100
AcDbDictionary
  3
ACAD_GROUP
350
1A
  3
ACAD_MLINESTYLE
350
1B
  0
DICTIONARY
  5
1A
102
{ACAD_REACTORS
330
19
102
}
100
AcDbDictionary
  0
DICTIONARY
  5
1B
102
{ACAD_REACTORS
330
19
102
}
100
AcDbDictionary
  3
STANDARD
350
1C
  0
MLINESTYLE
  5
1C
102
{ACAD_REACTORS
330
1B
102
}
100
AcDbMlineStyle
  2
STANDARD
 70
             0
  3

 62
             0
 51
90.0
 52
90.0
 71
             2
 49
0.5
 62
           256
  6
BYLAYER
 49
-0.5
 62
           256
  6
BYLAYER
  0
ENDSEC
  0
EOF
