  0
SECTION
  2
HEADER
  9
$ACADVER
  1
AC1015
  9
$ACADMAINTVER
 70
     6
  9
$DWGCODEPAGE
  3
ANSI_1252
  9
$INSBASE
 10
0.0
 20
0.0
 30
0.0
  9
$EXTMIN
 10
-66.2228705365219
 20
519.231308953303
 30
0.0
  9
$EXTMAX
 10
103.234347228699
 20
828.99294849797
 30
0.0
  9
$LIMMIN
 10
0.0
 20
0.0
  9
$LIMMAX
 10
12.0
 20
9.0
  9
$ORTHOMODE
 70
     0
  9
$REGENMODE
 70
     1
  9
$FILLMODE
 70
     1
  9
$QTEXTMODE
 70
     0
  9
$MIRRTEXT
 70
     1
  9
$LTSCALE
 40
1.0
  9
$ATTMODE
 70
     1
  9
$TEXTSIZE
 40
0.2
  9
$TRACEWID
 40
0.05
  9
$TEXTSTYLE
  7
Standard
  9
$CLAYER
  8
0
  9
$CELTYPE
  6
ByLayer
  9
$CECOLOR
 62
   256
  9
$CELTSCALE
 40
1.0
  9
$DISPSILH
 70
     0
  9
$DIMSCALE
 40
1.0
  9
$DIMASZ
 40
0.18
  9
$DIMEXO
 40
0.0625
  9
$DIMDLI
 40
0.38
  9
$DIMRND
 40
0.0
  9
$DIMDLE
 40
0.0
  9
$DIMEXE
 40
0.18
  9
$DIMTP
 40
0.0
  9
$DIMTM
 40
0.0
  9
$DIMTXT
 40
0.18
  9
$DIMCEN
 40
0.09
  9
$DIMTSZ
 40
0.0
  9
$DIMTOL
 70
     0
  9
$DIMLIM
 70
     0
  9
$DIMTIH
 70
     1
  9
$DIMTOH
 70
     1
  9
$DIMSE1
 70
     0
  9
$DIMSE2
 70
     0
  9
$DIMTAD
 70
     0
  9
$DIMZIN
 70
     0
  9
$DIMBLK
  1

  9
$DIMASO
 70
     1
  9
$DIMSHO
 70
     1
  9
$DIMPOST
  1

  9
$DIMAPOST
  1

  9
$DIMALT
 70
     0
  9
$DIMALTD
 70
     2
  9
$DIMALTF
 40
25.4
  9
$DIMLFAC
 40
1.0
  9
$DIMTOFL
 70
     0
  9
$DIMTVP
 40
0.0
  9
$DIMTIX
 70
     0
  9
$DIMSOXD
 70
     0
  9
$DIMSAH
 70
     0
  9
$DIMBLK1
  1

  9
$DIMBLK2
  1

  9
$DIMSTYLE
  2
Standard
  9
$DIMCLRD
 70
     0
  9
$DIMCLRE
 70
     0
  9
$DIMCLRT
 70
     0
  9
$DIMTFAC
 40
1.0
  9
$DIMGAP
 40
0.09
  9
$DIMJUST
 70
     0
  9
$DIMSD1
 70
     0
  9
$DIMSD2
 70
     0
  9
$DIMTOLJ
 70
     1
  9
$DIMTZIN
 70
     0
  9
$DIMALTZ
 70
     0
  9
$DIMALTTZ
 70
     0
  9
$DIMUPT
 70
     0
  9
$DIMDEC
 70
     4
  9
$DIMTDEC
 70
     4
  9
$DIMALTU
 70
     2
  9
$DIMALTTD
 70
     2
  9
$DIMTXSTY
  7
Standard
  9
$DIMAUNIT
 70
     0
  9
$DIMADEC
 70
     0
  9
$DIMALTRND
 40
0.0
  9
$DIMAZIN
 70
     0
  9
$DIMDSEP
 70
    46
  9
$DIMATFIT
 70
     3
  9
$DIMFRAC
 70
     0
  9
$DIMLDRBLK
  1

  9
$DIMLUNIT
 70
     2
  9
$DIMLWD
 70
    -2
  9
$DIMLWE
 70
    -2
  9
$DIMTMOVE
 70
     0
  9
$LUNITS
 70
     2
  9
$LUPREC
 70
     4
  9
$SKETCHINC
 40
0.1
  9
$FILLETRAD
 40
0.5
  9
$AUNITS
 70
     0
  9
$AUPREC
 70
     0
  9
$MENU
  1
.
  9
$ELEVATION
 40
0.0
  9
$PELEVATION
 40
0.0
  9
$THICKNESS
 40
0.0
  9
$LIMCHECK
 70
     0
  9
$CHAMFERA
 40
0.5
  9
$CHAMFERB
 40
0.5
  9
$CHAMFERC
 40
1.0
  9
$CHAMFERD
 40
0.0
  9
$SKPOLY
 70
     0
  9
$TDCREATE
 40
2454704.367028148
  9
$TDUCREATE
 40
2454704.283694815
  9
$TDUPDATE
 40
2454704.36702816
  9
$TDUUPDATE
 40
2454704.283694827
  9
$TDINDWG
 40
0.0000000116
  9
$TDUSRTIMER
 40
0.0000000116
  9
$USRTIMER
 70
     1
  9
$ANGBASE
 50
0.0
  9
$ANGDIR
 70
     0
  9
$PDMODE
 70
     0
  9
$PDSIZE
 40
0.0
  9
$PLINEWID
 40
0.0
  9
$SPLFRAME
 70
     0
  9
$SPLINETYPE
 70
     6
  9
$SPLINESEGS
 70
     8
  9
$HANDSEED
  5
291
  9
$SURFTAB1
 70
     6
  9
$SURFTAB2
 70
     6
  9
$SURFTYPE
 70
     6
  9
$SURFU
 70
     6
  9
$SURFV
 70
     6
  9
$UCSBASE
  2

  9
$UCSNAME
  2

  9
$UCSORG
 10
0.0
 20
0.0
 30
0.0
  9
$UCSXDIR
 10
1.0
 20
0.0
 30
0.0
  9
$UCSYDIR
 10
0.0
 20
1.0
 30
0.0
  9
$UCSORTHOREF
  2

  9
$UCSORTHOVIEW
 70
     0
  9
$UCSORGTOP
 10
0.0
 20
0.0
 30
0.0
  9
$UCSORGBOTTOM
 10
0.0
 20
0.0
 30
0.0
  9
$UCSORGLEFT
 10
0.0
 20
0.0
 30
0.0
  9
$UCSORGRIGHT
 10
0.0
 20
0.0
 30
0.0
  9
$UCSORGFRONT
 10
0.0
 20
0.0
 30
0.0
  9
$UCSORGBACK
 10
0.0
 20
0.0
 30
0.0
  9
$PUCSBASE
  2

  9
$PUCSNAME
  2

  9
$PUCSORG
 10
0.0
 20
0.0
 30
0.0
  9
$PUCSXDIR
 10
1.0
 20
0.0
 30
0.0
  9
$PUCSYDIR
 10
0.0
 20
1.0
 30
0.0
  9
$PUCSORTHOREF
  2

  9
$PUCSORTHOVIEW
 70
     0
  9
$PUCSORGTOP
 10
0.0
 20
0.0
 30
0.0
  9
$PUCSORGBOTTOM
 10
0.0
 20
0.0
 30
0.0
  9
$PUCSORGLEFT
 10
0.0
 20
0.0
 30
0.0
  9
$PUCSORGRIGHT
 10
0.0
 20
0.0
 30
0.0
  9
$PUCSORGFRONT
 10
0.0
 20
0.0
 30
0.0
  9
$PUCSORGBACK
 10
0.0
 20
0.0
 30
0.0
  9
$USERI1
 70
     0
  9
$USERI2
 70
     0
  9
$USERI3
 70
     0
  9
$USERI4
 70
     0
  9
$USERI5
 70
     0
  9
$USERR1
 40
15.5
  9
$USERR2
 40
0.0
  9
$USERR3
 40
0.0
  9
$USERR4
 40
0.0
  9
$USERR5
 40
0.0
  9
$WORLDVIEW
 70
     1
  9
$SHADEDGE
 70
     3
  9
$SHADEDIF
 70
    70
  9
$TILEMODE
 70
     1
  9
$MAXACTVP
 70
    64
  9
$PINSBASE
 10
0.0
 20
0.0
 30
0.0
  9
$PLIMCHECK
 70
     0
  9
$PEXTMIN
 10
1.00000000000000E+20
 20
1.00000000000000E+20
 30
1.00000000000000E+20
  9
$PEXTMAX
 10
-1.00000000000000E+20
 20
-1.00000000000000E+20
 30
-1.00000000000000E+20
  9
$PLIMMIN
 10
0.0
 20
0.0
  9
$PLIMMAX
 10
12.0
 20
9.0
  9
$UNITMODE
 70
     0
  9
$VISRETAIN
 70
     1
  9
$PLINEGEN
 70
     0
  9
$PSLTSCALE
 70
     1
  9
$TREEDEPTH
 70
  3020
  9
$CMLSTYLE
  2
Standard
  9
$CMLJUST
 70
     0
  9
$CMLSCALE
 40
1.0
  9
$PROXYGRAPHICS
 70
     1
  9
$MEASUREMENT
 70
     1
  9
$CELWEIGHT
370
    -1
  9
$ENDCAPS
280
     0
  9
$JOINSTYLE
280
     0
  9
$LWDISPLAY
290
     0
  9
$INSUNITS
 70
     1
  9
$HYPERLINKBASE
  1

  9
$STYLESHEET
  1

  9
$XEDIT
290
     1
  9
$CEPSNTYPE
380
     0
  9
$PSTYLEMODE
290
     1
  9
$FINGERPRINTGUID
  2
{B9B8AC87-CE81-4E83-BC14-B17D8489B3FF}
  9
$VERSIONGUID
  2
{FAEB1C32-E019-11D5-929B-00C0DF256EC4}
  9
$EXTNAMES
290
     1
  9
$PSVPSCALE
 40
0.0
  9
$OLESTARTUP
290
     0
  0
ENDSEC
  0
SECTION
  2
CLASSES
  0
CLASS
  1
ACDBDICTIONARYWDFLT
  2
AcDbDictionaryWithDefault
  3
ObjectDBX Classes
 90
        0
280
     0
281
     0
  0
CLASS
  1
VISUALSTYLE
  2
AcDbVisualStyle
  3
ObjectDBX Classes
 90
     4095
280
     0
281
     0
  0
CLASS
  1

  2
exOdDbCircle
  3

 90
        0
280
     0
281
     1
  0
CLASS
  1

  2
exOdDbSpline
  3

 90
        0
280
     0
281
     1
  0
CLASS
  1
ACDBPLACEHOLDER
  2
AcDbPlaceHolder
  3
ObjectDBX Classes
 90
        0
280
     0
281
     0
  0
CLASS
  1
LAYOUT
  2
AcDbLayout
  3
ObjectDBX Classes
 90
        0
280
     0
281
     0
  0
ENDSEC
  0
SECTION
  2
TABLES
  0
TABLE
  2
VPORT
  5
8
330
0
100
AcDbSymbolTable
 70
     1
  0
VPORT
  5
29
330
8
100
AcDbSymbolTableRecord
100
AcDbViewportTableRecord
  2
*Active
 70
     0
 10
0.0
 20
0.0
 11
1.0
 21
1.0
 12
18.50573834608855
 22
674.1121287256365
 13
0.0
 23
0.0
 14
0.5
 24
0.5
 15
0.5
 25
0.5
 16
0.0
 26
0.0
 36
1.0
 17
0.0
 27
0.0
 37
0.0
 40
340.7378034991337
 41
1.60267857142857
 42
50.0
 43
0.0
 44
0.0
 50
0.0
 51
0.0
 71
     0
 72
   100
 73
     1
 74
     3
 75
     0
 76
     0
 77
     0
 78
     0
281
     0
 65
     1
110
0.0
120
0.0
130
0.0
111
1.0
121
0.0
131
0.0
112
0.0
122
1.0
132
0.0
 79
     0
146
0.0
  0
ENDTAB
  0
TABLE
  2
LTYPE
  5
5
330
0
100
AcDbSymbolTable
 70
     8
  0
LTYPE
  5
14
330
5
100
AcDbSymbolTableRecord
100
AcDbLinetypeTableRecord
  2
ByBlock
 70
     0
  3

 72
    65
 73
     0
 40
0.0
  0
LTYPE
  5
15
330
5
100
AcDbSymbolTableRecord
100
AcDbLinetypeTableRecord
  2
ByLayer
 70
     0
  3

 72
    65
 73
     0
 40
0.0
  0
LTYPE
  5
16
330
5
100
AcDbSymbolTableRecord
100
AcDbLinetypeTableRecord
  2
Continuous
 70
     0
  3
Solid line
 72
    65
 73
     0
 40
0.0
  0
LTYPE
  5
3B
330
5
100
AcDbSymbolTableRecord
100
AcDbLinetypeTableRecord
  2
DASHED
 70
     0
  3
Dashed
 72
    65
 73
     2
 40
15.0
 49
7.0
 74
     0
 49
-8.0
 74
     0
  0
LTYPE
  5
3C
330
5
100
AcDbSymbolTableRecord
100
AcDbLinetypeTableRecord
  2
DOTTED
 70
     0
  3
Dotted
 72
    65
 73
     2
 40
1.0
 49
0.0
 74
     0
 49
-1.0
 74
     0
  0
LTYPE
  5
3D
330
5
100
AcDbSymbolTableRecord
100
AcDbLinetypeTableRecord
  2
DOT_CENTER
 70
     0
  3
Dot_Center
 72
    65
 73
     4
 40
14.0
 49
12.0
 74
     0
 49
-1.0
 74
     0
 49
0.0
 74
     0
 49
-1.0
 74
     0
  0
LTYPE
  5
3E
330
5
100
AcDbSymbolTableRecord
100
AcDbLinetypeTableRecord
  2
LONG_DASHED
 70
     0
  3
Long_Dashed
 72
    65
 73
     2
 40
15.0
 49
10.0
 74
     0
 49
-5.0
 74
     0
  0
LTYPE
  5
3F
330
5
100
AcDbSymbolTableRecord
100
AcDbLinetypeTableRecord
  2
DASH_CENTER
 70
     0
  3
Dash_Center
 72
    65
 73
     4
 40
14.0
 49
11.0
 74
     0
 49
-1.0
 74
     0
 49
1.0
 74
     0
 49
-1.0
 74
     0
  0
LTYPE
  5
40
330
5
100
AcDbSymbolTableRecord
100
AcDbLinetypeTableRecord
  2
PHANTOM
 70
     0
  3
Phantom
 72
    65
 73
     6
 40
13.0
 49
10.0
 74
     0
 49
-1.0
 74
     0
 49
0.0
 74
     0
 49
-1.0
 74
     0
 49
0.0
 74
     0
 49
-1.0
 74
     0
  0
LTYPE
  5
41
330
5
100
AcDbSymbolTableRecord
100
AcDbLinetypeTableRecord
  2
CENTER_DASH_DASH
 70
     0
  3
Center_Dash_Dash
 72
    65
 73
     6
 40
14.0
 49
9.0
 74
     0
 49
-1.0
 74
     0
 49
1.0
 74
     0
 49
-1.0
 74
     0
 49
1.0
 74
     0
 49
-1.0
 74
     0
  0
ENDTAB
  0
TABLE
  2
LAYER
  5
2
330
0
100
AcDbSymbolTable
 70
     3
  0
LAYER
  5
10
330
2
100
AcDbSymbolTableRecord
100
AcDbLayerTableRecord
  2
0
 70
     0
 62
     7
  6
Continuous
370
    -3
390
F
  0
LAYER
  5
42
330
2
100
AcDbSymbolTableRecord
100
AcDbLayerTableRecord
  2
1
 70
     0
 62
     7
  6
Continuous
370
    -3
390
F
  0
LAYER
  5
43
330
2
100
AcDbSymbolTableRecord
100
AcDbLayerTableRecord
  2
LC-003-002-----0
 70
     0
 62
     7
  6
Continuous
370
    -3
390
F
  0
ENDTAB
  0
TABLE
  2
STYLE
  5
3
330
0
100
AcDbSymbolTable
 70
     2
  0
STYLE
  5
11
330
3
100
AcDbSymbolTableRecord
100
AcDbTextStyleTableRecord
  2
Standard
 70
     0
 40
0.0
 41
1.0
 50
0.0
 71
     0
 42
0.2
  3
txt
  4

  0
STYLE
  5
14B
330
3
100
AcDbSymbolTableRecord
100
AcDbTextStyleTableRecord
  2
CONVERTER_11
 70
     0
 40
0.0
 41
0.9
 50
0.0
 71
     0
 42
0.2
  3
txt.shx
  4

  0
ENDTAB
  0
TABLE
  2
VIEW
  5
6
330
0
100
AcDbSymbolTable
 70
     0
  0
ENDTAB
  0
TABLE
  2
UCS
  5
7
330
0
100
AcDbSymbolTable
 70
     0
  0
ENDTAB
  0
TABLE
  2
APPID
  5
9
330
0
100
AcDbSymbolTable
 70
     1
  0
APPID
  5
12
330
9
100
AcDbSymbolTableRecord
100
AcDbRegAppTableRecord
  2
ACAD
 70
     0
  0
ENDTAB
  0
TABLE
  2
DIMSTYLE
  5
A
330
0
100
AcDbSymbolTable
 70
     4
100
AcDbDimStyleTable
  0
DIMSTYLE
105
27
330
A
100
AcDbSymbolTableRecord
100
AcDbDimStyleTableRecord
  2
Standard
 70
     0
340
11
  0
DIMSTYLE
105
14F
102
{ACAD_REACTORS
330
150
102
}
330
A
100
AcDbSymbolTableRecord
100
AcDbDimStyleTableRecord
  2
ME10_DIM_10
 70
     0
  3
x150
 41
7.0
 42
0.0
 44
2.0
 73
     0
 74
     0
 77
     1
 78
     8
140
7.0
147
2.0
172
     1
173
     1
176
     4
177
     4
178
     1
271
     2
340
14B
  0
DIMSTYLE
105
15A
102
{ACAD_REACTORS
330
15B
102
}
330
A
100
AcDbSymbolTableRecord
100
AcDbDimStyleTableRecord
  2
ME10_DIM_11
 70
     0
  3
{\Fgdt;n}<>
 41
7.0
 42
0.0
 44
2.0
 73
     0
 74
     0
 77
     1
 78
     8
140
7.0
147
2.0
172
     1
173
     1
176
     4
177
     4
178
     1
271
     2
340
14B
  0
DIMSTYLE
105
165
102
{ACAD_REACTORS
330
166
102
}
330
A
100
AcDbSymbolTableRecord
100
AcDbDimStyleTableRecord
  2
ME10_DIM_12
 70
     0
 41
7.0
 42
0.0
 44
2.0
 73
     0
 74
     0
 77
     1
 78
     8
140
7.0
147
2.0
172
     1
173
     1
176
     4
177
     4
178
     1
271
     2
340
14B
  0
ENDTAB
  0
TABLE
  2
BLOCK_RECORD
  5
1
330
0
100
AcDbSymbolTable
 70
    13
  0
BLOCK_RECORD
  5
1F
330
1
100
AcDbSymbolTableRecord
100
AcDbBlockTableRecord
  2
*Model_Space
340
22
  0
BLOCK_RECORD
  5
1B
330
1
100
AcDbSymbolTableRecord
100
AcDbBlockTableRecord
  2
*Paper_Space
340
1E
  0
BLOCK_RECORD
  5
23
330
1
100
AcDbSymbolTableRecord
100
AcDbBlockTableRecord
  2
*Paper_Space0
340
26
  0
BLOCK_RECORD
  5
44
330
1
100
AcDbSymbolTableRecord
100
AcDbBlockTableRecord
  2
066_4E_O-Ring_135x2_5
340
0
102
{BLKREFS
331
66
102
}
  0
BLOCK_RECORD
  5
47
330
1
100
AcDbSymbolTableRecord
100
AcDbBlockTableRecord
  2
HL062B_2E_Aufsatzrahmen__1
340
0
102
{BLKREFS
331
4B
102
}
  0
BLOCK_RECORD
  5
4A
330
1
100
AcDbSymbolTableRecord
100
AcDbBlockTableRecord
  2
Bgr_HL66_9
340
0
102
{BLKREFS
331
4F
102
}
  0
BLOCK_RECORD
  5
4E
330
1
100
AcDbSymbolTableRecord
100
AcDbBlockTableRecord
  2
Untsicht1
340
0
102
{BLKREFS
331
62
102
}
  0
BLOCK_RECORD
  5
52
330
1
100
AcDbSymbolTableRecord
100
AcDbBlockTableRecord
  2
HL0317_1E_Einlaufrost
340
0
102
{BLKREFS
331
59
102
}
  0
BLOCK_RECORD
  5
55
330
1
100
AcDbSymbolTableRecord
100
AcDbBlockTableRecord
  2
HL062B_2E_Aufsatzrahmen__2
340
0
102
{BLKREFS
331
5A
102
}
  0
BLOCK_RECORD
  5
58
330
1
100
AcDbSymbolTableRecord
100
AcDbBlockTableRecord
  2
Bgr_HL69_9__3
340
0
102
{BLKREFS
331
5E
102
}
  0
BLOCK_RECORD
  5
5D
330
1
100
AcDbSymbolTableRecord
100
AcDbBlockTableRecord
  2
Vordans1
340
0
102
{BLKREFS
331
63
102
}
  0
BLOCK_RECORD
  5
61
330
1
100
AcDbSymbolTableRecord
100
AcDbBlockTableRecord
  2
1
340
0
102
{BLKREFS
331
67
102
}
  0
BLOCK_RECORD
  5
145
330
1
100
AcDbSymbolTableRecord
100
AcDbBlockTableRecord
  2
*D10
340
0
  0
BLOCK_RECORD
  5
151
330
1
100
AcDbSymbolTableRecord
100
AcDbBlockTableRecord
  2
*D11
340
0
  0
BLOCK_RECORD
  5
15C
330
1
100
AcDbSymbolTableRecord
100
AcDbBlockTableRecord
  2
*D12
340
0
  0
ENDTAB
  0
ENDSEC
  0
SECTION
  2
BLOCKS
  0
BLOCK
  5
20
330
1F
100
AcDbEntity
  8
0
100
AcDbBlockBegin
  2
*Model_Space
 70
     0
 71
     0
 10
0.0
 20
0.0
 30
0.0
  3
*Model_Space
  1

  0
ENDBLK
  5
21
330
1F
100
AcDbEntity
  8
0
100
AcDbBlockEnd
  0
BLOCK
  5
1C
330
1B
100
AcDbEntity
 67
     1
  8
0
100
AcDbBlockBegin
  2
*Paper_Space
 70
     0
 71
     0
 10
0.0
 20
0.0
 30
0.0
  3
*Paper_Space
  1

  0
ENDBLK
  5
1D
330
1B
100
AcDbEntity
 67
     1
  8
0
100
AcDbBlockEnd
  0
BLOCK
  5
24
330
23
100
AcDbEntity
  8
0
100
AcDbBlockBegin
  2
*Paper_Space0
 70
     0
 71
     0
 10
0.0
 20
0.0
 30
0.0
  3
*Paper_Space0
  1

  0
ENDBLK
  5
25
330
23
100
AcDbEntity
  8
0
100
AcDbBlockEnd
  0
BLOCK
  5
45
330
44
100
AcDbEntity
  8
0
100
AcDbBlockBegin
  2
066_4E_O-Ring_135x2_5
 70
     0
 71
     0
 10
-37.27093796608824
 20
1068.31678377475
 30
0.0
  3
066_4E_O-Ring_135x2_5
  1

  0
LINE
  5
68
102
{ACAD_REACTORS
330
6F
330
6F
102
}
330
44
100
AcDbEntity
  8
LC-003-002-----0
  6
Continuous
 62
     7
100
AcDbLine
 10
85.00572550300585
 20
725.2499982957929
 30
0.0
 11
85.00572550300585
 21
725.2499982957929
 31
0.0
  0
LINE
  5
69
330
44
100
AcDbEntity
  8
LC-003-002-----0
  6
Continuous
 62
     7
100
AcDbLine
 10
85.00572550300585
 20
727.7499982957929
 30
0.0
 11
85.00572550300585
 21
727.7499982957929
 31
0.0
  0
LINE
  5
6A
330
44
100
AcDbEntity
  8
LC-003-002-----0
  6
Continuous
 62
     7
100
AcDbLine
 10
-58.99427449699415
 20
727.7499982957929
 30
0.0
 11
-58.99427449699415
 21
727.7499982957929
 31
0.0
  0
LINE
  5
6B
102
{ACAD_REACTORS
330
6E
330
6E
102
}
330
44
100
AcDbEntity
  8
LC-003-002-----0
  6
Continuous
 62
     7
100
AcDbLine
 10
-58.99427449699415
 20
725.2499982957929
 30
0.0
 11
-58.99427449699415
 21
725.2499982957929
 31
0.0
  0
CIRCLE
  5
6C
102
{ACAD_REACTORS
330
6F
330
6F
102
}
330
44
100
AcDbEntity
  8
LC-003-002-----0
  6
Continuous
 62
     7
100
AcDbCircle
 10
85.00572550300585
 20
726.4999982957929
 30
0.0
 40
1.25
  0
CIRCLE
  5
6D
102
{ACAD_REACTORS
330
6E
330
6E
102
}
330
44
100
AcDbEntity
  8
LC-003-002-----0
  6
Continuous
 62
     7
100
AcDbCircle
 10
-58.99427449699415
 20
726.4999982957929
 30
0.0
 40
1.25
  0
HATCH
  5
6E
330
44
100
AcDbEntity
  8
1
  6
Continuous
 62
     3
100
AcDbHatch
 10
0.0
 20
0.0
 30
0.0
210
0.0
220
0.0
230
1.0
  2
CUSTOM0
 70
     0
 71
     1
 91
        2
 92
        1
 93
        1
 72
     2
 10
-58.99427449699415
 20
726.4999982957929
 40
1.25
 50
0.0
 51
360.0
 73
     1
 97
        1
330
6D
 92
       16
 93
        1
 72
     1
 10
-58.99427449699415
 20
725.2499982957929
 11
-58.99427449699415
 21
725.2499982957929
 97
        1
330
6B
 75
     1
 76
     2
 52
45.0
 41
1.0
 77
     0
 78
     2
 53
45.0
 43
-46251.64413684043
 44
-63876.58574527818
 45
-1.414213562373095
 46
0.0000000000000001
 79
     0
 53
135.0
 43
-46251.64413684043
 44
-63876.58574527818
 45
0.0000000000000006
 46
-1.414213562373095
 79
     0
 98
        1
 10
0.0
 20
0.0
  0
HATCH
  5
6F
330
44
100
AcDbEntity
  8
1
  6
Continuous
 62
     3
100
AcDbHatch
 10
0.0
 20
0.0
 30
0.0
210
0.0
220
0.0
230
1.0
  2
CUSTOM1
 70
     0
 71
     1
 91
        2
 92
        1
 93
        1
 72
     2
 10
85.00572550300585
 20
726.4999982957929
 40
1.25
 50
0.0
 51
360.0
 73
     1
 97
        1
330
6C
 92
       16
 93
        1
 72
     1
 10
85.00572550300585
 20
725.2499982957929
 11
85.00572550300585
 21
725.2499982957929
 97
        1
330
68
 75
     1
 76
     2
 52
45.0
 41
1.0
 77
     0
 78
     2
 53
45.0
 43
-46251.64413684043
 44
-63876.58574527818
 45
-1.414213562373095
 46
0.0000000000000001
 79
     0
 53
135.0
 43
-46251.64413684043
 44
-63876.58574527818
 45
0.0000000000000006
 46
-1.414213562373095
 79
     0
 98
        1
 10
0.0
 20
0.0
  0
ENDBLK
  5
46
330
44
100
AcDbEntity
  8
0
100
AcDbBlockEnd
  0
BLOCK
  5
48
330
47
100
AcDbEntity
  8
0
100
AcDbBlockBegin
  2
HL062B_2E_Aufsatzrahmen__1
 70
     0
 71
     0
 10
-61.00000000000053
 20
717.7499982957929
 30
0.0
  3
HL062B_2E_Aufsatzrahmen__1
  1

  0
LINE
  5
70
330
47
100
AcDbEntity
  8
0
  6
Continuous
 62
     7
100
AcDbLine
 10
-61.00000000000053
 20
808.2499982957929
 30
0.0
 11
-61.00000000000053
 21
794.2499982957929
 31
0.0
  0
LINE
  5
71
330
47
100
AcDbEntity
  8
0
  6
Continuous
 62
     7
100
AcDbLine
 10
-61.00000000000053
 20
794.2499982957929
 30
0.0
 11
-59.50000000000054
 21
794.2499982957929
 31
0.0
  0
LINE
  5
72
330
47
100
AcDbEntity
  8
0
  6
Continuous
 62
     7
100
AcDbLine
 10
-59.50000000000074
 20
741.7499982957929
 30
0.0
 11
-59.50000000000068
 21
742.7499982957929
 31
0.0
  0
LINE
  5
73
330
47
100
AcDbEntity
  8
0
  6
Continuous
 62
     7
100
AcDbLine
 10
-59.50000000000058
 20
777.749998295793
 30
0.0
 11
-59.5000000000006
 21
778.749998295793
 31
0.0
  0
LINE
  5
74
330
47
100
AcDbEntity
  8
0
  6
Continuous
 62
     7
100
AcDbLine
 10
-59.50000000000065
 20
768.749998295793
 30
0.0
 11
-59.50000000000065
 21
769.749998295793
 31
0.0
  0
LINE
  5
75
330
47
100
AcDbEntity
  8
0
  6
Continuous
 62
     7
100
AcDbLine
 10
-59.50000000000061
 20
773.249998295793
 30
0.0
 11
-59.50000000000063
 21
774.249998295793
 31
0.0
  0
LINE
  5
76
330
47
100
AcDbEntity
  8
0
  6
Continuous
 62
     7
100
AcDbLine
 10
-59.50000000000054
 20
782.249998295793
 30
0.0
 11
-59.50000000000054
 21
789.2499982957929
 31
0.0
  0
LINE
  5
77
330
47
100
AcDbEntity
  8
0
  6
Continuous
 62
     7
100
AcDbLine
 10
-59.50000000000054
 20
791.2499982957929
 30
0.0
 11
-59.50000000000054
 21
794.2499982957929
 31
0.0
  0
LINE
  5
78
330
47
100
AcDbEntity
  8
0
  6
Continuous
 62
     7
100
AcDbLine
 10
-59.50000000000077
 20
728.2499982957929
 30
0.0
 11
-59.50000000000073
 21
729.2499982957929
 31
0.0
  0
LINE
  5
79
330
47
100
AcDbEntity
  8
0
  6
Continuous
 62
     7
100
AcDbLine
 10
-59.50000000000078
 20
732.7499982957929
 30
0.0
 11
-59.50000000000078
 21
733.7499982957929
 31
0.0
  0
LINE
  5
7A
330
47
100
AcDbEntity
  8
0
  6
Continuous
 62
     7
100
AcDbLine
 10
-59.50000000000064
 20
764.249998295793
 30
0.0
 11
-59.50000000000067
 21
765.249998295793
 31
0.0
  0
LINE
  5
7B
330
47
100
AcDbEntity
  8
0
  6
Continuous
 62
     7
100
AcDbLine
 10
-59.50000000000071
 20
746.2499982957929
 30
0.0
 11
-59.50000000000075
 21
747.2499982957929
 31
0.0
  0
LINE
  5
7C
330
47
100
AcDbEntity
  8
0
  6
Continuous
 62
     7
100
AcDbLine
 10
-59.50000000000073
 20
755.249998295793
 30
0.0
 11
-59.50000000000068
 21
756.2499982957929
 31
0.0
  0
LINE
  5
7D
330
47
100
AcDbEntity
  8
0
  6
Continuous
 62
     7
100
AcDbLine
 10
-59.50000000000065
 20
759.749998295793
 30
0.0
 11
-59.50000000000065
 21
760.749998295793
 31
0.0
  0
LINE
  5
7E
330
47
100
AcDbEntity
  8
0
  6
Continuous
 62
     7
100
AcDbLine
 10
-59.50000000000075
 20
737.2499982957929
 30
0.0
 11
-59.5000000000008
 21
738.2499982957929
 31
0.0
  0
LINE
  5
7F
330
47
100
AcDbEntity
  8
0
  6
Continuous
 62
     7
100
AcDbLine
 10
-59.50000000000073
 20
750.7499982957929
 30
0.0
 11
-59.50000000000073
 21
751.7499982957929
 31
0.0
  0
LINE
  5
80
330
47
100
AcDbEntity
  8
0
  6
Continuous
 62
     7
100
AcDbLine
 10
-59.50000000000077
 20
723.7499982957929
 30
0.0
 11
-59.50000000000073
 21
724.7499982957929
 31
0.0
  0
LINE
  5
81
330
47
100
AcDbEntity
  8
0
  6
Continuous
 62
     7
100
AcDbLine
 10
-59.5000000000008
 20
718.249998295793
 30
0.0
 11
-59.50000000000078
 21
720.249998295793
 31
0.0
  0
LINE
  5
82
330
47
100
AcDbEntity
  8
0
  6
Continuous
 62
     7
100
AcDbLine
 10
76.49999999999903
 20
794.2499982957929
 30
0.0
 11
85.49999999999947
 21
794.2499982957929
 31
0.0
  0
LINE
  5
83
330
47
100
AcDbEntity
  8
0
  6
Continuous
 62
     7
100
AcDbLine
 10
86.99999999999947
 20
808.2499982957929
 30
0.0
 11
86.99999999999947
 21
794.2499982957929
 31
0.0
  0
LINE
  5
84
330
47
100
AcDbEntity
  8
0
  6
Continuous
 62
     7
100
AcDbLine
 10
-21.985711369073
 20
794.2499982957929
 30
0.0
 11
47.98571136907081
 21
794.2499982957929
 31
0.0
  0
LINE
  5
85
330
47
100
AcDbEntity
  8
0
  6
Continuous
 62
     7
100
AcDbLine
 10
-50.50000000000118
 20
794.2499982957929
 30
0.0
 11
-21.985711369073
 21
794.2499982957929
 31
0.0
  0
LINE
  5
86
330
47
100
AcDbEntity
  8
0
  6
Continuous
 62
     7
100
AcDbLine
 10
-59.50000000000054
 20
794.2499982957929
 30
0.0
 11
-50.50000000000118
 21
794.2499982957929
 31
0.0
  0
LINE
  5
87
330
47
100
AcDbEntity
  8
0
  6
Continuous
 62
     7
100
AcDbLine
 10
47.98571136907081
 20
794.2499982957929
 30
0.0
 11
76.49999999999903
 21
794.2499982957929
 31
0.0
  0
LINE
  5
88
330
47
100
AcDbEntity
  8
0
  6
Continuous
 62
     7
100
AcDbLine
 10
85.49999999999947
 20
794.2499982957929
 30
0.0
 11
86.99999999999947
 21
794.2499982957929
 31
0.0
  0
LINE
  5
89
330
47
100
AcDbEntity
  8
0
  6
Continuous
 62
     7
100
AcDbLine
 10
-50.5000000000009
 20
789.2499982957929
 30
0.0
 11
-59.50000000000054
 21
789.2499982957929
 31
0.0
  0
LINE
  5
8A
330
47
100
AcDbEntity
  8
0
  6
Continuous
 62
     7
100
AcDbLine
 10
-50.50000000000118
 20
794.2219986436928
 30
0.0
 11
-50.50000000000091
 21
791.2499982957929
 31
0.0
  0
LINE
  5
8B
330
47
100
AcDbEntity
  8
0
  6
Continuous
 62
     7
100
AcDbLine
 10
-50.50000000000118
 20
794.2219986436928
 30
0.0
 11
-50.50000000000118
 21
794.2499982957929
 31
0.0
  0
LINE
  5
8C
330
47
100
AcDbEntity
  8
0
  6
Continuous
 62
     7
100
AcDbLine
 10
-50.50000000000091
 20
791.2499982957929
 30
0.0
 11
-50.5000000000009
 21
789.2499982957929
 31
0.0
  0
LINE
  5
8D
330
47
100
AcDbEntity
  8
0
  6
Continuous
 62
     7
100
AcDbLine
 10
-50.50000000000091
 20
791.2499982957929
 30
0.0
 11
-59.50000000000054
 21
791.2499982957929
 31
0.0
  0
LINE
  5
8E
330
47
100
AcDbEntity
  8
0
  6
Continuous
 62
     7
100
AcDbLine
 10
-59.50000000000054
 20
791.2499982957929
 30
0.0
 11
-60.0000000000009
 21
791.2499982957929
 31
0.0
  0
LINE
  5
8F
330
47
100
AcDbEntity
  8
0
  6
Continuous
 62
     7
100
AcDbLine
 10
-60.0000000000009
 20
789.2499982957929
 30
0.0
 11
-60.0000000000009
 21
791.2499982957929
 31
0.0
  0
LINE
  5
90
330
47
100
AcDbEntity
  8
0
  6
Continuous
 62
     7
100
AcDbLine
 10
-59.50000000000054
 20
789.2499982957929
 30
0.0
 11
-60.0000000000009
 21
789.2499982957929
 31
0.0
  0
LINE
  5
91
330
47
100
AcDbEntity
  8
0
  6
Continuous
 62
     7
100
AcDbLine
 10
-59.00000000000061
 20
772.749998295793
 30
0.0
 11
84.99999999999956
 21
772.749998295793
 31
0.0
  0
LINE
  5
92
330
47
100
AcDbEntity
  8
0
  6
Continuous
 62
     3
100
AcDbLine
 10
-59.50000000000073
 20
751.7499982957929
 30
0.0
 11
85.49999999999964
 21
751.7499982957929
 31
0.0
  0
LINE
  5
93
330
47
100
AcDbEntity
  8
0
  6
Continuous
 62
     3
100
AcDbLine
 10
-59.50000000000073
 20
750.7499982957929
 30
0.0
 11
85.49999999999964
 21
750.7499982957929
 31
0.0
  0
LINE
  5
94
330
47
100
AcDbEntity
  8
0
  6
Continuous
 62
     3
100
AcDbLine
 10
-59.50000000000065
 20
760.749998295793
 30
0.0
 11
85.4999999999996
 21
760.749998295793
 31
0.0
  0
LINE
  5
95
330
47
100
AcDbEntity
  8
0
  6
Continuous
 62
     3
100
AcDbLine
 10
-59.50000000000073
 20
755.249998295793
 30
0.0
 11
85.49999999999964
 21
755.249998295793
 31
0.0
  0
LINE
  5
96
330
47
100
AcDbEntity
  8
0
  6
Continuous
 62
     7
100
AcDbLine
 10
85.49999999999964
 20
755.249998295793
 30
0.0
 11
85.49999999999963
 21
756.2499982957929
 31
0.0
  0
LINE
  5
97
330
47
100
AcDbEntity
  8
0
  6
Continuous
 62
     7
100
AcDbLine
 10
-59.00000000000058
 20
761.249998295793
 30
0.0
 11
84.99999999999953
 21
761.249998295793
 31
0.0
  0
LINE
  5
98
330
47
100
AcDbEntity
  8
0
  6
Continuous
 62
     7
100
AcDbLine
 10
85.4999999999996
 20
759.749998295793
 30
0.0
 11
85.4999999999996
 21
760.749998295793
 31
0.0
  0
LINE
  5
99
330
47
100
AcDbEntity
  8
0
  6
Continuous
 62
     3
100
AcDbLine
 10
-59.50000000000068
 20
756.2499982957929
 30
0.0
 11
85.49999999999963
 21
756.2499982957929
 31
0.0
  0
LINE
  5
9A
330
47
100
AcDbEntity
  8
0
  6
Continuous
 62
     7
100
AcDbLine
 10
-59.00000000000064
 20
756.7499982957929
 30
0.0
 11
84.99999999999959
 21
756.7499982957929
 31
0.0
  0
LINE
  5
9B
330
47
100
AcDbEntity
  8
0
  6
Continuous
 62
     3
100
AcDbLine
 10
-59.50000000000065
 20
759.749998295793
 30
0.0
 11
85.4999999999996
 21
759.749998295793
 31
0.0
  0
LINE
  5
9C
330
47
100
AcDbEntity
  8
0
  6
Continuous
 62
     7
100
AcDbLine
 10
-59.0000000000007
 20
759.249998295793
 30
0.0
 11
84.99999999999964
 21
759.249998295793
 31
0.0
  0
LINE
  5
9D
330
47
100
AcDbEntity
  8
0
  6
Continuous
 62
     3
100
AcDbLine
 10
-59.50000000000065
 20
769.749998295793
 30
0.0
 11
85.49999999999957
 21
769.749998295793
 31
0.0
  0
LINE
  5
9E
330
47
100
AcDbEntity
  8
0
  6
Continuous
 62
     7
100
AcDbLine
 10
-59.00000000000058
 20
763.7499982957929
 30
0.0
 11
84.99999999999953
 21
763.7499982957929
 31
0.0
  0
LINE
  5
9F
330
47
100
AcDbEntity
  8
0
  6
Continuous
 62
     7
100
AcDbLine
 10
-59.0000000000006
 20
768.249998295793
 30
0.0
 11
84.99999999999955
 21
768.249998295793
 31
0.0
  0
LINE
  5
A0
330
47
100
AcDbEntity
  8
0
  6
Continuous
 62
     3
100
AcDbLine
 10
-59.50000000000064
 20
764.249998295793
 30
0.0
 11
85.49999999999959
 21
764.249998295793
 31
0.0
  0
LINE
  5
A1
330
47
100
AcDbEntity
  8
0
  6
Continuous
 62
     3
100
AcDbLine
 10
-59.50000000000065
 20
768.749998295793
 30
0.0
 11
85.49999999999957
 21
768.749998295793
 31
0.0
  0
LINE
  5
A2
330
47
100
AcDbEntity
  8
0
  6
Continuous
 62
     3
100
AcDbLine
 10
-59.50000000000067
 20
765.249998295793
 30
0.0
 11
85.49999999999962
 21
765.249998295793
 31
0.0
  0
LINE
  5
A3
330
47
100
AcDbEntity
  8
0
  6
Continuous
 62
     3
100
AcDbLine
 10
-59.50000000000068
 20
742.7499982957929
 30
0.0
 11
85.49999999999963
 21
742.7499982957929
 31
0.0
  0
LINE
  5
A4
330
47
100
AcDbEntity
  8
0
  6
Continuous
 62
     7
100
AcDbLine
 10
-59.00000000000071
 20
750.2499982957931
 30
0.0
 11
84.99999999999966
 21
750.2499982957931
 31
0.0
  0
LINE
  5
A5
330
47
100
AcDbEntity
  8
0
  6
Continuous
 62
     7
100
AcDbLine
 10
-59.00000000000077
 20
747.7499982957929
 30
0.0
 11
84.99999999999972
 21
747.7499982957929
 31
0.0
  0
LINE
  5
A6
330
47
100
AcDbEntity
  8
0
  6
Continuous
 62
     3
100
AcDbLine
 10
-59.50000000000075
 20
747.2499982957929
 30
0.0
 11
85.4999999999997
 21
747.2499982957929
 31
0.0
  0
LINE
  5
A7
330
47
100
AcDbEntity
  8
0
  6
Continuous
 62
     3
100
AcDbLine
 10
-59.50000000000071
 20
746.2499982957929
 30
0.0
 11
85.49999999999966
 21
746.2499982957929
 31
0.0
  0
LINE
  5
A8
330
47
100
AcDbEntity
  8
0
  6
Continuous
 62
     3
100
AcDbLine
 10
-59.50000000000074
 20
741.7499982957929
 30
0.0
 11
85.49999999999969
 21
741.7499982957929
 31
0.0
  0
LINE
  5
A9
330
47
100
AcDbEntity
  8
0
  6
Continuous
 62
     7
100
AcDbLine
 10
-59.00000000000074
 20
741.2499982957929
 30
0.0
 11
84.99999999999969
 21
741.2499982957929
 31
0.0
  0
LINE
  5
AA
330
47
100
AcDbEntity
  8
0
  6
Continuous
 62
     7
100
AcDbLine
 10
-59.00000000000073
 20
738.7499982957929
 30
0.0
 11
84.99999999999967
 21
738.7499982957929
 31
0.0
  0
LINE
  5
AB
330
47
100
AcDbEntity
  8
0
  6
Continuous
 62
     3
100
AcDbLine
 10
-59.5000000000008
 20
738.2499982957929
 30
0.0
 11
85.49999999999972
 21
738.2499982957929
 31
0.0
  0
LINE
  5
AC
330
47
100
AcDbEntity
  8
0
  6
Continuous
 62
     3
100
AcDbLine
 10
-59.50000000000075
 20
737.2499982957929
 30
0.0
 11
85.4999999999997
 21
737.2499982957929
 31
0.0
  0
LINE
  5
AD
330
47
100
AcDbEntity
  8
0
  6
Continuous
 62
     7
100
AcDbLine
 10
85.4999999999997
 20
737.2499982957929
 30
0.0
 11
85.49999999999972
 21
738.2499982957929
 31
0.0
  0
LINE
  5
AE
330
47
100
AcDbEntity
  8
0
  6
Continuous
 62
     7
100
AcDbLine
 10
85.49999999999966
 20
746.2499982957929
 30
0.0
 11
85.4999999999997
 21
747.2499982957929
 31
0.0
  0
LINE
  5
AF
330
47
100
AcDbEntity
  8
0
  6
Continuous
 62
     7
100
AcDbLine
 10
85.49999999999969
 20
741.7499982957929
 30
0.0
 11
85.49999999999963
 21
742.7499982957929
 31
0.0
  0
LINE
  5
B0
330
47
100
AcDbEntity
  8
0
  6
Continuous
 62
     3
100
AcDbLine
 10
-59.50000000000077
 20
723.7499982957929
 30
0.0
 11
85.49999999999972
 21
723.7499982957929
 31
0.0
  0
LINE
  5
B1
330
47
100
AcDbEntity
  8
0
  6
Continuous
 62
     3
100
AcDbLine
 10
-59.50000000000077
 20
728.2499982957929
 30
0.0
 11
85.49999999999972
 21
728.2499982957929
 31
0.0
  0
LINE
  5
B2
330
47
100
AcDbEntity
  8
0
  6
Continuous
 62
     7
100
AcDbLine
 10
85.49999999999972
 20
728.2499982957929
 30
0.0
 11
85.4999999999997
 21
729.2499982957929
 31
0.0
  0
LINE
  5
B3
330
47
100
AcDbEntity
  8
0
  6
Continuous
 62
     7
100
AcDbLine
 10
-59.0000000000008
 20
729.7499982957929
 30
0.0
 11
84.99999999999974
 21
729.7499982957929
 31
0.0
  0
LINE
  5
B4
330
47
100
AcDbEntity
  8
0
  6
Continuous
 62
     7
100
AcDbLine
 10
-59.0000000000008
 20
732.249998295793
 30
0.0
 11
84.99999999999974
 21
732.249998295793
 31
0.0
  0
LINE
  5
B5
330
47
100
AcDbEntity
  8
0
  6
Continuous
 62
     7
100
AcDbLine
 10
-59.00000000000077
 20
734.249998295793
 30
0.0
 11
84.99999999999969
 21
734.249998295793
 31
0.0
  0
LINE
  5
B6
330
47
100
AcDbEntity
  8
0
  6
Continuous
 62
     7
100
AcDbLine
 10
85.49999999999972
 20
723.7499982957929
 30
0.0
 11
85.4999999999997
 21
724.7499982957929
 31
0.0
  0
LINE
  5
B7
330
47
100
AcDbEntity
  8
0
  6
Continuous
 62
     3
100
AcDbLine
 10
-59.50000000000078
 20
733.7499982957929
 30
0.0
 11
85.49999999999973
 21
733.7499982957929
 31
0.0
  0
LINE
  5
B8
330
47
100
AcDbEntity
  8
0
  6
Continuous
 62
     3
100
AcDbLine
 10
-59.50000000000078
 20
732.7499982957929
 30
0.0
 11
85.49999999999973
 21
732.7499982957929
 31
0.0
  0
LINE
  5
B9
330
47
100
AcDbEntity
  8
0
  6
Continuous
 62
     7
100
AcDbLine
 10
85.49999999999973
 20
732.7499982957929
 30
0.0
 11
85.49999999999973
 21
733.7499982957929
 31
0.0
  0
LINE
  5
BA
330
47
100
AcDbEntity
  8
0
  6
Continuous
 62
     3
100
AcDbLine
 10
-59.50000000000073
 20
729.2499982957929
 30
0.0
 11
85.4999999999997
 21
729.2499982957929
 31
0.0
  0
LINE
  5
BB
330
47
100
AcDbEntity
  8
0
  6
Continuous
 62
     3
100
AcDbLine
 10
-59.50000000000073
 20
724.7499982957929
 30
0.0
 11
85.4999999999997
 21
724.7499982957929
 31
0.0
  0
LINE
  5
BC
330
47
100
AcDbEntity
  8
0
  6
Continuous
 62
     7
100
AcDbLine
 10
76.49999999999922
 20
789.2499982957929
 30
0.0
 11
85.49999999999946
 21
789.2499982957929
 31
0.0
  0
LINE
  5
BD
330
47
100
AcDbEntity
  8
0
  6
Continuous
 62
     7
100
AcDbLine
 10
85.49999999999946
 20
789.2499982957929
 30
0.0
 11
85.99999999999939
 21
789.2499982957929
 31
0.0
  0
LINE
  5
BE
330
47
100
AcDbEntity
  8
0
  6
Continuous
 62
     7
100
AcDbLine
 10
76.49999999999922
 20
791.2499982957929
 30
0.0
 11
85.49999999999947
 21
791.2499982957929
 31
0.0
  0
LINE
  5
BF
330
47
100
AcDbEntity
  8
0
  6
Continuous
 62
     7
100
AcDbLine
 10
76.49999999999922
 20
789.2499982957929
 30
0.0
 11
76.49999999999922
 21
791.2499982957929
 31
0.0
  0
LINE
  5
C0
330
47
100
AcDbEntity
  8
0
  6
Continuous
 62
     7
100
AcDbLine
 10
76.49999999999922
 20
791.2499982957929
 30
0.0
 11
76.49999999999903
 21
794.2219986436928
 31
0.0
  0
LINE
  5
C1
330
47
100
AcDbEntity
  8
0
  6
Continuous
 62
     7
100
AcDbLine
 10
85.49999999999947
 20
791.2499982957929
 30
0.0
 11
85.49999999999947
 21
794.2499982957929
 31
0.0
  0
LINE
  5
C2
330
47
100
AcDbEntity
  8
0
  6
Continuous
 62
     7
100
AcDbLine
 10
85.49999999999947
 20
791.2499982957929
 30
0.0
 11
85.99999999999939
 21
791.2499982957929
 31
0.0
  0
LINE
  5
C3
330
47
100
AcDbEntity
  8
0
  6
Continuous
 62
     7
100
AcDbLine
 10
85.99999999999939
 20
791.2499982957929
 30
0.0
 11
85.99999999999939
 21
789.2499982957929
 31
0.0
  0
LINE
  5
C4
330
47
100
AcDbEntity
  8
0
  6
Continuous
 62
     7
100
AcDbLine
 10
85.49999999999964
 20
750.7499982957929
 30
0.0
 11
85.49999999999964
 21
751.7499982957929
 31
0.0
  0
LINE
  5
C5
330
47
100
AcDbEntity
  8
0
  6
Continuous
 62
     7
100
AcDbLine
 10
85.49999999999953
 20
777.749998295793
 30
0.0
 11
85.49999999999952
 21
778.749998295793
 31
0.0
  0
LINE
  5
C6
330
47
100
AcDbEntity
  8
0
  6
Continuous
 62
     7
100
AcDbLine
 10
85.49999999999957
 20
768.749998295793
 30
0.0
 11
85.49999999999957
 21
769.749998295793
 31
0.0
  0
LINE
  5
C7
330
47
100
AcDbEntity
  8
0
  6
Continuous
 62
     7
100
AcDbLine
 10
85.49999999999956
 20
773.249998295793
 30
0.0
 11
85.49999999999957
 21
774.249998295793
 31
0.0
  0
LINE
  5
C8
330
47
100
AcDbEntity
  8
0
  6
Continuous
 62
     7
100
AcDbLine
 10
85.49999999999946
 20
782.249998295793
 30
0.0
 11
85.49999999999946
 21
789.2499982957929
 31
0.0
  0
LINE
  5
C9
330
47
100
AcDbEntity
  8
0
  6
Continuous
 62
     7
100
AcDbLine
 10
85.49999999999959
 20
764.249998295793
 30
0.0
 11
85.49999999999962
 21
765.249998295793
 31
0.0
  0
LINE
  5
CA
330
47
100
AcDbEntity
  8
0
  6
Continuous
 62
     3
100
AcDbLine
 10
-59.50000000000061
 20
773.249998295793
 30
0.0
 11
85.49999999999956
 21
773.249998295793
 31
0.0
  0
LINE
  5
CB
330
47
100
AcDbEntity
  8
0
  6
Continuous
 62
     3
100
AcDbLine
 10
-59.50000000000063
 20
774.249998295793
 30
0.0
 11
85.49999999999957
 21
774.249998295793
 31
0.0
  0
LINE
  5
CC
330
47
100
AcDbEntity
  8
0
  6
Continuous
 62
     7
100
AcDbLine
 10
-59.00000000000064
 20
774.7499982957929
 30
0.0
 11
84.99999999999959
 21
774.7499982957929
 31
0.0
  0
LINE
  5
CD
330
47
100
AcDbEntity
  8
0
  6
Continuous
 62
     7
100
AcDbLine
 10
-59.0000000000006
 20
777.249998295793
 30
0.0
 11
84.99999999999955
 21
777.249998295793
 31
0.0
  0
LINE
  5
CE
330
47
100
AcDbEntity
  8
0
  6
Continuous
 62
     3
100
AcDbLine
 10
-59.50000000000078
 20
720.249998295793
 30
0.0
 11
85.49999999999973
 21
720.249998295793
 31
0.0
  0
LINE
  5
CF
330
47
100
AcDbEntity
  8
0
  6
Continuous
 62
     3
100
AcDbLine
 10
-59.5000000000008
 20
718.249998295793
 30
0.0
 11
85.49999999999974
 21
718.249998295793
 31
0.0
  0
LINE
  5
D0
330
47
100
AcDbEntity
  8
0
  6
Continuous
 62
     7
100
AcDbLine
 10
-59.00000000000065
 20
765.749998295793
 30
0.0
 11
84.9999999999996
 21
765.749998295793
 31
0.0
  0
LINE
  5
D1
330
47
100
AcDbEntity
  8
0
  6
Continuous
 62
     7
100
AcDbLine
 10
-59.00000000000084
 20
723.249998295793
 30
0.0
 11
84.99999999999979
 21
723.249998295793
 31
0.0
  0
LINE
  5
D2
330
47
100
AcDbEntity
  8
0
  6
Continuous
 62
     7
100
AcDbLine
 10
-59.00000000000061
 20
770.249998295793
 30
0.0
 11
84.99999999999956
 21
770.249998295793
 31
0.0
  0
LINE
  5
D3
330
47
100
AcDbEntity
  8
0
  6
Continuous
 62
     7
100
AcDbLine
 10
-59.00000000000077
 20
736.749998295793
 30
0.0
 11
84.99999999999969
 21
736.749998295793
 31
0.0
  0
LINE
  5
D4
330
47
100
AcDbEntity
  8
0
  6
Continuous
 62
     7
100
AcDbLine
 10
-59.00000000000078
 20
745.749998295793
 30
0.0
 11
84.99999999999973
 21
745.749998295793
 31
0.0
  0
LINE
  5
D5
330
47
100
AcDbEntity
  8
0
  6
Continuous
 62
     7
100
AcDbLine
 10
-59.00000000000078
 20
743.249998295793
 30
0.0
 11
84.99999999999973
 21
743.249998295793
 31
0.0
  0
LINE
  5
D6
330
47
100
AcDbEntity
  8
0
  6
Continuous
 62
     7
100
AcDbLine
 10
-59.0000000000007
 20
752.2499982957929
 30
0.0
 11
84.99999999999964
 21
752.2499982957929
 31
0.0
  0
LINE
  5
D7
330
47
100
AcDbEntity
  8
0
  6
Continuous
 62
     7
100
AcDbLine
 10
-59.0000000000007
 20
754.749998295793
 30
0.0
 11
84.99999999999964
 21
754.749998295793
 31
0.0
  0
LINE
  5
D8
330
47
100
AcDbEntity
  8
0
  6
Continuous
 62
     7
100
AcDbLine
 10
-59.00000000000078
 20
725.2499982957929
 30
0.0
 11
84.99999999999973
 21
725.2499982957929
 31
0.0
  0
LINE
  5
D9
330
47
100
AcDbEntity
  8
0
  6
Continuous
 62
     7
100
AcDbLine
 10
-59.0000000000008
 20
727.7499982957928
 30
0.0
 11
84.99999999999972
 21
727.7499982957928
 31
0.0
  0
LINE
  5
DA
330
47
100
AcDbEntity
  8
0
  6
Continuous
 62
     7
100
AcDbLine
 10
-59.00000000000081
 20
720.749998295793
 30
0.0
 11
84.99999999999976
 21
720.749998295793
 31
0.0
  0
LINE
  5
DB
330
47
100
AcDbEntity
  8
0
  6
Continuous
 62
     7
100
AcDbLine
 10
85.49999999999974
 20
718.249998295793
 30
0.0
 11
85.49999999999973
 21
720.249998295793
 31
0.0
  0
LINE
  5
DC
330
47
100
AcDbEntity
  8
0
  6
Continuous
 62
     7
100
AcDbLine
 10
-59.00000000000081
 20
717.7499982957929
 30
0.0
 11
84.99999999999976
 21
717.7499982957929
 31
0.0
  0
LINE
  5
DD
330
47
100
AcDbEntity
  8
0
  6
Continuous
 62
     3
100
AcDbLine
 10
-59.50000000000058
 20
777.749998295793
 30
0.0
 11
85.49999999999953
 21
777.749998295793
 31
0.0
  0
LINE
  5
DE
330
47
100
AcDbEntity
  8
0
  6
Continuous
 62
     7
100
AcDbLine
 10
-21.985711369073
 20
789.2499982957929
 30
0.0
 11
47.98571136907081
 21
789.2499982957929
 31
0.0
  0
LINE
  5
DF
330
47
100
AcDbEntity
  8
0
  6
Continuous
 62
     7
100
AcDbLine
 10
-50.5000000000009
 20
789.2499982957929
 30
0.0
 11
-21.985711369073
 21
789.2499982957929
 31
0.0
  0
LINE
  5
E0
330
47
100
AcDbEntity
  8
0
  6
Continuous
 62
     7
100
AcDbLine
 10
-21.985711369073
 20
791.2499982957929
 30
0.0
 11
-21.985711369073
 21
794.2499982957929
 31
0.0
  0
LINE
  5
E1
330
47
100
AcDbEntity
  8
0
  6
Continuous
 62
     7
100
AcDbLine
 10
47.98571136907081
 20
789.2499982957929
 30
0.0
 11
47.98571136907081
 21
791.2499982957929
 31
0.0
  0
LINE
  5
E2
330
47
100
AcDbEntity
  8
0
  6
Continuous
 62
     7
100
AcDbLine
 10
47.98571136907081
 20
791.2499982957929
 30
0.0
 11
-21.985711369073
 21
791.2499982957929
 31
0.0
  0
LINE
  5
E3
330
47
100
AcDbEntity
  8
0
  6
Continuous
 62
     7
100
AcDbLine
 10
-21.985711369073
 20
791.2499982957929
 30
0.0
 11
-21.985711369073
 21
789.2499982957929
 31
0.0
  0
LINE
  5
E4
330
47
100
AcDbEntity
  8
0
  6
Continuous
 62
     7
100
AcDbLine
 10
76.49999999999903
 20
794.2219986436928
 30
0.0
 11
76.49999999999903
 21
794.2499982957929
 31
0.0
  0
LINE
  5
E5
330
47
100
AcDbEntity
  8
0
  6
Continuous
 62
     7
100
AcDbLine
 10
47.98571136907081
 20
791.2499982957929
 30
0.0
 11
47.98571136907081
 21
794.2499982957929
 31
0.0
  0
LINE
  5
E6
330
47
100
AcDbEntity
  8
0
  6
Continuous
 62
     7
100
AcDbLine
 10
47.98571136907081
 20
789.2499982957929
 30
0.0
 11
76.49999999999922
 21
789.2499982957929
 31
0.0
  0
LINE
  5
E7
330
47
100
AcDbEntity
  8
0
  6
Continuous
 62
     3
100
AcDbLine
 10
-59.5000000000006
 20
778.749998295793
 30
0.0
 11
85.49999999999952
 21
778.749998295793
 31
0.0
  0
LINE
  5
E8
330
47
100
AcDbEntity
  8
0
  6
Continuous
 62
     7
100
AcDbLine
 10
-59.00000000000055
 20
781.749998295793
 30
0.0
 11
84.9999999999995
 21
781.749998295793
 31
0.0
  0
LINE
  5
E9
330
47
100
AcDbEntity
  8
0
  6
Continuous
 62
     7
100
AcDbLine
 10
-59.00000000000057
 20
779.249998295793
 30
0.0
 11
84.99999999999952
 21
779.249998295793
 31
0.0
  0
LINE
  5
EA
330
47
100
AcDbEntity
  8
0
  6
Continuous
 62
     3
100
AcDbLine
 10
-59.50000000000054
 20
782.249998295793
 30
0.0
 11
85.49999999999946
 21
782.249998295793
 31
0.0
  0
LINE
  5
EB
330
47
100
AcDbEntity
  8
0
  6
Continuous
 62
     7
100
AcDbLine
 10
-61.00000000000053
 20
808.2499982957929
 30
0.0
 11
86.99999999999947
 21
808.2499982957929
 31
0.0
  0
LINE
  5
EC
330
47
100
AcDbEntity
  8
1
  6
DOT_CENTER
 62
     2
100
AcDbLine
 10
12.99999999999947
 20
813.066273723064
 30
0.0
 11
12.99999999999947
 21
711.0743372926972
 31
0.0
  0
ARC
  5
ED
330
47
100
AcDbEntity
  8
0
  6
Continuous
 62
     7
100
AcDbCircle
 10
-59.00000000000071
 20
748.999998295793
 30
0.0
 40
1.250000000000114
100
AcDbArc
 50
-90.0000000000026
 51
90.0
  0
ARC
  5
EE
330
47
100
AcDbEntity
  8
0
  6
Continuous
 62
     7
100
AcDbCircle
 10
-59.00000000000084
 20
721.999998295793
 30
0.0
 40
1.25
100
AcDbArc
 50
-89.9999999999987
 51
90.0
  0
ARC
  5
EF
330
47
100
AcDbEntity
  8
0
  6
Continuous
 62
     7
100
AcDbCircle
 10
-59.00000000000073
 20
738.2499982957929
 30
0.0
 40
0.5
100
AcDbArc
 50
90.0
 51
180.0
  0
ARC
  5
F0
330
47
100
AcDbEntity
  8
0
  6
Continuous
 62
     7
100
AcDbCircle
 10
-59.0000000000007
 20
742.749998295793
 30
0.0
 40
0.5
100
AcDbArc
 50
90.00000000000895
 51
-179.999999999987
  0
ARC
  5
F1
330
47
100
AcDbEntity
  8
0
  6
Continuous
 62
     7
100
AcDbCircle
 10
-59.00000000000074
 20
737.2499982957929
 30
0.0
 40
0.5000000000000142
100
AcDbArc
 50
180.0
 51
-90.00000000000325
  0
ARC
  5
F2
330
47
100
AcDbEntity
  8
0
  6
Continuous
 62
     7
100
AcDbCircle
 10
-59.00000000000074
 20
741.7499982957929
 30
0.0
 40
0.5
100
AcDbArc
 50
180.0
 51
-90.0
  0
ARC
  5
F3
330
47
100
AcDbEntity
  8
0
  6
Continuous
 62
     7
100
AcDbCircle
 10
-59.00000000000075
 20
733.7499982957929
 30
0.0
 40
0.5000000000001137
100
AcDbArc
 50
90.00000000000163
 51
180.0
  0
ARC
  5
F4
330
47
100
AcDbEntity
  8
0
  6
Continuous
 62
     7
100
AcDbCircle
 10
-59.00000000000057
 20
780.499998295793
 30
0.0
 40
1.25
100
AcDbArc
 50
-90.0
 51
89.99999999999902
  0
ARC
  5
F5
330
47
100
AcDbEntity
  8
0
  6
Continuous
 62
     7
100
AcDbCircle
 10
-59.00000000000064
 20
775.999998295793
 30
0.0
 40
1.250000000000114
100
AcDbArc
 50
-90.0
 51
89.99999999999805
  0
ARC
  5
F6
330
47
100
AcDbEntity
  8
0
  6
Continuous
 62
     7
100
AcDbCircle
 10
-59.0000000000006
 20
774.249998295793
 30
0.0
 40
0.4999999999998863
100
AcDbArc
 50
90.00000000000489
 51
180.0
  0
ARC
  5
F7
330
47
100
AcDbEntity
  8
0
  6
Continuous
 62
     7
100
AcDbCircle
 10
-59.0000000000006
 20
777.749998295793
 30
0.0
 40
0.4999999999999858
100
AcDbArc
 50
180.0
 51
-90.0
  0
ARC
  5
F8
330
47
100
AcDbEntity
  8
0
  6
Continuous
 62
     7
100
AcDbCircle
 10
-59.00000000000055
 20
773.249998295793
 30
0.0
 40
0.500000000000064
100
AcDbArc
 50
180.0
 51
-90.00000000000733
  0
ARC
  5
F9
330
47
100
AcDbEntity
  8
0
  6
Continuous
 62
     7
100
AcDbCircle
 10
-59.00000000000065
 20
778.749998295793
 30
0.0
 40
0.5
100
AcDbArc
 50
89.99999999999105
 51
180.0
  0
ARC
  5
FA
330
47
100
AcDbEntity
  8
0
  6
Continuous
 62
     7
100
AcDbCircle
 10
-59.00000000000061
 20
760.749998295793
 30
0.0
 40
0.5
100
AcDbArc
 50
89.99999999999675
 51
180.0
  0
ARC
  5
FB
330
47
100
AcDbEntity
  8
0
  6
Continuous
 62
     7
100
AcDbCircle
 10
-59.00000000000064
 20
764.249998295793
 30
0.0
 40
0.5
100
AcDbArc
 50
180.0
 51
-89.99999999999349
  0
ARC
  5
FC
330
47
100
AcDbEntity
  8
0
  6
Continuous
 62
     7
100
AcDbCircle
 10
-59.00000000000064
 20
769.749998295793
 30
0.0
 40
0.5
100
AcDbArc
 50
89.99999999999675
 51
180.0
  0
ARC
  5
FD
330
47
100
AcDbEntity
  8
0
  6
Continuous
 62
     7
100
AcDbCircle
 10
-59.00000000000065
 20
765.249998295793
 30
0.0
 40
0.5
100
AcDbArc
 50
90.0
 51
180.0
  0
ARC
  5
FE
330
47
100
AcDbEntity
  8
0
  6
Continuous
 62
     7
100
AcDbCircle
 10
-59.00000000000067
 20
768.749998295793
 30
0.0
 40
0.4999999999999787
100
AcDbArc
 50
180.0
 51
-89.99999999999186
  0
ARC
  5
FF
330
47
100
AcDbEntity
  8
0
  6
Continuous
 62
     7
100
AcDbCircle
 10
-59.0000000000007
 20
759.7499982957929
 30
0.0
 40
0.4999999999999432
100
AcDbArc
 50
179.999999999987
 51
-90.0
  0
ARC
  5
100
330
47
100
AcDbEntity
  8
0
  6
Continuous
 62
     7
100
AcDbCircle
 10
-59.00000000000055
 20
782.249998295793
 30
0.0
 40
0.4999999999999929
100
AcDbArc
 50
180.0
 51
-90.0
  0
ARC
  5
101
330
47
100
AcDbEntity
  8
0
  6
Continuous
 62
     7
100
AcDbCircle
 10
-59.0000000000006
 20
766.999998295793
 30
0.0
 40
1.25
100
AcDbArc
 50
-90.00000000000227
 51
90.0
  0
ARC
  5
102
330
47
100
AcDbEntity
  8
0
  6
Continuous
 62
     7
100
AcDbCircle
 10
-59.00000000000061
 20
757.999998295793
 30
0.0
 40
1.250000000000114
100
AcDbArc
 50
-90.00000000000131
 51
90.00000000000423
  0
ARC
  5
103
330
47
100
AcDbEntity
  8
0
  6
Continuous
 62
     7
100
AcDbCircle
 10
-59.0000000000007
 20
753.499998295793
 30
0.0
 40
1.250000000000114
100
AcDbArc
 50
-90.0
 51
90.0
  0
ARC
  5
104
330
47
100
AcDbEntity
  8
0
  6
Continuous
 62
     7
100
AcDbCircle
 10
-59.00000000000058
 20
762.499998295793
 30
0.0
 40
1.25
100
AcDbArc
 50
-90.0
 51
90.0
  0
ARC
  5
105
330
47
100
AcDbEntity
  8
0
  6
Continuous
 62
     7
100
AcDbCircle
 10
-59.00000000000064
 20
756.2499982957929
 30
0.0
 40
0.5
100
AcDbArc
 50
90.0
 51
180.0
  0
ARC
  5
106
330
47
100
AcDbEntity
  8
0
  6
Continuous
 62
     7
100
AcDbCircle
 10
-59.00000000000067
 20
750.749998295793
 30
0.0
 40
0.500000000000064
100
AcDbArc
 50
-179.999999999987
 51
-90.00000000000489
  0
ARC
  5
107
330
47
100
AcDbEntity
  8
0
  6
Continuous
 62
     7
100
AcDbCircle
 10
-59.00000000000077
 20
747.249998295793
 30
0.0
 40
0.4999999999998863
100
AcDbArc
 50
90.0
 51
-179.999999999987
  0
ARC
  5
108
330
47
100
AcDbEntity
  8
0
  6
Continuous
 62
     7
100
AcDbCircle
 10
-59.00000000000068
 20
755.249998295793
 30
0.0
 40
0.5000000000000497
100
AcDbArc
 50
180.0
 51
-90.00000000000244
  0
ARC
  5
109
330
47
100
AcDbEntity
  8
0
  6
Continuous
 62
     7
100
AcDbCircle
 10
-59.0000000000007
 20
751.749998295793
 30
0.0
 40
0.4999999999998863
100
AcDbArc
 50
90.0
 51
-179.999999999987
  0
ARC
  5
10A
330
47
100
AcDbEntity
  8
0
  6
Continuous
 62
     7
100
AcDbCircle
 10
-59.0000000000007
 20
746.249998295793
 30
0.0
 40
0.5000000000000071
100
AcDbArc
 50
-179.999999999987
 51
-90.00000000000895
  0
ARC
  5
10B
330
47
100
AcDbEntity
  8
0
  6
Continuous
 62
     7
100
AcDbCircle
 10
-59.00000000000073
 20
739.999998295793
 30
0.0
 40
1.250000000000114
100
AcDbArc
 50
-90.0
 51
90.00000000000033
  0
ARC
  5
10C
330
47
100
AcDbEntity
  8
0
  6
Continuous
 62
     7
100
AcDbCircle
 10
-59.00000000000077
 20
735.499998295793
 30
0.0
 40
1.25
100
AcDbArc
 50
-90.0
 51
90.0
  0
ARC
  5
10D
330
47
100
AcDbEntity
  8
0
  6
Continuous
 62
     7
100
AcDbCircle
 10
-59.00000000000078
 20
744.499998295793
 30
0.0
 40
1.25
100
AcDbArc
 50
-90.0
 51
90.0
  0
ARC
  5
10E
330
47
100
AcDbEntity
  8
0
  6
Continuous
 62
     7
100
AcDbCircle
 10
-59.0000000000008
 20
730.999998295793
 30
0.0
 40
1.250000000000114
100
AcDbArc
 50
-90.0
 51
90.0
  0
ARC
  5
10F
330
47
100
AcDbEntity
  8
0
  6
Continuous
 62
     7
100
AcDbCircle
 10
-59.0000000000008
 20
726.4999982957928
 30
0.0
 40
1.249999999999886
100
AcDbArc
 50
-89.99999999999902
 51
90.0
  0
ARC
  5
110
330
47
100
AcDbEntity
  8
0
  6
Continuous
 62
     7
100
AcDbCircle
 10
-59.00000000000078
 20
724.7499982957929
 30
0.0
 40
0.5
100
AcDbArc
 50
90.0
 51
180.0
  0
ARC
  5
111
330
47
100
AcDbEntity
  8
0
  6
Continuous
 62
     7
100
AcDbCircle
 10
-59.0000000000008
 20
729.2499982957929
 30
0.0
 40
0.5
100
AcDbArc
 50
90.0
 51
180.0
  0
ARC
  5
112
330
47
100
AcDbEntity
  8
0
  6
Continuous
 62
     7
100
AcDbCircle
 10
-59.00000000000078
 20
732.7499982957929
 30
0.0
 40
0.5
100
AcDbArc
 50
180.0
 51
-90.00000000000244
  0
ARC
  5
113
330
47
100
AcDbEntity
  8
0
  6
Continuous
 62
     7
100
AcDbCircle
 10
-59.00000000000077
 20
728.2499982957929
 30
0.0
 40
0.5
100
AcDbArc
 50
180.0
 51
-90.00000000000406
  0
ARC
  5
114
330
47
100
AcDbEntity
  8
0
  6
Continuous
 62
     7
100
AcDbCircle
 10
-59.00000000000077
 20
723.7499982957929
 30
0.0
 40
0.5
100
AcDbArc
 50
180.0
 51
-90.00000000000814
  0
ARC
  5
115
330
47
100
AcDbEntity
  8
0
  6
Continuous
 62
     7
100
AcDbCircle
 10
-59.00000000000081
 20
718.2499982957929
 30
0.0
 40
0.4999999999999929
100
AcDbArc
 50
179.999999999987
 51
-90.0
  0
ARC
  5
116
330
47
100
AcDbEntity
  8
0
  6
Continuous
 62
     7
100
AcDbCircle
 10
-59.00000000000081
 20
720.249998295793
 30
0.0
 40
0.5
100
AcDbArc
 50
90.0
 51
180.0
  0
ARC
  5
117
330
47
100
AcDbEntity
  8
0
  6
Continuous
 62
     7
100
AcDbCircle
 10
84.99999999999966
 20
748.999998295793
 30
0.0
 40
1.250000000000114
100
AcDbArc
 50
90.0
 51
-89.99999999999739
  0
ARC
  5
118
330
47
100
AcDbEntity
  8
0
  6
Continuous
 62
     7
100
AcDbCircle
 10
84.99999999999964
 20
739.999998295793
 30
0.0
 40
1.249999999999886
100
AcDbArc
 50
89.99999999999805
 51
-89.9999999999987
  0
ARC
  5
119
330
47
100
AcDbEntity
  8
0
  6
Continuous
 62
     7
100
AcDbCircle
 10
84.99999999999955
 20
766.999998295793
 30
0.0
 40
1.25
100
AcDbArc
 50
90.0
 51
-89.99999999999739
  0
ARC
  5
11A
330
47
100
AcDbEntity
  8
0
  6
Continuous
 62
     7
100
AcDbCircle
 10
84.99999999999956
 20
757.999998295793
 30
0.0
 40
1.25
100
AcDbArc
 50
89.99999999999609
 51
-89.9999999999987
  0
ARC
  5
11B
330
47
100
AcDbEntity
  8
0
  6
Continuous
 62
     7
100
AcDbCircle
 10
-59.00000000000061
 20
771.499998295793
 30
0.0
 40
1.25
100
AcDbArc
 50
-90.0
 51
90.0
  0
ARC
  5
11C
330
47
100
AcDbEntity
  8
0
  6
Continuous
 62
     7
100
AcDbCircle
 10
84.99999999999956
 20
771.499998295793
 30
0.0
 40
1.25
100
AcDbArc
 50
90.0
 51
-90.0
  0
ARC
  5
11D
330
47
100
AcDbEntity
  8
0
  6
Continuous
 62
     7
100
AcDbCircle
 10
84.99999999999959
 20
756.2499982957929
 30
0.0
 40
0.5000000000000426
100
AcDbArc
 50
0.0
 51
90.0
  0
ARC
  5
11E
330
47
100
AcDbEntity
  8
0
  6
Continuous
 62
     7
100
AcDbCircle
 10
84.99999999999956
 20
760.749998295793
 30
0.0
 40
0.5000000000000426
100
AcDbArc
 50
0.0
 51
90.00000000000325
  0
ARC
  5
11F
330
47
100
AcDbEntity
  8
0
  6
Continuous
 62
     7
100
AcDbCircle
 10
84.99999999999964
 20
759.7499982957929
 30
0.0
 40
0.4999999999998863
100
AcDbArc
 50
-90.0
 51
0.00000000001303
  0
ARC
  5
120
330
47
100
AcDbEntity
  8
0
  6
Continuous
 62
     7
100
AcDbCircle
 10
84.99999999999959
 20
769.749998295793
 30
0.0
 40
0.4999999999999858
100
AcDbArc
 50
0.0
 51
90.00000000000325
  0
ARC
  5
121
330
47
100
AcDbEntity
  8
0
  6
Continuous
 62
     7
100
AcDbCircle
 10
84.99999999999963
 20
755.249998295793
 30
0.0
 40
0.5
100
AcDbArc
 50
-89.99999999999837
 51
0.0
  0
ARC
  5
122
330
47
100
AcDbEntity
  8
0
  6
Continuous
 62
     7
100
AcDbCircle
 10
84.99999999999964
 20
751.749998295793
 30
0.0
 40
0.5
100
AcDbArc
 50
-0.00000000001303
 51
90.0
  0
ARC
  5
123
330
47
100
AcDbEntity
  8
0
  6
Continuous
 62
     7
100
AcDbCircle
 10
84.99999999999962
 20
768.749998295793
 30
0.0
 40
0.5
100
AcDbArc
 50
-90.00000000000814
 51
0.0
  0
ARC
  5
124
330
47
100
AcDbEntity
  8
0
  6
Continuous
 62
     7
100
AcDbCircle
 10
84.99999999999953
 20
762.499998295793
 30
0.0
 40
1.249999999999886
100
AcDbArc
 50
90.0
 51
-90.0
  0
ARC
  5
125
330
47
100
AcDbEntity
  8
0
  6
Continuous
 62
     7
100
AcDbCircle
 10
84.99999999999959
 20
764.249998295793
 30
0.0
 40
0.5000000000001137
100
AcDbArc
 50
-90.00000000000651
 51
0.0
  0
ARC
  5
126
330
47
100
AcDbEntity
  8
0
  6
Continuous
 62
     7
100
AcDbCircle
 10
84.99999999999962
 20
750.749998295793
 30
0.0
 40
0.4999999999998863
100
AcDbArc
 50
-89.99999999999511
 51
-0.00000000001303
  0
ARC
  5
127
330
47
100
AcDbEntity
  8
0
  6
Continuous
 62
     7
100
AcDbCircle
 10
84.99999999999972
 20
747.249998295793
 30
0.0
 40
0.4999999999999858
100
AcDbArc
 50
-0.00000000001303
 51
90.0
  0
ARC
  5
128
330
47
100
AcDbEntity
  8
0
  6
Continuous
 62
     7
100
AcDbCircle
 10
84.99999999999964
 20
746.249998295793
 30
0.0
 40
0.5
100
AcDbArc
 50
-89.99999999999022
 51
-0.00000000001303
  0
ARC
  5
129
330
47
100
AcDbEntity
  8
0
  6
Continuous
 62
     7
100
AcDbCircle
 10
84.99999999999967
 20
738.2499982957929
 30
0.0
 40
0.5000000000000426
100
AcDbArc
 50
0.0
 51
90.0
  0
ARC
  5
12A
330
47
100
AcDbEntity
  8
0
  6
Continuous
 62
     7
100
AcDbCircle
 10
84.99999999999969
 20
741.7499982957929
 30
0.0
 40
0.5
100
AcDbArc
 50
-90.0
 51
0.0
  0
ARC
  5
12B
330
47
100
AcDbEntity
  8
0
  6
Continuous
 62
     7
100
AcDbCircle
 10
84.99999999999972
 20
728.2499982957929
 30
0.0
 40
0.5000000000001137
100
AcDbArc
 50
-90.0
 51
0.0
  0
ARC
  5
12C
330
47
100
AcDbEntity
  8
0
  6
Continuous
 62
     7
100
AcDbCircle
 10
84.99999999999969
 20
735.499998295793
 30
0.0
 40
1.25
100
AcDbArc
 50
90.0
 51
-90.0
  0
ARC
  5
12D
330
47
100
AcDbEntity
  8
0
  6
Continuous
 62
     7
100
AcDbCircle
 10
84.99999999999974
 20
730.999998295793
 30
0.0
 40
1.25
100
AcDbArc
 50
90.0
 51
-90.0
  0
ARC
  5
12E
330
47
100
AcDbEntity
  8
0
  6
Continuous
 62
     7
100
AcDbCircle
 10
84.9999999999997
 20
733.7499982957929
 30
0.0
 40
0.5000000000000284
100
AcDbArc
 50
0.0
 51
90.00000000000163
  0
ARC
  5
12F
330
47
100
AcDbEntity
  8
0
  6
Continuous
 62
     7
100
AcDbCircle
 10
84.99999999999974
 20
729.2499982957929
 30
0.0
 40
0.4999999999999574
100
AcDbArc
 50
0.0
 51
90.0
  0
ARC
  5
130
330
47
100
AcDbEntity
  8
0
  6
Continuous
 62
     7
100
AcDbCircle
 10
84.99999999999973
 20
732.7499982957929
 30
0.0
 40
0.4999999999998863
100
AcDbArc
 50
-89.99999999999837
 51
0.0
  0
ARC
  5
131
330
47
100
AcDbEntity
  8
0
  6
Continuous
 62
     7
100
AcDbCircle
 10
84.99999999999976
 20
720.249998295793
 30
0.0
 40
0.4999999999999716
100
AcDbArc
 50
0.0
 51
90.0
  0
ARC
  5
132
330
47
100
AcDbEntity
  8
0
  6
Continuous
 62
     7
100
AcDbCircle
 10
84.99999999999979
 20
721.999998295793
 30
0.0
 40
1.25
100
AcDbArc
 50
90.0
 51
-90.00000000000131
  0
ARC
  5
133
330
47
100
AcDbEntity
  8
0
  6
Continuous
 62
     7
100
AcDbCircle
 10
84.99999999999952
 20
780.499998295793
 30
0.0
 40
1.25
100
AcDbArc
 50
90.00000000000065
 51
-90.0
  0
ARC
  5
134
330
47
100
AcDbEntity
  8
0
  6
Continuous
 62
     7
100
AcDbCircle
 10
84.99999999999959
 20
775.999998295793
 30
0.0
 40
1.25
100
AcDbArc
 50
90.00000000000196
 51
-90.0
  0
ARC
  5
135
330
47
100
AcDbEntity
  8
0
  6
Continuous
 62
     7
100
AcDbCircle
 10
84.99999999999955
 20
774.249998295793
 30
0.0
 40
0.5000000000000284
100
AcDbArc
 50
0.0
 51
89.99999999999511
  0
ARC
  5
136
330
47
100
AcDbEntity
  8
0
  6
Continuous
 62
     7
100
AcDbCircle
 10
84.99999999999955
 20
777.749998295793
 30
0.0
 40
0.5
100
AcDbArc
 50
-90.0
 51
0.0
  0
ARC
  5
137
330
47
100
AcDbEntity
  8
0
  6
Continuous
 62
     7
100
AcDbCircle
 10
84.9999999999995
 20
773.249998295793
 30
0.0
 40
0.5
100
AcDbArc
 50
-89.99999999999349
 51
0.0
  0
ARC
  5
138
330
47
100
AcDbEntity
  8
0
  6
Continuous
 62
     7
100
AcDbCircle
 10
84.99999999999957
 20
778.749998295793
 30
0.0
 40
0.4999999999999432
100
AcDbArc
 50
0.0
 51
90.00000000000651
  0
ARC
  5
139
330
47
100
AcDbEntity
  8
0
  6
Continuous
 62
     7
100
AcDbCircle
 10
84.99999999999964
 20
742.749998295793
 30
0.0
 40
0.4999999999999858
100
AcDbArc
 50
-0.00000000001303
 51
89.99999999999022
  0
ARC
  5
13A
330
47
100
AcDbEntity
  8
0
  6
Continuous
 62
     7
100
AcDbCircle
 10
84.99999999999969
 20
737.2499982957929
 30
0.0
 40
0.4999999999998863
100
AcDbArc
 50
-90.0
 51
0.0
  0
ARC
  5
13B
330
47
100
AcDbEntity
  8
0
  6
Continuous
 62
     7
100
AcDbCircle
 10
84.99999999999972
 20
726.4999982957928
 30
0.0
 40
1.25
100
AcDbArc
 50
90.0
 51
-89.99999999999935
  0
ARC
  5
13C
330
47
100
AcDbEntity
  8
0
  6
Continuous
 62
     7
100
AcDbCircle
 10
84.99999999999973
 20
724.7499982957929
 30
0.0
 40
0.4999999999999716
100
AcDbArc
 50
0.0
 51
90.0
  0
ARC
  5
13D
330
47
100
AcDbEntity
  8
0
  6
Continuous
 62
     7
100
AcDbCircle
 10
84.99999999999972
 20
723.7499982957929
 30
0.0
 40
0.4999999999998863
100
AcDbArc
 50
-89.99999999999186
 51
0.0
  0
ARC
  5
13E
330
47
100
AcDbEntity
  8
0
  6
Continuous
 62
     7
100
AcDbCircle
 10
84.99999999999973
 20
744.499998295793
 30
0.0
 40
1.25
100
AcDbArc
 50
90.0
 51
-90.0
  0
ARC
  5
13F
330
47
100
AcDbEntity
  8
0
  6
Continuous
 62
     7
100
AcDbCircle
 10
84.9999999999995
 20
782.249998295793
 30
0.0
 40
0.5
100
AcDbArc
 50
-90.0
 51
0.0
  0
ARC
  5
140
330
47
100
AcDbEntity
  8
0
  6
Continuous
 62
     7
100
AcDbCircle
 10
84.9999999999996
 20
765.249998295793
 30
0.0
 40
0.5000000000000142
100
AcDbArc
 50
0.0
 51
90.0
  0
ARC
  5
141
330
47
100
AcDbEntity
  8
0
  6
Continuous
 62
     7
100
AcDbCircle
 10
84.99999999999964
 20
753.499998295793
 30
0.0
 40
1.25
100
AcDbArc
 50
90.0
 51
-90.0
  0
ARC
  5
142
330
47
100
AcDbEntity
  8
0
  6
Continuous
 62
     7
100
AcDbCircle
 10
84.99999999999976
 20
718.2499982957929
 30
0.0
 40
0.5
100
AcDbArc
 50
-90.0
 51
0.00000000001303
  0
SPLINE
  5
143
330
47
100
AcDbEntity
  8
0
  6
Continuous
 62
     7
100
AcDbSpline
210
0.0
220
0.0
230
1.0
 70
     8
 71
     3
 72
    11
 73
     7
 74
     5
 42
0.0000000001
 43
0.0000000001
 44
0.00000001
 40
0.0
 40
0.0
 40
0.0
 40
0.0
 40
7.185392004040572
 40
14.47669218062013
 40
21.47313052678661
 40
28.948933788248
 40
28.948933788248
 40
28.948933788248
 40
28.948933788248
 10
-21.98571136907301
 20
789.2499982957929
 30
0.0
 10
-24.35616960539011
 20
789.5934470751921
 30
0.0
 10
-29.13202514603162
 20
790.2854068536391
 30
0.0
 10
-36.18947866380991
 20
791.4824980166093
 30
0.0
 10
-43.32580158653957
 20
792.7878528752142
 30
0.0
 10
-48.05637022716151
 20
793.733509045765
 30
0.0
 10
-50.50000000000118
 20
794.2219986436928
 30
0.0
 11
-21.98571136907301
 21
789.2499982957929
 31
0.0
 11
-29.09268069486224
 21
790.30869808989
 31
0.0
 11
-36.28355485429625
 21
791.5146778111844
 31
0.0
 11
-43.16513011384542
 21
792.7772432466646
 31
0.0
 11
-50.50000000000118
 21
794.2219986436928
 31
0.0
  0
SPLINE
  5
144
330
47
100
AcDbEntity
  8
0
  6
Continuous
 62
     7
100
AcDbSpline
210
0.0
220
0.0
230
1.0
 70
     8
 71
     3
 72
    11
 73
     7
 74
     5
 42
0.0000000001
 43
0.0000000001
 44
0.00000001
 40
0.0
 40
0.0
 40
0.0
 40
0.0
 40
7.480812081716427
 40
14.47943452872481
 40
21.83465503192063
 40
28.94893445477314
 40
28.94893445477314
 40
28.94893445477314
 40
28.94893445477314
 10
76.49999999999903
 20
794.2219986436928
 30
0.0
 10
74.05473165712266
 20
793.7331878755876
 30
0.0
 10
69.32180928331022
 20
792.7870735451645
 30
0.0
 10
62.1621551311958
 20
791.4775276334954
 30
0.0
 10
55.10624329364868
 20
790.2812820435995
 30
0.0
 10
50.33272636268769
 20
789.5899221167115
 30
0.0
 10
47.98571136907081
 20
789.2499982957929
 30
0.0
 11
76.49999999999903
 21
794.2219986436928
 31
0.0
 11
69.16020943149108
 21
792.7763071785467
 31
0.0
 11
62.27647085347306
 21
791.5134297714815
 31
0.0
 11
55.02244433842564
 21
790.2975482107934
 31
0.0
 11
47.98571136907081
 21
789.2499982957929
 31
0.0
  0
ENDBLK
  5
49
330
47
100
AcDbEntity
  8
0
100
AcDbBlockEnd
  0
BLOCK
  5
4C
330
4A
100
AcDbEntity
  8
0
100
AcDbBlockBegin
  2
Bgr_HL66_9
 70
     0
 71
     0
 10
-61.00000000000053
 20
717.7499982957929
 30
0.0
  3
Bgr_HL66_9
  1

  0
INSERT
  5
4B
330
4A
100
AcDbEntity
  8
0
100
AcDbBlockReference
  2
HL062B_2E_Aufsatzrahmen__1
 10
-61.00000000000053
 20
717.7499982957929
 30
0.0
  0
ENDBLK
  5
4D
330
4A
100
AcDbEntity
  8
0
100
AcDbBlockEnd
  0
BLOCK
  5
50
330
4E
100
AcDbEntity
  8
0
100
AcDbBlockBegin
  2
Untsicht1
 70
     0
 71
     0
 10
13.0
 20
762.9999999997549
 30
0.0
  3
Untsicht1
  1

  0
INSERT
  5
4F
330
4E
100
AcDbEntity
  8
0
100
AcDbBlockReference
  2
Bgr_HL66_9
 10
-61.00000000000053
 20
717.7499982957929
 30
0.0
  0
DIMENSION
  5
150
330
4E
100
AcDbEntity
  8
1
100
AcDbDimension
  2
*D10
 10
86.99999999999947
 20
819.99294849797
 30
0.0
 11
1.67065235879551
 21
825.49294849797
 31
0.0
 70
    32
  1
150
 71
     5
 42
-1.0
 53
0.00013888888889
  3
ME10_DIM_10
100
AcDbAlignedDimension
 13
-61.00000000000053
 23
808.2499982957929
 33
0.0
 14
86.99999999999947
 24
808.2499982957929
 34
0.0
100
AcDbRotatedDimension
  0
DIMENSION
  5
15B
330
4E
100
AcDbEntity
  8
1
100
AcDbDimension
  2
*D11
 10
85.49999999999972
 20
695.371127757165
 30
0.0
 11
-3.15115597338387
 21
700.871127757165
 31
0.0
 70
    33
  1
<>
 71
     5
 42
-1.0
 53
0.00013888888889
  3
ME10_DIM_11
100
AcDbAlignedDimension
 13
-59.50000000000077
 23
723.7499982957929
 33
0.0
 14
85.49999999999972
 24
723.7499982957929
 34
0.0
  0
DIMENSION
  5
166
330
4E
100
AcDbEntity
  8
1
100
AcDbDimension
  2
*D12
 10
101.234347228699
 20
808.2499982957929
 30
0.0
 11
95.734347228699
 21
764.092266096931
 31
0.0
 70
    32
  1
90
 71
     5
 42
-1.0
 53
90.0
  3
ME10_DIM_12
100
AcDbAlignedDimension
 13
84.99999999999976
 23
717.7499982957929
 33
0.0
 14
86.99999999999947
 24
808.2499982957929
 34
0.0
 50
90.0
100
AcDbRotatedDimension
  0
ENDBLK
  5
51
330
4E
100
AcDbEntity
  8
0
100
AcDbBlockEnd
  0
BLOCK
  5
53
330
52
100
AcDbEntity
  8
0
100
AcDbBlockBegin
  2
HL0317_1E_Einlaufrost
 70
     0
 71
     0
 10
-56.00000000000092
 20
530.4264527951988
 30
0.0
  3
HL0317_1E_Einlaufrost
  1

  0
LINE
  5
167
330
52
100
AcDbEntity
  8
0
  6
Continuous
 62
     7
100
AcDbLine
 10
65.45600000002537
 20
639.9044527951714
 30
0.0
 11
65.45600000002105
 21
558.9044527951714
 31
0.0
  0
LINE
  5
168
330
52
100
AcDbEntity
  8
0
  6
Continuous
 62
     7
100
AcDbLine
 10
81.95599999999922
 20
664.5924527951988
 30
0.0
 11
81.95599999999922
 21
534.2164527951986
 31
0.0
  0
LINE
  5
169
330
52
100
AcDbEntity
  8
0
  6
Continuous
 62
     3
100
AcDbLine
 10
-49.00000000002298
 20
639.9044527951824
 30
0.0
 11
-46.50000000002433
 21
639.9044527951824
 31
0.0
  0
LINE
  5
16A
330
52
100
AcDbEntity
  8
0
  6
Continuous
 62
     3
100
AcDbLine
 10
-53.50000000000092
 20
664.5924527951988
 30
0.0
 11
-56.00000000000092
 21
664.5924527951988
 31
0.0
  0
LINE
  5
16B
330
52
100
AcDbEntity
  8
0
  6
Continuous
 62
     3
100
AcDbLine
 10
-39.5000000000232
 20
639.9044527951824
 30
0.0
 11
-37.00000000002297
 21
639.9044527951824
 31
0.0
  0
LINE
  5
16C
330
52
100
AcDbEntity
  8
0
  6
Continuous
 62
     3
100
AcDbLine
 10
-43.00000000002297
 20
645.9044527951822
 30
0.0
 11
-43.00000000002298
 21
643.4044527951822
 31
0.0
  0
LINE
  5
16D
330
52
100
AcDbEntity
  8
0
  6
Continuous
 62
     3
100
AcDbLine
 10
-53.12216774773152
 20
665.5046205429294
 30
0.0
 11
-54.88993470069752
 21
667.2723874958953
 31
0.0
  0
LINE
  5
16E
330
52
100
AcDbEntity
  8
0
  6
Continuous
 62
     3
100
AcDbLine
 10
78.16599999999927
 20
665.8824527951988
 30
0.0
 11
-52.21000000000095
 21
665.8824527951988
 31
0.0
  0
LINE
  5
16F
330
52
100
AcDbEntity
  8
0
  6
Continuous
 62
     7
100
AcDbLine
 10
-52.21000000000095
 20
668.3824527951987
 30
0.0
 11
78.16599999999927
 21
668.3824527951988
 31
0.0
  0
LINE
  5
170
330
52
100
AcDbEntity
  8
0
  6
Continuous
 62
     7
100
AcDbLine
 10
53.47799999999371
 20
546.9264527951644
 30
0.0
 11
-27.52200000000629
 21
546.926452795155
 31
0.0
  0
LINE
  5
171
330
52
100
AcDbEntity
  8
0
  6
Continuous
 62
     3
100
AcDbLine
 10
53.47800000000461
 20
649.3824527951988
 30
0.0
 11
-27.52199999999539
 21
649.3824527951988
 31
0.0
  0
LINE
  5
172
330
52
100
AcDbEntity
  8
0
  6
Continuous
 62
     7
100
AcDbLine
 10
-11.52199999999722
 20
635.8824527951988
 30
0.0
 11
37.47800000000279
 21
635.8824527951988
 31
0.0
  0
LINE
  5
173
330
52
100
AcDbEntity
  8
0
  6
Continuous
 62
     3
100
AcDbLine
 10
-11.5219999999972
 20
645.3824527951988
 30
0.0
 11
37.47800000000279
 21
645.3824527951988
 31
0.0
  0
LINE
  5
174
330
52
100
AcDbEntity
  8
0
  6
Continuous
 62
     3
100
AcDbLine
 10
43.47800000000279
 20
639.3824527951988
 30
0.0
 11
40.97800000000326
 21
639.3824527951988
 31
0.0
  0
LINE
  5
175
330
52
100
AcDbEntity
  8
0
  6
Continuous
 62
     7
100
AcDbLine
 10
37.47800000000281
 20
642.8824527952046
 30
0.0
 11
-11.5219999999972
 21
642.8824527951988
 31
0.0
  0
LINE
  5
176
330
52
100
AcDbEntity
  8
0
  6
Continuous
 62
     3
100
AcDbLine
 10
37.47800000000279
 20
635.8824527951988
 30
0.0
 11
37.47800000000279
 21
633.3824527951988
 31
0.0
  0
LINE
  5
177
330
52
100
AcDbEntity
  8
0
  6
Continuous
 62
     3
100
AcDbLine
 10
37.47800000000279
 20
633.3824527951988
 30
0.0
 11
-11.5219999999972
 21
633.3824527951988
 31
0.0
  0
LINE
  5
178
330
52
100
AcDbEntity
  8
0
  6
Continuous
 62
     3
100
AcDbLine
 10
21.47800000000143
 20
617.3824527951988
 30
0.0
 11
4.47800000000188
 21
617.3824527951988
 31
0.0
  0
LINE
  5
179
330
52
100
AcDbEntity
  8
0
  6
Continuous
 62
     3
100
AcDbLine
 10
27.47800000000142
 20
623.3824527951988
 30
0.0
 11
24.97800000000212
 21
623.3824527951988
 31
0.0
  0
LINE
  5
17A
330
52
100
AcDbEntity
  8
0
  6
Continuous
 62
     3
100
AcDbLine
 10
21.47800000000143
 20
629.3824527951988
 30
0.0
 11
21.47800000000143
 21
626.882452795204
 31
0.0
  0
LINE
  5
17B
330
52
100
AcDbEntity
  8
0
  6
Continuous
 62
     3
100
AcDbLine
 10
-27.52199999999539
 20
651.8824527951988
 30
0.0
 11
-27.52199999999539
 21
649.3824527951988
 31
0.0
  0
LINE
  5
17C
330
52
100
AcDbEntity
  8
0
  6
Continuous
 62
     3
100
AcDbLine
 10
-11.5219999999972
 20
633.3824527951988
 30
0.0
 11
-11.52199999999722
 21
635.8824527951988
 31
0.0
  0
LINE
  5
17D
330
52
100
AcDbEntity
  8
0
  6
Continuous
 62
     3
100
AcDbLine
 10
-17.52199999999721
 20
639.3824527951988
 30
0.0
 11
-15.0219999999972
 21
639.3824527951988
 31
0.0
  0
LINE
  5
17E
330
52
100
AcDbEntity
  8
0
  6
Continuous
 62
     7
100
AcDbLine
 10
4.47800000000189
 20
619.8824527952004
 30
0.0
 11
21.47800000000143
 21
619.8824527951988
 31
0.0
  0
LINE
  5
17F
330
52
100
AcDbEntity
  8
0
  6
Continuous
 62
     3
100
AcDbLine
 10
21.47800000000143
 20
619.8824527951988
 30
0.0
 11
21.47800000000143
 21
617.3824527951988
 31
0.0
  0
LINE
  5
180
330
52
100
AcDbEntity
  8
0
  6
Continuous
 62
     3
100
AcDbLine
 10
4.47800000000188
 20
617.3824527951988
 30
0.0
 11
4.47800000000189
 21
619.8824527952004
 31
0.0
  0
LINE
  5
181
330
52
100
AcDbEntity
  8
0
  6
Continuous
 62
     3
100
AcDbLine
 10
-1.52199999999812
 20
623.3824527951988
 30
0.0
 11
0.97800000000188
 21
623.3824527951988
 31
0.0
  0
LINE
  5
182
330
52
100
AcDbEntity
  8
0
  6
Continuous
 62
     7
100
AcDbLine
 10
21.47800000000143
 20
626.882452795204
 30
0.0
 11
4.47800000000189
 21
626.8824527951988
 31
0.0
  0
LINE
  5
183
330
52
100
AcDbEntity
  8
0
  6
Continuous
 62
     3
100
AcDbLine
 10
4.47800000000189
 20
629.3824527951988
 30
0.0
 11
21.47800000000143
 21
629.3824527951988
 31
0.0
  0
LINE
  5
184
330
52
100
AcDbEntity
  8
0
  6
Continuous
 62
     3
100
AcDbLine
 10
4.47800000000189
 20
626.8824527951988
 30
0.0
 11
4.47800000000189
 21
629.3824527951988
 31
0.0
  0
LINE
  5
185
330
52
100
AcDbEntity
  8
0
  6
Continuous
 62
     3
100
AcDbLine
 10
-11.5219999999972
 20
642.8824527951988
 30
0.0
 11
-11.5219999999972
 21
645.3824527951988
 31
0.0
  0
LINE
  5
186
330
52
100
AcDbEntity
  8
0
  6
Continuous
 62
     3
100
AcDbLine
 10
30.95600000002106
 20
607.9044527951742
 30
0.0
 11
33.45600000001969
 21
607.9044527951742
 31
0.0
  0
LINE
  5
187
330
52
100
AcDbEntity
  8
0
  6
Continuous
 62
     3
100
AcDbLine
 10
36.95600000002106
 20
613.9044527951742
 30
0.0
 11
36.95600000002106
 21
611.4044527951742
 31
0.0
  0
LINE
  5
188
330
52
100
AcDbEntity
  8
0
  6
Continuous
 62
     3
100
AcDbLine
 10
42.95600000002104
 20
607.9044527951742
 30
0.0
 11
40.45600000002082
 21
607.9044527951742
 31
0.0
  0
LINE
  5
189
330
52
100
AcDbEntity
  8
0
  6
Continuous
 62
     7
100
AcDbLine
 10
-27.52199999999539
 20
651.8824527951988
 30
0.0
 11
53.47800000000461
 21
651.8824527951988
 31
0.0
  0
LINE
  5
18A
330
52
100
AcDbEntity
  8
0
  6
Continuous
 62
     3
100
AcDbLine
 10
37.47800000000279
 20
645.3824527951988
 30
0.0
 11
37.47800000000281
 21
642.8824527952046
 31
0.0
  0
LINE
  5
18B
330
52
100
AcDbEntity
  8
0
  6
Continuous
 62
     3
100
AcDbLine
 10
62.95600000002105
 20
639.9044527951714
 30
0.0
 11
65.45600000002537
 21
639.9044527951714
 31
0.0
  0
LINE
  5
18C
330
52
100
AcDbEntity
  8
0
  6
Continuous
 62
     7
100
AcDbLine
 10
-27.52200000000629
 20
539.926452795155
 30
0.0
 11
53.47799999999369
 21
539.9264527951549
 31
0.0
  0
LINE
  5
18D
330
52
100
AcDbEntity
  8
0
  6
Continuous
 62
     3
100
AcDbLine
 10
53.47799999999369
 20
539.9264527951549
 30
0.0
 11
53.47799999999371
 21
537.426452795155
 31
0.0
  0
LINE
  5
18E
330
52
100
AcDbEntity
  8
0
  6
Continuous
 62
     3
100
AcDbLine
 10
59.47799999999371
 20
543.426452795155
 30
0.0
 11
56.97799999999371
 21
543.426452795155
 31
0.0
  0
LINE
  5
18F
330
52
100
AcDbEntity
  8
0
  6
Continuous
 62
     3
100
AcDbLine
 10
62.95600000002105
 20
558.9044527951714
 30
0.0
 11
65.45600000002105
 21
558.9044527951714
 31
0.0
  0
LINE
  5
190
330
52
100
AcDbEntity
  8
0
  6
Continuous
 62
     3
100
AcDbLine
 10
53.47799999999371
 20
549.426452795155
 30
0.0
 11
53.47799999999371
 21
546.9264527951644
 31
0.0
  0
LINE
  5
191
330
52
100
AcDbEntity
  8
0
  6
Continuous
 62
     3
100
AcDbLine
 10
37.47799999999506
 20
565.426452795155
 30
0.0
 11
37.47799999999506
 21
562.9264527951493
 31
0.0
  0
LINE
  5
192
330
52
100
AcDbEntity
  8
0
  6
Continuous
 62
     3
100
AcDbLine
 10
37.47799999999506
 20
555.9264527951549
 30
0.0
 11
37.47799999999506
 21
553.426452795155
 31
0.0
  0
LINE
  5
193
330
52
100
AcDbEntity
  8
0
  6
Continuous
 62
     3
100
AcDbLine
 10
43.47799999999506
 20
559.426452795155
 30
0.0
 11
40.97799999999506
 21
559.426452795155
 31
0.0
  0
LINE
  5
194
330
52
100
AcDbEntity
  8
0
  6
Continuous
 62
     3
100
AcDbLine
 10
52.95600000002105
 20
568.9044527951733
 30
0.0
 11
52.95600000002104
 21
571.4044527951731
 31
0.0
  0
LINE
  5
195
330
52
100
AcDbEntity
  8
0
  6
Continuous
 62
     3
100
AcDbLine
 10
46.95600000002105
 20
574.9044527951733
 30
0.0
 11
49.45600000002105
 21
574.9044527951733
 31
0.0
  0
LINE
  5
196
330
52
100
AcDbEntity
  8
0
  6
Continuous
 62
     3
100
AcDbLine
 10
58.95600000002105
 20
574.9044527951733
 30
0.0
 11
56.45600000002105
 21
574.9044527951733
 31
0.0
  0
LINE
  5
197
330
52
100
AcDbEntity
  8
0
  6
Continuous
 62
     3
100
AcDbLine
 10
42.95600000002106
 20
590.9044527951742
 30
0.0
 11
40.45600000001969
 21
590.9044527951742
 31
0.0
  0
LINE
  5
198
330
52
100
AcDbEntity
  8
0
  6
Continuous
 62
     3
100
AcDbLine
 10
36.95600000002106
 20
584.9044527951742
 30
0.0
 11
36.95600000002106
 21
587.4044527951747
 31
0.0
  0
LINE
  5
199
330
52
100
AcDbEntity
  8
0
  6
Continuous
 62
     3
100
AcDbLine
 10
62.95600000002105
 20
558.9044527951714
 30
0.0
 11
62.95600000002105
 21
639.9044527951714
 31
0.0
  0
LINE
  5
19A
330
52
100
AcDbEntity
  8
0
  6
Continuous
 62
     3
100
AcDbLine
 10
58.95600000002105
 20
623.9044527951733
 30
0.0
 11
58.95600000002105
 21
574.9044527951733
 31
0.0
  0
LINE
  5
19B
330
52
100
AcDbEntity
  8
0
  6
Continuous
 62
     3
100
AcDbLine
 10
52.95600000002105
 20
629.9044527951733
 30
0.0
 11
52.95600000002105
 21
627.4044527951733
 31
0.0
  0
LINE
  5
19C
330
52
100
AcDbEntity
  8
0
  6
Continuous
 62
     7
100
AcDbLine
 10
56.45600000002105
 20
574.9044527951733
 30
0.0
 11
56.45600000002127
 21
623.9044527951733
 31
0.0
  0
LINE
  5
19D
330
52
100
AcDbEntity
  8
0
  6
Continuous
 62
     3
100
AcDbLine
 10
46.95600000002105
 20
623.9044527951733
 30
0.0
 11
49.45600000001604
 21
623.9044527951733
 31
0.0
  0
LINE
  5
19E
330
52
100
AcDbEntity
  8
0
  6
Continuous
 62
     3
100
AcDbLine
 10
56.45600000002127
 20
623.9044527951733
 30
0.0
 11
58.95600000002105
 21
623.9044527951733
 31
0.0
  0
LINE
  5
19F
330
52
100
AcDbEntity
  8
0
  6
Continuous
 62
     7
100
AcDbLine
 10
49.45600000001604
 20
623.9044527951733
 30
0.0
 11
49.45600000002105
 21
574.9044527951733
 31
0.0
  0
LINE
  5
1A0
330
52
100
AcDbEntity
  8
0
  6
Continuous
 62
     3
100
AcDbLine
 10
46.95600000002105
 20
574.9044527951733
 30
0.0
 11
46.95600000002105
 21
623.9044527951733
 31
0.0
  0
LINE
  5
1A1
330
52
100
AcDbEntity
  8
0
  6
Continuous
 62
     3
100
AcDbLine
 10
30.95600000002106
 20
590.9044527951742
 30
0.0
 11
33.45600000002106
 21
590.9044527951742
 31
0.0
  0
LINE
  5
1A2
330
52
100
AcDbEntity
  8
0
  6
Continuous
 62
     7
100
AcDbLine
 10
40.45600000001969
 20
590.9044527951742
 30
0.0
 11
40.45600000002082
 21
607.9044527951742
 31
0.0
  0
LINE
  5
1A3
330
52
100
AcDbEntity
  8
0
  6
Continuous
 62
     3
100
AcDbLine
 10
42.95600000002104
 20
607.9044527951742
 30
0.0
 11
42.95600000002106
 21
590.9044527951742
 31
0.0
  0
LINE
  5
1A4
330
52
100
AcDbEntity
  8
0
  6
Continuous
 62
     3
100
AcDbLine
 10
30.95600000002106
 20
590.9044527951742
 30
0.0
 11
30.95600000002106
 21
607.9044527951742
 31
0.0
  0
LINE
  5
1A5
330
52
100
AcDbEntity
  8
0
  6
Continuous
 62
     7
100
AcDbLine
 10
33.45600000001969
 20
607.9044527951742
 30
0.0
 11
33.45600000002106
 21
590.9044527951742
 31
0.0
  0
LINE
  5
1A6
330
52
100
AcDbEntity
  8
0
  6
Continuous
 62
     7
100
AcDbLine
 10
4.47799999999643
 20
571.9264527951551
 30
0.0
 11
21.47799999999643
 21
571.9264527951551
 31
0.0
  0
LINE
  5
1A7
330
52
100
AcDbEntity
  8
0
  6
Continuous
 62
     3
100
AcDbLine
 10
4.47799999999643
 20
571.9264527951551
 30
0.0
 11
4.47799999999643
 21
569.426452795155
 31
0.0
  0
LINE
  5
1A8
330
52
100
AcDbEntity
  8
0
  6
Continuous
 62
     3
100
AcDbLine
 10
21.47799999999643
 20
571.9264527951551
 30
0.0
 11
21.47799999999643
 21
569.426452795155
 31
0.0
  0
LINE
  5
1A9
330
52
100
AcDbEntity
  8
0
  6
Continuous
 62
     3
100
AcDbLine
 10
21.47799999999643
 20
581.426452795155
 30
0.0
 11
21.47799999999643
 21
578.9264527951553
 31
0.0
  0
LINE
  5
1AA
330
52
100
AcDbEntity
  8
0
  6
Continuous
 62
     3
100
AcDbLine
 10
27.47799999999644
 20
575.426452795155
 30
0.0
 11
24.97799999999642
 21
575.426452795155
 31
0.0
  0
LINE
  5
1AB
330
52
100
AcDbEntity
  8
0
  6
Continuous
 62
     7
100
AcDbLine
 10
-39.50000000002319
 20
558.9044527951824
 30
0.0
 11
-39.5000000000232
 21
639.9044527951824
 31
0.0
  0
LINE
  5
1AC
330
52
100
AcDbEntity
  8
0
  6
Continuous
 62
     7
100
AcDbLine
 10
37.47799999999506
 20
562.9264527951493
 30
0.0
 11
-11.52200000000494
 21
562.9264527951549
 31
0.0
  0
LINE
  5
1AD
330
52
100
AcDbEntity
  8
0
  6
Continuous
 62
     3
100
AcDbLine
 10
37.47799999999506
 20
553.426452795155
 30
0.0
 11
-11.52200000000494
 21
553.426452795155
 31
0.0
  0
LINE
  5
1AE
330
52
100
AcDbEntity
  8
0
  6
Continuous
 62
     7
100
AcDbLine
 10
-11.52200000000495
 20
555.9264527951699
 30
0.0
 11
37.47799999999506
 21
555.9264527951549
 31
0.0
  0
LINE
  5
1AF
330
52
100
AcDbEntity
  8
0
  6
Continuous
 62
     3
100
AcDbLine
 10
-11.52200000000494
 20
565.426452795155
 30
0.0
 11
37.47799999999506
 21
565.426452795155
 31
0.0
  0
LINE
  5
1B0
330
52
100
AcDbEntity
  8
0
  6
Continuous
 62
     3
100
AcDbLine
 10
-11.52200000000494
 20
562.9264527951549
 30
0.0
 11
-11.52200000000494
 21
565.426452795155
 31
0.0
  0
LINE
  5
1B1
330
52
100
AcDbEntity
  8
0
  6
Continuous
 62
     3
100
AcDbLine
 10
-37.00000000002297
 20
639.9044527951824
 30
0.0
 11
-37.00000000002297
 21
558.9044527951824
 31
0.0
  0
LINE
  5
1B2
330
52
100
AcDbEntity
  8
0
  6
Continuous
 62
     7
100
AcDbLine
 10
-7.50000000002365
 20
590.9044527951796
 30
0.0
 11
-7.50000000002366
 21
607.9044527951796
 31
0.0
  0
LINE
  5
1B3
330
52
100
AcDbEntity
  8
0
  6
Continuous
 62
     3
100
AcDbLine
 10
21.47799999999643
 20
569.426452795155
 30
0.0
 11
4.47799999999643
 21
569.426452795155
 31
0.0
  0
LINE
  5
1B4
330
52
100
AcDbEntity
  8
0
  6
Continuous
 62
     3
100
AcDbLine
 10
-17.00000000002274
 20
607.9044527951796
 30
0.0
 11
-14.50000000002161
 21
607.9044527951796
 31
0.0
  0
LINE
  5
1B5
330
52
100
AcDbEntity
  8
0
  6
Continuous
 62
     3
100
AcDbLine
 10
-21.00000000002274
 20
623.9044527951805
 30
0.0
 11
-23.50000000002252
 21
623.9044527951805
 31
0.0
  0
LINE
  5
1B6
330
52
100
AcDbEntity
  8
0
  6
Continuous
 62
     3
100
AcDbLine
 10
-33.00000000002274
 20
623.9044527951805
 30
0.0
 11
-30.50000000002638
 21
623.9044527951805
 31
0.0
  0
LINE
  5
1B7
330
52
100
AcDbEntity
  8
0
  6
Continuous
 62
     3
100
AcDbLine
 10
-27.00000000002274
 20
629.9044527951805
 30
0.0
 11
-27.00000000002274
 21
627.4044527951805
 31
0.0
  0
LINE
  5
1B8
330
52
100
AcDbEntity
  8
0
  6
Continuous
 62
     3
100
AcDbLine
 10
-11.00000000002275
 20
613.9044527951796
 30
0.0
 11
-11.00000000002274
 21
611.4044527951796
 31
0.0
  0
LINE
  5
1B9
330
52
100
AcDbEntity
  8
0
  6
Continuous
 62
     3
100
AcDbLine
 10
-5.00000000002274
 20
607.9044527951796
 30
0.0
 11
-7.50000000002366
 21
607.9044527951796
 31
0.0
  0
LINE
  5
1BA
330
52
100
AcDbEntity
  8
0
  6
Continuous
 62
     3
100
AcDbLine
 10
-5.00000000002274
 20
607.9044527951796
 30
0.0
 11
-5.00000000002274
 21
590.9044527951796
 31
0.0
  0
LINE
  5
1BB
330
52
100
AcDbEntity
  8
0
  6
Continuous
 62
     3
100
AcDbLine
 10
-5.00000000002274
 20
590.9044527951796
 30
0.0
 11
-7.50000000002365
 21
590.9044527951796
 31
0.0
  0
LINE
  5
1BC
330
52
100
AcDbEntity
  8
0
  6
Continuous
 62
     3
100
AcDbLine
 10
-17.00000000002274
 20
590.9044527951796
 30
0.0
 11
-14.50000000002251
 21
590.9044527951796
 31
0.0
  0
LINE
  5
1BD
330
52
100
AcDbEntity
  8
0
  6
Continuous
 62
     3
100
AcDbLine
 10
-11.00000000002274
 20
584.9044527951796
 30
0.0
 11
-11.00000000002274
 21
587.4044527951796
 31
0.0
  0
LINE
  5
1BE
330
52
100
AcDbEntity
  8
0
  6
Continuous
 62
     3
100
AcDbLine
 10
-1.52200000000358
 20
575.426452795155
 30
0.0
 11
0.97799999999642
 21
575.426452795155
 31
0.0
  0
LINE
  5
1BF
330
52
100
AcDbEntity
  8
0
  6
Continuous
 62
     7
100
AcDbLine
 10
21.47799999999643
 20
578.9264527951553
 30
0.0
 11
4.47799999999643
 21
578.926452795155
 31
0.0
  0
LINE
  5
1C0
330
52
100
AcDbEntity
  8
0
  6
Continuous
 62
     3
100
AcDbLine
 10
4.47799999999643
 20
581.426452795155
 30
0.0
 11
21.47799999999643
 21
581.426452795155
 31
0.0
  0
LINE
  5
1C1
330
52
100
AcDbEntity
  8
0
  6
Continuous
 62
     3
100
AcDbLine
 10
4.47799999999643
 20
578.926452795155
 30
0.0
 11
4.47799999999643
 21
581.426452795155
 31
0.0
  0
LINE
  5
1C2
330
52
100
AcDbEntity
  8
0
  6
Continuous
 62
     7
100
AcDbLine
 10
-14.50000000002161
 20
607.9044527951796
 30
0.0
 11
-14.50000000002251
 21
590.9044527951796
 31
0.0
  0
LINE
  5
1C3
330
52
100
AcDbEntity
  8
0
  6
Continuous
 62
     3
100
AcDbLine
 10
-17.00000000002274
 20
590.9044527951796
 30
0.0
 11
-17.00000000002274
 21
607.9044527951796
 31
0.0
  0
LINE
  5
1C4
330
52
100
AcDbEntity
  8
0
  6
Continuous
 62
     3
100
AcDbLine
 10
-33.00000000002297
 20
574.9044527951805
 30
0.0
 11
-33.00000000002274
 21
623.9044527951805
 31
0.0
  0
LINE
  5
1C5
330
52
100
AcDbEntity
  8
0
  6
Continuous
 62
     3
100
AcDbLine
 10
-21.00000000002251
 20
574.9044527951805
 30
0.0
 11
-23.50000000002706
 21
574.9044527951805
 31
0.0
  0
LINE
  5
1C6
330
52
100
AcDbEntity
  8
0
  6
Continuous
 62
     3
100
AcDbLine
 10
-17.52200000000494
 20
559.426452795155
 30
0.0
 11
-15.02200000000403
 21
559.426452795155
 31
0.0
  0
LINE
  5
1C7
330
52
100
AcDbEntity
  8
0
  6
Continuous
 62
     3
100
AcDbLine
 10
-11.52200000000494
 20
553.426452795155
 30
0.0
 11
-11.52200000000495
 21
555.9264527951699
 31
0.0
  0
LINE
  5
1C8
330
52
100
AcDbEntity
  8
0
  6
Continuous
 62
     7
100
AcDbLine
 10
-30.50000000002638
 20
623.9044527951805
 30
0.0
 11
-30.50000000002274
 21
574.9044527951805
 31
0.0
  0
LINE
  5
1C9
330
52
100
AcDbEntity
  8
0
  6
Continuous
 62
     3
100
AcDbLine
 10
-21.00000000002274
 20
623.9044527951805
 30
0.0
 11
-21.00000000002251
 21
574.9044527951805
 31
0.0
  0
LINE
  5
1CA
330
52
100
AcDbEntity
  8
0
  6
Continuous
 62
     7
100
AcDbLine
 10
-23.50000000002706
 20
574.9044527951805
 30
0.0
 11
-23.50000000002252
 21
623.9044527951805
 31
0.0
  0
LINE
  5
1CB
330
52
100
AcDbEntity
  8
0
  6
Continuous
 62
     3
100
AcDbLine
 10
-27.52200000000629
 20
546.926452795155
 30
0.0
 11
-27.52200000000631
 21
549.426452795155
 31
0.0
  0
LINE
  5
1CC
330
52
100
AcDbEntity
  8
0
  6
Continuous
 62
     3
100
AcDbLine
 10
-43.00000000002297
 20
552.9044527951824
 30
0.0
 11
-43.00000000002296
 21
555.4044527951824
 31
0.0
  0
LINE
  5
1CD
330
52
100
AcDbEntity
  8
0
  6
Continuous
 62
     3
100
AcDbLine
 10
-49.00000000002297
 20
558.9044527951824
 30
0.0
 11
-46.50000000002298
 21
558.9044527951824
 31
0.0
  0
LINE
  5
1CE
330
52
100
AcDbEntity
  8
0
  6
Continuous
 62
     3
100
AcDbLine
 10
-33.00000000002297
 20
574.9044527951805
 30
0.0
 11
-30.50000000002274
 21
574.9044527951805
 31
0.0
  0
LINE
  5
1CF
330
52
100
AcDbEntity
  8
0
  6
Continuous
 62
     3
100
AcDbLine
 10
-27.00000000002274
 20
568.9044527951803
 30
0.0
 11
-27.00000000002274
 21
571.4044527951802
 31
0.0
  0
LINE
  5
1D0
330
52
100
AcDbEntity
  8
0
  6
Continuous
 62
     3
100
AcDbLine
 10
-37.00000000002297
 20
558.9044527951824
 30
0.0
 11
-39.50000000002319
 21
558.9044527951824
 31
0.0
  0
LINE
  5
1D1
330
52
100
AcDbEntity
  8
0
  6
Continuous
 62
     3
100
AcDbLine
 10
-27.52200000000631
 20
549.426452795155
 30
0.0
 11
53.47799999999371
 21
549.426452795155
 31
0.0
  0
LINE
  5
1D2
330
52
100
AcDbEntity
  8
0
  6
Continuous
 62
     3
100
AcDbLine
 10
72.45600000002105
 20
639.9044527951714
 30
0.0
 11
74.95600000002105
 21
639.9044527951714
 31
0.0
  0
LINE
  5
1D3
330
52
100
AcDbEntity
  8
0
  6
Continuous
 62
     3
100
AcDbLine
 10
53.47800000000461
 20
649.3824527951988
 30
0.0
 11
53.47800000000461
 21
651.8824527951988
 31
0.0
  0
LINE
  5
1D4
330
52
100
AcDbEntity
  8
0
  6
Continuous
 62
     3
100
AcDbLine
 10
68.95600000002105
 20
645.9044527951714
 30
0.0
 11
68.95600000002105
 21
643.4044527951714
 31
0.0
  0
LINE
  5
1D5
330
52
100
AcDbEntity
  8
0
  6
Continuous
 62
     7
100
AcDbLine
 10
72.45600000002673
 20
558.9044527951714
 30
0.0
 11
72.45600000002105
 21
639.9044527951714
 31
0.0
  0
LINE
  5
1D6
330
52
100
AcDbEntity
  8
0
  6
Continuous
 62
     3
100
AcDbLine
 10
-52.21000000000095
 20
668.3824527951987
 30
0.0
 11
-52.21000000000095
 21
665.8824527951988
 31
0.0
  0
LINE
  5
1D7
330
52
100
AcDbEntity
  8
0
  6
Continuous
 62
     3
100
AcDbLine
 10
-27.52199999999539
 20
661.3824527951988
 30
0.0
 11
-27.52199999999539
 21
658.8824527951988
 31
0.0
  0
LINE
  5
1D8
330
52
100
AcDbEntity
  8
0
  6
Continuous
 62
     3
100
AcDbLine
 10
-33.52199999999539
 20
655.3824527951988
 30
0.0
 11
-31.02199999999539
 21
655.3824527951988
 31
0.0
  0
LINE
  5
1D9
330
52
100
AcDbEntity
  8
0
  6
Continuous
 62
     3
100
AcDbLine
 10
81.95599999999922
 20
664.5924527951988
 30
0.0
 11
79.45599999999922
 21
664.5924527951988
 31
0.0
  0
LINE
  5
1DA
330
52
100
AcDbEntity
  8
0
  6
Continuous
 62
     7
100
AcDbLine
 10
-46.50000000002433
 20
639.9044527951824
 30
0.0
 11
-46.50000000002298
 21
558.9044527951824
 31
0.0
  0
LINE
  5
1DB
330
52
100
AcDbEntity
  8
0
  6
Continuous
 62
     3
100
AcDbLine
 10
-49.00000000002297
 20
558.9044527951824
 30
0.0
 11
-49.00000000002298
 21
639.9044527951824
 31
0.0
  0
LINE
  5
1DC
330
52
100
AcDbEntity
  8
0
  6
Continuous
 62
     7
100
AcDbLine
 10
53.47800000000461
 20
658.8824527951988
 30
0.0
 11
-27.52199999999539
 21
658.8824527951988
 31
0.0
  0
LINE
  5
1DD
330
52
100
AcDbEntity
  8
0
  6
Continuous
 62
     3
100
AcDbLine
 10
-27.52199999999539
 20
661.3824527951988
 30
0.0
 11
53.47800000000462
 21
661.3824527951988
 31
0.0
  0
LINE
  5
1DE
330
52
100
AcDbEntity
  8
0
  6
Continuous
 62
     3
100
AcDbLine
 10
53.47800000000462
 20
661.3824527951988
 30
0.0
 11
53.47800000000461
 21
658.8824527951988
 31
0.0
  0
LINE
  5
1DF
330
52
100
AcDbEntity
  8
0
  6
Continuous
 62
     3
100
AcDbLine
 10
78.16599999999927
 20
668.3824527951988
 30
0.0
 11
78.16599999999927
 21
665.8824527951988
 31
0.0
  0
LINE
  5
1E0
330
52
100
AcDbEntity
  8
0
  6
Continuous
 62
     3
100
AcDbLine
 10
79.07816774772982
 20
665.5046205429295
 30
0.0
 11
80.84593470069626
 21
667.2723874958958
 31
0.0
  0
LINE
  5
1E1
330
52
100
AcDbEntity
  8
0
  6
Continuous
 62
     3
100
AcDbLine
 10
59.47800000000461
 20
655.3824527951988
 30
0.0
 11
56.97800000000461
 21
655.3824527951988
 31
0.0
  0
LINE
  5
1E2
330
52
100
AcDbEntity
  8
0
  6
Continuous
 62
     3
100
AcDbLine
 10
79.45599999999922
 20
534.2164527951986
 30
0.0
 11
79.45599999999922
 21
664.5924527951988
 31
0.0
  0
LINE
  5
1E3
330
52
100
AcDbEntity
  8
0
  6
Continuous
 62
     3
100
AcDbLine
 10
79.07816774772982
 20
533.304285047468
 30
0.0
 11
80.84593470069649
 21
531.5365180945015
 31
0.0
  0
LINE
  5
1E4
330
52
100
AcDbEntity
  8
0
  6
Continuous
 62
     3
100
AcDbLine
 10
79.45599999999922
 20
534.2164527951986
 30
0.0
 11
81.95599999999922
 21
534.2164527951986
 31
0.0
  0
LINE
  5
1E5
330
52
100
AcDbEntity
  8
0
  6
Continuous
 62
     3
100
AcDbLine
 10
74.95600000002105
 20
558.9044527951714
 30
0.0
 11
72.45600000002673
 21
558.9044527951714
 31
0.0
  0
LINE
  5
1E6
330
52
100
AcDbEntity
  8
0
  6
Continuous
 62
     3
100
AcDbLine
 10
68.95600000002105
 20
552.9044527951714
 30
0.0
 11
68.95600000002105
 21
555.4044527951713
 31
0.0
  0
LINE
  5
1E7
330
52
100
AcDbEntity
  8
0
  6
Continuous
 62
     3
100
AcDbLine
 10
74.95600000002105
 20
639.9044527951714
 30
0.0
 11
74.95600000002105
 21
558.9044527951714
 31
0.0
  0
LINE
  5
1E8
330
52
100
AcDbEntity
  8
0
  6
Continuous
 62
     3
100
AcDbLine
 10
78.16599999999927
 20
530.4264527951988
 30
0.0
 11
78.16599999999926
 21
532.9264527951987
 31
0.0
  0
LINE
  5
1E9
330
52
100
AcDbEntity
  8
0
  6
Continuous
 62
     3
100
AcDbLine
 10
-53.50000000000092
 20
664.5924527951988
 30
0.0
 11
-53.50000000000092
 21
534.2164527951986
 31
0.0
  0
LINE
  5
1EA
330
52
100
AcDbEntity
  8
0
  6
Continuous
 62
     7
100
AcDbLine
 10
-56.00000000000069
 20
534.2164527951986
 30
0.0
 11
-56.00000000000092
 21
664.5924527951988
 31
0.0
  0
LINE
  5
1EB
330
52
100
AcDbEntity
  8
0
  6
Continuous
 62
     3
100
AcDbLine
 10
-56.00000000000069
 20
534.2164527951986
 30
0.0
 11
-53.50000000000092
 21
534.2164527951986
 31
0.0
  0
LINE
  5
1EC
330
52
100
AcDbEntity
  8
0
  6
Continuous
 62
     3
100
AcDbLine
 10
-52.21000000000095
 20
532.9264527951987
 30
0.0
 11
78.16599999999926
 21
532.9264527951987
 31
0.0
  0
LINE
  5
1ED
330
52
100
AcDbEntity
  8
0
  6
Continuous
 62
     7
100
AcDbLine
 10
78.16599999999927
 20
530.4264527951988
 30
0.0
 11
-52.21000000000095
 21
530.4264527951989
 31
0.0
  0
LINE
  5
1EE
330
52
100
AcDbEntity
  8
0
  6
Continuous
 62
     3
100
AcDbLine
 10
-52.21000000000095
 20
532.9264527951987
 30
0.0
 11
-52.21000000000095
 21
530.4264527951989
 31
0.0
  0
LINE
  5
1EF
330
52
100
AcDbEntity
  8
0
  6
Continuous
 62
     3
100
AcDbLine
 10
-33.52200000000631
 20
543.426452795155
 30
0.0
 11
-31.02200000000677
 21
543.426452795155
 31
0.0
  0
LINE
  5
1F0
330
52
100
AcDbEntity
  8
0
  6
Continuous
 62
     3
100
AcDbLine
 10
-53.12216774773153
 20
533.3042850474679
 30
0.0
 11
-54.8899347006975
 21
531.5365180945022
 31
0.0
  0
LINE
  5
1F1
330
52
100
AcDbEntity
  8
0
  6
Continuous
 62
     3
100
AcDbLine
 10
-27.52200000000629
 20
537.426452795155
 30
0.0
 11
-27.52200000000629
 21
539.926452795155
 31
0.0
  0
LINE
  5
1F2
330
52
100
AcDbEntity
  8
0
  6
Continuous
 62
     3
100
AcDbLine
 10
53.47799999999371
 20
537.426452795155
 30
0.0
 11
-27.52200000000629
 21
537.426452795155
 31
0.0
  0
ARC
  5
1F3
330
52
100
AcDbEntity
  8
0
  6
Continuous
 62
     7
100
AcDbCircle
 10
-43.00000000002291
 20
639.9044527951824
 30
0.0
 40
3.499999999999886
100
AcDbArc
 50
90.00000000000117
 51
180.0
  0
ARC
  5
1F4
330
52
100
AcDbEntity
  8
0
  6
Continuous
 62
     3
100
AcDbCircle
 10
-52.21000000000095
 20
664.5924527951993
 30
0.0
 40
1.289999999999562
100
AcDbArc
 50
135.0000000000143
 51
-179.9999999999798
  0
ARC
  5
1F5
330
52
100
AcDbEntity
  8
0
  6
Continuous
 62
     7
100
AcDbCircle
 10
-43.00000000002291
 20
639.9044527951824
 30
0.0
 40
3.499999999999709
100
AcDbArc
 50
0.0
 51
90.00000000000117
  0
ARC
  5
1F6
330
52
100
AcDbEntity
  8
0
  6
Continuous
 62
     3
100
AcDbCircle
 10
-43.00000000002291
 20
639.9044527951824
 30
0.0
 40
5.999999999999936
100
AcDbArc
 50
0.0
 51
90.00000000000061
  0
ARC
  5
1F7
330
52
100
AcDbEntity
  8
0
  6
Continuous
 62
     7
100
AcDbCircle
 10
-52.21000000000145
 20
664.592452795198
 30
0.0
 40
3.789999999999486
100
AcDbArc
 50
134.9999999999876
 51
179.999999999988
  0
ARC
  5
1F8
330
52
100
AcDbEntity
  8
0
  6
Continuous
 62
     3
100
AcDbCircle
 10
-43.00000000002291
 20
639.9044527951824
 30
0.0
 40
5.999999999999886
100
AcDbArc
 50
90.00000000000061
 51
180.0
  0
ARC
  5
1F9
330
52
100
AcDbEntity
  8
0
  6
Continuous
 62
     3
100
AcDbCircle
 10
68.95600000002109
 20
639.9044527951714
 30
0.0
 40
5.999999999999957
100
AcDbArc
 50
0.0
 51
90.00000000000041
  0
ARC
  5
1FA
330
52
100
AcDbEntity
  8
0
  6
Continuous
 62
     3
100
AcDbCircle
 10
52.95600000002127
 20
623.9044527951731
 30
0.0
 40
5.99999999999978
100
AcDbArc
 50
0.00000000000109
 51
90.00000000000212
  0
ARC
  5
1FB
330
52
100
AcDbEntity
  8
0
  6
Continuous
 62
     3
100
AcDbCircle
 10
52.95600000002127
 20
623.9044527951731
 30
0.0
 40
6.000000000000114
100
AcDbArc
 50
90.00000000000212
 51
179.9999999999989
  0
ARC
  5
1FC
330
52
100
AcDbEntity
  8
0
  6
Continuous
 62
     7
100
AcDbCircle
 10
37.47800000000282
 20
639.3824527951988
 30
0.0
 40
3.5
100
AcDbArc
 50
-90.00000000000058
 51
0.0
  0
ARC
  5
1FD
330
52
100
AcDbEntity
  8
0
  6
Continuous
 62
     3
100
AcDbCircle
 10
21.47800000000143
 20
623.3824527951988
 30
0.0
 40
6.0
100
AcDbArc
 50
-90.0
 51
0.0
  0
ARC
  5
1FE
330
52
100
AcDbEntity
  8
0
  6
Continuous
 62
     7
100
AcDbCircle
 10
21.47800000000143
 20
623.3824527951988
 30
0.0
 40
3.5
100
AcDbArc
 50
-90.0
 51
0.0
  0
ARC
  5
1FF
330
52
100
AcDbEntity
  8
0
  6
Continuous
 62
     7
100
AcDbCircle
 10
21.47799999999916
 20
623.3824527952011
 30
0.0
 40
3.500000000002959
100
AcDbArc
 50
-0.00000000003722
 51
89.99999999996284
  0
ARC
  5
200
330
52
100
AcDbEntity
  8
0
  6
Continuous
 62
     3
100
AcDbCircle
 10
21.47800000000143
 20
623.3824527951988
 30
0.0
 40
5.999999999999989
100
AcDbArc
 50
0.0
 51
90.0
  0
ARC
  5
201
330
52
100
AcDbEntity
  8
0
  6
Continuous
 62
     3
100
AcDbCircle
 10
4.47800000000188
 20
623.3824527951988
 30
0.0
 40
6.0
100
AcDbArc
 50
89.99999999999994
 51
180.0
  0
ARC
  5
202
330
52
100
AcDbEntity
  8
0
  6
Continuous
 62
     7
100
AcDbCircle
 10
4.47800000000188
 20
623.3824527951988
 30
0.0
 40
3.5
100
AcDbArc
 50
89.99999999999989
 51
180.0
  0
ARC
  5
203
330
52
100
AcDbEntity
  8
0
  6
Continuous
 62
     3
100
AcDbCircle
 10
-11.5219999999972
 20
639.3824527951988
 30
0.0
 40
6.000000000000009
100
AcDbArc
 50
180.0
 51
-90.0
  0
ARC
  5
204
330
52
100
AcDbEntity
  8
0
  6
Continuous
 62
     7
100
AcDbCircle
 10
-27.52199999999539
 20
655.3824527951988
 30
0.0
 40
3.5
100
AcDbArc
 50
180.0
 51
-90.0
  0
ARC
  5
205
330
52
100
AcDbEntity
  8
0
  6
Continuous
 62
     7
100
AcDbCircle
 10
-11.5219999999972
 20
639.3824527951988
 30
0.0
 40
3.5
100
AcDbArc
 50
180.0
 51
-90.00000000000031
  0
ARC
  5
206
330
52
100
AcDbEntity
  8
0
  6
Continuous
 62
     7
100
AcDbCircle
 10
4.47800000000188
 20
623.3824527951988
 30
0.0
 40
3.499999999999995
100
AcDbArc
 50
180.0
 51
-89.9999999999999
  0
ARC
  5
207
330
52
100
AcDbEntity
  8
0
  6
Continuous
 62
     7
100
AcDbCircle
 10
-11.5219999999972
 20
639.3824527951988
 30
0.0
 40
3.5
100
AcDbArc
 50
90.0
 51
180.0
  0
ARC
  5
208
330
52
100
AcDbEntity
  8
0
  6
Continuous
 62
     3
100
AcDbCircle
 10
-11.5219999999972
 20
639.3824527951988
 30
0.0
 40
6.0
100
AcDbArc
 50
90.0
 51
180.0
  0
ARC
  5
209
330
52
100
AcDbEntity
  8
0
  6
Continuous
 62
     3
100
AcDbCircle
 10
36.95600000002128
 20
607.9044527951742
 30
0.0
 40
6.0
100
AcDbArc
 50
90.00000000000212
 51
180.0
  0
ARC
  5
20A
330
52
100
AcDbEntity
  8
0
  6
Continuous
 62
     3
100
AcDbCircle
 10
36.95600000002128
 20
607.9044527951742
 30
0.0
 40
5.999999999999766
100
AcDbArc
 50
0.0
 51
90.00000000000212
  0
ARC
  5
20B
330
52
100
AcDbEntity
  8
0
  6
Continuous
 62
     7
100
AcDbCircle
 10
36.95600000002128
 20
607.9044527951742
 30
0.0
 40
3.5
100
AcDbArc
 50
90.00000000000361
 51
180.0
  0
ARC
  5
20C
330
52
100
AcDbEntity
  8
0
  6
Continuous
 62
     7
100
AcDbCircle
 10
36.95600000002128
 20
607.9044527951742
 30
0.0
 40
3.499999999999545
100
AcDbArc
 50
0.0
 51
90.00000000000361
  0
ARC
  5
20D
330
52
100
AcDbEntity
  8
0
  6
Continuous
 62
     7
100
AcDbCircle
 10
37.47800000000013
 20
639.3824527952015
 30
0.0
 40
3.500000000003133
100
AcDbArc
 50
-0.00000000004467
 51
89.99999999995615
  0
ARC
  5
20E
330
52
100
AcDbEntity
  8
0
  6
Continuous
 62
     7
100
AcDbCircle
 10
68.95600000002129
 20
558.9044527951712
 30
0.0
 40
3.500000000000242
100
AcDbArc
 50
179.9999999999963
 51
-90.00000000000395
  0
ARC
  5
20F
330
52
100
AcDbEntity
  8
0
  6
Continuous
 62
     3
100
AcDbCircle
 10
53.47799999999364
 20
543.426452795155
 30
0.0
 40
6.000000000000071
100
AcDbArc
 50
0.0
 51
89.99999999999933
  0
ARC
  5
210
330
52
100
AcDbEntity
  8
0
  6
Continuous
 62
     7
100
AcDbCircle
 10
53.47799999999364
 20
543.426452795155
 30
0.0
 40
3.500000000000114
100
AcDbArc
 50
-89.99999999999919
 51
0.0
  0
ARC
  5
211
330
52
100
AcDbEntity
  8
0
  6
Continuous
 62
     7
100
AcDbCircle
 10
53.47799999998893
 20
543.4264527951598
 30
0.0
 40
3.500000000004782
100
AcDbArc
 50
-0.00000000007817
 51
89.99999999992173
  0
ARC
  5
212
330
52
100
AcDbEntity
  8
0
  6
Continuous
 62
     7
100
AcDbCircle
 10
37.47799999999789
 20
559.4264527951522
 30
0.0
 40
3.499999999997172
100
AcDbArc
 50
0.00000000004653
 51
90.0000000000463
  0
ARC
  5
213
330
52
100
AcDbEntity
  8
0
  6
Continuous
 62
     3
100
AcDbCircle
 10
37.47799999999509
 20
559.426452795155
 30
0.0
 40
5.999999999999972
100
AcDbArc
 50
0.0
 51
90.00000000000028
  0
ARC
  5
214
330
52
100
AcDbEntity
  8
0
  6
Continuous
 62
     3
100
AcDbCircle
 10
21.47799999999643
 20
575.426452795155
 30
0.0
 40
6.0
100
AcDbArc
 50
-90.0
 51
0.0
  0
ARC
  5
215
330
52
100
AcDbEntity
  8
0
  6
Continuous
 62
     7
100
AcDbCircle
 10
37.47799999999509
 20
559.426452795155
 30
0.0
 40
3.500000000000114
100
AcDbArc
 50
-90.00000000000047
 51
0.0
  0
ARC
  5
216
330
52
100
AcDbEntity
  8
0
  6
Continuous
 62
     3
100
AcDbCircle
 10
37.47799999999509
 20
559.426452795155
 30
0.0
 40
6.0
100
AcDbArc
 50
-90.00000000000028
 51
0.0
  0
ARC
  5
217
330
52
100
AcDbEntity
  8
0
  6
Continuous
 62
     7
100
AcDbCircle
 10
52.95600000002105
 20
574.9044527951733
 30
0.0
 40
3.5
100
AcDbArc
 50
180.0
 51
-90.00000000000011
  0
ARC
  5
218
330
52
100
AcDbEntity
  8
0
  6
Continuous
 62
     7
100
AcDbCircle
 10
52.95600000002105
 20
574.9044527951733
 30
0.0
 40
3.500000000000114
100
AcDbArc
 50
-90.00000000000011
 51
0.0
  0
ARC
  5
219
330
52
100
AcDbEntity
  8
0
  6
Continuous
 62
     7
100
AcDbCircle
 10
36.9560000000206
 20
590.9044527951743
 30
0.0
 40
3.499999999999545
100
AcDbArc
 50
-89.99999999999255
 51
-0.00000000000186
  0
ARC
  5
21A
330
52
100
AcDbEntity
  8
0
  6
Continuous
 62
     3
100
AcDbCircle
 10
36.9560000000206
 20
590.9044527951743
 30
0.0
 40
6.000000000000114
100
AcDbArc
 50
-89.99999999999567
 51
-0.00000000000109
  0
ARC
  5
21B
330
52
100
AcDbEntity
  8
0
  6
Continuous
 62
     3
100
AcDbCircle
 10
52.95600000002105
 20
574.9044527951733
 30
0.0
 40
6.0
100
AcDbArc
 50
180.0
 51
-90.0
  0
ARC
  5
21C
330
52
100
AcDbEntity
  8
0
  6
Continuous
 62
     3
100
AcDbCircle
 10
52.95600000002105
 20
574.9044527951733
 30
0.0
 40
6.0
100
AcDbArc
 50
-90.0
 51
0.0
  0
ARC
  5
21D
330
52
100
AcDbEntity
  8
0
  6
Continuous
 62
     7
100
AcDbCircle
 10
52.95600000002127
 20
623.9044527951731
 30
0.0
 40
3.5
100
AcDbArc
 50
0.00000000000186
 51
90.00000000000361
  0
ARC
  5
21E
330
52
100
AcDbEntity
  8
0
  6
Continuous
 62
     7
100
AcDbCircle
 10
52.95600000001874
 20
623.9044527951705
 30
0.0
 40
3.500000000002728
100
AcDbArc
 50
89.9999999999622
 51
179.9999999999553
  0
ARC
  5
21F
330
52
100
AcDbEntity
  8
0
  6
Continuous
 62
     3
100
AcDbCircle
 10
36.9560000000206
 20
590.9044527951743
 30
0.0
 40
5.999999999999542
100
AcDbArc
 50
-179.9999999999989
 51
-89.99999999999567
  0
ARC
  5
220
330
52
100
AcDbEntity
  8
0
  6
Continuous
 62
     7
100
AcDbCircle
 10
36.9560000000206
 20
590.9044527951743
 30
0.0
 40
3.499999999999545
100
AcDbArc
 50
-179.9999999999982
 51
-89.99999999999255
  0
ARC
  5
221
330
52
100
AcDbEntity
  8
0
  6
Continuous
 62
     7
100
AcDbCircle
 10
21.47799999999643
 20
575.426452795155
 30
0.0
 40
3.499999999999989
100
AcDbArc
 50
0.0
 51
90.0
  0
ARC
  5
222
330
52
100
AcDbEntity
  8
0
  6
Continuous
 62
     7
100
AcDbCircle
 10
21.47799999999643
 20
575.426452795155
 30
0.0
 40
3.499999999999886
100
AcDbArc
 50
-90.0
 51
0.0
  0
ARC
  5
223
330
52
100
AcDbEntity
  8
0
  6
Continuous
 62
     7
100
AcDbCircle
 10
-11.52200000000494
 20
559.426452795155
 30
0.0
 40
3.499999999999886
100
AcDbArc
 50
90.0
 51
180.0
  0
ARC
  5
224
330
52
100
AcDbEntity
  8
0
  6
Continuous
 62
     7
100
AcDbCircle
 10
-11.52200000001192
 20
559.426452795162
 30
0.0
 40
3.499999999992111
100
AcDbArc
 50
-179.9999999998846
 51
-89.9999999998859
  0
ARC
  5
225
330
52
100
AcDbEntity
  8
0
  6
Continuous
 62
     3
100
AcDbCircle
 10
-27.00000000002229
 20
623.9044527951806
 30
0.0
 40
5.999999999999549
100
AcDbArc
 50
-0.00000000000109
 51
90.0000000000043
  0
ARC
  5
226
330
52
100
AcDbEntity
  8
0
  6
Continuous
 62
     3
100
AcDbCircle
 10
4.47800000000188
 20
623.3824527951988
 30
0.0
 40
5.999999999999995
100
AcDbArc
 50
180.0
 51
-89.99999999999999
  0
ARC
  5
227
330
52
100
AcDbEntity
  8
0
  6
Continuous
 62
     3
100
AcDbCircle
 10
-27.00000000002229
 20
623.9044527951806
 30
0.0
 40
5.999999999999886
100
AcDbArc
 50
90.0000000000043
 51
-179.9999999999989
  0
ARC
  5
228
330
52
100
AcDbEntity
  8
0
  6
Continuous
 62
     7
100
AcDbCircle
 10
-11.00000000002274
 20
607.9044527951796
 30
0.0
 40
3.5
100
AcDbArc
 50
90.0
 51
180.0
  0
ARC
  5
229
330
52
100
AcDbEntity
  8
0
  6
Continuous
 62
     3
100
AcDbCircle
 10
-11.00000000002274
 20
607.9044527951796
 30
0.0
 40
6.0
100
AcDbArc
 50
90.0000000000001
 51
180.0
  0
ARC
  5
22A
330
52
100
AcDbEntity
  8
0
  6
Continuous
 62
     7
100
AcDbCircle
 10
-27.00000000002441
 20
623.9044527951786
 30
0.0
 40
3.500000000001933
100
AcDbArc
 50
89.99999999997267
 51
179.9999999999684
  0
ARC
  5
22B
330
52
100
AcDbEntity
  8
0
  6
Continuous
 62
     7
100
AcDbCircle
 10
-27.00000000002229
 20
623.9044527951806
 30
0.0
 40
3.499999999999769
100
AcDbArc
 50
-0.00000000000186
 51
90.00000000000739
  0
ARC
  5
22C
330
52
100
AcDbEntity
  8
0
  6
Continuous
 62
     7
100
AcDbCircle
 10
-11.00000000002274
 20
607.9044527951796
 30
0.0
 40
3.499999999999083
100
AcDbArc
 50
0.0
 51
90.0
  0
ARC
  5
22D
330
52
100
AcDbEntity
  8
0
  6
Continuous
 62
     3
100
AcDbCircle
 10
-11.00000000002274
 20
607.9044527951796
 30
0.0
 40
6.000000000000004
100
AcDbArc
 50
0.0
 51
90.0000000000001
  0
ARC
  5
22E
330
52
100
AcDbEntity
  8
0
  6
Continuous
 62
     3
100
AcDbCircle
 10
4.47799999999643
 20
575.426452795155
 30
0.0
 40
6.0
100
AcDbArc
 50
90.0
 51
180.0
  0
ARC
  5
22F
330
52
100
AcDbEntity
  8
0
  6
Continuous
 62
     7
100
AcDbCircle
 10
4.47799999999643
 20
575.426452795155
 30
0.0
 40
3.5
100
AcDbArc
 50
90.0
 51
180.0
  0
ARC
  5
230
330
52
100
AcDbEntity
  8
0
  6
Continuous
 62
     7
100
AcDbCircle
 10
-11.00000000002274
 20
590.9044527951796
 30
0.0
 40
3.5
100
AcDbArc
 50
-90.0
 51
0.0
  0
ARC
  5
231
330
52
100
AcDbEntity
  8
0
  6
Continuous
 62
     3
100
AcDbCircle
 10
-11.00000000002274
 20
590.9044527951796
 30
0.0
 40
6.0
100
AcDbArc
 50
-90.0
 51
0.0
  0
ARC
  5
232
330
52
100
AcDbEntity
  8
0
  6
Continuous
 62
     7
100
AcDbCircle
 10
-11.00000000002274
 20
590.9044527951796
 30
0.0
 40
3.499999999999771
100
AcDbArc
 50
180.0
 51
-90.0
  0
ARC
  5
233
330
52
100
AcDbEntity
  8
0
  6
Continuous
 62
     3
100
AcDbCircle
 10
-11.00000000002274
 20
590.9044527951796
 30
0.0
 40
6.000000000000002
100
AcDbArc
 50
180.0
 51
-90.0
  0
ARC
  5
234
330
52
100
AcDbEntity
  8
0
  6
Continuous
 62
     7
100
AcDbCircle
 10
4.47799999999643
 20
575.426452795155
 30
0.0
 40
3.500000000000004
100
AcDbArc
 50
180.0
 51
-90.0
  0
ARC
  5
235
330
52
100
AcDbEntity
  8
0
  6
Continuous
 62
     3
100
AcDbCircle
 10
21.47799999999643
 20
575.426452795155
 30
0.0
 40
6.000000000000011
100
AcDbArc
 50
0.0
 51
90.0
  0
ARC
  5
236
330
52
100
AcDbEntity
  8
0
  6
Continuous
 62
     3
100
AcDbCircle
 10
-27.00000000002251
 20
574.9044527951804
 30
0.0
 40
6.000000000000114
100
AcDbArc
 50
-90.00000000000222
 51
0.00000000000109
  0
ARC
  5
237
330
52
100
AcDbEntity
  8
0
  6
Continuous
 62
     3
100
AcDbCircle
 10
4.47799999999643
 20
575.426452795155
 30
0.0
 40
6.000000000000004
100
AcDbArc
 50
180.0
 51
-90.0
  0
ARC
  5
238
330
52
100
AcDbEntity
  8
0
  6
Continuous
 62
     3
100
AcDbCircle
 10
-27.00000000002251
 20
574.9044527951804
 30
0.0
 40
6.000000000000462
100
AcDbArc
 50
179.9999999999989
 51
-90.00000000000222
  0
ARC
  5
239
330
52
100
AcDbEntity
  8
0
  6
Continuous
 62
     3
100
AcDbCircle
 10
-11.52200000000494
 20
559.426452795155
 30
0.0
 40
6.0
100
AcDbArc
 50
90.0
 51
180.0
  0
ARC
  5
23A
330
52
100
AcDbEntity
  8
0
  6
Continuous
 62
     7
100
AcDbCircle
 10
-27.00000000002492
 20
574.904452795178
 30
0.0
 40
3.49999999999784
100
AcDbArc
 50
-89.99999999996434
 51
0.00000000004094
  0
ARC
  5
23B
330
52
100
AcDbEntity
  8
0
  6
Continuous
 62
     7
100
AcDbCircle
 10
-27.52200000000624
 20
543.4264527951548
 30
0.0
 40
3.500000000000227
100
AcDbArc
 50
90.00000000000081
 51
179.9999999999963
  0
ARC
  5
23C
330
52
100
AcDbEntity
  8
0
  6
Continuous
 62
     7
100
AcDbCircle
 10
-43.00000000002291
 20
558.9044527951824
 30
0.0
 40
3.5
100
AcDbArc
 50
-90.00000000000081
 51
0.0
  0
ARC
  5
23D
330
52
100
AcDbEntity
  8
0
  6
Continuous
 62
     7
100
AcDbCircle
 10
-43.00000000002291
 20
558.9044527951824
 30
0.0
 40
3.500000000000071
100
AcDbArc
 50
180.0
 51
-90.00000000000081
  0
ARC
  5
23E
330
52
100
AcDbEntity
  8
0
  6
Continuous
 62
     3
100
AcDbCircle
 10
-11.52200000000494
 20
559.426452795155
 30
0.0
 40
6.0
100
AcDbArc
 50
180.0
 51
-90.0
  0
ARC
  5
23F
330
52
100
AcDbEntity
  8
0
  6
Continuous
 62
     7
100
AcDbCircle
 10
-27.00000000002251
 20
574.9044527951804
 30
0.0
 40
3.500000000000231
100
AcDbArc
 50
179.9999999999982
 51
-90.00000000000378
  0
ARC
  5
240
330
52
100
AcDbEntity
  8
0
  6
Continuous
 62
     3
100
AcDbCircle
 10
-43.00000000002291
 20
558.9044527951824
 30
0.0
 40
6.0
100
AcDbArc
 50
-90.00000000000061
 51
0.0
  0
ARC
  5
241
330
52
100
AcDbEntity
  8
0
  6
Continuous
 62
     7
100
AcDbCircle
 10
68.95600000002109
 20
639.9044527951714
 30
0.0
 40
3.499999999999957
100
AcDbArc
 50
0.0
 51
90.0000000000007
  0
ARC
  5
242
330
52
100
AcDbEntity
  8
0
  6
Continuous
 62
     7
100
AcDbCircle
 10
53.47800000000461
 20
655.3824527951988
 30
0.0
 40
3.5
100
AcDbArc
 50
-90.0
 51
0.0
  0
ARC
  5
243
330
52
100
AcDbEntity
  8
0
  6
Continuous
 62
     7
100
AcDbCircle
 10
68.95600000002324
 20
639.9044527951736
 30
0.0
 40
3.49999999999784
100
AcDbArc
 50
90.00000000003583
 51
-179.9999999999646
  0
ARC
  5
244
330
52
100
AcDbEntity
  8
0
  6
Continuous
 62
     3
100
AcDbCircle
 10
68.95600000002109
 20
639.9044527951714
 30
0.0
 40
6.0
100
AcDbArc
 50
90.00000000000041
 51
180.0
  0
ARC
  5
245
330
52
100
AcDbEntity
  8
0
  6
Continuous
 62
     7
100
AcDbCircle
 10
-52.21000000000095
 20
664.5924527951993
 30
0.0
 40
3.789999999999395
100
AcDbArc
 50
90.0
 51
135.0000000000063
  0
ARC
  5
246
330
52
100
AcDbEntity
  8
0
  6
Continuous
 62
     7
100
AcDbCircle
 10
-27.52199999999539
 20
655.3824527951988
 30
0.0
 40
3.5
100
AcDbArc
 50
90.0
 51
180.0
  0
ARC
  5
247
330
52
100
AcDbEntity
  8
0
  6
Continuous
 62
     3
100
AcDbCircle
 10
-27.52199999999539
 20
655.3824527951988
 30
0.0
 40
5.999999999999996
100
AcDbArc
 50
180.0
 51
-90.0
  0
ARC
  5
248
330
52
100
AcDbEntity
  8
0
  6
Continuous
 62
     3
100
AcDbCircle
 10
-27.52199999999539
 20
655.3824527951988
 30
0.0
 40
6.0
100
AcDbArc
 50
90.0
 51
180.0
  0
ARC
  5
249
330
52
100
AcDbEntity
  8
0
  6
Continuous
 62
     7
100
AcDbCircle
 10
78.16599999999903
 20
664.5924527951984
 30
0.0
 40
3.790000000000191
100
AcDbArc
 50
0.00000000000687
 51
45.00000000000243
  0
ARC
  5
24A
330
52
100
AcDbEntity
  8
0
  6
Continuous
 62
     3
100
AcDbCircle
 10
-52.21000000000095
 20
664.5924527951993
 30
0.0
 40
1.289999999999509
100
AcDbArc
 50
90.0
 51
135.0000000000143
  0
ARC
  5
24B
330
52
100
AcDbEntity
  8
0
  6
Continuous
 62
     3
100
AcDbCircle
 10
53.47800000000461
 20
655.3824527951988
 30
0.0
 40
6.0
100
AcDbArc
 50
-90.0
 51
0.0
  0
ARC
  5
24C
330
52
100
AcDbEntity
  8
0
  6
Continuous
 62
     7
100
AcDbCircle
 10
53.47800000000461
 20
655.3824527951988
 30
0.0
 40
3.5
100
AcDbArc
 50
0.0
 51
90.0
  0
ARC
  5
24D
330
52
100
AcDbEntity
  8
0
  6
Continuous
 62
     3
100
AcDbCircle
 10
37.47800000000282
 20
639.3824527951988
 30
0.0
 40
5.999999999999964
100
AcDbArc
 50
0.0
 51
90.00000000000034
  0
ARC
  5
24E
330
52
100
AcDbEntity
  8
0
  6
Continuous
 62
     3
100
AcDbCircle
 10
78.16599999999903
 20
664.5924527951984
 30
0.0
 40
1.290000000000191
100
AcDbArc
 50
0.0000000000202
 51
45.00000000001071
  0
ARC
  5
24F
330
52
100
AcDbEntity
  8
0
  6
Continuous
 62
     3
100
AcDbCircle
 10
78.16599999999903
 20
664.5924527951984
 30
0.0
 40
1.290000000000446
100
AcDbArc
 50
45.00000000001071
 51
89.99999999998927
  0
ARC
  5
250
330
52
100
AcDbEntity
  8
0
  6
Continuous
 62
     7
100
AcDbCircle
 10
78.16599999999903
 20
664.5924527951984
 30
0.0
 40
3.790000000000466
100
AcDbArc
 50
45.00000000000243
 51
89.99999999999635
  0
ARC
  5
251
330
52
100
AcDbEntity
  8
0
  6
Continuous
 62
     3
100
AcDbCircle
 10
53.47800000000461
 20
655.3824527951988
 30
0.0
 40
6.0
100
AcDbArc
 50
0.0
 51
89.99999999999993
  0
ARC
  5
252
330
52
100
AcDbEntity
  8
0
  6
Continuous
 62
     3
100
AcDbCircle
 10
37.47800000000282
 20
639.3824527951988
 30
0.0
 40
6.0
100
AcDbArc
 50
-90.00000000000034
 51
0.0
  0
ARC
  5
253
330
52
100
AcDbEntity
  8
0
  6
Continuous
 62
     7
100
AcDbCircle
 10
78.16599999999903
 20
534.2164527951995
 30
0.0
 40
3.790000000001029
100
AcDbArc
 50
-45.00000000000608
 51
-0.00000000001375
  0
ARC
  5
254
330
52
100
AcDbEntity
  8
0
  6
Continuous
 62
     3
100
AcDbCircle
 10
78.16599999999903
 20
534.2164527951995
 30
0.0
 40
1.290000000000687
100
AcDbArc
 50
-45.00000000002142
 51
-0.0000000000404
  0
ARC
  5
255
330
52
100
AcDbEntity
  8
0
  6
Continuous
 62
     3
100
AcDbCircle
 10
78.16599999999903
 20
534.2164527951995
 30
0.0
 40
1.290000000000873
100
AcDbArc
 50
-89.9999999999899
 51
-45.00000000002142
  0
ARC
  5
256
330
52
100
AcDbEntity
  8
0
  6
Continuous
 62
     3
100
AcDbCircle
 10
68.95600000002129
 20
558.9044527951712
 30
0.0
 40
6.000000000000242
100
AcDbArc
 50
179.9999999999978
 51
-90.00000000000232
  0
ARC
  5
257
330
52
100
AcDbEntity
  8
0
  6
Continuous
 62
     3
100
AcDbCircle
 10
68.95600000002129
 20
558.9044527951712
 30
0.0
 40
5.999999999999773
100
AcDbArc
 50
-90.00000000000232
 51
0.00000000000217
  0
ARC
  5
258
330
52
100
AcDbEntity
  8
0
  6
Continuous
 62
     7
100
AcDbCircle
 10
68.95600000002406
 20
558.9044527951739
 30
0.0
 40
3.500000000002615
100
AcDbArc
 50
-90.00000000004933
 51
-0.00000000004094
  0
ARC
  5
259
330
52
100
AcDbEntity
  8
0
  6
Continuous
 62
     7
100
AcDbCircle
 10
78.16599999999903
 20
534.2164527951995
 30
0.0
 40
3.790000000000759
100
AcDbArc
 50
-89.99999999999635
 51
-45.00000000000608
  0
ARC
  5
25A
330
52
100
AcDbEntity
  8
0
  6
Continuous
 62
     3
100
AcDbCircle
 10
53.47799999999364
 20
543.426452795155
 30
0.0
 40
6.0
100
AcDbArc
 50
-89.99999999999933
 51
0.0
  0
ARC
  5
25B
330
52
100
AcDbEntity
  8
0
  6
Continuous
 62
     3
100
AcDbCircle
 10
-43.00000000002291
 20
558.9044527951824
 30
0.0
 40
6.000000000000064
100
AcDbArc
 50
180.0
 51
-90.00000000000061
  0
ARC
  5
25C
330
52
100
AcDbEntity
  8
0
  6
Continuous
 62
     3
100
AcDbCircle
 10
-52.21000000000027
 20
534.2164527951987
 30
0.0
 40
1.290000000000536
100
AcDbArc
 50
-135.0000000000147
 51
-90.0000000000303
  0
ARC
  5
25D
330
52
100
AcDbEntity
  8
0
  6
Continuous
 62
     7
100
AcDbCircle
 10
-52.21000000000027
 20
534.2164527951987
 30
0.0
 40
3.789999999999823
100
AcDbArc
 50
-135.0000000000073
 51
-90.00000000001032
  0
ARC
  5
25E
330
52
100
AcDbEntity
  8
0
  6
Continuous
 62
     3
100
AcDbCircle
 10
-27.52200000000624
 20
543.4264527951548
 30
0.0
 40
6.000000000000227
100
AcDbArc
 50
90.00000000000068
 51
179.9999999999978
  0
ARC
  5
25F
330
52
100
AcDbEntity
  8
0
  6
Continuous
 62
     7
100
AcDbCircle
 10
-27.52200000000624
 20
543.4264527951548
 30
0.0
 40
3.500000000000529
100
AcDbArc
 50
179.9999999999963
 51
-90.00000000000081
  0
ARC
  5
260
330
52
100
AcDbEntity
  8
0
  6
Continuous
 62
     3
100
AcDbCircle
 10
-27.52200000000624
 20
543.4264527951548
 30
0.0
 40
6.000000000000068
100
AcDbArc
 50
179.9999999999978
 51
-90.00000000000048
  0
ARC
  5
261
330
52
100
AcDbEntity
  8
0
  6
Continuous
 62
     3
100
AcDbCircle
 10
-52.21000000000027
 20
534.2164527951987
 30
0.0
 40
1.290000000000646
100
AcDbArc
 50
-179.999999999995
 51
-135.0000000000147
  0
ARC
  5
262
330
52
100
AcDbEntity
  8
0
  6
Continuous
 62
     7
100
AcDbCircle
 10
-52.21000000000027
 20
534.2164527951987
 30
0.0
 40
3.790000000000418
100
AcDbArc
 50
-179.9999999999983
 51
-135.0000000000073
  0
ENDBLK
  5
54
330
52
100
AcDbEntity
  8
0
100
AcDbBlockEnd
  0
BLOCK
  5
56
330
55
100
AcDbEntity
  8
0
100
AcDbBlockBegin
  2
HL062B_2E_Aufsatzrahmen__2
 70
     0
 71
     0
 10
-61.00000000000056
 20
525.0000013548589
 30
0.0
  3
HL062B_2E_Aufsatzrahmen__2
  1

  0
LINE
  5
263
330
55
100
AcDbEntity
  8
0
  6
Continuous
 62
     7
100
AcDbLine
 10
86.99999999999945
 20
673.0000013548589
 30
0.0
 11
-61.00000000000056
 21
673.0000013548589
 31
0.0
  0
LINE
  5
264
330
55
100
AcDbEntity
  8
0
  6
Continuous
 62
     7
100
AcDbLine
 10
-57.00000000000055
 20
669.0000013548588
 30
0.0
 11
-57.00000000000041
 21
613.0000013548596
 31
0.0
  0
LINE
  5
265
330
55
100
AcDbEntity
  8
0
  6
Continuous
 62
     7
100
AcDbLine
 10
-55.49999999999985
 20
666.4739415674223
 30
0.0
 11
-55.49999999999985
 21
667.5000013548596
 31
0.0
  0
LINE
  5
266
330
55
100
AcDbEntity
  8
0
  6
Continuous
 62
     7
100
AcDbLine
 10
-0.99999999999982
 20
668.3824527951988
 30
0.0
 11
-0.99999999999983
 21
669.0000013548589
 31
0.0
  0
LINE
  5
267
330
55
100
AcDbEntity
  8
0
  6
Continuous
 62
     7
100
AcDbLine
 10
26.99999999999945
 20
669.0000013548589
 30
0.0
 11
26.99999999999945
 21
668.3824527951988
 31
0.0
  0
LINE
  5
268
330
55
100
AcDbEntity
  8
0
  6
Continuous
 62
     7
100
AcDbLine
 10
82.99999999999943
 20
585.0000013548587
 30
0.0
 11
82.99999999999946
 21
613.0000013548589
 31
0.0
  0
LINE
  5
269
330
55
100
AcDbEntity
  8
0
  6
Continuous
 62
     7
100
AcDbLine
 10
81.95599999999922
 20
613.0000013548589
 30
0.0
 11
82.99999999999946
 21
613.0000013548589
 31
0.0
  0
LINE
  5
26A
330
55
100
AcDbEntity
  8
0
  6
Continuous
 62
     7
100
AcDbLine
 10
82.99999999999943
 20
585.0000013548587
 30
0.0
 11
81.95599999999922
 21
585.0000013548587
 31
0.0
  0
LINE
  5
26B
330
55
100
AcDbEntity
  8
0
  6
Continuous
 62
     7
100
AcDbLine
 10
-57.00000000000041
 20
613.0000013548596
 30
0.0
 11
-57.00000000000053
 21
585.0000013548594
 31
0.0
  0
LINE
  5
26C
330
55
100
AcDbEntity
  8
0
  6
Continuous
 62
     7
100
AcDbLine
 10
-56.00000000000092
 20
585.0000013548594
 30
0.0
 11
-57.00000000000053
 21
585.0000013548594
 31
0.0
  0
LINE
  5
26D
330
55
100
AcDbEntity
  8
0
  6
Continuous
 62
     7
100
AcDbLine
 10
-1.000000000001
 20
529.0000013548589
 30
0.0
 11
26.99999999999925
 21
529.0000013548589
 31
0.0
  0
LINE
  5
26E
330
55
100
AcDbEntity
  8
0
  6
Continuous
 62
     7
100
AcDbLine
 10
-1.000000000001
 20
529.0000013548589
 30
0.0
 11
-1.00000000000099
 21
530.4264527951989
 31
0.0
  0
LINE
  5
26F
330
55
100
AcDbEntity
  8
0
  6
Continuous
 62
     7
100
AcDbLine
 10
26.99999999999925
 20
530.4264527951989
 30
0.0
 11
26.99999999999925
 21
529.0000013548589
 31
0.0
  0
LINE
  5
270
330
55
100
AcDbEntity
  8
0
  6
Continuous
 62
     7
100
AcDbLine
 10
-0.99999999999983
 20
669.0000013548589
 30
0.0
 11
-57.00000000000055
 21
669.0000013548588
 31
0.0
  0
LINE
  5
271
330
55
100
AcDbEntity
  8
0
  6
Continuous
 62
     7
100
AcDbLine
 10
-55.49999999999985
 20
667.5000013548596
 30
0.0
 11
-54.64110291292251
 21
667.5000013548595
 31
0.0
  0
LINE
  5
272
330
55
100
AcDbEntity
  8
0
  6
Continuous
 62
     7
100
AcDbLine
 10
81.49999999999946
 20
667.5000013548589
 30
0.0
 11
81.49999999999946
 21
666.3948245659487
 31
0.0
  0
LINE
  5
273
330
55
100
AcDbEntity
  8
0
  6
Continuous
 62
     7
100
AcDbLine
 10
-57.00000000000041
 20
613.0000013548596
 30
0.0
 11
-56.00000000000092
 21
613.0000013548596
 31
0.0
  0
LINE
  5
274
330
55
100
AcDbEntity
  8
0
  6
Continuous
 62
     7
100
AcDbLine
 10
82.99999999999945
 20
669.0000013548589
 30
0.0
 11
26.99999999999945
 21
669.0000013548589
 31
0.0
  0
LINE
  5
275
330
55
100
AcDbEntity
  8
0
  6
Continuous
 62
     7
100
AcDbLine
 10
26.99999999999945
 20
669.0000013548589
 30
0.0
 11
-0.99999999999983
 21
669.0000013548589
 31
0.0
  0
LINE
  5
276
330
55
100
AcDbEntity
  8
0
  6
Continuous
 62
     7
100
AcDbLine
 10
80.59710291292133
 20
667.5000013548589
 30
0.0
 11
81.49999999999946
 21
667.5000013548589
 31
0.0
  0
LINE
  5
277
330
55
100
AcDbEntity
  8
0
  6
Continuous
 62
     7
100
AcDbLine
 10
86.99999999999946
 20
525.0000013548589
 30
0.0
 11
86.99999999999945
 21
673.0000013548589
 31
0.0
  0
LINE
  5
278
330
55
100
AcDbEntity
  8
0
  6
Continuous
 62
     7
100
AcDbLine
 10
82.99999999999949
 20
529.0000013548589
 30
0.0
 11
82.99999999999943
 21
585.0000013548587
 31
0.0
  0
LINE
  5
279
330
55
100
AcDbEntity
  8
0
  6
Continuous
 62
     7
100
AcDbLine
 10
81.49999999999926
 20
532.4140810244475
 30
0.0
 11
81.49999999999928
 21
530.5000013548586
 31
0.0
  0
LINE
  5
27A
330
55
100
AcDbEntity
  8
0
  6
Continuous
 62
     7
100
AcDbLine
 10
82.99999999999946
 20
613.0000013548589
 30
0.0
 11
82.99999999999945
 21
669.0000013548589
 31
0.0
  0
LINE
  5
27B
330
55
100
AcDbEntity
  8
0
  6
Continuous
 62
     7
100
AcDbLine
 10
81.49999999999928
 20
530.5000013548586
 30
0.0
 11
78.90902670987853
 21
530.5000013548587
 31
0.0
  0
LINE
  5
27C
330
55
100
AcDbEntity
  8
0
  6
Continuous
 62
     7
100
AcDbLine
 10
-61.00000000000056
 20
673.0000013548589
 30
0.0
 11
-61.00000000000052
 21
525.0000013548589
 31
0.0
  0
LINE
  5
27D
330
55
100
AcDbEntity
  8
0
  6
Continuous
 62
     7
100
AcDbLine
 10
-57.00000000000053
 20
585.0000013548594
 30
0.0
 11
-57.00000000000052
 21
529.0000013548589
 31
0.0
  0
LINE
  5
27E
330
55
100
AcDbEntity
  8
0
  6
Continuous
 62
     7
100
AcDbLine
 10
-61.00000000000052
 20
525.0000013548589
 30
0.0
 11
86.99999999999946
 21
525.0000013548589
 31
0.0
  0
LINE
  5
27F
330
55
100
AcDbEntity
  8
0
  6
Continuous
 62
     7
100
AcDbLine
 10
-57.00000000000052
 20
529.0000013548589
 30
0.0
 11
-1.000000000001
 21
529.0000013548589
 31
0.0
  0
LINE
  5
280
330
55
100
AcDbEntity
  8
0
  6
Continuous
 62
     7
100
AcDbLine
 10
-52.95302670988429
 20
530.5000013548594
 30
0.0
 11
-55.50000000000102
 21
530.5000013548593
 31
0.0
  0
LINE
  5
281
330
55
100
AcDbEntity
  8
0
  6
Continuous
 62
     7
100
AcDbLine
 10
26.99999999999925
 20
529.0000013548589
 30
0.0
 11
82.99999999999949
 21
529.0000013548589
 31
0.0
  0
LINE
  5
282
330
55
100
AcDbEntity
  8
0
  6
Continuous
 62
     7
100
AcDbLine
 10
-55.50000000000102
 20
530.5000013548593
 30
0.0
 11
-55.50000000000092
 21
532.3349640229761
 31
0.0
  0
LINE
  5
283
330
55
100
AcDbEntity
  8
1
  6
DOT_CENTER
 62
     2
100
AcDbLine
 10
12.99999999999946
 20
679.122614155779
 30
0.0
 11
12.99999999999945
 21
519.231308953303
 31
0.0
  0
LINE
  5
284
330
55
100
AcDbEntity
  8
1
  6
DOT_CENTER
 62
     2
100
AcDbLine
 10
91.4668332173827
 20
599.0000013548589
 30
0.0
 11
-66.2228705365219
 21
599.0000013548589
 31
0.0
  0
ARC
  5
285
330
55
100
AcDbEntity
  8
0
  6
Continuous
 62
     7
100
AcDbCircle
 10
12.99999999999946
 20
599.0000013548589
 30
0.0
 40
68.99999999999997
100
AcDbArc
 50
140.9693151356355
 51
149.5779477204823
  0
ARC
  5
286
330
55
100
AcDbEntity
  8
0
  6
Continuous
 62
     7
100
AcDbCircle
 10
12.99999999999946
 20
599.0000013548589
 30
0.0
 40
68.99999999999993
100
AcDbArc
 50
119.7889117105227
 51
128.5799689020468
  0
ARC
  5
287
330
55
100
AcDbEntity
  8
0
  6
Continuous
 62
     7
100
AcDbCircle
 10
12.99999999999946
 20
599.0000013548589
 30
0.0
 40
68.99999999999999
100
AcDbArc
 50
-38.5306038530136
 51
-30.49412934782657
  0
ARC
  5
288
330
55
100
AcDbEntity
  8
0
  6
Continuous
 62
     7
100
AcDbCircle
 10
12.99999999999946
 20
599.0000013548589
 30
0.0
 40
69.0
100
AcDbArc
 50
-2.0462679602196
 51
0.0
  0
ARC
  5
289
330
55
100
AcDbEntity
  8
0
  6
Continuous
 62
     7
100
AcDbCircle
 10
12.99999999999946
 20
599.0000013548589
 30
0.0
 40
69.0
100
AcDbArc
 50
0.0
 51
2.0462679602196
  0
ARC
  5
28A
330
55
100
AcDbEntity
  8
0
  6
Continuous
 62
     7
100
AcDbCircle
 10
12.99999999999946
 20
599.0000013548589
 30
0.0
 40
69.0
100
AcDbArc
 50
-58.88572710461452
 51
-51.0270480594766
  0
ARC
  5
28B
330
55
100
AcDbEntity
  8
0
  6
Continuous
 62
     7
100
AcDbCircle
 10
12.99999999999946
 20
599.0000013548589
 30
0.0
 40
69.00000000000004
100
AcDbArc
 50
-149.5779477204823
 51
-141.4902490357861
  0
ARC
  5
28C
330
55
100
AcDbEntity
  8
0
  6
Continuous
 62
     7
100
AcDbCircle
 10
12.99999999999946
 20
599.0000013548589
 30
0.0
 40
68.99999999999997
100
AcDbArc
 50
-96.3734092992041
 51
-83.62659070079606
  0
ARC
  5
28D
330
55
100
AcDbEntity
  8
0
  6
Continuous
 62
     7
100
AcDbCircle
 10
12.99999999999946
 20
599.0000013548589
 30
0.0
 40
68.99999999999996
100
AcDbArc
 50
-129.0034816193495
 51
-121.1142728953855
  0
ARC
  5
28E
330
55
100
AcDbEntity
  8
0
  6
Continuous
 62
     7
100
AcDbCircle
 10
12.99999999999946
 20
599.0000013548589
 30
0.0
 40
68.99999999999997
100
AcDbArc
 50
51.44641994740672
 51
60.21108828947725
  0
ARC
  5
28F
330
55
100
AcDbEntity
  8
0
  6
Continuous
 62
     7
100
AcDbCircle
 10
12.99999999999946
 20
599.0000013548589
 30
0.0
 40
69.0
100
AcDbArc
 50
30.49412934782656
 51
39.05567002149943
  0
ENDBLK
  5
57
330
55
100
AcDbEntity
  8
0
100
AcDbBlockEnd
  0
BLOCK
  5
5B
330
58
100
AcDbEntity
  8
0
100
AcDbBlockBegin
  2
Bgr_HL69_9__3
 70
     0
 71
     0
 10
-61.00000000000056
 20
525.0000013548589
 30
0.0
  3
Bgr_HL69_9__3
  1

  0
INSERT
  5
59
330
58
100
AcDbEntity
  8
0
100
AcDbBlockReference
  2
HL0317_1E_Einlaufrost
 10
-56.00000000000092
 20
530.4264527951988
 30
0.0
  0
INSERT
  5
5A
330
58
100
AcDbEntity
  8
0
100
AcDbBlockReference
  2
HL062B_2E_Aufsatzrahmen__2
 10
-61.00000000000056
 20
525.0000013548589
 30
0.0
  0
ENDBLK
  5
5C
330
58
100
AcDbEntity
  8
0
100
AcDbBlockEnd
  0
BLOCK
  5
5F
330
5D
100
AcDbEntity
  8
0
100
AcDbBlockBegin
  2
Vordans1
 70
     0
 71
     0
 10
13.0
 20
599.0
 30
0.0
  3
Vordans1
  1

  0
INSERT
  5
5E
330
5D
100
AcDbEntity
  8
0
100
AcDbBlockReference
  2
Bgr_HL69_9__3
 10
-61.00000000000056
 20
525.0000013548589
 30
0.0
  0
ENDBLK
  5
60
330
5D
100
AcDbEntity
  8
0
100
AcDbBlockEnd
  0
BLOCK
  5
64
330
61
100
AcDbEntity
  8
0
100
AcDbBlockBegin
  2
1
 70
     0
 71
     0
 10
0.0
 20
0.0
 30
0.0
  3
1
  1

  0
INSERT
  5
62
330
61
100
AcDbEntity
  8
0
100
AcDbBlockReference
  2
Untsicht1
 10
13.0
 20
762.9999999997549
 30
0.0
  0
INSERT
  5
63
330
61
100
AcDbEntity
  8
0
100
AcDbBlockReference
  2
Vordans1
 10
13.0
 20
599.0
 30
0.0
  0
ENDBLK
  5
65
330
61
100
AcDbEntity
  8
0
100
AcDbBlockEnd
  0
BLOCK
  5
14D
330
145
100
AcDbEntity
  8
0
100
AcDbBlockBegin
  2
*D10
 70
     1
 71
     0
 10
0.0
 20
0.0
 30
0.0
  3
*D10
  1

  0
LINE
  5
146
330
145
100
AcDbEntity
  8
1
  6
Continuous
 62
     4
100
AcDbLine
 10
86.99999999999947
 20
819.99294849797
 30
0.0
 11
-61.00000000000053
 21
819.99294849797
 31
0.0
  0
LINE
  5
147
330
145
100
AcDbEntity
  8
1
  6
Continuous
 62
     4
100
AcDbLine
 10
86.99999999999947
 20
808.2499982957929
 30
0.0
 11
86.99999999999947
 21
821.99294849797
 31
0.0
  0
LINE
  5
148
330
145
100
AcDbEntity
  8
1
  6
Continuous
 62
     4
100
AcDbLine
 10
-61.00000000000053
 20
808.2499982957929
 30
0.0
 11
-61.00000000000053
 21
821.99294849797
 31
0.0
  0
SOLID
  5
149
330
145
100
AcDbEntity
  8
1
 62
     4
100
AcDbTrace
 10
79.99999999999947
 20
819.0713810148583
 30
0.0
 11
79.99999999999947
 21
820.9145159810818
 31
0.0
 12
86.99999999999947
 22
819.99294849797
 32
0.0
 13
86.99999999999947
 23
819.99294849797
 33
0.0
  0
SOLID
  5
14A
330
145
100
AcDbEntity
  8
1
 62
     4
100
AcDbTrace
 10
-54.00000000000053
 20
820.9145159810818
 30
0.0
 11
-54.00000000000053
 21
819.0713810148583
 31
0.0
 12
-61.00000000000053
 22
819.99294849797
 32
0.0
 13
-61.00000000000053
 23
819.99294849797
 33
0.0
  0
MTEXT
  5
14C
330
145
100
AcDbEntity
  8
1
 62
     1
100
AcDbMText
 10
-17.92934764120449
 20
821.99294849797
 30
0.0
 40
7.0
 41
0.0
 71
     7
 72
     1
  1
\C1;150\C1;x150
  7
CONVERTER_11
 11
0.9999999999970619
 21
2.424068405545306E-6
 31
0.0
 73
     1
 44
0.60024009603842
  0
ENDBLK
  5
14E
330
145
100
AcDbEntity
  8
0
100
AcDbBlockEnd
  0
BLOCK
  5
158
330
151
100
AcDbEntity
  8
0
100
AcDbBlockBegin
  2
*D11
 70
     1
 71
     0
 10
0.0
 20
0.0
 30
0.0
  3
*D11
  1

  0
LINE
  5
152
330
151
100
AcDbEntity
  8
1
  6
Continuous
 62
     4
100
AcDbLine
 10
85.49999999999972
 20
695.371127757165
 30
0.0
 11
-59.50000000000077
 21
695.371127757165
 31
0.0
  0
LINE
  5
153
330
151
100
AcDbEntity
  8
1
  6
Continuous
 62
     4
100
AcDbLine
 10
85.49999999999972
 20
723.7499982957929
 30
0.0
 11
85.49999999999972
 21
693.371127757165
 31
0.0
  0
LINE
  5
154
330
151
100
AcDbEntity
  8
1
  6
Continuous
 62
     4
100
AcDbLine
 10
-59.50000000000077
 20
723.7499982957929
 30
0.0
 11
-59.50000000000077
 21
693.371127757165
 31
0.0
  0
SOLID
  5
155
330
151
100
AcDbEntity
  8
1
 62
     4
100
AcDbTrace
 10
78.49999999999972
 20
694.4495602740533
 30
0.0
 11
78.49999999999972
 21
696.2926952402768
 31
0.0
 12
85.49999999999972
 22
695.371127757165
 32
0.0
 13
85.49999999999972
 23
695.371127757165
 33
0.0
  0
SOLID
  5
156
330
151
100
AcDbEntity
  8
1
 62
     4
100
AcDbTrace
 10
-52.50000000000077
 20
696.2926952402768
 30
0.0
 11
-52.50000000000077
 21
694.4495602740533
 31
0.0
 12
-59.50000000000077
 22
695.371127757165
 32
0.0
 13
-59.50000000000077
 23
695.371127757165
 33
0.0
  0
MTEXT
  5
157
330
151
100
AcDbEntity
  8
1
 62
     1
100
AcDbMText
 10
-23.52115597333328
 20
697.3710860147071
 30
0.0
 40
7.0
 41
0.0
 71
     7
 72
     1
  1
\C1;{\Fgdt;n}\C1;145
  7
CONVERTER_11
 11
0.9999999999970619
 21
2.424068405545306E-6
 31
0.0
 73
     1
 44
0.60024009603842
  0
ENDBLK
  5
159
330
151
100
AcDbEntity
  8
0
100
AcDbBlockEnd
  0
BLOCK
  5
163
330
15C
100
AcDbEntity
  8
0
100
AcDbBlockBegin
  2
*D12
 70
     1
 71
     0
 10
0.0
 20
0.0
 30
0.0
  3
*D12
  1

  0
LINE
  5
15D
330
15C
100
AcDbEntity
  8
1
  6
Continuous
 62
     4
100
AcDbLine
 10
101.234347228699
 20
808.2499982957929
 30
0.0
 11
101.234347228699
 21
717.7499982957929
 31
0.0
  0
LINE
  5
15E
330
15C
100
AcDbEntity
  8
1
  6
Continuous
 62
     4
100
AcDbLine
 10
86.99999999999947
 20
808.2499982957929
 30
0.0
 11
103.234347228699
 21
808.2499982957929
 31
0.0
  0
LINE
  5
15F
330
15C
100
AcDbEntity
  8
1
  6
Continuous
 62
     4
100
AcDbLine
 10
84.99999999999976
 20
717.7499982957929
 30
0.0
 11
103.234347228699
 21
717.7499982957929
 31
0.0
  0
SOLID
  5
160
330
15C
100
AcDbEntity
  8
1
 62
     4
100
AcDbTrace
 10
102.1559147118108
 20
801.2499982957929
 30
0.0
 11
100.3127797455872
 21
801.2499982957929
 31
0.0
 12
101.234347228699
 22
808.2499982957929
 32
0.0
 13
101.234347228699
 23
808.2499982957929
 33
0.0
  0
SOLID
  5
161
330
15C
100
AcDbEntity
  8
1
 62
     4
100
AcDbTrace
 10
100.3127797455872
 20
724.7499982957929
 30
0.0
 11
102.1559147118108
 21
724.7499982957929
 31
0.0
 12
101.234347228699
 22
717.7499982957929
 32
0.0
 13
101.234347228699
 23
717.7499982957929
 33
0.0
  0
MTEXT
  5
162
330
15C
100
AcDbEntity
  8
1
 62
     1
100
AcDbMText
 10
99.234347228699
 20
758.842266096931
 30
0.0
 40
7.0
 41
0.0
 71
     7
 72
     1
  1
90
  7
CONVERTER_11
 11
0.0
 21
1.0
 31
0.0
 73
     1
 44
0.60024009603842
  0
ENDBLK
  5
164
330
15C
100
AcDbEntity
  8
0
100
AcDbBlockEnd
  0
ENDSEC
  0
SECTION
  2
ENTITIES
  0
INSERT
  5
66
330
1F
100
AcDbEntity
  8
1
100
AcDbBlockReference
  2
066_4E_O-Ring_135x2_5
 10
-37.27093796608824
 20
1068.31678377475
 30
0.0
  0
INSERT
  5
67
330
1F
100
AcDbEntity
  8
1
100
AcDbBlockReference
  2
1
 10
0.0
 20
0.0
 30
0.0
  0
ENDSEC
  0
SECTION
  2
OBJECTS
  0
DICTIONARY
  5
C
330
0
100
AcDbDictionary
281
     1
  3
ACAD_GROUP
350
D
  3
ACAD_LAYOUT
350
1A
  3
ACAD_MLINESTYLE
350
17
  3
ACAD_PLOTSETTINGS
350
19
  3
ACAD_PLOTSTYLENAME
350
E
  3
ACAD_TABLESTYLE
350
290
  3
ACAD_VISUALSTYLE
350
2A
  0
DICTIONARY
  5
D
102
{ACAD_REACTORS
330
C
102
}
330
C
100
AcDbDictionary
281
     1
  0
DICTIONARY
  5
1A
102
{ACAD_REACTORS
330
C
102
}
330
C
100
AcDbDictionary
281
     1
  3
Layout1
350
1E
  3
Layout2
350
26
  3
Model
350
22
  0
DICTIONARY
  5
17
102
{ACAD_REACTORS
330
C
102
}
330
C
100
AcDbDictionary
281
     1
  3
Standard
350
18
  0
DICTIONARY
  5
19
102
{ACAD_REACTORS
330
C
102
}
330
C
100
AcDbDictionary
281
     1
  0
ACDBDICTIONARYWDFLT
  5
E
102
{ACAD_REACTORS
330
C
102
}
330
C
100
AcDbDictionary
281
     1
  3
Normal
350
F
100
AcDbDictionaryWithDefault
340
F
  0
DICTIONARY
  5
290
102
{ACAD_REACTORS
330
C
102
}
330
C
100
AcDbDictionary
281
     1
  0
DICTIONARY
  5
2A
102
{ACAD_REACTORS
330
C
102
}
330
C
100
AcDbDictionary
281
     1
  3
2dWireframe
350
2F
  3
3D Hidden
350
31
  3
3dWireframe
350
30
  3
Basic
350
32
  3
Brighten
350
36
  3
ColorChange
350
3A
  3
Conceptual
350
34
  3
Dim
350
35
  3
Facepattern
350
39
  3
Flat
350
2B
  3
FlatWithEdges
350
2C
  3
Gouraud
350
2D
  3
GouraudWithEdges
350
2E
  3
Linepattern
350
38
  3
Realistic
350
33
  3
Thicken
350
37
  0
LAYOUT
  5
1E
102
{ACAD_REACTORS
330
1A
102
}
330
1A
100
AcDbPlotSettings
  1

  2
none_device
  4

  6

 40
0.0
 41
0.0
 42
0.0
 43
0.0
 44
0.0
 45
0.0
 46
0.0
 47
0.0
 48
0.0
 49
0.0
140
0.0
141
0.0
142
1.0
143
1.0
 70
   688
 72
     0
 73
     0
 74
     5
  7

 75
    16
147
1.0
148
0.0
149
0.0
100
AcDbLayout
  1
Layout1
 70
     1
 71
     1
 10
0.0
 20
0.0
 11
12.0
 21
9.0
 12
0.0
 22
0.0
 32
0.0
 14
1.00000000000000E+20
 24
1.00000000000000E+20
 34
1.00000000000000E+20
 15
-1.00000000000000E+20
 25
-1.00000000000000E+20
 35
-1.00000000000000E+20
146
0.0
 13
0.0
 23
0.0
 33
0.0
 16
1.0
 26
0.0
 36
0.0
 17
0.0
 27
1.0
 37
0.0
 76
     0
330
1B
  0
LAYOUT
  5
26
102
{ACAD_REACTORS
330
1A
102
}
330
1A
100
AcDbPlotSettings
  1

  2
none_device
  4

  6

 40
0.0
 41
0.0
 42
0.0
 43
0.0
 44
0.0
 45
0.0
 46
0.0
 47
0.0
 48
0.0
 49
0.0
140
0.0
141
0.0
142
1.0
143
1.0
 70
   688
 72
     0
 73
     0
 74
     5
  7

 75
    16
147
1.0
148
0.0
149
0.0
100
AcDbLayout
  1
Layout2
 70
     1
 71
     2
 10
0.0
 20
0.0
 11
0.0
 21
0.0
 12
0.0
 22
0.0
 32
0.0
 14
0.0
 24
0.0
 34
0.0
 15
0.0
 25
0.0
 35
0.0
146
0.0
 13
0.0
 23
0.0
 33
0.0
 16
1.0
 26
0.0
 36
0.0
 17
0.0
 27
1.0
 37
0.0
 76
     0
330
23
  0
LAYOUT
  5
22
102
{ACAD_REACTORS
330
1A
102
}
330
1A
100
AcDbPlotSettings
  1

  2
none_device
  4

  6

 40
0.0
 41
0.0
 42
0.0
 43
0.0
 44
0.0
 45
0.0
 46
0.0
 47
0.0
 48
0.0
 49
0.0
140
0.0
141
0.0
142
1.0
143
1.0
 70
  1712
 72
     0
 73
     0
 74
     0
  7

 75
     0
147
1.0
148
0.0
149
0.0
100
AcDbLayout
  1
Model
 70
     1
 71
     0
 10
0.0
 20
0.0
 11
12.0
 21
9.0
 12
0.0
 22
0.0
 32
0.0
 14
-66.2228705365219
 24
519.231308953303
 34
0.0
 15
103.234347228699
 25
828.99294849797
 35
0.0
146
0.0
 13
0.0
 23
0.0
 33
0.0
 16
1.0
 26
0.0
 36
0.0
 17
0.0
 27
1.0
 37
0.0
 76
     0
330
1F
331
29
  0
MLINESTYLE
  5
18
102
{ACAD_REACTORS
330
17
102
}
330
17
100
AcDbMlineStyle
  2
Standard
 70
     0
  3

 62
   256
 51
90.0
 52
90.0
 71
     2
 49
0.5
 62
   256
  6
BYLAYER
 49
-0.5
 62
   256
  6
BYLAYER
  0
ACDBPLACEHOLDER
  5
F
102
{ACAD_REACTORS
330
E
102
}
330
E
  0
VISUALSTYLE
  5
2F
102
{ACAD_REACTORS
330
2A
102
}
330
2A
100
AcDbVisualStyle
  2
2dWireframe
 70
     4
 71
     0
 72
     2
 73
     0
 90
        0
 40
-0.6
 41
-30.0
 62
     5
 63
     7
 74
     1
 91
        4
 64
     7
 65
   257
 75
     1
175
     1
 42
1.0
 92
        0
 66
   257
 43
1.0
 76
     1
 77
     6
 78
     2
 67
     7
 79
     5
170
     0
171
     0
290
     0
174
     0
 93
        1
 44
0.0
173
     0
291
     0
 45
0.0
1001
ACAD
1000
AcDbSavedByObjectVersion
1070
     0
  0
VISUALSTYLE
  5
31
102
{ACAD_REACTORS
330
2A
102
}
330
2A
100
AcDbVisualStyle
  2
3D Hidden
 70
     6
 71
     1
 72
     2
 73
     2
 90
        0
 40
-0.6
 41
-30.0
 62
     5
 63
     7
 74
     2
 91
        2
 64
     7
 65
   257
 75
     2
175
     1
 42
40.0
 92
        0
 66
   257
 43
1.0
 76
     1
 77
     6
 78
     2
 67
     7
 79
     3
170
     0
171
     0
290
     0
174
     0
 93
        1
 44
0.0
173
     0
291
     0
 45
0.0
1001
ACAD
1000
AcDbSavedByObjectVersion
1070
     0
  0
VISUALSTYLE
  5
30
102
{ACAD_REACTORS
330
2A
102
}
330
2A
100
AcDbVisualStyle
  2
3dWireframe
 70
     5
 71
     0
 72
     2
 73
     0
 90
        0
 40
-0.6
 41
-30.0
 62
     5
 63
     7
 74
     1
 91
        4
 64
     7
 65
   257
 75
     1
175
     1
 42
1.0
 92
        0
 66
   257
 43
1.0
 76
     1
 77
     6
 78
     2
 67
     7
 79
     5
170
     0
171
     0
290
     0
174
     0
 93
        1
 44
0.0
173
     0
291
     0
 45
0.0
1001
ACAD
1000
AcDbSavedByObjectVersion
1070
     0
  0
VISUALSTYLE
  5
32
102
{ACAD_REACTORS
330
2A
102
}
330
2A
100
AcDbVisualStyle
  2
Basic
 70
     7
 71
     1
 72
     0
 73
     1
 90
        0
 40
-0.6
 41
-30.0
 62
     5
 63
     7
 74
     0
 91
        4
 64
     7
 65
   257
 75
     1
175
     1
 42
1.0
 92
        8
 66
     7
 43
1.0
 76
     1
 77
     6
 78
     2
 67
     7
 79
     5
170
     0
171
     0
290
     0
174
     0
 93
        1
 44
0.0
173
     0
291
     1
 45
0.0
1001
ACAD
1000
AcDbSavedByObjectVersion
1070
     0
  0
VISUALSTYLE
  5
36
102
{ACAD_REACTORS
330
2A
102
}
330
2A
100
AcDbVisualStyle
  2
Brighten
 70
    12
 71
     2
 72
     2
 73
     0
 90
        0
 40
-0.6
 41
-30.0
 62
     5
 63
     7
 74
     1
 91
        4
 64
     7
 65
   257
 75
     1
175
     1
 42
1.0
 92
        8
 66
     7
 43
1.0
 76
     1
 77
     6
 78
     2
 67
     7
 79
     5
170
     0
171
     0
290
     0
174
     0
 93
        1
 44
50.0
173
     0
291
     1
 45
0.0
1001
ACAD
1000
AcDbSavedByObjectVersion
1070
     0
  0
VISUALSTYLE
  5
3A
102
{ACAD_REACTORS
330
2A
102
}
330
2A
100
AcDbVisualStyle
  2
ColorChange
 70
    16
 71
     2
 72
     2
 73
     3
 90
        0
 40
-0.6
 41
-30.0
 62
     5
 63
     8
 74
     1
 91
        4
 64
     7
 65
   257
 75
     1
175
     1
 42
1.0
 92
        8
 66
     8
 43
1.0
 76
     1
 77
     6
 78
     2
 67
     7
 79
     5
170
     0
171
     0
290
     0
174
     0
 93
        1
 44
0.0
173
     0
291
     1
 45
0.0
1001
ACAD
1000
AcDbSavedByObjectVersion
1070
     0
  0
VISUALSTYLE
  5
34
102
{ACAD_REACTORS
330
2A
102
}
330
2A
100
AcDbVisualStyle
  2
Conceptual
 70
     9
 71
     3
 72
     2
 73
     0
 90
        0
 40
-0.6
 41
-30.0
 62
     5
 63
     7
 74
     2
 91
        2
 64
     7
 65
   257
 75
     1
175
     1
 42
40.0
 92
        8
 66
     7
 43
1.0
 76
     1
 77
     6
 78
     2
 67
     7
 79
     3
170
     0
171
     0
290
     0
174
     0
 93
        1
 44
0.0
173
     0
291
     0
 45
0.0
1001
ACAD
1000
AcDbSavedByObjectVersion
1070
     0
  0
VISUALSTYLE
  5
35
102
{ACAD_REACTORS
330
2A
102
}
330
2A
100
AcDbVisualStyle
  2
Dim
 70
    11
 71
     2
 72
     2
 73
     0
 90
        0
 40
-0.6
 41
-30.0
 62
     5
 63
     7
 74
     1
 91
        4
 64
     7
 65
   257
 75
     1
175
     1
 42
1.0
 92
        8
 66
     7
 43
1.0
 76
     1
 77
     6
 78
     2
 67
     7
 79
     5
170
     0
171
     0
290
     0
174
     0
 93
        1
 44
-50.0
173
     0
291
     1
 45
0.0
1001
ACAD
1000
AcDbSavedByObjectVersion
1070
     0
  0
VISUALSTYLE
  5
39
102
{ACAD_REACTORS
330
2A
102
}
330
2A
100
AcDbVisualStyle
  2
Facepattern
 70
    15
 71
     2
 72
     2
 73
     0
 90
        0
 40
-0.6
 41
-30.0
 62
     5
 63
     7
 74
     1
 91
        4
 64
     7
 65
   257
 75
     1
175
     1
 42
1.0
 92
        8
 66
     7
 43
1.0
 76
     1
 77
     6
 78
     2
 67
     7
 79
     5
170
     0
171
     0
290
     0
174
     0
 93
        1
 44
0.0
173
     0
291
     1
 45
0.0
1001
ACAD
1000
AcDbSavedByObjectVersion
1070
     0
  0
VISUALSTYLE
  5
2B
102
{ACAD_REACTORS
330
2A
102
}
330
2A
100
AcDbVisualStyle
  2
Flat
 70
     0
 71
     2
 72
     1
 73
     1
 90
        2
 40
-0.6
 41
30.0
 62
     5
 63
     7
 74
     0
 91
        4
 64
     7
 65
   257
 75
     1
175
     1
 42
1.0
 92
        8
 66
     7
 43
1.0
 76
     1
 77
     6
 78
     2
 67
     7
 79
     5
170
     0
171
     0
290
     0
174
     0
 93
       13
 44
0.0
173
     0
291
     1
 45
0.0
1001
ACAD
1000
AcDbSavedByObjectVersion
1070
     0
  0
VISUALSTYLE
  5
2C
102
{ACAD_REACTORS
330
2A
102
}
330
2A
100
AcDbVisualStyle
  2
FlatWithEdges
 70
     1
 71
     2
 72
     1
 73
     1
 90
        2
 40
-0.6
 41
30.0
 62
     5
 63
     7
 74
     1
 91
        4
 64
     7
 65
   257
 75
     1
175
     1
 42
1.0
 92
        0
 66
   257
 43
1.0
 76
     1
 77
     6
 78
     2
 67
     7
 79
     5
170
     0
171
     0
290
     0
174
     0
 93
       13
 44
0.0
173
     0
291
     1
 45
0.0
1001
ACAD
1000
AcDbSavedByObjectVersion
1070
     0
  0
VISUALSTYLE
  5
2D
102
{ACAD_REACTORS
330
2A
102
}
330
2A
100
AcDbVisualStyle
  2
Gouraud
 70
     2
 71
     2
 72
     2
 73
     1
 90
        2
 40
-0.6
 41
30.0
 62
     5
 63
     7
 74
     0
 91
        4
 64
     7
 65
   257
 75
     1
175
     1
 42
1.0
 92
        0
 66
     7
 43
1.0
 76
     1
 77
     6
 78
     2
 67
     7
 79
     5
170
     0
171
     0
290
     0
174
     0
 93
       13
 44
0.0
173
     0
291
     1
 45
0.0
1001
ACAD
1000
AcDbSavedByObjectVersion
1070
     0
  0
VISUALSTYLE
  5
2E
102
{ACAD_REACTORS
330
2A
102
}
330
2A
100
AcDbVisualStyle
  2
GouraudWithEdges
 70
     3
 71
     2
 72
     2
 73
     1
 90
        2
 40
-0.6
 41
30.0
 62
     5
 63
     7
 74
     1
 91
        4
 64
     7
 65
   257
 75
     1
175
     1
 42
1.0
 92
        0
 66
   257
 43
1.0
 76
     1
 77
     6
 78
     2
 67
     7
 79
     5
170
     0
171
     0
290
     0
174
     0
 93
       13
 44
0.0
173
     0
291
     1
 45
0.0
1001
ACAD
1000
AcDbSavedByObjectVersion
1070
     0
  0
VISUALSTYLE
  5
38
102
{ACAD_REACTORS
330
2A
102
}
330
2A
100
AcDbVisualStyle
  2
Linepattern
 70
    14
 71
     2
 72
     2
 73
     0
 90
        0
 40
-0.6
 41
-30.0
 62
     5
 63
     7
 74
     1
 91
        4
 64
     7
 65
   257
 75
     7
175
     7
 42
1.0
 92
        8
 66
     7
 43
1.0
 76
     1
 77
     6
 78
     2
 67
     7
 79
     5
170
     0
171
     0
290
     0
174
     0
 93
        1
 44
0.0
173
     0
291
     1
 45
0.0
1001
ACAD
1000
AcDbSavedByObjectVersion
1070
     0
  0
VISUALSTYLE
  5
33
102
{ACAD_REACTORS
330
2A
102
}
330
2A
100
AcDbVisualStyle
  2
Realistic
 70
     8
 71
     2
 72
     2
 73
     0
 90
        0
 40
-0.6
 41
-30.0
 62
     5
 63
     7
 74
     1
 91
        0
 64
     7
 65
   257
 75
     1
175
     1
 42
1.0
 92
        8
 66
     8
 43
1.0
 76
     1
 77
     6
 78
     2
 67
     7
 79
     5
170
     0
171
     0
290
     0
174
     0
 93
       13
 44
0.0
173
     0
291
     0
 45
0.0
1001
ACAD
1000
AcDbSavedByObjectVersion
1070
     0
  0
VISUALSTYLE
  5
37
102
{ACAD_REACTORS
330
2A
102
}
330
2A
100
AcDbVisualStyle
  2
Thicken
 70
    13
 71
     2
 72
     2
 73
     0
 90
        0
 40
-0.6
 41
-30.0
 62
     5
 63
     7
 74
     1
 91
        4
 64
     7
 65
   257
 75
     1
175
     1
 42
1.0
 92
       12
 66
     7
 43
1.0
 76
     1
 77
     6
 78
     2
 67
     7
 79
     5
170
     0
171
     0
290
     0
174
     0
 93
        1
 44
0.0
173
     0
291
     1
 45
0.0
1001
ACAD
1000
AcDbSavedByObjectVersion
1070
     0
  0
ENDSEC
  0
EOF
