  0
SECTION
  2
HEADER
  9
$ACADVER
  1
AC1015
  9
$ACADMAINTVER
 70
     6
  9
$DWGCODEPAGE
  3
ANSI_1252
  9
$INSBASE
 10
0.0
 20
0.0
 30
0.0
  9
$EXTMIN
 10
-360.847015044576
 20
-171.00000000007
 30
0.0
  9
$EXTMAX
 10
429.5400000000699
 20
269.314418603973
 30
0.0
  9
$LIMMIN
 10
0.0
 20
0.0
  9
$LIMMAX
 10
12.0
 20
9.0
  9
$ORTHOMODE
 70
     0
  9
$REGENMODE
 70
     1
  9
$FILLMODE
 70
     1
  9
$QTEXTMODE
 70
     0
  9
$MIRRTEXT
 70
     1
  9
$LTSCALE
 40
1.0
  9
$ATTMODE
 70
     1
  9
$TEXTSIZE
 40
0.2
  9
$TRACEWID
 40
0.05
  9
$TEXTSTYLE
  7
Standard
  9
$CLAYER
  8
0
  9
$CELTYPE
  6
ByLayer
  9
$CECOLOR
 62
   256
  9
$CELTSCALE
 40
1.0
  9
$DISPSILH
 70
     0
  9
$DIMSCALE
 40
1.0
  9
$DIMASZ
 40
0.18
  9
$DIMEXO
 40
0.0625
  9
$DIMDLI
 40
0.38
  9
$DIMRND
 40
0.0
  9
$DIMDLE
 40
0.0
  9
$DIMEXE
 40
0.18
  9
$DIMTP
 40
0.0
  9
$DIMTM
 40
0.0
  9
$DIMTXT
 40
0.18
  9
$DIMCEN
 40
0.09
  9
$DIMTSZ
 40
0.0
  9
$DIMTOL
 70
     0
  9
$DIMLIM
 70
     0
  9
$DIMTIH
 70
     1
  9
$DIMTOH
 70
     1
  9
$DIMSE1
 70
     0
  9
$DIMSE2
 70
     0
  9
$DIMTAD
 70
     0
  9
$DIMZIN
 70
     0
  9
$DIMBLK
  1

  9
$DIMASO
 70
     1
  9
$DIMSHO
 70
     1
  9
$DIMPOST
  1

  9
$DIMAPOST
  1

  9
$DIMALT
 70
     0
  9
$DIMALTD
 70
     2
  9
$DIMALTF
 40
25.4
  9
$DIMLFAC
 40
1.0
  9
$DIMTOFL
 70
     0
  9
$DIMTVP
 40
0.0
  9
$DIMTIX
 70
     0
  9
$DIMSOXD
 70
     0
  9
$DIMSAH
 70
     0
  9
$DIMBLK1
  1

  9
$DIMBLK2
  1

  9
$DIMSTYLE
  2
Standard
  9
$DIMCLRD
 70
     0
  9
$DIMCLRE
 70
     0
  9
$DIMCLRT
 70
     0
  9
$DIMTFAC
 40
1.0
  9
$DIMGAP
 40
0.09
  9
$DIMJUST
 70
     0
  9
$DIMSD1
 70
     0
  9
$DIMSD2
 70
     0
  9
$DIMTOLJ
 70
     1
  9
$DIMTZIN
 70
     0
  9
$DIMALTZ
 70
     0
  9
$DIMALTTZ
 70
     0
  9
$DIMUPT
 70
     0
  9
$DIMDEC
 70
     4
  9
$DIMTDEC
 70
     4
  9
$DIMALTU
 70
     2
  9
$DIMALTTD
 70
     2
  9
$DIMTXSTY
  7
Standard
  9
$DIMAUNIT
 70
     0
  9
$DIMADEC
 70
     0
  9
$DIMALTRND
 40
0.0
  9
$DIMAZIN
 70
     0
  9
$DIMDSEP
 70
    46
  9
$DIMATFIT
 70
     3
  9
$DIMFRAC
 70
     0
  9
$DIMLDRBLK
  1

  9
$DIMLUNIT
 70
     2
  9
$DIMLWD
 70
    -2
  9
$DIMLWE
 70
    -2
  9
$DIMTMOVE
 70
     0
  9
$LUNITS
 70
     2
  9
$LUPREC
 70
     4
  9
$SKETCHINC
 40
0.1
  9
$FILLETRAD
 40
0.5
  9
$AUNITS
 70
     0
  9
$AUPREC
 70
     0
  9
$MENU
  1
.
  9
$ELEVATION
 40
0.0
  9
$PELEVATION
 40
0.0
  9
$THICKNESS
 40
0.0
  9
$LIMCHECK
 70
     0
  9
$CHAMFERA
 40
0.0
  9
$CHAMFERB
 40
0.0
  9
$CHAMFERC
 40
0.0
  9
$CHAMFERD
 40
0.0
  9
$SKPOLY
 70
     0
  9
$TDCREATE
 40
2458408.594441701
  9
$TDUCREATE
 40
2458408.511108368
  9
$TDUPDATE
 40
2458408.594442002
  9
$TDUUPDATE
 40
2458408.511108669
  9
$TDINDWG
 40
0.0000000116
  9
$TDUSRTIMER
 40
0.0000000116
  9
$USRTIMER
 70
     1
  9
$ANGBASE
 50
0.0
  9
$ANGDIR
 70
     0
  9
$PDMODE
 70
     0
  9
$PDSIZE
 40
0.0
  9
$PLINEWID
 40
0.0
  9
$SPLFRAME
 70
     0
  9
$SPLINETYPE
 70
     6
  9
$SPLINESEGS
 70
     8
  9
$HANDSEED
  5
312
  9
$SURFTAB1
 70
     6
  9
$SURFTAB2
 70
     6
  9
$SURFTYPE
 70
     6
  9
$SURFU
 70
     6
  9
$SURFV
 70
     6
  9
$UCSBASE
  2

  9
$UCSNAME
  2

  9
$UCSORG
 10
0.0
 20
0.0
 30
0.0
  9
$UCSXDIR
 10
1.0
 20
0.0
 30
0.0
  9
$UCSYDIR
 10
0.0
 20
1.0
 30
0.0
  9
$UCSORTHOREF
  2

  9
$UCSORTHOVIEW
 70
     0
  9
$UCSORGTOP
 10
0.0
 20
0.0
 30
0.0
  9
$UCSORGBOTTOM
 10
0.0
 20
0.0
 30
0.0
  9
$UCSORGLEFT
 10
0.0
 20
0.0
 30
0.0
  9
$UCSORGRIGHT
 10
0.0
 20
0.0
 30
0.0
  9
$UCSORGFRONT
 10
0.0
 20
0.0
 30
0.0
  9
$UCSORGBACK
 10
0.0
 20
0.0
 30
0.0
  9
$PUCSBASE
  2

  9
$PUCSNAME
  2

  9
$PUCSORG
 10
0.0
 20
0.0
 30
0.0
  9
$PUCSXDIR
 10
1.0
 20
0.0
 30
0.0
  9
$PUCSYDIR
 10
0.0
 20
1.0
 30
0.0
  9
$PUCSORTHOREF
  2

  9
$PUCSORTHOVIEW
 70
     0
  9
$PUCSORGTOP
 10
0.0
 20
0.0
 30
0.0
  9
$PUCSORGBOTTOM
 10
0.0
 20
0.0
 30
0.0
  9
$PUCSORGLEFT
 10
0.0
 20
0.0
 30
0.0
  9
$PUCSORGRIGHT
 10
0.0
 20
0.0
 30
0.0
  9
$PUCSORGFRONT
 10
0.0
 20
0.0
 30
0.0
  9
$PUCSORGBACK
 10
0.0
 20
0.0
 30
0.0
  9
$USERI1
 70
     0
  9
$USERI2
 70
     0
  9
$USERI3
 70
     0
  9
$USERI4
 70
     0
  9
$USERI5
 70
     0
  9
$USERR1
 40
20.0
  9
$USERR2
 40
0.0
  9
$USERR3
 40
0.0
  9
$USERR4
 40
0.0
  9
$USERR5
 40
0.0
  9
$WORLDVIEW
 70
     1
  9
$SHADEDGE
 70
     3
  9
$SHADEDIF
 70
    70
  9
$TILEMODE
 70
     1
  9
$MAXACTVP
 70
    64
  9
$PINSBASE
 10
0.0
 20
0.0
 30
0.0
  9
$PLIMCHECK
 70
     0
  9
$PEXTMIN
 10
1.00000000000000E+20
 20
1.00000000000000E+20
 30
1.00000000000000E+20
  9
$PEXTMAX
 10
-1.00000000000000E+20
 20
-1.00000000000000E+20
 30
-1.00000000000000E+20
  9
$PLIMMIN
 10
0.0
 20
0.0
  9
$PLIMMAX
 10
12.0
 20
9.0
  9
$UNITMODE
 70
     0
  9
$VISRETAIN
 70
     1
  9
$PLINEGEN
 70
     0
  9
$PSLTSCALE
 70
     1
  9
$TREEDEPTH
 70
  3020
  9
$CMLSTYLE
  2
Standard
  9
$CMLJUST
 70
     0
  9
$CMLSCALE
 40
1.0
  9
$PROXYGRAPHICS
 70
     1
  9
$MEASUREMENT
 70
     1
  9
$CELWEIGHT
370
    -1
  9
$ENDCAPS
280
     0
  9
$JOINSTYLE
280
     0
  9
$LWDISPLAY
290
     0
  9
$INSUNITS
 70
     4
  9
$HYPERLINKBASE
  1

  9
$STYLESHEET
  1

  9
$XEDIT
290
     1
  9
$CEPSNTYPE
380
     0
  9
$PSTYLEMODE
290
     1
  9
$FINGERPRINTGUID
  2
{C6A91EE3-9138-4232-8B71-D8C866909BC0}
  9
$VERSIONGUID
  2
{FAEB1C32-E019-11D5-929B-00C0DF256EC4}
  9
$EXTNAMES
290
     1
  9
$PSVPSCALE
 40
0.0
  9
$OLESTARTUP
290
     0
  0
ENDSEC
  0
SECTION
  2
CLASSES
  0
CLASS
  1
ACDBDICTIONARYWDFLT
  2
AcDbDictionaryWithDefault
  3
ObjectDBX Classes
 90
        0
280
     0
281
     0
  0
CLASS
  1
VISUALSTYLE
  2
AcDbVisualStyle
  3
ObjectDBX Classes
 90
     4095
280
     0
281
     0
  0
CLASS
  1
MATERIAL
  2
AcDbMaterial
  3
ObjectDBX Classes
 90
     1153
280
     0
281
     0
  0
CLASS
  1
SCALE
  2
AcDbScale
  3
ObjectDBX Classes
 90
     1153
280
     0
281
     0
  0
CLASS
  1
TABLESTYLE
  2
AcDbTableStyle
  3
ObjectDBX Classes
 90
     4095
280
     0
281
     0
  0
CLASS
  1
MLEADERSTYLE
  2
AcDbMLeaderStyle
  3
ACDB_MLEADERSTYLE_CLASS
 90
     4095
280
     0
281
     0
  0
CLASS
  1
SUN
  2
AcDbSun
  3
SCENEOE
 90
     1153
280
     0
281
     0
  0
CLASS
  1
DICTIONARYVAR
  2
AcDbDictionaryVar
  3
ObjectDBX Classes
 90
        0
280
     0
281
     0
  0
CLASS
  1
ACDBPLACEHOLDER
  2
AcDbPlaceHolder
  3
ObjectDBX Classes
 90
        0
280
     0
281
     0
  0
CLASS
  1
LAYOUT
  2
AcDbLayout
  3
ObjectDBX Classes
 90
        0
280
     0
281
     0
  0
ENDSEC
  0
SECTION
  2
TABLES
  0
TABLE
  2
VPORT
  5
8
102
{ACAD_XDICTIONARY
360
2D5
102
}
330
0
100
AcDbSymbolTable
 70
     1
  0
VPORT
  5
29
330
8
100
AcDbSymbolTableRecord
100
AcDbViewportTableRecord
  2
*Active
 70
     0
 10
0.0
 20
0.0
 11
1.0
 21
1.0
 12
34.34649247774695
 22
49.15720930195151
 13
0.0
 23
0.0
 14
0.5
 24
0.5
 15
0.5
 25
0.5
 16
0.0
 26
0.0
 36
1.0
 17
0.0
 27
0.0
 37
0.0
 40
542.4828983481917
 41
1.60267857142857
 42
50.0
 43
0.0
 44
0.0
 50
0.0
 51
0.0
 71
     0
 72
   100
 73
     1
 74
     3
 75
     0
 76
     0
 77
     0
 78
     0
281
     0
 65
     1
110
0.0
120
0.0
130
0.0
111
1.0
121
0.0
131
0.0
112
0.0
122
1.0
132
0.0
 79
     0
146
0.0
  0
ENDTAB
  0
TABLE
  2
LTYPE
  5
5
330
0
100
AcDbSymbolTable
 70
     8
  0
LTYPE
  5
14
330
5
100
AcDbSymbolTableRecord
100
AcDbLinetypeTableRecord
  2
ByBlock
 70
     0
  3

 72
    65
 73
     0
 40
0.0
  0
LTYPE
  5
15
330
5
100
AcDbSymbolTableRecord
100
AcDbLinetypeTableRecord
  2
ByLayer
 70
     0
  3

 72
    65
 73
     0
 40
0.0
  0
LTYPE
  5
16
330
5
100
AcDbSymbolTableRecord
100
AcDbLinetypeTableRecord
  2
Continuous
 70
     0
  3
Solid line
 72
    65
 73
     0
 40
0.0
  0
LTYPE
  5
6E
330
5
100
AcDbSymbolTableRecord
100
AcDbLinetypeTableRecord
  2
DASHED
 70
     0
  3
Dashed
 72
    65
 73
     2
 40
15.0
 49
7.0
 74
     0
 49
-8.0
 74
     0
  0
LTYPE
  5
6F
330
5
100
AcDbSymbolTableRecord
100
AcDbLinetypeTableRecord
  2
DOTTED
 70
     0
  3
Dotted
 72
    65
 73
     2
 40
1.0
 49
0.0
 74
     0
 49
-1.0
 74
     0
  0
LTYPE
  5
70
330
5
100
AcDbSymbolTableRecord
100
AcDbLinetypeTableRecord
  2
DOT_CENTER
 70
     0
  3
Dot_Center
 72
    65
 73
     4
 40
14.0
 49
12.0
 74
     0
 49
-1.0
 74
     0
 49
0.0
 74
     0
 49
-1.0
 74
     0
  0
LTYPE
  5
71
330
5
100
AcDbSymbolTableRecord
100
AcDbLinetypeTableRecord
  2
LONG_DASHED
 70
     0
  3
Long_Dashed
 72
    65
 73
     2
 40
15.0
 49
10.0
 74
     0
 49
-5.0
 74
     0
  0
LTYPE
  5
72
330
5
100
AcDbSymbolTableRecord
100
AcDbLinetypeTableRecord
  2
DASH_CENTER
 70
     0
  3
Dash_Center
 72
    65
 73
     4
 40
14.0
 49
11.0
 74
     0
 49
-1.0
 74
     0
 49
1.0
 74
     0
 49
-1.0
 74
     0
  0
LTYPE
  5
73
330
5
100
AcDbSymbolTableRecord
100
AcDbLinetypeTableRecord
  2
PHANTOM
 70
     0
  3
Phantom
 72
    65
 73
     6
 40
13.0
 49
10.0
 74
     0
 49
-1.0
 74
     0
 49
0.0
 74
     0
 49
-1.0
 74
     0
 49
0.0
 74
     0
 49
-1.0
 74
     0
  0
LTYPE
  5
74
330
5
100
AcDbSymbolTableRecord
100
AcDbLinetypeTableRecord
  2
CENTER_DASH_DASH
 70
     0
  3
Center_Dash_Dash
 72
    65
 73
     6
 40
14.0
 49
9.0
 74
     0
 49
-1.0
 74
     0
 49
1.0
 74
     0
 49
-1.0
 74
     0
 49
1.0
 74
     0
 49
-1.0
 74
     0
  0
ENDTAB
  0
TABLE
  2
LAYER
  5
2
330
0
100
AcDbSymbolTable
 70
     2
  0
LAYER
  5
10
330
2
100
AcDbSymbolTableRecord
100
AcDbLayerTableRecord
  2
0
 70
     0
 62
     7
  6
Continuous
370
    -3
390
F
  0
LAYER
  5
75
330
2
100
AcDbSymbolTableRecord
100
AcDbLayerTableRecord
  2
1
 70
     0
 62
     7
  6
Continuous
370
    -3
390
F
  0
ENDTAB
  0
TABLE
  2
STYLE
  5
3
330
0
100
AcDbSymbolTable
 70
     2
  0
STYLE
  5
11
330
3
100
AcDbSymbolTableRecord
100
AcDbTextStyleTableRecord
  2
Standard
 70
     0
 40
0.0
 41
1.0
 50
0.0
 71
     0
 42
0.2
  3
txt
  4

  0
STYLE
  5
116
330
3
100
AcDbSymbolTableRecord
100
AcDbTextStyleTableRecord
  2
CONVERTER_11
 70
     0
 40
0.0
 41
0.9
 50
0.0
 71
     0
 42
0.2
  3
txt.shx
  4

  0
ENDTAB
  0
TABLE
  2
VIEW
  5
6
330
0
100
AcDbSymbolTable
 70
     0
  0
ENDTAB
  0
TABLE
  2
UCS
  5
7
330
0
100
AcDbSymbolTable
 70
     0
  0
ENDTAB
  0
TABLE
  2
APPID
  5
9
330
0
100
AcDbSymbolTable
 70
     2
  0
APPID
  5
12
330
9
100
AcDbSymbolTableRecord
100
AcDbRegAppTableRecord
  2
ACAD
 70
     0
  0
APPID
  5
30F
330
9
100
AcDbSymbolTableRecord
100
AcDbRegAppTableRecord
  2
ACAD_MLEADERVER
 70
     0
  0
ENDTAB
  0
TABLE
  2
DIMSTYLE
  5
A
330
0
100
AcDbSymbolTable
 70
     7
100
AcDbDimStyleTable
  0
DIMSTYLE
105
27
330
A
100
AcDbSymbolTableRecord
100
AcDbDimStyleTableRecord
  2
Standard
 70
     0
178
     0
340
11
  0
DIMSTYLE
105
1DC
102
{ACAD_REACTORS
330
1DD
102
}
330
A
100
AcDbSymbolTableRecord
100
AcDbDimStyleTableRecord
  2
ME10_DIM_10
 70
     0
 41
15.0
 42
0.0
 44
2.0
 73
     0
 74
     0
 77
     1
 78
     8
140
15.0
147
5.0
172
     1
173
     1
174
     1
175
     1
176
     4
177
     4
271
     2
178
     1
271
     2
340
116
  0
DIMSTYLE
105
1E7
102
{ACAD_REACTORS
330
1E8
102
}
330
A
100
AcDbSymbolTableRecord
100
AcDbDimStyleTableRecord
  2
ME10_DIM_11
 70
     0
 41
15.0
 42
0.0
 44
2.0
 73
     0
 74
     0
 77
     1
 78
     8
140
15.0
147
5.0
172
     1
173
     1
174
     1
175
     1
176
     4
177
     4
271
     2
178
     1
271
     2
340
116
  0
DIMSTYLE
105
2AA
102
{ACAD_REACTORS
330
2AB
102
}
330
A
100
AcDbSymbolTableRecord
100
AcDbDimStyleTableRecord
  2
ME10_DIM_12
 70
     0
 41
15.0
 42
0.0
 44
2.0
 73
     0
 74
     0
 77
     1
 78
     8
140
15.0
147
5.0
172
     1
173
     1
174
     1
175
     1
176
     4
177
     4
271
     2
178
     1
271
     2
340
116
  0
DIMSTYLE
105
2B5
102
{ACAD_REACTORS
330
2B6
102
}
330
A
100
AcDbSymbolTableRecord
100
AcDbDimStyleTableRecord
  2
ME10_DIM_13
 70
     0
 41
15.0
 42
0.0
 44
2.0
 73
     0
 74
     0
 77
     1
 78
     8
140
15.0
147
5.0
172
     1
173
     1
174
     1
175
     1
176
     4
177
     4
271
     2
178
     1
271
     2
340
116
  0
DIMSTYLE
105
2C1
102
{ACAD_REACTORS
330
2C2
102
}
330
A
100
AcDbSymbolTableRecord
100
AcDbDimStyleTableRecord
  2
ME10_DIM_14
 70
     0
 41
15.0
 42
0.0
 44
2.0
 73
     0
 74
     0
 77
     1
 78
     8
140
15.0
147
5.0
172
     1
173
     1
174
     1
175
     1
176
     4
177
     4
271
     2
178
     1
271
     2
340
116
  0
DIMSTYLE
105
2CC
102
{ACAD_REACTORS
330
2CD
102
}
330
A
100
AcDbSymbolTableRecord
100
AcDbDimStyleTableRecord
  2
ME10_DIM_15
 70
     0
 41
15.0
 42
0.0
 44
2.0
 73
     0
 74
     0
 77
     1
 78
     8
140
15.0
147
5.0
172
     1
173
     1
174
     1
175
     1
176
     4
177
     4
271
     2
178
     1
271
     2
340
116
  0
ENDTAB
  0
TABLE
  2
BLOCK_RECORD
  5
1
330
0
100
AcDbSymbolTable
 70
    29
  0
BLOCK_RECORD
  5
1F
330
1
100
AcDbSymbolTableRecord
100
AcDbBlockTableRecord
  2
*Model_Space
340
22
  0
BLOCK_RECORD
  5
1B
330
1
100
AcDbSymbolTableRecord
100
AcDbBlockTableRecord
  2
*Paper_Space
340
1E
  0
BLOCK_RECORD
  5
23
330
1
100
AcDbSymbolTableRecord
100
AcDbBlockTableRecord
  2
*Paper_Space0
340
26
  0
BLOCK_RECORD
  5
76
330
1
100
AcDbSymbolTableRecord
100
AcDbBlockTableRecord
  2
980057503__1
340
0
102
{BLKREFS
331
83
102
}
  0
BLOCK_RECORD
  5
79
330
1
100
AcDbSymbolTableRecord
100
AcDbBlockTableRecord
  2
390997584_Schnitt_gefaltet__2
340
0
102
{BLKREFS
331
84
102
}
  0
BLOCK_RECORD
  5
7C
330
1
100
AcDbSymbolTableRecord
100
AcDbBlockTableRecord
  2
976007501_Plan__3
340
0
102
{BLKREFS
331
85
102
}
  0
BLOCK_RECORD
  5
7F
330
1
100
AcDbSymbolTableRecord
100
AcDbBlockTableRecord
  2
368027497__4
340
0
102
{BLKREFS
331
86
102
}
  0
BLOCK_RECORD
  5
82
330
1
100
AcDbSymbolTableRecord
100
AcDbBlockTableRecord
  2
539106__5
340
0
102
{BLKREFS
331
8A
102
}
  0
BLOCK_RECORD
  5
89
330
1
100
AcDbSymbolTableRecord
100
AcDbBlockTableRecord
  2
HL6700-WEB-Zeichnung__6
340
0
102
{BLKREFS
331
8E
102
}
  0
BLOCK_RECORD
  5
8D
330
1
100
AcDbSymbolTableRecord
100
AcDbBlockTableRecord
  2
A-A__7
340
0
102
{BLKREFS
331
CB
102
}
  0
BLOCK_RECORD
  5
91
330
1
100
AcDbSymbolTableRecord
100
AcDbBlockTableRecord
  2
390997584_Schnitt_gefaltet__8
340
0
102
{BLKREFS
331
9E
102
}
  0
BLOCK_RECORD
  5
94
330
1
100
AcDbSymbolTableRecord
100
AcDbBlockTableRecord
  2
976007501_Plan__9
340
0
102
{BLKREFS
331
9F
102
}
  0
BLOCK_RECORD
  5
97
330
1
100
AcDbSymbolTableRecord
100
AcDbBlockTableRecord
  2
980057503__10
340
0
102
{BLKREFS
331
A0
102
}
  0
BLOCK_RECORD
  5
9A
330
1
100
AcDbSymbolTableRecord
100
AcDbBlockTableRecord
  2
368027497__11
340
0
102
{BLKREFS
331
A1
102
}
  0
BLOCK_RECORD
  5
9D
330
1
100
AcDbSymbolTableRecord
100
AcDbBlockTableRecord
  2
539106__12
340
0
102
{BLKREFS
331
A5
102
}
  0
BLOCK_RECORD
  5
A4
330
1
100
AcDbSymbolTableRecord
100
AcDbBlockTableRecord
  2
HL6700-WEB-Zeichnung__13
340
0
102
{BLKREFS
331
A9
102
}
  0
BLOCK_RECORD
  5
A8
330
1
100
AcDbSymbolTableRecord
100
AcDbBlockTableRecord
  2
Drfsicht1
340
0
102
{BLKREFS
331
CC
102
}
  0
BLOCK_RECORD
  5
AC
330
1
100
AcDbSymbolTableRecord
100
AcDbBlockTableRecord
  2
A-A__14
340
0
102
{BLKREFS
331
C7
102
}
  0
BLOCK_RECORD
  5
AF
330
1
100
AcDbSymbolTableRecord
100
AcDbBlockTableRecord
  2
976007501_Plan__15
340
0
102
{BLKREFS
331
BC
102
}
  0
BLOCK_RECORD
  5
B2
330
1
100
AcDbSymbolTableRecord
100
AcDbBlockTableRecord
  2
390997584_Schnitt_gefaltet__16
340
0
102
{BLKREFS
331
BD
102
}
  0
BLOCK_RECORD
  5
B5
330
1
100
AcDbSymbolTableRecord
100
AcDbBlockTableRecord
  2
980057503__17
340
0
102
{BLKREFS
331
BE
102
}
  0
BLOCK_RECORD
  5
B8
330
1
100
AcDbSymbolTableRecord
100
AcDbBlockTableRecord
  2
368027497__18
340
0
102
{BLKREFS
331
BF
102
}
  0
BLOCK_RECORD
  5
BB
330
1
100
AcDbSymbolTableRecord
100
AcDbBlockTableRecord
  2
539106__19
340
0
102
{BLKREFS
331
C3
102
}
  0
BLOCK_RECORD
  5
C2
330
1
100
AcDbSymbolTableRecord
100
AcDbBlockTableRecord
  2
HL6700-WEB-Zeichnung__20
340
0
102
{BLKREFS
331
C8
102
}
  0
BLOCK_RECORD
  5
C6
330
1
100
AcDbSymbolTableRecord
100
AcDbBlockTableRecord
  2
Vordans1
340
0
102
{BLKREFS
331
CD
102
}
  0
BLOCK_RECORD
  5
1D3
330
1
100
AcDbSymbolTableRecord
100
AcDbBlockTableRecord
  2
*D23
340
0
  0
BLOCK_RECORD
  5
1DE
330
1
100
AcDbSymbolTableRecord
100
AcDbBlockTableRecord
  2
*D24
340
0
  0
BLOCK_RECORD
  5
29F
330
1
100
AcDbSymbolTableRecord
100
AcDbBlockTableRecord
  2
*D25
340
0
  0
BLOCK_RECORD
  5
2AC
330
1
100
AcDbSymbolTableRecord
100
AcDbBlockTableRecord
  2
*D26
340
0
  0
BLOCK_RECORD
  5
2B7
330
1
100
AcDbSymbolTableRecord
100
AcDbBlockTableRecord
  2
*D27
340
0
  0
BLOCK_RECORD
  5
2C3
330
1
100
AcDbSymbolTableRecord
100
AcDbBlockTableRecord
  2
*D28
340
0
  0
ENDTAB
  0
ENDSEC
  0
SECTION
  2
BLOCKS
  0
BLOCK
  5
20
330
1F
100
AcDbEntity
  8
0
100
AcDbBlockBegin
  2
*Model_Space
 70
     0
 10
0.0
 20
0.0
 30
0.0
  3
*Model_Space
  1

  0
ENDBLK
  5
21
330
1F
100
AcDbEntity
  8
0
100
AcDbBlockEnd
  0
BLOCK
  5
1C
330
1B
100
AcDbEntity
 67
     1
  8
0
100
AcDbBlockBegin
  2
*Paper_Space
 70
     0
 10
0.0
 20
0.0
 30
0.0
  3
*Paper_Space
  1

  0
ENDBLK
  5
1D
330
1B
100
AcDbEntity
 67
     1
  8
0
100
AcDbBlockEnd
  0
BLOCK
  5
24
330
23
100
AcDbEntity
  8
0
100
AcDbBlockBegin
  2
*Paper_Space0
 70
     0
 10
0.0
 20
0.0
 30
0.0
  3
*Paper_Space0
  1

  0
ENDBLK
  5
25
330
23
100
AcDbEntity
  8
0
100
AcDbBlockEnd
  0
BLOCK
  5
77
330
76
100
AcDbEntity
  8
0
100
AcDbBlockBegin
  2
980057503__1
 70
     0
 10
236.50000000007
 20
135.5000000000447
 30
0.0
  3
980057503__1
  1

  0
LINE
  5
CE
102
{ACAD_REACTORS
330
D9
102
}
330
76
100
AcDbEntity
  8
0
  6
Continuous
 62
     7
100
AcDbLine
 10
393.5000000000699
 20
139.5000000000447
 30
0.0
 11
389.5000000000699
 21
139.5000000000447
 31
0.0
  0
LINE
  5
CF
102
{ACAD_REACTORS
330
D9
102
}
330
76
100
AcDbEntity
  8
0
  6
Continuous
 62
     7
100
AcDbLine
 10
429.50000000007
 20
139.5000000000447
 30
0.0
 11
425.5000000000699
 21
139.5000000000447
 31
0.0
  0
LINE
  5
D0
102
{ACAD_REACTORS
330
D9
102
}
330
76
100
AcDbEntity
  8
0
  6
Continuous
 62
     7
100
AcDbLine
 10
429.50000000007
 20
139.5000000000447
 30
0.0
 11
429.50000000007
 21
135.5000000000447
 31
0.0
  0
LINE
  5
D1
102
{ACAD_REACTORS
330
D9
102
}
330
76
100
AcDbEntity
  8
0
  6
Continuous
 62
     7
100
AcDbLine
 10
425.5000000000699
 20
139.5000000000447
 30
0.0
 11
393.5000000000699
 21
139.5000000000447
 31
0.0
  0
LINE
  5
D2
102
{ACAD_REACTORS
330
D9
102
}
330
76
100
AcDbEntity
  8
0
  6
Continuous
 62
     7
100
AcDbLine
 10
317.1795154874318
 20
139.5000000000447
 30
0.0
 11
311.3248298639331
 21
139.5000000000447
 31
0.0
  0
LINE
  5
D3
102
{ACAD_REACTORS
330
D9
102
}
330
76
100
AcDbEntity
  8
0
  6
Continuous
 62
     7
100
AcDbLine
 10
330.5000000000701
 20
139.5000000000447
 30
0.0
 11
317.1795154874318
 21
139.5000000000447
 31
0.0
  0
LINE
  5
D4
102
{ACAD_REACTORS
330
D9
102
}
330
76
100
AcDbEntity
  8
0
  6
Continuous
 62
     7
100
AcDbLine
 10
311.3248298639331
 20
139.5000000000447
 30
0.0
 11
236.50000000007
 21
139.5000000000447
 31
0.0
  0
LINE
  5
D5
102
{ACAD_REACTORS
330
D9
102
}
330
76
100
AcDbEntity
  8
0
  6
Continuous
 62
     7
100
AcDbLine
 10
389.5000000000699
 20
139.5000000000447
 30
0.0
 11
330.5000000000701
 21
139.5000000000447
 31
0.0
  0
LINE
  5
D6
102
{ACAD_REACTORS
330
D9
102
}
330
76
100
AcDbEntity
  8
0
  6
Continuous
 62
     7
100
AcDbLine
 10
283.0000000000701
 20
135.5000000000447
 30
0.0
 11
236.50000000007
 21
135.5000000000447
 31
0.0
  0
LINE
  5
D7
102
{ACAD_REACTORS
330
D9
102
}
330
76
100
AcDbEntity
  8
0
  6
Continuous
 62
     7
100
AcDbLine
 10
429.50000000007
 20
135.5000000000447
 30
0.0
 11
283.0000000000701
 21
135.5000000000447
 31
0.0
  0
LINE
  5
D8
102
{ACAD_REACTORS
330
D9
102
}
330
76
100
AcDbEntity
  8
0
  6
Continuous
 62
     7
100
AcDbLine
 10
236.50000000007
 20
135.5000000000447
 30
0.0
 11
236.50000000007
 21
139.5000000000447
 31
0.0
  0
HATCH
  5
D9
330
76
100
AcDbEntity
  8
0
  6
Continuous
 62
     3
100
AcDbHatch
 10
0.0
 20
0.0
 30
0.0
210
0.0
220
0.0
230
1.0
  2
_USER
 70
     0
 71
     1
 91
        1
 92
        1
 93
       11
 72
     1
 10
311.3248298639331
 20
139.5000000000447
 11
317.1795154874318
 21
139.5000000000447
 72
     1
 10
317.1795154874318
 20
139.5000000000447
 11
330.5000000000701
 21
139.5000000000447
 72
     1
 10
330.5000000000701
 20
139.5000000000447
 11
389.5000000000699
 21
139.5000000000447
 72
     1
 10
389.5000000000699
 20
139.5000000000447
 11
393.5000000000699
 21
139.5000000000447
 72
     1
 10
393.5000000000699
 20
139.5000000000447
 11
425.5000000000699
 21
139.5000000000447
 72
     1
 10
425.5000000000699
 20
139.5000000000447
 11
429.50000000007
 21
139.5000000000447
 72
     1
 10
429.50000000007
 20
139.5000000000447
 11
429.50000000007
 21
135.5000000000447
 72
     1
 10
429.50000000007
 20
135.5000000000447
 11
283.0000000000701
 21
135.5000000000447
 72
     1
 10
283.0000000000701
 20
135.5000000000447
 11
236.50000000007
 21
135.5000000000447
 72
     1
 10
236.50000000007
 20
135.5000000000447
 11
236.50000000007
 21
139.5000000000447
 72
     1
 10
236.50000000007
 20
139.5000000000447
 11
311.3248298639331
 21
139.5000000000447
 97
       11
330
D8
330
D6
330
D7
330
D0
330
CF
330
D1
330
CE
330
D5
330
D3
330
D2
330
D4
 75
     1
 76
     0
 52
225.0
 41
5.0
 77
     0
 78
     1
 53
225.0
 43
0.0
 44
0.0
 45
3.535533905932736
 46
-3.53553390593274
 79
     0
 98
        1
 10
0.0
 20
0.0
  0
ENDBLK
  5
78
330
76
100
AcDbEntity
  8
0
100
AcDbBlockEnd
  0
BLOCK
  5
7A
330
79
100
AcDbEntity
  8
0
100
AcDbBlockBegin
  2
390997584_Schnitt_gefaltet__2
 70
     0
 10
232.5000000000701
 20
135.0000000000447
 30
0.0
  3
390997584_Schnitt_gefaltet__2
  1

  0
LINE
  5
DA
102
{ACAD_REACTORS
330
E1
102
}
330
79
100
AcDbEntity
  8
0
  6
Continuous
 62
     7
100
AcDbLine
 10
236.50000000007
 20
135.5000000000447
 30
0.0
 11
233.0000000000701
 21
135.5000000000447
 31
0.0
  0
LINE
  5
DB
102
{ACAD_REACTORS
330
E1
102
}
330
79
100
AcDbEntity
  8
0
  6
Continuous
 62
     7
100
AcDbLine
 10
283.0000000000701
 20
135.5000000000447
 30
0.0
 11
236.50000000007
 21
135.5000000000447
 31
0.0
  0
LINE
  5
DC
102
{ACAD_REACTORS
330
E1
102
}
330
79
100
AcDbEntity
  8
0
  6
Continuous
 62
     7
100
AcDbLine
 10
232.5000000000701
 20
205.5000000000447
 30
0.0
 11
232.5000000000701
 21
135.0000000000447
 31
0.0
  0
LINE
  5
DD
102
{ACAD_REACTORS
330
E1
102
}
330
79
100
AcDbEntity
  8
0
  6
Continuous
 62
     7
100
AcDbLine
 10
283.0000000000701
 20
135.0000000000447
 30
0.0
 11
232.5000000000701
 21
135.0000000000447
 31
0.0
  0
LINE
  5
DE
102
{ACAD_REACTORS
330
E1
102
}
330
79
100
AcDbEntity
  8
0
  6
Continuous
 62
     7
100
AcDbLine
 10
233.0000000000701
 20
135.5000000000447
 30
0.0
 11
233.0000000000701
 21
205.5000000000447
 31
0.0
  0
LINE
  5
DF
102
{ACAD_REACTORS
330
E1
102
}
330
79
100
AcDbEntity
  8
0
  6
Continuous
 62
     7
100
AcDbLine
 10
283.0000000000701
 20
135.5000000000447
 30
0.0
 11
283.0000000000701
 21
135.0000000000447
 31
0.0
  0
LINE
  5
E0
102
{ACAD_REACTORS
330
E1
102
}
330
79
100
AcDbEntity
  8
0
  6
Continuous
 62
     7
100
AcDbLine
 10
233.0000000000701
 20
205.5000000000447
 30
0.0
 11
232.5000000000701
 21
205.5000000000447
 31
0.0
  0
HATCH
  5
E1
330
79
100
AcDbEntity
  8
0
  6
Continuous
 62
     3
100
AcDbHatch
 10
0.0
 20
0.0
 30
0.0
210
0.0
220
0.0
230
1.0
  2
_USER
 70
     0
 71
     1
 91
        1
 92
        1
 93
        7
 72
     1
 10
232.5000000000701
 20
135.0000000000447
 11
283.0000000000701
 21
135.0000000000447
 72
     1
 10
283.0000000000701
 20
135.0000000000447
 11
283.0000000000701
 21
135.5000000000447
 72
     1
 10
283.0000000000701
 20
135.5000000000447
 11
236.50000000007
 21
135.5000000000447
 72
     1
 10
236.50000000007
 20
135.5000000000447
 11
233.0000000000701
 21
135.5000000000447
 72
     1
 10
233.0000000000701
 20
135.5000000000447
 11
233.0000000000701
 21
205.5000000000447
 72
     1
 10
233.0000000000701
 20
205.5000000000447
 11
232.5000000000701
 21
205.5000000000447
 72
     1
 10
232.5000000000701
 20
205.5000000000447
 11
232.5000000000701
 21
135.0000000000447
 97
        7
330
E0
330
DE
330
DA
330
DB
330
DF
330
DD
330
DC
 75
     1
 76
     0
 52
135.0
 41
5.0
 77
     0
 78
     1
 53
135.0
 43
0.0
 44
0.0
 45
-3.535533905932738
 46
-3.535533905932737
 79
     0
 98
        1
 10
0.0
 20
0.0
  0
ENDBLK
  5
7B
330
79
100
AcDbEntity
  8
0
100
AcDbBlockEnd
  0
BLOCK
  5
7D
330
7C
100
AcDbEntity
  8
0
100
AcDbBlockBegin
  2
976007501_Plan__3
 70
     0
 10
233.0000000000701
 20
135.5000000000447
 30
0.0
  3
976007501_Plan__3
  1

  0
LINE
  5
E2
102
{ACAD_REACTORS
330
E8
102
}
330
7C
100
AcDbEntity
  8
0
  6
Continuous
 62
     7
100
AcDbLine
 10
236.50000000007
 20
135.5000000000447
 30
0.0
 11
233.0000000000701
 21
135.5000000000447
 31
0.0
  0
LINE
  5
E3
102
{ACAD_REACTORS
330
E8
102
}
330
7C
100
AcDbEntity
  8
0
  6
Continuous
 62
     7
100
AcDbLine
 10
236.50000000007
 20
135.5000000000447
 30
0.0
 11
236.50000000007
 21
139.5000000000447
 31
0.0
  0
LINE
  5
E4
102
{ACAD_REACTORS
330
E8
102
}
330
7C
100
AcDbEntity
  8
0
  6
Continuous
 62
     7
100
AcDbLine
 10
236.50000000007
 20
139.5000000000447
 30
0.0
 11
236.5000000000692
 21
184.5000000000447
 31
0.0
  0
LINE
  5
E5
102
{ACAD_REACTORS
330
E8
102
}
330
7C
100
AcDbEntity
  8
0
  6
Continuous
 62
     7
100
AcDbLine
 10
233.0000000000701
 20
135.5000000000447
 30
0.0
 11
233.0000000000701
 21
205.5000000000447
 31
0.0
  0
LINE
  5
E6
102
{ACAD_REACTORS
330
E8
102
}
330
7C
100
AcDbEntity
  8
0
  6
Continuous
 62
     7
100
AcDbLine
 10
233.0000000000701
 20
205.5000000000447
 30
0.0
 11
236.5000000000701
 21
205.5000000000447
 31
0.0
  0
LINE
  5
E7
102
{ACAD_REACTORS
330
E8
102
}
330
7C
100
AcDbEntity
  8
0
  6
Continuous
 62
     7
100
AcDbLine
 10
236.5000000000692
 20
184.5000000000447
 30
0.0
 11
236.5000000000701
 21
205.5000000000447
 31
0.0
  0
HATCH
  5
E8
330
7C
100
AcDbEntity
  8
0
  6
Continuous
 62
     3
100
AcDbHatch
 10
0.0
 20
0.0
 30
0.0
210
0.0
220
0.0
230
1.0
  2
_USER
 70
     0
 71
     1
 91
        1
 92
        1
 93
        6
 72
     1
 10
233.0000000000701
 20
205.5000000000447
 11
233.0000000000701
 21
135.5000000000447
 72
     1
 10
233.0000000000701
 20
135.5000000000447
 11
236.50000000007
 21
135.5000000000447
 72
     1
 10
236.50000000007
 20
135.5000000000447
 11
236.50000000007
 21
139.5000000000447
 72
     1
 10
236.50000000007
 20
139.5000000000447
 11
236.5000000000692
 21
184.5000000000447
 72
     1
 10
236.5000000000692
 20
184.5000000000447
 11
236.5000000000701
 21
205.5000000000447
 72
     1
 10
236.5000000000701
 20
205.5000000000447
 11
233.0000000000701
 21
205.5000000000447
 97
        6
330
E7
330
E4
330
E3
330
E2
330
E5
330
E6
 75
     1
 76
     0
 52
135.0
 41
5.00100005
 77
     0
 78
     1
 53
135.0
 43
0.0
 44
0.0
 45
-3.536241048069264
 46
-3.536241048069263
 79
     0
 98
        1
 10
0.0
 20
0.0
  0
ENDBLK
  5
7E
330
7C
100
AcDbEntity
  8
0
100
AcDbBlockEnd
  0
BLOCK
  5
80
330
7F
100
AcDbEntity
  8
0
100
AcDbBlockBegin
  2
368027497__4
 70
     0
 10
236.5000000000692
 20
139.5000000000447
 30
0.0
  3
368027497__4
  1

  0
LINE
  5
E9
330
7F
100
AcDbEntity
  8
0
  6
Continuous
 62
     7
100
AcDbLine
 10
393.5000000000699
 20
139.5000000000447
 30
0.0
 11
389.5000000000699
 21
139.5000000000447
 31
0.0
  0
LINE
  5
EA
330
7F
100
AcDbEntity
  8
0
  6
Continuous
 62
     7
100
AcDbLine
 10
389.5000000000699
 20
155.5000000000447
 30
0.0
 11
429.5000000000699
 21
155.5000000000447
 31
0.0
  0
LINE
  5
EB
330
7F
100
AcDbEntity
  8
0
  6
Continuous
 62
     7
100
AcDbLine
 10
429.50000000007
 20
139.5000000000447
 30
0.0
 11
429.5000000000699
 21
153.7679491924757
 31
0.0
  0
LINE
  5
EC
330
7F
100
AcDbEntity
  8
0
  6
Continuous
 62
     7
100
AcDbLine
 10
429.5000000000699
 20
155.5000000000447
 30
0.0
 11
429.5000000000699
 21
153.7679491924757
 31
0.0
  0
LINE
  5
ED
330
7F
100
AcDbEntity
  8
0
  6
Continuous
 62
     3
100
AcDbLine
 10
425.5000000000699
 20
139.5000000000447
 30
0.0
 11
425.5000000000699
 21
146.8397459622003
 31
0.0
  0
LINE
  5
EE
330
7F
100
AcDbEntity
  8
0
  6
Continuous
 62
     7
100
AcDbLine
 10
429.50000000007
 20
139.5000000000447
 30
0.0
 11
425.5000000000699
 21
139.5000000000447
 31
0.0
  0
LINE
  5
EF
330
7F
100
AcDbEntity
  8
0
  6
Continuous
 62
     7
100
AcDbLine
 10
425.5000000000699
 20
146.8397459622003
 30
0.0
 11
393.5000000000699
 21
146.8397459622003
 31
0.0
  0
LINE
  5
F0
330
7F
100
AcDbEntity
  8
0
  6
Continuous
 62
     3
100
AcDbLine
 10
393.5000000000699
 20
146.8397459622003
 30
0.0
 11
393.5000000000699
 21
139.5000000000447
 31
0.0
  0
LINE
  5
F1
330
7F
100
AcDbEntity
  8
0
  6
Continuous
 62
     7
100
AcDbLine
 10
425.5000000000699
 20
139.5000000000447
 30
0.0
 11
393.5000000000699
 21
139.5000000000447
 31
0.0
  0
LINE
  5
F2
330
7F
100
AcDbEntity
  8
0
  6
Continuous
 62
     7
100
AcDbLine
 10
389.5000000000699
 20
155.5000000000447
 30
0.0
 11
346.50000000007
 21
155.5000000000447
 31
0.0
  0
LINE
  5
F3
330
7F
100
AcDbEntity
  8
0
  6
Continuous
 62
     7
100
AcDbLine
 10
389.5000000000699
 20
155.5000000000447
 30
0.0
 11
389.50000000007
 21
146.0000000000447
 31
0.0
  0
LINE
  5
F4
102
{ACAD_REACTORS
330
115
102
}
330
7F
100
AcDbEntity
  8
0
  6
Continuous
 62
     7
100
AcDbLine
 10
389.5000000000699
 20
139.5000000000447
 30
0.0
 11
389.5000000000699
 21
139.9115427319247
 31
0.0
  0
LINE
  5
F5
102
{ACAD_REACTORS
330
115
102
}
330
7F
100
AcDbEntity
  8
0
  6
Continuous
 62
     7
100
AcDbLine
 10
389.5000000000699
 20
139.9115427319247
 30
0.0
 11
389.50000000007
 21
146.0000000000447
 31
0.0
  0
LINE
  5
F6
330
7F
100
AcDbEntity
  8
0
  6
Continuous
 62
     7
100
AcDbLine
 10
317.1795154874318
 20
139.5000000000447
 30
0.0
 11
311.3248298639331
 21
139.5000000000447
 31
0.0
  0
LINE
  5
F7
330
7F
100
AcDbEntity
  8
0
  6
Continuous
 62
     7
100
AcDbLine
 10
330.5000000000701
 20
139.5000000000447
 30
0.0
 11
317.1795154874318
 21
139.5000000000447
 31
0.0
  0
LINE
  5
F8
330
7F
100
AcDbEntity
  8
0
  6
Continuous
 62
     7
100
AcDbLine
 10
311.3248298639331
 20
139.5000000000447
 30
0.0
 11
236.50000000007
 21
139.5000000000447
 31
0.0
  0
LINE
  5
F9
102
{ACAD_REACTORS
330
115
102
}
330
7F
100
AcDbEntity
  8
0
  6
Continuous
 62
     7
100
AcDbLine
 10
389.5000000000699
 20
139.5000000000447
 30
0.0
 11
330.5000000000701
 21
139.5000000000447
 31
0.0
  0
LINE
  5
FA
102
{ACAD_REACTORS
330
115
102
}
330
7F
100
AcDbEntity
  8
0
  6
Continuous
 62
     7
100
AcDbLine
 10
330.5000000000705
 20
146.0000000000447
 30
0.0
 11
389.50000000007
 21
146.0000000000447
 31
0.0
  0
LINE
  5
FB
330
7F
100
AcDbEntity
  8
0
  6
Continuous
 62
     7
100
AcDbLine
 10
346.50000000007
 20
155.5000000000447
 30
0.0
 11
342.50000000007
 21
155.5000000000447
 31
0.0
  0
LINE
  5
FC
330
7F
100
AcDbEntity
  8
0
  6
Continuous
 62
     7
100
AcDbLine
 10
346.50000000007
 20
186.0000000000447
 30
0.0
 11
346.50000000007
 21
167.0000000000447
 31
0.0
  0
LINE
  5
FD
330
7F
100
AcDbEntity
  8
0
  6
Continuous
 62
     7
100
AcDbLine
 10
342.50000000007
 20
186.0000000000447
 30
0.0
 11
346.50000000007
 21
186.0000000000447
 31
0.0
  0
LINE
  5
FE
330
7F
100
AcDbEntity
  8
0
  6
Continuous
 62
     7
100
AcDbLine
 10
330.098944686102
 20
186.0000000000447
 30
0.0
 11
342.50000000007
 21
186.0000000000447
 31
0.0
  0
LINE
  5
FF
330
7F
100
AcDbEntity
  8
0
  6
Continuous
 62
     3
100
AcDbLine
 10
346.50000000007
 20
167.0000000000447
 30
0.0
 11
342.50000000007
 21
167.0000000000447
 31
0.0
  0
LINE
  5
100
330
7F
100
AcDbEntity
  8
0
  6
Continuous
 62
     3
100
AcDbLine
 10
330.098944686102
 20
167.0000000000132
 30
0.0
 11
342.50000000007
 21
167.0000000000447
 31
0.0
  0
LINE
  5
101
330
7F
100
AcDbEntity
  8
0
  6
Continuous
 62
     3
100
AcDbLine
 10
342.50000000007
 20
155.5000000000447
 30
0.0
 11
342.50000000007
 21
167.0000000000447
 31
0.0
  0
LINE
  5
102
330
7F
100
AcDbEntity
  8
0
  6
Continuous
 62
     7
100
AcDbLine
 10
346.50000000007
 20
167.0000000000447
 30
0.0
 11
346.50000000007
 21
155.5000000000447
 31
0.0
  0
LINE
  5
103
330
7F
100
AcDbEntity
  8
0
  6
Continuous
 62
     3
100
AcDbLine
 10
311.3248298639331
 20
139.5000000000447
 30
0.0
 11
311.3248298639331
 21
157.6927028308039
 31
0.0
  0
LINE
  5
104
330
7F
100
AcDbEntity
  8
0
  6
Continuous
 62
     7
100
AcDbLine
 10
313.50000000007
 20
186.0000000000447
 30
0.0
 11
317.1795154874318
 21
186.0000000000447
 31
0.0
  0
LINE
  5
105
102
{ACAD_REACTORS
330
115
102
}
330
7F
100
AcDbEntity
  8
0
  6
Continuous
 62
     7
100
AcDbLine
 10
330.5000000000701
 20
139.5000000000447
 30
0.0
 11
330.5000000000705
 21
146.0000000000447
 31
0.0
  0
LINE
  5
106
330
7F
100
AcDbEntity
  8
0
  6
Continuous
 62
     7
100
AcDbLine
 10
330.098944686102
 20
186.0000000000447
 30
0.0
 11
330.098944686102
 21
167.0000000000132
 31
0.0
  0
LINE
  5
107
330
7F
100
AcDbEntity
  8
0
  6
Continuous
 62
     7
100
AcDbLine
 10
317.1795154874318
 20
186.0000000000447
 30
0.0
 11
330.098944686102
 21
186.0000000000447
 31
0.0
  0
LINE
  5
108
330
7F
100
AcDbEntity
  8
0
  6
Continuous
 62
     3
100
AcDbLine
 10
317.1795154874318
 20
139.5000000000447
 30
0.0
 11
317.1795154874318
 21
186.0000000000447
 31
0.0
  0
LINE
  5
109
330
7F
100
AcDbEntity
  8
0
  6
Continuous
 62
     7
100
AcDbLine
 10
313.50000000007
 20
167.0000000000473
 30
0.0
 11
313.50000000007
 21
186.0000000000447
 31
0.0
  0
LINE
  5
10A
330
7F
100
AcDbEntity
  8
0
  6
Continuous
 62
     3
100
AcDbLine
 10
342.50000000007
 20
167.0000000000447
 30
0.0
 11
342.50000000007
 21
186.0000000000447
 31
0.0
  0
LINE
  5
10B
330
7F
100
AcDbEntity
  8
0
  6
Continuous
 62
     7
100
AcDbLine
 10
236.5000000000692
 20
184.5000000000447
 30
0.0
 11
240.5000000000701
 21
184.5000000000447
 31
0.0
  0
LINE
  5
10C
330
7F
100
AcDbEntity
  8
0
  6
Continuous
 62
     7
100
AcDbLine
 10
240.5000000000701
 20
186.0000000000447
 30
0.0
 11
240.5000000000701
 21
184.5000000000447
 31
0.0
  0
LINE
  5
10D
330
7F
100
AcDbEntity
  8
0
  6
Continuous
 62
     7
100
AcDbLine
 10
236.50000000007
 20
139.5000000000447
 30
0.0
 11
236.5000000000692
 21
184.5000000000447
 31
0.0
  0
LINE
  5
10E
330
7F
100
AcDbEntity
  8
0
  6
Continuous
 62
     7
100
AcDbLine
 10
271.50000000007
 20
186.0000000000447
 30
0.0
 11
271.50000000007
 21
167.0000000000473
 31
0.0
  0
LINE
  5
10F
330
7F
100
AcDbEntity
  8
0
  6
Continuous
 62
     7
100
AcDbLine
 10
240.5000000000701
 20
186.0000000000447
 30
0.0
 11
271.50000000007
 21
186.0000000000447
 31
0.0
  0
ARC
  5
110
330
7F
100
AcDbEntity
  8
0
  6
Continuous
 62
     7
100
AcDbCircle
 10
292.50000000007
 20
167.0000000000473
 30
0.0
 40
20.99999999999995
100
AcDbArc
 50
333.6914715752221
 51
0.0
  0
ARC
  5
111
330
7F
100
AcDbEntity
  8
0
  6
Continuous
 62
     7
100
AcDbCircle
 10
292.50000000007
 20
167.0000000000473
 30
0.0
 40
21.0
100
AcDbArc
 50
180.0
 51
333.6914715752221
  0
SPLINE
  5
112
330
7F
100
AcDbEntity
  8
0
  6
Continuous
 62
     7
100
AcDbSpline
210
0.0
220
0.0
230
1.0
 70
  1064
 71
     3
 72
    71
 73
    67
 74
    65
 42
0.000000001
 43
0.0000000001
 44
0.00000001
 40
0.0
 40
0.0
 40
0.0
 40
0.0
 40
0.0888001898210711
 40
0.1784871473031206
 40
0.2691418524002356
 40
0.3608478660945849
 40
0.4536910499465536
 40
0.5477585772064051
 40
0.6431385702651209
 40
0.7399190106243682
 40
0.8381873466409615
 40
0.9380293444027382
 40
1.039528715684608
 40
1.142765955955811
 40
1.247818038843192
 40
1.354757283357838
 40
1.463651151669
 40
1.574561179826639
 40
1.687542903415994
 40
1.802644877283851
 40
1.919908740319133
 40
2.039368341768984
 40
2.161049945984777
 40
2.284971475882981
 40
2.41114284939083
 40
2.539565346983437
 40
2.670232065100723
 40
2.803127411656575
 40
2.938227657666336
 40
3.075500562738386
 40
3.214906003523771
 40
3.356395729702984
 40
3.499914046388689
 40
3.64539769956482
 40
3.792776588919804
 40
3.941973780018846
 40
4.092906223928328
 40
4.245484891175984
 40
4.399615475818298
 40
4.555198643706161
 40
4.712130699449943
 40
4.870303939735056
 40
5.02960726391383
 40
5.189926620541508
 40
5.351145544669264
 40
5.51314568448049
 40
5.675807251235304
 40
5.839009611541718
 40
6.002631639290438
 40
6.16655235832382
 40
6.330651189524654
 40
6.494808628410847
 40
6.658906383958264
 40
6.822828076338763
 40
6.986459267651099
 40
7.149688165732262
 40
7.31240555032164
 40
7.474505470281337
 40
7.635885071451735
 40
7.796445276333125
 40
7.956090522266558
 40
8.114729414396143
 40
8.27227438465336
 40
8.428642310730224
 40
8.58375410803728
 40
8.7375353149893
 40
8.7375353149893
 40
8.7375353149893
 40
8.7375353149893
 10
425.5000000000699
 20
146.8397459622003
 30
0.0
 10
425.5296018745034
 20
146.8400750017482
 30
0.0
 10
425.5891012303615
 20
146.8407363790519
 30
0.0
 10
425.6786876177173
 20
146.8461188126256
 30
0.0
 10
425.7689696495063
 20
146.8548193082674
 30
0.0
 10
425.8598850299398
 20
146.8672397243075
 30
0.0
 10
425.9513677222898
 20
146.8833772136524
 30
0.0
 10
426.0433490410001
 20
146.9033317131014
 30
0.0
 10
426.1357563925083
 20
146.9271721595302
 30
0.0
 10
426.2285150941805
 20
146.9549671374841
 30
0.0
 10
426.3215463806093
 20
146.9867816378008
 30
0.0
 10
426.4147700948741
 20
147.0226715486683
 30
0.0
 10
426.508101833814
 20
147.062690826653
 30
0.0
 10
426.6014566178584
 20
147.1068827032634
 30
0.0
 10
426.6947450833328
 20
147.1552882011747
 30
0.0
 10
426.7878782023154
 20
147.2079366578278
 30
0.0
 10
426.8807624670219
 20
147.2648547711525
 30
0.0
 10
426.9733056921381
 20
147.3260567970909
 30
0.0
 10
427.0654111757594
 20
147.3915539174778
 30
0.0
 10
427.1569845757156
 20
147.4613443053325
 30
0.0
 10
427.247927069831
 20
147.5354226529196
 30
0.0
 10
427.3381432583765
 20
147.6137702826468
 30
0.0
 10
427.4275333811181
 20
147.6963646837243
 30
0.0
 10
427.5160021625501
 20
147.7831698335831
 30
0.0
 10
427.6034501722856
 20
147.8741456045099
 30
0.0
 10
427.6897835004498
 20
147.9692384418162
 30
0.0
 10
427.774904370837
 20
148.0683905186275
 30
0.0
 10
427.8587215115681
 20
148.1715308937738
 30
0.0
 10
427.941140146656
 20
148.2785843117131
 30
0.0
 10
428.0220729122286
 20
148.3894629375042
 30
0.0
 10
428.1014293621529
 20
148.5040747182903
 30
0.0
 10
428.1791272722969
 20
148.6223157664498
 30
0.0
 10
428.2550818003107
 20
148.7440782180327
 30
0.0
 10
428.3292170188537
 20
148.8692433097397
 30
0.0
 10
428.401454869324
 20
148.9976886874591
 30
0.0
 10
428.4717267687934
 20
149.1292821991275
 30
0.0
 10
428.5399624932065
 20
149.263888622522
 30
0.0
 10
428.6061017110321
 20
149.4013641751258
 30
0.0
 10
428.670082924153
 20
149.5415626445832
 30
0.0
 10
428.7318547928525
 20
149.6843305986455
 30
0.0
 10
428.7913652528986
 20
149.8295129139312
 30
0.0
 10
428.8485725107129
 20
149.9769486543364
 30
0.0
 10
428.9034344438383
 20
150.1264760044034
 30
0.0
 10
428.9559191609531
 20
150.2779287729576
 30
0.0
 10
429.0059947803894
 20
150.4311407462466
 30
0.0
 10
429.0536394664955
 20
150.5859427652158
 30
0.0
 10
429.0988316677391
 20
150.742166521105
 30
0.0
 10
429.1415595580046
 20
150.8996421492449
 30
0.0
 10
429.181811802349
 20
151.0582014958727
 30
0.0
 10
429.2195863486982
 20
151.2176761685408
 30
0.0
 10
429.2548817759341
 20
151.3779003078395
 30
0.0
 10
429.287705397537
 20
151.5387090339037
 30
0.0
 10
429.3180652336474
 20
151.6999407604994
 30
0.0
 10
429.3459774031082
 20
151.8614359784549
 30
0.0
 10
429.3714587491124
 20
152.02303915237
 30
0.0
 10
429.3945335079388
 20
152.1845977845785
 30
0.0
 10
429.4152266127269
 20
152.3459639365249
 30
0.0
 10
429.4335696144807
 20
152.5069935207848
 30
0.0
 10
429.449594769646
 20
152.6675474900604
 30
0.0
 10
429.4633398586176
 20
152.8274913094274
 30
0.0
 10
429.4748444142757
 20
152.9866958559878
 30
0.0
 10
429.4841484279069
 20
153.1450370285467
 30
0.0
 10
429.4913092984515
 20
153.3023964004184
 30
0.0
 10
429.4963258179333
 20
153.4586609285276
 30
0.0
 10
429.499428993802
 20
153.6137234048215
 30
0.0
 10
429.4998102147444
 20
153.7166884409506
 30
0.0
 10
429.5000000000699
 20
153.7679491924757
 30
0.0
 11
425.5000000000699
 21
146.8397459622003
 31
0.0
 11
425.5887837899588
 21
146.8414529048158
 31
0.0
 11
425.6783209766646
 21
146.8466339353935
 31
0.0
 11
425.7685529628873
 21
146.8553783153334
 31
0.0
 11
425.8594177516608
 21
146.8677711774153
 31
0.0
 11
425.950850104548
 21
146.8838951213529
 31
0.0
 11
426.0427815671779
 21
146.9038276528158
 31
0.0
 11
426.1351404710686
 21
146.9276431079536
 31
0.0
 11
426.2278522097186
 21
146.9554097626648
 31
0.0
 11
426.3208390388193
 21
146.9871920760274
 31
0.0
 11
426.4140206496957
 21
147.0230475063003
 31
0.0
 11
426.5073137272929
 21
147.0630290522187
 31
0.0
 11
426.6006328594514
 21
147.1071818247808
 31
0.0
 11
426.6938898195497
 21
147.1555458557006
 31
0.0
 11
426.786994838931
 21
147.2081524841749
 31
0.0
 11
426.8798555904096
 21
147.2650273940028
 31
0.0
 11
426.9723788383174
 21
147.3261868815826
 31
0.0
 11
427.0644691095229
 21
147.3916410777361
 31
0.0
 11
427.1560307222093
 21
147.4613901669856
 31
0.0
 11
427.2469661409447
 21
147.5354277464633
 31
0.0
 11
427.3371783722939
 21
147.6137370669558
 31
0.0
 11
427.4265690109077
 21
147.6962944804088
 31
0.0
 11
427.5150409773465
 21
147.7830657700783
 31
0.0
 11
427.6024962706018
 21
147.8740096382577
 31
0.0
 11
427.6888390136105
 21
147.9690741879246
 31
0.0
 11
427.7739729348115
 21
148.0682004037858
 31
0.0
 11
427.8578046781611
 21
148.171318840209
 31
0.0
 11
427.9402410423205
 21
148.2783530512071
 31
0.0
 11
428.0211925056668
 21
148.389216530485
 31
0.0
 11
428.1005702561372
 21
148.5038160489835
 31
0.0
 11
428.1782898776387
 21
148.6220488829927
 31
0.0
 11
428.2542682067264
 21
148.7438060212798
 31
0.0
 11
428.3284271248161
 21
148.8689697069094
 31
0.0
 11
428.4006902799021
 21
148.9974164796843
 31
0.0
 11
428.4709869289729
 21
149.1290150471292
 31
0.0
 11
428.5392485639651
 21
149.2636291318512
 31
0.0
 11
428.6054127503693
 21
149.40111567712
 31
0.0
 11
428.6694196971469
 21
149.5413274736291
 31
0.0
 11
428.731216040506
 21
149.6841116956982
 31
0.0
 11
428.7907513967793
 21
149.8293122861525
 31
0.0
 11
428.8479820449446
 21
149.9767688114345
 31
0.0
 11
428.9028675004344
 21
150.1263185886523
 31
0.0
 11
428.9553740550597
 21
150.2777958404994
 31
0.0
 11
429.0054714078913
 21
150.431033553654
 31
0.0
 11
429.0531360273889
 21
150.585862909217
 31
0.0
 11
429.0983478730965
 21
150.7421148669785
 31
0.0
 11
429.141093551097
 21
150.8996198428353
 31
0.0
 11
429.1813631573991
 21
151.0582090189194
 31
0.0
 11
429.2191532043196
 21
151.2177142366418
 31
0.0
 11
429.2544636131501
 21
151.3779690382189
 31
0.0
 11
429.2873003954366
 21
151.5388087424894
 31
0.0
 11
429.3176728187127
 21
151.7000712281437
 31
0.0
 11
429.3455958328181
 21
151.8615971595472
 31
0.0
 11
429.371087428448
 21
152.0232305265304
 31
0.0
 11
429.3941708042409
 21
152.1848189881567
 31
0.0
 11
429.4148719336791
 21
152.346214187861
 31
0.0
 11
429.4332214737362
 21
152.5072721849631
 31
0.0
 11
429.4492525513371
 21
152.6678535668989
 31
0.0
 11
429.4630024187429
 21
152.8278239408329
 31
0.0
 11
429.4745104665266
 21
152.9870538669841
 31
0.0
 11
429.4838196345214
 21
153.1454193855783
 31
0.0
 11
429.49097465419
 21
153.3028017966897
 31
0.0
 11
429.4960232268926
 21
153.4590882009585
 31
0.0
 11
429.4990144947199
 21
153.6141711519827
 31
0.0
 11
429.5000000000699
 21
153.7679491924757
 31
0.0
  0
SPLINE
  5
113
330
7F
100
AcDbEntity
  8
0
  6
Continuous
 62
     7
100
AcDbSpline
210
0.0
220
0.0
230
1.0
 70
  1064
 71
     3
 72
    71
 73
    67
 74
    65
 42
0.000000001
 43
0.0000000001
 44
0.00000001
 40
0.0
 40
0.0
 40
0.0
 40
0.0
 40
0.1537812069534412
 40
0.3088930042591621
 40
0.4652609303340904
 40
0.6228059005932401
 40
0.781444792720354
 40
0.9410900386562902
 40
1.101650243537618
 40
1.263029844707993
 40
1.4251297646719
 40
1.587847149257026
 40
1.751076047343421
 40
1.914707238650626
 40
2.078628931024647
 40
2.242726686578552
 40
2.406884125456892
 40
2.570982956665467
 40
2.734903675708458
 40
2.898525703447596
 40
3.061728063754037
 40
3.224389630508836
 40
3.386389770320095
 40
3.547608694447807
 40
3.70792805109135
 40
3.867231375254287
 40
4.025404615539426
 40
4.182336671283235
 40
4.337919839149731
 40
4.492050423813441
 40
4.644629091060997
 40
4.79556153497053
 40
4.944758726069495
 40
5.092137615424614
 40
5.237621268600662
 40
5.381139585286367
 40
5.522629311498457
 40
5.662034752250926
 40
5.799307657322998
 40
5.934407903332792
 40
6.067303249888686
 40
6.197969968005999
 40
6.326392465598589
 40
6.452563839106378
 40
6.576485369004582
 40
6.698166973220395
 40
6.817626574670185
 40
6.934890437705635
 40
7.049992411538623
 40
7.162974135162758
 40
7.273884163320254
 40
7.382778031631495
 40
7.489717276120227
 40
7.594769359033648
 40
7.698006599284702
 40
7.799505970586694
 40
7.899347968334522
 40
7.997616304365075
 40
8.094396744731817
 40
8.189776737783038
 40
8.283844265044907
 40
8.376687448894913
 40
8.46839346258691
 40
8.559048167686363
 40
8.648735125163078
 40
8.737535314989383
 40
8.737535314989383
 40
8.737535314989383
 40
8.737535314989383
 10
389.5000000000699
 20
139.9115427319247
 30
0.0
 10
389.5001897853955
 20
139.9628034834504
 30
0.0
 10
389.5005710063376
 20
140.0657685195793
 30
0.0
 10
389.5036741822066
 20
140.2208309958727
 30
0.0
 10
389.5086907016884
 20
140.3770955239814
 30
0.0
 10
389.5158515722329
 20
140.5344548958524
 30
0.0
 10
389.5251555858641
 20
140.6927960684118
 30
0.0
 10
389.5366601415222
 20
140.8520006149722
 30
0.0
 10
389.5504052304937
 20
141.0119444343401
 30
0.0
 10
389.5664303856594
 20
141.172498403617
 30
0.0
 10
389.5847733874133
 20
141.3335279878769
 30
0.0
 10
389.6054664922013
 20
141.494894139825
 30
0.0
 10
389.6285412510276
 20
141.6564527720322
 30
0.0
 10
389.6540225970317
 20
141.8180559459451
 30
0.0
 10
389.6819347664917
 20
141.979551163899
 30
0.0
 10
389.7122946026018
 20
142.1407828904921
 30
0.0
 10
389.7451182242053
 20
142.3015916165584
 30
0.0
 10
389.7804136514414
 20
142.4618157558602
 30
0.0
 10
389.8181881977915
 20
142.6212904285308
 30
0.0
 10
389.8584404421363
 20
142.7798497751586
 30
0.0
 10
389.9011683324006
 20
142.9373254032954
 30
0.0
 10
389.9463605336443
 20
143.0935491591847
 30
0.0
 10
389.9940052197505
 20
143.2483511781537
 30
0.0
 10
390.0440808391886
 20
143.4015631514478
 30
0.0
 10
390.0965655563032
 20
143.553015920002
 30
0.0
 10
390.1514274894291
 20
143.702543270069
 30
0.0
 10
390.2086347472413
 20
143.8499790104692
 30
0.0
 10
390.2681452072847
 20
143.9951613257483
 30
0.0
 10
390.3299170759838
 20
144.1379292798109
 30
0.0
 10
390.3938982891048
 20
144.2781277492681
 30
0.0
 10
390.4600375069333
 20
144.4156033018785
 30
0.0
 10
390.5282732313463
 20
144.5502097252729
 30
0.0
 10
390.5985451308156
 20
144.6818032369415
 30
0.0
 10
390.6707829812863
 20
144.8102486146608
 30
0.0
 10
390.7449181998292
 20
144.9354137063677
 30
0.0
 10
390.8208727278486
 20
145.05717615796
 30
0.0
 10
390.8985706379931
 20
145.1754172061192
 30
0.0
 10
390.9779270879176
 20
145.2900289869051
 30
0.0
 10
391.058859853484
 20
145.4009076126873
 30
0.0
 10
391.1412784885716
 20
145.5079610306268
 30
0.0
 10
391.2250956293033
 20
145.6111014057729
 30
0.0
 10
391.3102164996899
 20
145.7102534825843
 30
0.0
 10
391.3965498278543
 20
145.8053463198906
 30
0.0
 10
391.4839978375896
 20
145.8963220908175
 30
0.0
 10
391.5724666190217
 20
145.9831272406761
 30
0.0
 10
391.6618567417633
 20
146.0657216417537
 30
0.0
 10
391.7520729303087
 20
146.1440692714809
 30
0.0
 10
391.8430154244152
 20
146.2181476190606
 30
0.0
 10
391.9345888243712
 20
146.2879380069159
 30
0.0
 10
392.0266943079919
 20
146.3534351273032
 30
0.0
 10
392.1192375331179
 20
146.414637153248
 30
0.0
 10
392.2121217978171
 20
146.471555266568
 30
0.0
 10
392.3052549167993
 20
146.5242037232218
 30
0.0
 10
392.3985433822678
 20
146.5726092211301
 30
0.0
 10
392.4918981663199
 20
146.6168010977448
 30
0.0
 10
392.5852299052553
 20
146.6568203757279
 30
0.0
 10
392.6784536195261
 20
146.6927102865981
 30
0.0
 10
392.7714849059573
 20
146.7245247869158
 30
0.0
 10
392.8642436076341
 20
146.7523197648709
 30
0.0
 10
392.956650959143
 20
146.7761602112999
 30
0.0
 10
393.0486322778507
 20
146.7961147107482
 30
0.0
 10
393.1401149702
 20
146.812252200093
 30
0.0
 10
393.2310303506326
 20
146.824672616133
 30
0.0
 10
393.3213123824202
 20
146.8333731117745
 30
0.0
 10
393.4108987697765
 20
146.8387555453487
 30
0.0
 10
393.4703981256347
 20
146.8394169226524
 30
0.0
 10
393.5000000000699
 20
146.8397459622003
 30
0.0
 11
389.5000000000699
 21
139.9115427319247
 31
0.0
 11
389.50098550542
 21
140.0653207724191
 31
0.0
 11
389.5039767732473
 21
140.220403723442
 31
0.0
 11
389.5090253459498
 21
140.3766901277089
 31
0.0
 11
389.5161803656184
 21
140.5340725388222
 31
0.0
 11
389.5254895336132
 21
140.6924380574139
 31
0.0
 11
389.536997581397
 21
140.8516679835676
 31
0.0
 11
389.5507474488028
 21
141.0116383575015
 31
0.0
 11
389.5667785264037
 21
141.1722197394373
 31
0.0
 11
389.5851280664613
 21
141.3332777365436
 31
0.0
 11
389.6058291958989
 21
141.4946729362437
 31
0.0
 11
389.6289125716925
 21
141.6562613978751
 31
0.0
 11
389.6544041673218
 21
141.8178947648533
 31
0.0
 11
389.6823271814259
 21
141.9794206962504
 31
0.0
 11
389.7126996047032
 21
142.1406831819111
 31
0.0
 11
389.7455363869881
 21
142.301522886174
 31
0.0
 11
389.7808467958202
 21
142.4617776877586
 31
0.0
 11
389.818636842743
 21
142.6212829054903
 31
0.0
 11
389.8589064490429
 21
142.7798720815651
 31
0.0
 11
389.9016521270434
 21
142.937377057422
 31
0.0
 11
389.9468639727509
 21
143.0936290151834
 31
0.0
 11
389.9945285922486
 21
143.2484583707464
 31
0.0
 11
390.0446259450802
 21
143.401696083901
 31
0.0
 11
390.0971324997107
 21
143.553173335763
 31
0.0
 11
390.1520179551953
 21
143.7027231129659
 31
0.0
 11
390.2092486033605
 21
143.8501796382479
 31
0.0
 11
390.2687839596339
 21
143.9953802287023
 31
0.0
 11
390.3305803029842
 21
144.1381644507519
 31
0.0
 11
390.3945872497706
 21
144.2783762472805
 31
0.0
 11
390.4607514361746
 21
144.4158627925493
 31
0.0
 11
390.5290130711669
 21
144.5504768772713
 31
0.0
 11
390.5993097202376
 21
144.6820754447162
 31
0.0
 11
390.6715728753238
 21
144.8105222174911
 31
0.0
 11
390.7457317934134
 21
144.9356859031207
 31
0.0
 11
390.8217101225011
 21
145.0574430414078
 31
0.0
 11
390.899429744021
 21
145.1756758754442
 31
0.0
 11
390.978807494473
 21
145.2902753939154
 31
0.0
 11
391.0597589578194
 21
145.4011388731933
 31
0.0
 11
391.1421953219787
 21
145.5081730841915
 31
0.0
 11
391.2260270653285
 21
145.6112915206146
 31
0.0
 11
391.3111609865294
 21
145.7104177364759
 31
0.0
 11
391.397503729538
 21
145.8054822861428
 31
0.0
 11
391.4849590227933
 21
145.8964261543222
 31
0.0
 11
391.5734309892321
 21
145.9831974439916
 31
0.0
 11
391.6628216278459
 21
146.0657548574447
 31
0.0
 11
391.7530338591951
 21
146.1440641779372
 31
0.0
 11
391.8439692779306
 21
146.2181017574149
 31
0.0
 11
391.9355308905889
 21
146.2878508466438
 31
0.0
 11
392.0276211618224
 21
146.3533050428179
 31
0.0
 11
392.1201444097301
 21
146.4144645303976
 31
0.0
 11
392.2130051612088
 21
146.4713394402256
 31
0.0
 11
392.3061101805673
 21
146.5239460686876
 31
0.0
 11
392.3993671406885
 21
146.5723100996196
 31
0.0
 11
392.4926862728287
 21
146.6164628721735
 31
0.0
 11
392.5859793504442
 21
146.6564444181002
 31
0.0
 11
392.6791609613075
 21
146.6922998483683
 31
0.0
 11
392.7721477904213
 21
146.7240821617357
 31
0.0
 11
392.8648595290786
 21
146.7518488164489
 31
0.0
 11
392.957218432962
 21
146.7756642715847
 31
0.0
 11
393.0491498955939
 21
146.795596803048
 31
0.0
 11
393.1405822484791
 21
146.8117207469852
 31
0.0
 11
393.2314470372503
 21
146.8241136090668
 31
0.0
 11
393.3216790234753
 21
146.8328579890069
 31
0.0
 11
393.4112162101758
 21
146.8380390195846
 31
0.0
 11
393.5000000000699
 21
146.8397459622003
 31
0.0
  0
SPLINE
  5
114
330
7F
100
AcDbEntity
  8
0
  6
Continuous
 62
     7
100
AcDbSpline
210
0.0
220
0.0
230
1.0
 70
  1064
 71
     3
 72
    15
 73
    11
 74
     9
 42
0.000000001
 43
0.0000000001
 44
0.00000001
 40
0.0
 40
0.0
 40
0.0
 40
0.0
 40
0.7961285454808799
 40
1.592257090968287
 40
3.869452856100779
 40
6.14606211405362
 40
9.555930402353338
 40
12.96491854561116
 40
16.9852013390919
 40
21.00507214408324
 40
21.00507214408324
 40
21.00507214408324
 40
21.00507214408324
 10
330.5000000000705
 20
146.0000000000447
 30
0.0
 10
330.4899857459695
 20
146.2651872186921
 30
0.0
 10
330.4699572522264
 20
146.7955616565309
 30
0.0
 10
330.4236268604679
 20
148.0845473877222
 30
0.0
 10
330.3643459224971
 20
149.8668786314048
 30
0.0
 10
330.2871915171849
 20
152.5203212675401
 30
0.0
 10
330.2145780693563
 20
155.5512962793459
 30
0.0
 10
330.1509100195633
 20
159.1637971764249
 30
0.0
 10
330.1074255421049
 20
162.9799831208958
 30
0.0
 10
330.101771536634
 20
165.6600401502211
 30
0.0
 10
330.098944686102
 20
167.0000000000132
 30
0.0
 11
330.5000000000705
 21
146.0000000000447
 31
0.0
 11
330.4701981947417
 21
146.7955705584575
 31
0.0
 11
330.4415443174088
 21
147.5911832885767
 31
0.0
 11
330.3659249936499
 21
149.8671231540034
 31
0.0
 11
330.2997247107755
 21
152.1427697074438
 31
0.0
 11
330.2181681833896
 21
155.5516625301576
 31
0.0
 11
330.1577478284269
 21
158.9601151910861
 31
0.0
 11
330.113645341213
 21
162.9801560752551
 31
0.0
 11
330.098944686102
 21
167.0000000000132
 31
0.0
  0
HATCH
  5
115
330
7F
100
AcDbEntity
  8
0
  6
Continuous
 62
     3
100
AcDbHatch
 10
0.0
 20
0.0
 30
0.0
210
0.0
220
0.0
230
1.0
  2
_USER
 70
     0
 71
     1
 91
        1
 92
        1
 93
        5
 72
     1
 10
389.50000000007
 20
146.0000000000447
 11
389.5000000000699
 21
139.9115427319247
 72
     1
 10
389.5000000000699
 20
139.9115427319247
 11
389.5000000000699
 21
139.5000000000447
 72
     1
 10
389.5000000000699
 20
139.5000000000447
 11
330.5000000000701
 21
139.5000000000447
 72
     1
 10
330.5000000000701
 20
139.5000000000447
 11
330.5000000000705
 21
146.0000000000447
 72
     1
 10
330.5000000000705
 20
146.0000000000447
 11
389.50000000007
 21
146.0000000000447
 97
        5
330
105
330
F9
330
F4
330
F5
330
FA
 75
     1
 76
     0
 52
225.0
 41
5.00100005
 77
     0
 78
     1
 53
225.0
 43
0.0
 44
0.0
 45
3.536241048069262
 46
-3.536241048069266
 79
     0
 98
        1
 10
0.0
 20
0.0
  0
ENDBLK
  5
81
330
7F
100
AcDbEntity
  8
0
100
AcDbBlockEnd
  0
BLOCK
  5
87
330
82
100
AcDbEntity
  8
0
100
AcDbBlockBegin
  2
539106__5
 70
     0
 10
232.5000000000701
 20
135.0000000000447
 30
0.0
  3
539106__5
  1

  0
INSERT
  5
83
330
82
100
AcDbEntity
  8
0
100
AcDbBlockReference
  2
980057503__1
 10
236.50000000007
 20
135.5000000000447
 30
0.0
  0
INSERT
  5
84
330
82
100
AcDbEntity
  8
0
100
AcDbBlockReference
  2
390997584_Schnitt_gefaltet__2
 10
232.5000000000701
 20
135.0000000000447
 30
0.0
  0
INSERT
  5
85
330
82
100
AcDbEntity
  8
0
100
AcDbBlockReference
  2
976007501_Plan__3
 10
233.0000000000701
 20
135.5000000000447
 30
0.0
  0
INSERT
  5
86
330
82
100
AcDbEntity
  8
0
100
AcDbBlockReference
  2
368027497__4
 10
236.5000000000692
 20
139.5000000000447
 30
0.0
  0
ENDBLK
  5
88
330
82
100
AcDbEntity
  8
0
100
AcDbBlockEnd
  0
BLOCK
  5
8B
330
89
100
AcDbEntity
  8
0
100
AcDbBlockBegin
  2
HL6700-WEB-Zeichnung__6
 70
     0
 10
232.5000000000701
 20
135.0000000000447
 30
0.0
  3
HL6700-WEB-Zeichnung__6
  1

  0
INSERT
  5
8A
330
89
100
AcDbEntity
  8
0
100
AcDbBlockReference
  2
539106__5
 10
232.5000000000701
 20
135.0000000000447
 30
0.0
  0
ENDBLK
  5
8C
330
89
100
AcDbEntity
  8
0
100
AcDbBlockEnd
  0
BLOCK
  5
8F
330
8D
100
AcDbEntity
  8
0
100
AcDbBlockBegin
  2
A-A__7
 70
     0
 10
331.0
 20
170.25
 30
0.0
  3
A-A__7
  1

  0
INSERT
  5
8E
330
8D
100
AcDbEntity
  8
0
100
AcDbBlockReference
  2
HL6700-WEB-Zeichnung__6
 10
232.5000000000701
 20
135.0000000000447
 30
0.0
  0
MTEXT
  5
117
330
8D
100
AcDbEntity
  8
1
 62
     1
100
AcDbMText
 10
296.0
 20
261.0
 30
0.0
 40
15.0
 41
0.0
 71
     2
 72
     1
  1
Schnitt A-A
  7
CONVERTER_11
 73
     1
 44
1.32052821128451
  0
ENDBLK
  5
90
330
8D
100
AcDbEntity
  8
0
100
AcDbBlockEnd
  0
BLOCK
  5
92
330
91
100
AcDbEntity
  8
0
100
AcDbBlockBegin
  2
390997584_Schnitt_gefaltet__8
 70
     0
 10
-281.00000000001
 20
-16.00000000014006
 30
0.0
  3
390997584_Schnitt_gefaltet__8
  1

  0
LINE
  5
118
330
91
100
AcDbEntity
  8
0
  6
Continuous
 62
     7
100
AcDbLine
 10
-281.00000000001
 20
33.99999999986005
 30
0.0
 11
-281.00000000001
 21
34.49999999986005
 31
0.0
  0
LINE
  5
119
330
91
100
AcDbEntity
  8
0
  6
Continuous
 62
     7
100
AcDbLine
 10
168.99999999999
 20
34.49999999986005
 30
0.0
 11
168.99999999999
 21
33.99999999986005
 31
0.0
  0
LINE
  5
11A
330
91
100
AcDbEntity
  8
0
  6
Continuous
 62
     7
100
AcDbLine
 10
-249.0000000000101
 20
17.81370849884505
 30
0.0
 11
-249.0000000000101
 21
26.49999999986005
 31
0.0
  0
LINE
  5
11B
330
91
100
AcDbEntity
  8
0
  6
Continuous
 62
     7
100
AcDbLine
 10
-249.0000000000101
 20
26.49999999986005
 30
0.0
 11
-249.00000000001
 21
30.49999999986017
 31
0.0
  0
LINE
  5
11C
330
91
100
AcDbEntity
  8
0
  6
Continuous
 62
     7
100
AcDbLine
 10
-249.00000000001
 20
8.49999999986017
 30
0.0
 11
-249.0000000000101
 21
17.81370849884505
 31
0.0
  0
LINE
  5
11D
330
91
100
AcDbEntity
  8
0
  6
Continuous
 62
     7
100
AcDbLine
 10
140.99999999999
 20
4.49999999986017
 30
0.0
 11
168.99999999999
 21
4.49999999986005
 31
0.0
  0
LINE
  5
11E
330
91
100
AcDbEntity
  8
0
  6
Continuous
 62
     7
100
AcDbLine
 10
168.99999999999
 20
-16.00000000013995
 30
0.0
 11
168.99999999999
 21
4.49999999986005
 31
0.0
  0
LINE
  5
11F
330
91
100
AcDbEntity
  8
0
  6
Continuous
 62
     7
100
AcDbLine
 10
-281.00000000001
 20
4.49999999986005
 30
0.0
 11
-253.00000000001
 21
4.49999999986017
 31
0.0
  0
LINE
  5
120
330
91
100
AcDbEntity
  8
0
  6
Continuous
 62
     7
100
AcDbLine
 10
-281.00000000001
 20
4.49999999986005
 30
0.0
 11
-281.00000000001
 21
-16.00000000014006
 31
0.0
  0
LINE
  5
121
330
91
100
AcDbEntity
  8
0
  6
Continuous
 62
     7
100
AcDbLine
 10
136.9999999999901
 20
26.49999999986005
 30
0.0
 11
136.9999999999901
 21
17.81370849884476
 31
0.0
  0
LINE
  5
122
330
91
100
AcDbEntity
  8
0
  6
Continuous
 62
     7
100
AcDbLine
 10
136.99999999999
 20
30.49999999986017
 30
0.0
 11
136.9999999999901
 21
26.49999999986005
 31
0.0
  0
LINE
  5
123
330
91
100
AcDbEntity
  8
0
  6
Continuous
 62
     7
100
AcDbLine
 10
136.9999999999901
 20
17.81370849884476
 30
0.0
 11
136.99999999999
 21
8.49999999986017
 31
0.0
  0
LINE
  5
124
330
91
100
AcDbEntity
  8
0
  6
Continuous
 62
     7
100
AcDbLine
 10
168.99999999999
 20
34.49999999986005
 30
0.0
 11
-281.00000000001
 21
34.49999999986005
 31
0.0
  0
LINE
  5
125
330
91
100
AcDbEntity
  8
0
  6
Continuous
 62
     7
100
AcDbLine
 10
168.99999999999
 20
33.99999999986005
 30
0.0
 11
136.99999999999
 21
33.99999999986005
 31
0.0
  0
LINE
  5
126
330
91
100
AcDbEntity
  8
0
  6
Continuous
 62
     7
100
AcDbLine
 10
-249.00000000001
 20
33.99999999986005
 30
0.0
 11
-281.00000000001
 21
33.99999999986005
 31
0.0
  0
LINE
  5
127
330
91
100
AcDbEntity
  8
0
  6
Continuous
 62
     7
100
AcDbLine
 10
136.99999999999
 20
33.99999999986005
 30
0.0
 11
-249.00000000001
 21
33.99999999986005
 31
0.0
  0
ENDBLK
  5
93
330
91
100
AcDbEntity
  8
0
100
AcDbBlockEnd
  0
BLOCK
  5
95
330
94
100
AcDbEntity
  8
0
100
AcDbBlockBegin
  2
976007501_Plan__9
 70
     0
 10
-281.00000000001
 20
30.49999999986005
 30
0.0
  3
976007501_Plan__9
  1

  0
LINE
  5
128
330
94
100
AcDbEntity
  8
0
  6
Continuous
 62
     7
100
AcDbLine
 10
-249.00000000001
 20
30.49999999986017
 30
0.0
 11
-281.0000000000099
 21
30.49999999986005
 31
0.0
  0
LINE
  5
129
330
94
100
AcDbEntity
  8
0
  6
Continuous
 62
     7
100
AcDbLine
 10
-281.0000000000099
 20
30.49999999986005
 30
0.0
 11
-281.00000000001
 21
33.99999999986005
 31
0.0
  0
LINE
  5
12A
330
94
100
AcDbEntity
  8
0
  6
Continuous
 62
     7
100
AcDbLine
 10
168.99999999999
 20
30.49999999986005
 30
0.0
 11
136.99999999999
 21
30.49999999986017
 31
0.0
  0
LINE
  5
12B
330
94
100
AcDbEntity
  8
0
  6
Continuous
 62
     7
100
AcDbLine
 10
168.99999999999
 20
30.49999999986005
 30
0.0
 11
168.99999999999
 21
33.99999999986005
 31
0.0
  0
LINE
  5
12C
330
94
100
AcDbEntity
  8
0
  6
Continuous
 62
     7
100
AcDbLine
 10
136.99999999999
 20
30.49999999986017
 30
0.0
 11
132.99999999999
 21
30.49999999986005
 31
0.0
  0
LINE
  5
12D
330
94
100
AcDbEntity
  8
0
  6
Continuous
 62
     7
100
AcDbLine
 10
-245.0000000000101
 20
30.49999999986005
 30
0.0
 11
-249.00000000001
 21
30.49999999986017
 31
0.0
  0
LINE
  5
12E
330
94
100
AcDbEntity
  8
0
  6
Continuous
 62
     7
100
AcDbLine
 10
-185.00000000001
 20
30.49999999986005
 30
0.0
 11
-245.0000000000101
 21
30.49999999986005
 31
0.0
  0
LINE
  5
12F
330
94
100
AcDbEntity
  8
0
  6
Continuous
 62
     7
100
AcDbLine
 10
132.99999999999
 20
30.49999999986005
 30
0.0
 11
68.99999999999011
 21
30.49999999986085
 31
0.0
  0
LINE
  5
130
330
94
100
AcDbEntity
  8
0
  6
Continuous
 62
     7
100
AcDbLine
 10
68.99999999999011
 20
30.49999999986085
 30
0.0
 11
-185.00000000001
 21
30.49999999986005
 31
0.0
  0
LINE
  5
131
330
94
100
AcDbEntity
  8
0
  6
Continuous
 62
     7
100
AcDbLine
 10
168.99999999999
 20
33.99999999986005
 30
0.0
 11
136.99999999999
 21
33.99999999986005
 31
0.0
  0
LINE
  5
132
330
94
100
AcDbEntity
  8
0
  6
Continuous
 62
     7
100
AcDbLine
 10
-249.00000000001
 20
33.99999999986005
 30
0.0
 11
-281.00000000001
 21
33.99999999986005
 31
0.0
  0
LINE
  5
133
330
94
100
AcDbEntity
  8
0
  6
Continuous
 62
     7
100
AcDbLine
 10
136.99999999999
 20
33.99999999986005
 30
0.0
 11
-249.00000000001
 21
33.99999999986005
 31
0.0
  0
ENDBLK
  5
96
330
94
100
AcDbEntity
  8
0
100
AcDbBlockEnd
  0
BLOCK
  5
98
330
97
100
AcDbEntity
  8
0
100
AcDbBlockBegin
  2
980057503__10
 70
     0
 10
-281.00000000001
 20
-162.5000000001398
 30
0.0
  3
980057503__10
  1

  0
LINE
  5
134
330
97
100
AcDbEntity
  8
0
  6
Continuous
 62
     7
100
AcDbLine
 10
168.99999999999
 20
-75.50000000013983
 30
0.0
 11
168.99999999999
 21
-71.50000000013983
 31
0.0
  0
LINE
  5
135
330
97
100
AcDbEntity
  8
0
  6
Continuous
 62
     7
100
AcDbLine
 10
168.9999999999895
 20
-51.71320343573424
 30
0.0
 11
168.99999999999
 21
-50.71320343573416
 31
0.0
  0
LINE
  5
136
330
97
100
AcDbEntity
  8
0
  6
Continuous
 62
     7
100
AcDbLine
 10
168.99999999999
 20
-71.50000000013983
 30
0.0
 11
168.9999999999895
 21
-51.71320343573424
 31
0.0
  0
LINE
  5
137
330
97
100
AcDbEntity
  8
0
  6
Continuous
 62
     7
100
AcDbLine
 10
168.99999999999
 20
-75.50000000013983
 30
0.0
 11
164.99999999999
 21
-75.50000000013995
 31
0.0
  0
LINE
  5
138
330
97
100
AcDbEntity
  8
0
  6
Continuous
 62
     7
100
AcDbLine
 10
164.99999999999
 20
-75.50000000013995
 30
0.0
 11
138.99999999999
 21
-75.50000000013983
 31
0.0
  0
LINE
  5
139
330
97
100
AcDbEntity
  8
0
  6
Continuous
 62
     7
100
AcDbLine
 10
168.99999999999
 20
-50.71320343573416
 30
0.0
 11
168.99999999999
 21
-16.00000000013995
 31
0.0
  0
LINE
  5
13A
330
97
100
AcDbEntity
  8
0
  6
Continuous
 62
     7
100
AcDbLine
 10
-249.0000000000101
 20
17.81370849884505
 30
0.0
 11
-249.0000000000101
 21
26.49999999986005
 31
0.0
  0
LINE
  5
13B
330
97
100
AcDbEntity
  8
0
  6
Continuous
 62
     7
100
AcDbLine
 10
-249.0000000000101
 20
26.49999999986005
 30
0.0
 11
-249.00000000001
 21
30.49999999986017
 31
0.0
  0
LINE
  5
13C
330
97
100
AcDbEntity
  8
0
  6
Continuous
 62
     7
100
AcDbLine
 10
-249.00000000001
 20
8.49999999986017
 30
0.0
 11
-249.0000000000101
 21
17.81370849884505
 31
0.0
  0
LINE
  5
13D
330
97
100
AcDbEntity
  8
0
  6
Continuous
 62
     7
100
AcDbLine
 10
140.99999999999
 20
4.49999999986017
 30
0.0
 11
168.99999999999
 21
4.49999999986005
 31
0.0
  0
LINE
  5
13E
330
97
100
AcDbEntity
  8
0
  6
Continuous
 62
     7
100
AcDbLine
 10
168.99999999999
 20
-16.00000000013995
 30
0.0
 11
168.99999999999
 21
4.49999999986005
 31
0.0
  0
LINE
  5
13F
330
97
100
AcDbEntity
  8
0
  6
Continuous
 62
     7
100
AcDbLine
 10
-281.00000000001
 20
4.49999999986005
 30
0.0
 11
-253.00000000001
 21
4.49999999986017
 31
0.0
  0
LINE
  5
140
330
97
100
AcDbEntity
  8
0
  6
Continuous
 62
     7
100
AcDbLine
 10
-281.00000000001
 20
4.49999999986005
 30
0.0
 11
-281.00000000001
 21
-16.00000000014006
 31
0.0
  0
LINE
  5
141
330
97
100
AcDbEntity
  8
0
  6
Continuous
 62
     7
100
AcDbLine
 10
136.9999999999901
 20
26.49999999986005
 30
0.0
 11
136.9999999999901
 21
17.81370849884476
 31
0.0
  0
LINE
  5
142
330
97
100
AcDbEntity
  8
0
  6
Continuous
 62
     7
100
AcDbLine
 10
136.99999999999
 20
30.49999999986017
 30
0.0
 11
136.9999999999901
 21
26.49999999986005
 31
0.0
  0
LINE
  5
143
330
97
100
AcDbEntity
  8
0
  6
Continuous
 62
     7
100
AcDbLine
 10
136.9999999999901
 20
17.81370849884476
 30
0.0
 11
136.99999999999
 21
8.49999999986017
 31
0.0
  0
LINE
  5
144
330
97
100
AcDbEntity
  8
0
  6
Continuous
 62
     7
100
AcDbLine
 10
136.99999999999
 20
30.49999999986017
 30
0.0
 11
132.99999999999
 21
30.49999999986005
 31
0.0
  0
LINE
  5
145
330
97
100
AcDbEntity
  8
0
  6
Continuous
 62
     7
100
AcDbLine
 10
-245.0000000000101
 20
30.49999999986005
 30
0.0
 11
-249.00000000001
 21
30.49999999986017
 31
0.0
  0
LINE
  5
146
330
97
100
AcDbEntity
  8
0
  6
Continuous
 62
     7
100
AcDbLine
 10
-185.00000000001
 20
30.49999999986005
 30
0.0
 11
-245.0000000000101
 21
30.49999999986005
 31
0.0
  0
LINE
  5
147
330
97
100
AcDbEntity
  8
0
  6
Continuous
 62
     7
100
AcDbLine
 10
132.99999999999
 20
30.49999999986005
 30
0.0
 11
68.99999999999011
 21
30.49999999986085
 31
0.0
  0
LINE
  5
148
330
97
100
AcDbEntity
  8
0
  6
Continuous
 62
     7
100
AcDbLine
 10
68.99999999999011
 20
30.49999999986085
 30
0.0
 11
-185.00000000001
 21
30.49999999986005
 31
0.0
  0
LINE
  5
149
330
97
100
AcDbEntity
  8
0
  6
Continuous
 62
     7
100
AcDbLine
 10
-241.00000000001
 20
-162.5000000001398
 30
0.0
 11
-241.0000000000099
 21
-158.5000000001397
 31
0.0
  0
LINE
  5
14A
330
97
100
AcDbEntity
  8
0
  6
Continuous
 62
     7
100
AcDbLine
 10
124.99999999999
 20
-162.5000000001398
 30
0.0
 11
128.99999999999
 21
-162.5000000001398
 31
0.0
  0
LINE
  5
14B
330
97
100
AcDbEntity
  8
0
  6
Continuous
 62
     7
100
AcDbLine
 10
-82.25000000001
 20
-162.5000000001397
 30
0.0
 11
-81.25000000001
 21
-162.5000000001397
 31
0.0
  0
LINE
  5
14C
330
97
100
AcDbEntity
  8
0
  6
Continuous
 62
     7
100
AcDbLine
 10
-30.75000000001
 20
-162.5000000001397
 30
0.0
 11
-29.75000000000989
 21
-162.5000000001397
 31
0.0
  0
LINE
  5
14D
330
97
100
AcDbEntity
  8
0
  6
Continuous
 62
     7
100
AcDbLine
 10
-81.25000000001
 20
-162.5000000001397
 30
0.0
 11
-30.75000000001
 21
-162.5000000001397
 31
0.0
  0
LINE
  5
14E
330
97
100
AcDbEntity
  8
0
  6
Continuous
 62
     7
100
AcDbLine
 10
-237.0000000000097
 20
-162.5000000001397
 30
0.0
 11
-82.25000000001
 21
-162.5000000001397
 31
0.0
  0
LINE
  5
14F
330
97
100
AcDbEntity
  8
0
  6
Continuous
 62
     7
100
AcDbLine
 10
-241.00000000001
 20
-162.5000000001398
 30
0.0
 11
-237.0000000000097
 21
-162.5000000001397
 31
0.0
  0
LINE
  5
150
330
97
100
AcDbEntity
  8
0
  6
Continuous
 62
     7
100
AcDbLine
 10
-29.75000000000989
 20
-162.5000000001397
 30
0.0
 11
124.99999999999
 21
-162.5000000001398
 31
0.0
  0
LINE
  5
151
330
97
100
AcDbEntity
  8
0
  6
Continuous
 62
     7
100
AcDbLine
 10
-241.0000000000099
 20
-158.5000000001397
 30
0.0
 11
-241.00000000001
 21
-85.50000000013983
 31
0.0
  0
LINE
  5
152
330
97
100
AcDbEntity
  8
0
  6
Continuous
 62
     7
100
AcDbLine
 10
-277.00000000001
 20
-75.50000000013983
 30
0.0
 11
-281.00000000001
 21
-75.50000000013983
 31
0.0
  0
LINE
  5
153
330
97
100
AcDbEntity
  8
0
  6
Continuous
 62
     7
100
AcDbLine
 10
-251.00000000001
 20
-75.50000000013983
 30
0.0
 11
-277.00000000001
 21
-75.50000000013983
 31
0.0
  0
LINE
  5
154
330
97
100
AcDbEntity
  8
0
  6
Continuous
 62
     7
100
AcDbLine
 10
-281.00000000001
 20
-51.71320343573476
 30
0.0
 11
-281.0000000000099
 21
-71.50000000014106
 31
0.0
  0
LINE
  5
155
330
97
100
AcDbEntity
  8
0
  6
Continuous
 62
     7
100
AcDbLine
 10
-281.00000000001
 20
-50.71320343573476
 30
0.0
 11
-281.00000000001
 21
-51.71320343573476
 31
0.0
  0
LINE
  5
156
330
97
100
AcDbEntity
  8
0
  6
Continuous
 62
     7
100
AcDbLine
 10
-281.0000000000099
 20
-71.50000000014106
 30
0.0
 11
-281.00000000001
 21
-75.50000000013983
 31
0.0
  0
LINE
  5
157
330
97
100
AcDbEntity
  8
0
  6
Continuous
 62
     7
100
AcDbLine
 10
-281.00000000001
 20
-16.00000000014006
 30
0.0
 11
-281.00000000001
 21
-50.71320343573476
 31
0.0
  0
LINE
  5
158
330
97
100
AcDbEntity
  8
0
  6
Continuous
 62
     7
100
AcDbLine
 10
128.9999999999901
 20
-158.5000000001398
 30
0.0
 11
128.99999999999
 21
-162.5000000001398
 31
0.0
  0
LINE
  5
159
330
97
100
AcDbEntity
  8
0
  6
Continuous
 62
     7
100
AcDbLine
 10
128.99999999999
 20
-85.50000000013983
 30
0.0
 11
128.9999999999901
 21
-158.5000000001398
 31
0.0
  0
LINE
  5
15A
330
97
100
AcDbEntity
  8
1
  6
DOT_CENTER
 62
     2
100
AcDbLine
 10
-56.00000000001
 20
40.1974148843136
 30
0.0
 11
-56.00000000001
 21
-168.217896035381
 31
0.0
  0
ARC
  5
15B
330
97
100
AcDbEntity
  8
0
  6
Continuous
 62
     7
100
AcDbCircle
 10
140.99999999999
 20
8.49999999986017
 30
0.0
 40
4.0
100
AcDbArc
 50
180.0
 51
270.0
  0
ARC
  5
15C
330
97
100
AcDbEntity
  8
0
  6
Continuous
 62
     7
100
AcDbCircle
 10
138.99999999999
 20
-85.50000000013983
 30
0.0
 40
10.0
100
AcDbArc
 50
90.0
 51
180.0
  0
ARC
  5
15D
330
97
100
AcDbEntity
  8
0
  6
Continuous
 62
     7
100
AcDbCircle
 10
-253.00000000001
 20
8.49999999986017
 30
0.0
 40
4.0
100
AcDbArc
 50
270.0
 51
0.0
  0
ARC
  5
15E
330
97
100
AcDbEntity
  8
0
  6
Continuous
 62
     7
100
AcDbCircle
 10
-251.00000000001
 20
-85.50000000013983
 30
0.0
 40
10.0
100
AcDbArc
 50
0.0
 51
90.0
  0
ENDBLK
  5
99
330
97
100
AcDbEntity
  8
0
100
AcDbBlockEnd
  0
BLOCK
  5
9B
330
9A
100
AcDbEntity
  8
0
100
AcDbBlockBegin
  2
368027497__11
 70
     0
 10
-281.00000000001
 20
-162.5000000001398
 30
0.0
  3
368027497__11
  1

  0
LINE
  5
15F
330
9A
100
AcDbEntity
  8
0
  6
Continuous
 62
     7
100
AcDbLine
 10
-181.0000000000094
 20
-4.50000000013983
 30
0.0
 11
-181.00000000001
 21
26.49999999986005
 31
0.0
  0
LINE
  5
160
330
9A
100
AcDbEntity
  8
0
  6
Continuous
 62
     7
100
AcDbLine
 10
-228.3148353840689
 20
10.10496933166024
 30
0.0
 11
-247.5345956563016
 21
14.71922552763516
 31
0.0
  0
LINE
  5
161
330
9A
100
AcDbEntity
  8
0
  6
Continuous
 62
     7
100
AcDbLine
 10
-229.4820622033484
 20
5.24311972967195
 30
0.0
 11
-228.3148353840689
 21
10.10496933166024
 31
0.0
  0
LINE
  5
162
330
9A
100
AcDbEntity
  8
0
  6
Continuous
 62
     7
100
AcDbLine
 10
-181.00000000001
 20
26.49999999986005
 30
0.0
 11
-249.0000000000101
 21
26.49999999986005
 31
0.0
  0
LINE
  5
163
330
9A
100
AcDbEntity
  8
0
  6
Continuous
 62
     7
100
AcDbLine
 10
128.9999999999902
 20
-51.71320343573424
 30
0.0
 11
128.9999999999902
 21
-46.50000000013984
 31
0.0
  0
LINE
  5
164
330
9A
100
AcDbEntity
  8
0
  6
Continuous
 62
     7
100
AcDbLine
 10
128.9999999999902
 20
-69.50000000013995
 30
0.0
 11
128.9999999999902
 21
-51.71320343573424
 31
0.0
  0
LINE
  5
165
330
9A
100
AcDbEntity
  8
0
  6
Continuous
 62
     7
100
AcDbLine
 10
128.9999999999902
 20
-4.50000000013983
 30
0.0
 11
128.9999999999902
 21
6.49999999986017
 31
0.0
  0
LINE
  5
166
330
9A
100
AcDbEntity
  8
0
  6
Continuous
 62
     7
100
AcDbLine
 10
132.9999999999902
 20
-46.71320343573416
 30
0.0
 11
164.99999999999
 21
-46.71320343573416
 31
0.0
  0
LINE
  5
167
330
9A
100
AcDbEntity
  8
0
  6
Continuous
 62
     7
100
AcDbLine
 10
168.9999999999895
 20
-51.71320343573424
 30
0.0
 11
128.9999999999902
 21
-51.71320343573424
 31
0.0
  0
LINE
  5
168
330
9A
100
AcDbEntity
  8
0
  6
Continuous
 62
     7
100
AcDbLine
 10
168.9999999999895
 20
-51.71320343573424
 30
0.0
 11
168.99999999999
 21
-50.71320343573416
 31
0.0
  0
LINE
  5
169
330
9A
100
AcDbEntity
  8
0
  6
Continuous
 62
     7
100
AcDbLine
 10
168.99999999999
 20
-71.50000000013983
 30
0.0
 11
168.9999999999895
 21
-51.71320343573424
 31
0.0
  0
LINE
  5
16A
330
9A
100
AcDbEntity
  8
0
  6
Continuous
 62
     7
100
AcDbLine
 10
164.99999999999
 20
-75.50000000013995
 30
0.0
 11
138.99999999999
 21
-75.50000000013983
 31
0.0
  0
LINE
  5
16B
330
9A
100
AcDbEntity
  8
0
  6
Continuous
 62
     7
100
AcDbLine
 10
-249.0000000000101
 20
17.81370849884505
 30
0.0
 11
-249.0000000000101
 21
26.49999999986005
 31
0.0
  0
LINE
  5
16C
330
9A
100
AcDbEntity
  8
0
  6
Continuous
 62
     7
100
AcDbLine
 10
-181.0000000000094
 20
-4.50000000013983
 30
0.0
 11
-241.0000000000098
 21
-4.50000000013983
 31
0.0
  0
LINE
  5
16D
330
9A
100
AcDbEntity
  8
0
  6
Continuous
 62
     7
100
AcDbLine
 10
128.9999999999902
 20
-4.50000000013983
 30
0.0
 11
68.99999999999034
 21
-4.50000000013983
 31
0.0
  0
LINE
  5
16E
330
9A
100
AcDbEntity
  8
0
  6
Continuous
 62
     7
100
AcDbLine
 10
68.99999999999011
 20
26.49999999986005
 30
0.0
 11
68.99999999999034
 21
-4.50000000013983
 31
0.0
  0
LINE
  5
16F
330
9A
100
AcDbEntity
  8
0
  6
Continuous
 62
     7
100
AcDbLine
 10
129.1505012481005
 20
8.04446409594274
 30
0.0
 11
117.4820622033284
 21
5.24311972967195
 31
0.0
  0
LINE
  5
170
330
9A
100
AcDbEntity
  8
0
  6
Continuous
 62
     7
100
AcDbLine
 10
117.4820622033284
 20
5.24311972967195
 30
0.0
 11
116.3148353840488
 21
10.10496933166024
 31
0.0
  0
LINE
  5
171
330
9A
100
AcDbEntity
  8
0
  6
Continuous
 62
     7
100
AcDbLine
 10
68.99999999999034
 20
-4.50000000013983
 30
0.0
 11
68.99999999999068
 21
-44.32482986400305
 31
0.0
  0
LINE
  5
172
330
9A
100
AcDbEntity
  8
0
  6
Continuous
 62
     7
100
AcDbLine
 10
128.9999999999902
 20
-46.50000000013984
 30
0.0
 11
128.9999999999902
 21
-42.71320343573416
 31
0.0
  0
LINE
  5
173
330
9A
100
AcDbEntity
  8
0
  6
Continuous
 62
     7
100
AcDbLine
 10
128.9999999999902
 20
-42.71320343573416
 30
0.0
 11
128.9999999999902
 21
-4.50000000013983
 31
0.0
  0
LINE
  5
174
330
9A
100
AcDbEntity
  8
0
  6
Continuous
 62
     7
100
AcDbLine
 10
136.9999999999901
 20
26.49999999986005
 30
0.0
 11
136.9999999999901
 21
17.81370849884476
 31
0.0
  0
LINE
  5
175
330
9A
100
AcDbEntity
  8
0
  6
Continuous
 62
     7
100
AcDbLine
 10
116.3148353840488
 20
10.10496933166024
 30
0.0
 11
135.534595656282
 21
14.71922552763525
 31
0.0
  0
LINE
  5
176
330
9A
100
AcDbEntity
  8
0
  6
Continuous
 62
     7
100
AcDbLine
 10
68.59183644957125
 20
-46.50000000013984
 30
0.0
 11
128.9999999999902
 21
-46.50000000013984
 31
0.0
  0
LINE
  5
177
330
9A
100
AcDbEntity
  8
0
  6
Continuous
 62
     7
100
AcDbLine
 10
-181.0000000000095
 20
-44.32482986400476
 30
0.0
 11
-181.0000000000094
 21
-4.50000000013983
 31
0.0
  0
LINE
  5
178
330
9A
100
AcDbEntity
  8
0
  6
Continuous
 62
     7
100
AcDbLine
 10
-241.0000000000099
 20
6.49999999986025
 30
0.0
 11
-241.0000000000098
 21
-4.50000000013983
 31
0.0
  0
LINE
  5
179
330
9A
100
AcDbEntity
  8
0
  6
Continuous
 62
     7
100
AcDbLine
 10
-241.0000000000098
 20
-4.50000000013983
 30
0.0
 11
-241.0000000000099
 21
-42.71320343573476
 31
0.0
  0
LINE
  5
17A
330
9A
100
AcDbEntity
  8
0
  6
Continuous
 62
     7
100
AcDbLine
 10
-241.0000000000099
 20
-42.71320343573476
 30
0.0
 11
-241.0000000000098
 21
-46.50000000013984
 31
0.0
  0
LINE
  5
17B
330
9A
100
AcDbEntity
  8
0
  6
Continuous
 62
     7
100
AcDbLine
 10
-241.1505012481205
 20
8.04446409594274
 30
0.0
 11
-229.4820622033484
 21
5.24311972967195
 31
0.0
  0
LINE
  5
17C
330
9A
100
AcDbEntity
  8
0
  6
Continuous
 62
     7
100
AcDbLine
 10
136.9999999999901
 20
26.49999999986005
 30
0.0
 11
68.99999999999011
 21
26.49999999986005
 31
0.0
  0
LINE
  5
17D
330
9A
100
AcDbEntity
  8
0
  6
Continuous
 62
     7
100
AcDbLine
 10
68.99999999999011
 20
30.49999999986085
 30
0.0
 11
68.99999999999011
 21
26.49999999986005
 31
0.0
  0
LINE
  5
17E
330
9A
100
AcDbEntity
  8
0
  6
Continuous
 62
     7
100
AcDbLine
 10
-185.00000000001
 20
30.49999999986005
 30
0.0
 11
-245.0000000000101
 21
30.49999999986005
 31
0.0
  0
LINE
  5
17F
330
9A
100
AcDbEntity
  8
0
  6
Continuous
 62
     7
100
AcDbLine
 10
132.99999999999
 20
30.49999999986005
 30
0.0
 11
68.99999999999011
 21
30.49999999986085
 31
0.0
  0
LINE
  5
180
330
9A
100
AcDbEntity
  8
0
  6
Continuous
 62
     7
100
AcDbLine
 10
-219.1169908453458
 20
-66.49686412731575
 30
0.0
 11
-222.1607979903894
 21
-62.53009742585954
 31
0.0
  0
LINE
  5
181
330
9A
100
AcDbEntity
  8
0
  6
Continuous
 62
     7
100
AcDbLine
 10
-241.0000000000099
 20
-51.71320343573476
 30
0.0
 11
-241.0000000000098
 21
-69.50000000013983
 31
0.0
  0
LINE
  5
182
330
9A
100
AcDbEntity
  8
0
  6
Continuous
 62
     7
100
AcDbLine
 10
-241.0000000000098
 20
-46.50000000013984
 30
0.0
 11
-241.0000000000099
 21
-51.71320343573476
 31
0.0
  0
LINE
  5
183
330
9A
100
AcDbEntity
  8
0
  6
Continuous
 62
     7
100
AcDbLine
 10
-241.0000000000099
 20
-51.71320343573476
 30
0.0
 11
-281.00000000001
 21
-51.71320343573476
 31
0.0
  0
LINE
  5
184
330
9A
100
AcDbEntity
  8
0
  6
Continuous
 62
     7
100
AcDbLine
 10
-277.00000000001
 20
-46.71320343573476
 30
0.0
 11
-245.0000000000099
 21
-46.71320343573476
 31
0.0
  0
LINE
  5
185
330
9A
100
AcDbEntity
  8
0
  6
Continuous
 62
     7
100
AcDbLine
 10
-222.1607979903894
 20
-62.53009742585954
 30
0.0
 11
-239.0231374167142
 21
-75.46902554813994
 31
0.0
  0
LINE
  5
186
330
9A
100
AcDbEntity
  8
0
  6
Continuous
 62
     7
100
AcDbLine
 10
-234.9840576511706
 20
-78.67209270749004
 30
0.0
 11
-219.1169908453458
 21
-66.49686412731575
 31
0.0
  0
LINE
  5
187
330
9A
100
AcDbEntity
  8
0
  6
Continuous
 62
     7
100
AcDbLine
 10
-231.0000000000099
 20
-79.50000000013983
 30
0.0
 11
-81.00000000001
 21
-79.50000000013983
 31
0.0
  0
LINE
  5
188
330
9A
100
AcDbEntity
  8
0
  6
Continuous
 62
     7
100
AcDbLine
 10
-77.00000000001
 20
-75.50000000013983
 30
0.0
 11
-77.00000000001
 21
-63.09894468617205
 31
0.0
  0
LINE
  5
189
330
9A
100
AcDbEntity
  8
0
  6
Continuous
 62
     3
100
AcDbLine
 10
-77.00000000001
 20
-75.50000000013983
 30
0.0
 11
-73.57128339081561
 21
-75.50000000013983
 31
0.0
  0
LINE
  5
18A
330
9A
100
AcDbEntity
  8
0
  6
Continuous
 62
     7
100
AcDbLine
 10
-35.00000000001
 20
-63.09894468617176
 30
0.0
 11
-35.00000000001
 21
-75.50000000013983
 31
0.0
  0
LINE
  5
18B
330
9A
100
AcDbEntity
  8
0
  6
Continuous
 62
     7
100
AcDbLine
 10
-31.00000000001
 20
-79.50000000013983
 30
0.0
 11
118.9999999999902
 21
-79.50000000013995
 31
0.0
  0
LINE
  5
18C
330
9A
100
AcDbEntity
  8
0
  6
Continuous
 62
     7
100
AcDbLine
 10
-31.00000000001
 20
-79.50000000013983
 30
0.0
 11
-33.80202711958691
 21
-79.50000000013983
 31
0.0
  0
LINE
  5
18D
330
9A
100
AcDbEntity
  8
0
  6
Continuous
 62
     7
100
AcDbLine
 10
-34.75000000001
 20
-158.5000000001397
 30
0.0
 11
-34.75000000001
 21
-126.5000000001397
 31
0.0
  0
LINE
  5
18E
330
9A
100
AcDbEntity
  8
0
  6
Continuous
 62
     7
100
AcDbLine
 10
-38.4287166092044
 20
-122.5000000001397
 30
0.0
 11
-38.4287166092044
 21
-75.50000000013983
 31
0.0
  0
LINE
  5
18F
330
9A
100
AcDbEntity
  8
0
  6
Continuous
 62
     7
100
AcDbLine
 10
-29.75000000000989
 20
-122.5000000001397
 30
0.0
 11
-29.75000000000989
 21
-162.5000000001397
 31
0.0
  0
LINE
  5
190
330
9A
100
AcDbEntity
  8
0
  6
Continuous
 62
     7
100
AcDbLine
 10
-82.25000000001
 20
-162.5000000001397
 30
0.0
 11
-81.25000000001
 21
-162.5000000001397
 31
0.0
  0
LINE
  5
191
330
9A
100
AcDbEntity
  8
0
  6
Continuous
 62
     7
100
AcDbLine
 10
-30.75000000001
 20
-162.5000000001397
 30
0.0
 11
-29.75000000000989
 21
-162.5000000001397
 31
0.0
  0
LINE
  5
192
330
9A
100
AcDbEntity
  8
0
  6
Continuous
 62
     7
100
AcDbLine
 10
-237.0000000000097
 20
-162.5000000001397
 30
0.0
 11
-82.25000000001
 21
-162.5000000001397
 31
0.0
  0
LINE
  5
193
330
9A
100
AcDbEntity
  8
0
  6
Continuous
 62
     7
100
AcDbLine
 10
-29.75000000000989
 20
-162.5000000001397
 30
0.0
 11
124.99999999999
 21
-162.5000000001398
 31
0.0
  0
LINE
  5
194
330
9A
100
AcDbEntity
  8
0
  6
Continuous
 62
     7
100
AcDbLine
 10
-78.1979728804331
 20
-79.50000000013983
 30
0.0
 11
-81.00000000001
 21
-79.50000000013983
 31
0.0
  0
LINE
  5
195
330
9A
100
AcDbEntity
  8
0
  6
Continuous
 62
     7
100
AcDbLine
 10
-77.25000000001
 20
-126.5000000001397
 30
0.0
 11
-77.25000000001
 21
-158.5000000001397
 31
0.0
  0
LINE
  5
196
330
9A
100
AcDbEntity
  8
0
  6
Continuous
 62
     7
100
AcDbLine
 10
-82.25000000001
 20
-122.5000000001397
 30
0.0
 11
-73.57128339081561
 21
-122.5000000001397
 31
0.0
  0
LINE
  5
197
330
9A
100
AcDbEntity
  8
0
  6
Continuous
 62
     7
100
AcDbLine
 10
-73.57128339081561
 20
-122.5000000001397
 30
0.0
 11
-73.57128339081561
 21
-75.50000000013983
 31
0.0
  0
LINE
  5
198
330
9A
100
AcDbEntity
  8
0
  6
Continuous
 62
     7
100
AcDbLine
 10
-82.25000000001
 20
-162.5000000001397
 30
0.0
 11
-82.25000000001
 21
-122.5000000001397
 31
0.0
  0
LINE
  5
199
330
9A
100
AcDbEntity
  8
0
  6
Continuous
 62
     7
100
AcDbLine
 10
-241.0000000000099
 20
-158.5000000001397
 30
0.0
 11
-241.00000000001
 21
-85.50000000013983
 31
0.0
  0
LINE
  5
19A
330
9A
100
AcDbEntity
  8
0
  6
Continuous
 62
     7
100
AcDbLine
 10
-251.00000000001
 20
-75.50000000013983
 30
0.0
 11
-277.00000000001
 21
-75.50000000013983
 31
0.0
  0
LINE
  5
19B
330
9A
100
AcDbEntity
  8
0
  6
Continuous
 62
     7
100
AcDbLine
 10
-281.00000000001
 20
-51.71320343573476
 30
0.0
 11
-281.0000000000099
 21
-71.50000000014106
 31
0.0
  0
LINE
  5
19C
330
9A
100
AcDbEntity
  8
0
  6
Continuous
 62
     7
100
AcDbLine
 10
-281.00000000001
 20
-50.71320343573476
 30
0.0
 11
-281.00000000001
 21
-51.71320343573476
 31
0.0
  0
LINE
  5
19D
330
9A
100
AcDbEntity
  8
0
  6
Continuous
 62
     7
100
AcDbLine
 10
107.1169908453257
 20
-66.49686412731575
 30
0.0
 11
110.1607979903694
 21
-62.53009742585954
 31
0.0
  0
LINE
  5
19E
330
9A
100
AcDbEntity
  8
0
  6
Continuous
 62
     7
100
AcDbLine
 10
128.99999999999
 20
-85.50000000013983
 30
0.0
 11
128.9999999999901
 21
-158.5000000001398
 31
0.0
  0
LINE
  5
19F
330
9A
100
AcDbEntity
  8
0
  6
Continuous
 62
     7
100
AcDbLine
 10
122.9840576511508
 20
-78.67209270749024
 30
0.0
 11
107.1169908453257
 21
-66.49686412731575
 31
0.0
  0
LINE
  5
1A0
330
9A
100
AcDbEntity
  8
0
  6
Continuous
 62
     7
100
AcDbLine
 10
110.1607979903694
 20
-62.53009742585954
 30
0.0
 11
127.0231374166942
 21
-75.46902554813994
 31
0.0
  0
LINE
  5
1A1
330
9A
100
AcDbEntity
  8
0
  6
Continuous
 62
     7
100
AcDbLine
 10
-38.4287166092044
 20
-122.5000000001397
 30
0.0
 11
-29.75000000000989
 21
-122.5000000001397
 31
0.0
  0
LINE
  5
1A2
330
9A
100
AcDbEntity
  8
0
  6
Continuous
 62
     7
100
AcDbLine
 10
-38.4287166092044
 20
-122.5000000001397
 30
0.0
 11
-38.75000000001
 21
-122.5000000001397
 31
0.0
  0
LINE
  5
1A3
330
9A
100
AcDbEntity
  8
0
  6
Continuous
 62
     7
100
AcDbLine
 10
-73.25000000001
 20
-122.5000000001397
 30
0.0
 11
-73.57128339081561
 21
-122.5000000001397
 31
0.0
  0
LINE
  5
1A4
330
9A
100
AcDbEntity
  8
0
  6
Continuous
 62
     7
100
AcDbLine
 10
-38.75000000001
 20
-122.5000000001397
 30
0.0
 11
-73.25000000001
 21
-122.5000000001397
 31
0.0
  0
LINE
  5
1A5
330
9A
100
AcDbEntity
  8
0
  6
Continuous
 62
     7
100
AcDbLine
 10
-241.0000000000098
 20
-46.50000000013984
 30
0.0
 11
-180.5918364495909
 21
-46.50000000013984
 31
0.0
  0
LINE
  5
1A6
330
9A
100
AcDbEntity
  8
0
  6
Continuous
 62
     3
100
AcDbLine
 10
-38.4287166092044
 20
-75.50000000013983
 30
0.0
 11
-35.00000000001
 21
-75.50000000013983
 31
0.0
  0
ARC
  5
1A7
330
9A
100
AcDbEntity
  8
0
  6
Continuous
 62
     7
100
AcDbCircle
 10
-245.0000000000101
 20
26.49999999986005
 30
0.0
 40
4.0
100
AcDbArc
 50
90.0
 51
180.0
  0
ARC
  5
1A8
330
9A
100
AcDbEntity
  8
0
  6
Continuous
 62
     7
100
AcDbCircle
 10
-185.00000000001
 20
26.49999999986005
 30
0.0
 40
4.0
100
AcDbArc
 50
0.0
 51
90.0
  0
ARC
  5
1A9
330
9A
100
AcDbEntity
  8
0
  6
Continuous
 62
     7
100
AcDbCircle
 10
136.9999999999901
 20
6.49999999986252
 30
0.0
 40
7.999999999999828
100
AcDbArc
 50
168.8686996626935
 51
180.0000000000169
  0
ARC
  5
1AA
330
9A
100
AcDbEntity
  8
0
  6
Continuous
 62
     7
100
AcDbCircle
 10
164.99999999999
 20
-71.50000000013983
 30
0.0
 40
4.000000000000114
100
AcDbArc
 50
270.0
 51
0.0
  0
ARC
  5
1AB
330
9A
100
AcDbEntity
  8
0
  6
Continuous
 62
     7
100
AcDbCircle
 10
164.99999999999
 20
-50.71320343573416
 30
0.0
 40
4.0
100
AcDbArc
 50
0.0
 51
90.0
  0
ARC
  5
1AC
330
9A
100
AcDbEntity
  8
0
  6
Continuous
 62
     7
100
AcDbCircle
 10
-245.0000000000101
 20
17.81370849884505
 30
0.0
 40
3.999999999999974
100
AcDbArc
 50
230.680151171668
 51
250.5287793655113
  0
ARC
  5
1AD
330
9A
100
AcDbEntity
  8
0
  6
Continuous
 62
     7
100
AcDbCircle
 10
-249.0000000000099
 20
6.49999999986025
 30
0.0
 40
8.000000000000071
100
AcDbArc
 50
11.13130033732278
 51
70.52877936550973
  0
ARC
  5
1AE
330
9A
100
AcDbEntity
  8
0
  6
Continuous
 62
     7
100
AcDbCircle
 10
-245.0000000000101
 20
17.81370849884505
 30
0.0
 40
4.0
100
AcDbArc
 50
180.0
 51
230.680151171668
  0
ARC
  5
1AF
330
9A
100
AcDbEntity
  8
0
  6
Continuous
 62
     7
100
AcDbCircle
 10
118.9999999999902
 20
-69.50000000013995
 30
0.0
 40
9.99999999999962
100
AcDbArc
 50
323.3516199153594
 51
0.0
  0
ARC
  5
1B0
330
9A
100
AcDbEntity
  8
0
  6
Continuous
 62
     7
100
AcDbCircle
 10
132.99999999999
 20
17.81370849884476
 30
0.0
 40
3.999999999999988
100
AcDbArc
 50
309.3198488283408
 51
0.0
  0
ARC
  5
1B1
330
9A
100
AcDbEntity
  8
0
  6
Continuous
 62
     7
100
AcDbCircle
 10
132.9999999999902
 20
-42.71320343573416
 30
0.0
 40
4.0
100
AcDbArc
 50
180.0
 51
270.0
  0
ARC
  5
1B2
330
9A
100
AcDbEntity
  8
0
  6
Continuous
 62
     7
100
AcDbCircle
 10
132.99999999999
 20
17.81370849884476
 30
0.0
 40
3.999999999999681
100
AcDbArc
 50
289.4712206344933
 51
309.3198488283408
  0
ARC
  5
1B3
330
9A
100
AcDbEntity
  8
0
  6
Continuous
 62
     7
100
AcDbCircle
 10
132.99999999999
 20
26.49999999986005
 30
0.0
 40
4.000000000000114
100
AcDbArc
 50
0.0
 51
90.0
  0
ARC
  5
1B4
330
9A
100
AcDbEntity
  8
0
  6
Continuous
 62
     7
100
AcDbCircle
 10
136.9999999999899
 20
6.49999999986025
 30
0.0
 40
8.000000000000053
100
AcDbArc
 50
109.4712206344894
 51
168.8686996626772
  0
ARC
  5
1B5
330
9A
100
AcDbEntity
  8
0
  6
Continuous
 62
     7
100
AcDbCircle
 10
138.99999999999
 20
-85.50000000013983
 30
0.0
 40
10.0
100
AcDbArc
 50
90.0
 51
180.0
  0
ARC
  5
1B6
330
9A
100
AcDbEntity
  8
0
  6
Continuous
 62
     7
100
AcDbCircle
 10
-249.0000000000099
 20
6.49999999986025
 30
0.0
 40
8.0
100
AcDbArc
 50
0.0
 51
11.13130033732278
  0
ARC
  5
1B7
330
9A
100
AcDbEntity
  8
0
  6
Continuous
 62
     7
100
AcDbCircle
 10
-231.0000000000099
 20
-69.50000000013983
 30
0.0
 40
9.999999999999915
100
AcDbArc
 50
180.0
 51
216.6483800846401
  0
ARC
  5
1B8
330
9A
100
AcDbEntity
  8
0
  6
Continuous
 62
     7
100
AcDbCircle
 10
-245.0000000000099
 20
-42.71320343573476
 30
0.0
 40
4.0
100
AcDbArc
 50
270.0
 51
0.0
  0
ARC
  5
1B9
330
9A
100
AcDbEntity
  8
0
  6
Continuous
 62
     7
100
AcDbCircle
 10
-231.0000000000099
 20
-69.50000000013983
 30
0.0
 40
9.999999999999938
100
AcDbArc
 50
216.6483800846401
 51
246.5214470782921
  0
ARC
  5
1BA
330
9A
100
AcDbEntity
  8
0
  6
Continuous
 62
     7
100
AcDbCircle
 10
-231.0000000000099
 20
-69.50000000013983
 30
0.0
 40
9.999999999999943
100
AcDbArc
 50
246.5214470782921
 51
270.0
  0
ARC
  5
1BB
330
9A
100
AcDbEntity
  8
0
  6
Continuous
 62
     7
100
AcDbCircle
 10
-56.00000000001643
 20
486.4999999998613
 30
0.0
 40
550.0000000000014
100
AcDbArc
 50
270.0000000000003
 51
272.18818893139
  0
ARC
  5
1BC
330
9A
100
AcDbEntity
  8
0
  6
Continuous
 62
     7
100
AcDbCircle
 10
-81.00000000001
 20
-75.50000000013983
 30
0.0
 40
4.0
100
AcDbArc
 50
270.0
 51
0.0
  0
ARC
  5
1BD
330
9A
100
AcDbEntity
  8
0
  6
Continuous
 62
     7
100
AcDbCircle
 10
-31.00000000001
 20
-75.50000000013983
 30
0.0
 40
3.999999999999996
100
AcDbArc
 50
180.0
 51
270.0
  0
ARC
  5
1BE
330
9A
100
AcDbEntity
  8
0
  6
Continuous
 62
     7
100
AcDbCircle
 10
-81.25000000001
 20
-158.5000000001397
 30
0.0
 40
4.0
100
AcDbArc
 50
270.0
 51
0.0
  0
ARC
  5
1BF
330
9A
100
AcDbEntity
  8
0
  6
Continuous
 62
     7
100
AcDbCircle
 10
124.99999999999
 20
-158.5000000001398
 30
0.0
 40
4.0
100
AcDbArc
 50
270.0
 51
0.0
  0
ARC
  5
1C0
330
9A
100
AcDbEntity
  8
0
  6
Continuous
 62
     7
100
AcDbCircle
 10
-237.0000000000097
 20
-158.5000000001397
 30
0.0
 40
4.000000000000199
100
AcDbArc
 50
180.0
 51
270.0
  0
ARC
  5
1C1
330
9A
100
AcDbEntity
  8
0
  6
Continuous
 62
     7
100
AcDbCircle
 10
-30.75000000001
 20
-158.5000000001397
 30
0.0
 40
3.999999999999996
100
AcDbArc
 50
180.0
 51
270.0
  0
ARC
  5
1C2
330
9A
100
AcDbEntity
  8
0
  6
Continuous
 62
     7
100
AcDbCircle
 10
-277.00000000001
 20
-71.50000000014106
 30
0.0
 40
3.999999999999886
100
AcDbArc
 50
180.0
 51
270.0
  0
ARC
  5
1C3
330
9A
100
AcDbEntity
  8
0
  6
Continuous
 62
     7
100
AcDbCircle
 10
-277.00000000001
 20
-50.71320343573476
 30
0.0
 40
4.0
100
AcDbArc
 50
90.0
 51
180.0
  0
ARC
  5
1C4
330
9A
100
AcDbEntity
  8
0
  6
Continuous
 62
     7
100
AcDbCircle
 10
-251.00000000001
 20
-85.50000000013983
 30
0.0
 40
10.0
100
AcDbArc
 50
0.0
 51
90.0
  0
ARC
  5
1C5
330
9A
100
AcDbEntity
  8
0
  6
Continuous
 62
     7
100
AcDbCircle
 10
118.9999999999902
 20
-69.50000000013995
 30
0.0
 40
9.999999999999988
100
AcDbArc
 50
293.4785529217073
 51
323.3516199153594
  0
ARC
  5
1C6
330
9A
100
AcDbEntity
  8
0
  6
Continuous
 62
     7
100
AcDbCircle
 10
118.9999999999902
 20
-69.50000000013995
 30
0.0
 40
10.0
100
AcDbArc
 50
270.0
 51
293.4785529217073
  0
ARC
  5
1C7
330
9A
100
AcDbEntity
  8
0
  6
Continuous
 62
     7
100
AcDbCircle
 10
-38.75000000001
 20
-126.5000000001397
 30
0.0
 40
4.0
100
AcDbArc
 50
0.0
 51
90.0
  0
ARC
  5
1C8
330
9A
100
AcDbEntity
  8
0
  6
Continuous
 62
     7
100
AcDbCircle
 10
-73.25000000001
 20
-126.5000000001397
 30
0.0
 40
4.0
100
AcDbArc
 50
90.0
 51
180.0
  0
ARC
  5
1C9
330
9A
100
AcDbEntity
  8
0
  6
Continuous
 62
     7
100
AcDbCircle
 10
-175.0000000000095
 20
-44.32482986400476
 30
0.0
 40
6.0
100
AcDbArc
 50
180.0
 51
201.2555524453576
  0
ARC
  5
1CA
330
9A
100
AcDbEntity
  8
0
  6
Continuous
 62
     7
100
AcDbCircle
 10
-56.00000000001103
 20
486.4999999998614
 30
0.0
 40
550.0000000000015
100
AcDbArc
 50
267.8118110686108
 51
269.9999999999998
  0
ARC
  5
1CB
330
9A
100
AcDbEntity
  8
0
  6
Continuous
 62
     7
100
AcDbCircle
 10
-175.0000000000095
 20
-44.32482986400476
 30
0.0
 40
6.000000000000078
100
AcDbArc
 50
201.2555524453576
 51
257.3643749069798
  0
ARC
  5
1CC
330
9A
100
AcDbEntity
  8
0
  6
Continuous
 62
     7
100
AcDbCircle
 10
62.99999999999068
 20
-44.32482986400305
 30
0.0
 40
5.999999999999932
100
AcDbArc
 50
338.7444475546243
 51
0.0
  0
ARC
  5
1CD
330
9A
100
AcDbEntity
  8
0
  6
Continuous
 62
     7
100
AcDbCircle
 10
62.99999999999068
 20
-44.32482986400305
 30
0.0
 40
6.000000000000146
100
AcDbArc
 50
282.635625093023
 51
338.7444475546243
  0
ARC
  5
1CE
330
9A
100
AcDbEntity
  8
0
  6
Continuous
 62
     7
100
AcDbCircle
 10
-56.00000000001313
 20
486.4999999998614
 30
0.0
 40
550.0000000000016
100
AcDbArc
 50
257.3643749069793
 51
267.8118110686111
  0
ARC
  5
1CF
330
9A
100
AcDbEntity
  8
0
  6
Continuous
 62
     7
100
AcDbCircle
 10
-56.00000000001103
 20
486.4999999998614
 30
0.0
 40
550.0000000000013
100
AcDbArc
 50
272.1881889313894
 51
282.6356250930213
  0
SPLINE
  5
1D0
330
9A
100
AcDbEntity
  8
0
  6
Continuous
 62
     7
100
AcDbSpline
210
0.0
220
0.0
230
1.0
 70
  1064
 71
     3
 72
    19
 73
    15
 74
    13
 42
0.000000001
 43
0.0000000001
 44
0.00000001
 40
0.0
 40
0.0
 40
0.0
 40
0.0
 40
0.8467665462327371
 40
1.689106058917361
 40
2.54219238785434
 40
3.377783221699326
 40
4.23335135272074
 40
5.066826344739878
 40
5.28937770385329
 40
5.491034242107276
 40
5.694665832604712
 40
5.915613070976638
 40
6.339218341644749
 40
6.761437819450078
 40
6.761437819450078
 40
6.761437819450078
 40
6.761437819450078
 10
-78.1979728804331
 20
-79.50000000013983
 30
0.0
 10
-77.91540353656517
 20
-79.48636658815211
 30
0.0
 10
-77.35174216862924
 20
-79.45917102741086
 30
0.0
 10
-76.52650341827632
 20
-79.24270243061837
 30
0.0
 10
-75.75026904227266
 20
-78.90404135214175
 30
0.0
 10
-75.04004277326052
 20
-78.43203980631127
 30
0.0
 10
-74.43242884213517
 20
-77.84251172249793
 30
0.0
 10
-74.07113105976107
 20
-77.31102734530026
 30
0.0
 10
-73.88622214679351
 20
-76.93459841777735
 30
0.0
 10
-73.80492382171833
 20
-76.74163639395407
 30
0.0
 10
-73.73474003875616
 20
-76.54489472367376
 30
0.0
 10
-73.65637271159153
 20
-76.27318910962177
 30
0.0
 10
-73.58668670080812
 20
-75.9229425765441
 30
0.0
 10
-73.57641221154981
 20
-75.64082678712685
 30
0.0
 10
-73.57128339081561
 20
-75.50000000013983
 30
0.0
 11
-78.1979728804331
 21
-79.50000000013983
 31
0.0
 11
-77.3541222167277
 21
-79.42978860946695
 31
0.0
 11
-76.5374949663684
 21
-79.22325583084114
 31
0.0
 11
-75.75677150785074
 21
-78.87941405544343
 31
0.0
 11
-75.06150464373133
 21
-78.41593155269126
 31
0.0
 11
-74.44950462535387
 21
-77.81805798225487
 31
0.0
 11
-73.98327985294111
 21
-77.12717808901076
 31
0.0
 11
-73.88519737676482
 21
-76.92740587974731
 31
0.0
 11
-73.80692708105153
 21
-76.74155884451756
 31
0.0
 11
-73.73860248997252
 21
-76.54973190367276
 31
0.0
 11
-73.67714739521051
 21
-76.33750336189516
 31
0.0
 11
-73.59787762296992
 21
-75.92138110703368
 31
0.0
 11
-73.57128339081561
 21
-75.50000000013983
 31
0.0
  0
SPLINE
  5
1D1
330
9A
100
AcDbEntity
  8
0
  6
Continuous
 62
     7
100
AcDbSpline
210
0.0
220
0.0
230
1.0
 70
  1064
 71
     3
 72
    25
 73
    21
 74
    19
 42
0.000000001
 43
0.0000000001
 44
0.00000001
 40
0.0
 40
0.0
 40
0.0
 40
0.0
 40
0.4222194780583908
 40
0.8458247488387971
 40
1.047873021551489
 40
1.270403664417592
 40
1.491020589743756
 40
1.694611460964516
 40
2.114676782938753
 40
2.540018366783659
 40
2.921361200180996
 40
3.385838129385397
 40
3.806307454254316
 40
4.231749052871721
 40
4.688836560328721
 40
5.07609760805135
 40
5.463831223932404
 40
5.921851814043201
 40
6.310776662925768
 40
6.76663144788463
 40
6.76663144788463
 40
6.76663144788463
 40
6.76663144788463
 10
-38.4287166092044
 20
-75.50000000013983
 30
0.0
 10
-38.42358981058886
 20
-75.64082609511648
 30
0.0
 10
-38.41331937209566
 20
-75.92294049819306
 30
0.0
 10
-38.34484277860604
 20
-76.26699065809274
 30
0.0
 10
-38.26720043047618
 20
-76.53887718446282
 30
0.0
 10
-38.19541364485953
 20
-76.74179249220678
 30
0.0
 10
-38.11114037165805
 20
-76.9403572872801
 30
0.0
 10
-37.98635654211682
 20
-77.1927379544075
 30
0.0
 10
-37.8055652925873
 20
-77.49292316925248
 30
0.0
 10
-37.55796358109109
 20
-77.81929218727969
 30
0.0
 10
-37.2700864651635
 20
-78.13093204078423
 30
0.0
 10
-36.95437511023167
 20
-78.41230358667528
 30
0.0
 10
-36.60128915585592
 20
-78.67041367876656
 30
0.0
 10
-36.22877909572011
 20
-78.89483453285222
 30
0.0
 10
-35.84749570233188
 20
-79.08004555608713
 30
0.0
 10
-35.46394815388103
 20
-79.22793211835025
 30
0.0
 10
-35.06997756647176
 20
-79.34649584541188
 30
0.0
 10
-34.6668622192438
 20
-79.43168770698352
 30
0.0
 10
-34.23572827350547
 20
-79.48886189209455
 30
0.0
 10
-33.95403351252982
 20
-79.49609624866592
 30
0.0
 10
-33.80202711958691
 20
-79.50000000013983
 30
0.0
 11
-38.4287166092044
 21
-75.50000000013983
 31
0.0
 11
-38.40212237705424
 21
-75.92138110700043
 31
0.0
 11
-38.32285260480899
 21
-76.33750336189715
 31
0.0
 11
-38.26717890266212
 21
-76.53172988891808
 31
0.0
 11
-38.1930729189678
 21
-76.74155884451926
 31
0.0
 11
-38.1069144613782
 21
-76.9446562306919
 31
0.0
 11
-38.0167201470781
 21
-77.12717808901226
 31
0.0
 11
-37.80031966386035
 21
-77.48721379069218
 31
0.0
 11
-37.54355878632168
 21
-77.82631453594885
 31
0.0
 11
-37.28498464753921
 21
-78.10660326530437
 31
0.0
 11
-36.93849535628783
 21
-78.41593155269194
 31
0.0
 11
-36.59919397911773
 21
-78.66426404950829
 31
0.0
 11
-36.23487578523412
 21
-78.88397478601755
 31
0.0
 11
-35.82380001982561
 21
-79.0838390019839
 31
0.0
 11
-35.4625050336511
 21
-79.22325583084134
 31
0.0
 11
-35.0911954956213
 21
-79.33490968843005
 31
0.0
 11
-34.64320444135518
 21
-79.43023479668716
 31
0.0
 11
-34.25742521553604
 21
-79.47960003661879
 31
0.0
 11
-33.80202711958691
 21
-79.50000000013983
 31
0.0
  0
ENDBLK
  5
9C
330
9A
100
AcDbEntity
  8
0
100
AcDbBlockEnd
  0
BLOCK
  5
A2
330
9D
100
AcDbEntity
  8
0
100
AcDbBlockBegin
  2
539106__12
 70
     0
 10
-281.00000000001
 20
-162.5000000001398
 30
0.0
  3
539106__12
  1

  0
INSERT
  5
9E
330
9D
100
AcDbEntity
  8
0
100
AcDbBlockReference
  2
390997584_Schnitt_gefaltet__8
 10
-281.00000000001
 20
-16.00000000014006
 30
0.0
  0
INSERT
  5
9F
330
9D
100
AcDbEntity
  8
0
100
AcDbBlockReference
  2
976007501_Plan__9
 10
-281.00000000001
 20
30.49999999986005
 30
0.0
  0
INSERT
  5
A0
330
9D
100
AcDbEntity
  8
0
100
AcDbBlockReference
  2
980057503__10
 10
-281.00000000001
 20
-162.5000000001398
 30
0.0
  0
INSERT
  5
A1
330
9D
100
AcDbEntity
  8
0
100
AcDbBlockReference
  2
368027497__11
 10
-281.00000000001
 20
-162.5000000001398
 30
0.0
  0
ENDBLK
  5
A3
330
9D
100
AcDbEntity
  8
0
100
AcDbBlockEnd
  0
BLOCK
  5
A6
330
A4
100
AcDbEntity
  8
0
100
AcDbBlockBegin
  2
HL6700-WEB-Zeichnung__13
 70
     0
 10
-281.00000000001
 20
-162.5000000001398
 30
0.0
  3
HL6700-WEB-Zeichnung__13
  1

  0
INSERT
  5
A5
330
A4
100
AcDbEntity
  8
0
100
AcDbBlockReference
  2
539106__12
 10
-281.00000000001
 20
-162.5000000001398
 30
0.0
  0
ENDBLK
  5
A7
330
A4
100
AcDbEntity
  8
0
100
AcDbBlockEnd
  0
BLOCK
  5
AA
330
A8
100
AcDbEntity
  8
0
100
AcDbBlockBegin
  2
Drfsicht1
 70
     0
 10
-56.000000000005
 20
-64.00000000006986
 30
0.0
  3
Drfsicht1
  1

  0
INSERT
  5
A9
330
A8
100
AcDbEntity
  8
0
100
AcDbBlockReference
  2
HL6700-WEB-Zeichnung__13
 10
-281.00000000001
 20
-162.5000000001398
 30
0.0
  0
MTEXT
  5
1D2
330
A8
100
AcDbEntity
  8
1
 62
     1
100
AcDbMText
 10
-56.000000000005
 20
-167.50000000007
 30
0.0
 40
3.5
 41
0.0
 71
     2
 72
     1
  1
 
  7
CONVERTER_11
 73
     1
 44
1.32052821128451
  0
DIMENSION
  5
1DD
330
A8
100
AcDbEntity
  8
1
100
AcDbDimension
  2
*D23
 10
-306.451360505493
 20
33.99999999986005
 30
0.0
 11
-319.701360505493
 21
-62.82251354217523
 31
0.0
 70
    32
  1
<>
 71
     5
 42
-1.0
 53
90.0
  3
ME10_DIM_10
100
AcDbAlignedDimension
 13
-241.00000000001
 23
-162.5000000001398
 33
0.0
 14
-281.00000000001
 24
33.99999999986005
 34
0.0
 50
90.0
100
AcDbRotatedDimension
  0
DIMENSION
  5
1E8
330
A8
100
AcDbEntity
  8
1
100
AcDbDimension
  2
*D24
 10
136.99999999999
 20
51.03599455584138
 30
0.0
 11
-37.24258467608351
 21
63.53599455584138
 31
0.0
 70
    32
  1
<>
 71
     5
 42
-1.0
 53
0.00013888888889
  3
ME10_DIM_11
100
AcDbAlignedDimension
 13
-249.00000000001
 23
30.49999999986017
 33
0.0
 14
136.99999999999
 24
30.49999999986017
 34
0.0
100
AcDbRotatedDimension
  0
ENDBLK
  5
AB
330
A8
100
AcDbEntity
  8
0
100
AcDbBlockEnd
  0
BLOCK
  5
AD
330
AC
100
AcDbEntity
  8
0
100
AcDbBlockBegin
  2
A-A__14
 70
     0
 10
-71.35000000000997
 20
111.721298775293
 30
0.0
  3
A-A__14
  1

  0
LWPOLYLINE
  5
1E9
330
AC
100
AcDbEntity
  8
1
  6
DOT_CENTER
 62
     2
100
AcDbPolyline
 90
        2
 70
     0
 43
0.35
 10
-56.00000000000998
 20
219.221298775293
 10
-56.00000000000998
 20
121.221298775293
  0
SOLID
  5
1EA
330
AC
100
AcDbEntity
  8
1
 62
     2
100
AcDbTrace
 10
-64.00000000000999
 20
120.1680787945938
 30
0.0
 11
-64.00000000000999
 21
122.2745187559922
 31
0.0
 12
-56.00000000000998
 22
121.221298775293
 32
0.0
 13
-56.00000000000998
 23
121.221298775293
 33
0.0
  0
LEADER
  5
1EB
330
AC
100
AcDbEntity
  8
1
  6
Continuous
 62
     2
100
AcDbLeader
  3
Standard
 71
     0
 76
     2
 10
-56.00000000000998
 20
121.221298775293
 30
0.0
 10
-71.00000000000998
 20
121.221298775293
 30
0.0
  0
SOLID
  5
1EC
330
AC
100
AcDbEntity
  8
1
 62
     2
100
AcDbTrace
 10
-64.00000000000999
 20
218.1680787945938
 30
0.0
 11
-64.00000000000999
 21
220.2745187559922
 31
0.0
 12
-56.00000000000998
 22
219.221298775293
 32
0.0
 13
-56.00000000000998
 23
219.221298775293
 33
0.0
  0
LEADER
  5
1ED
330
AC
100
AcDbEntity
  8
1
  6
Continuous
 62
     2
100
AcDbLeader
  3
Standard
 71
     0
 76
     2
 10
-56.00000000000998
 20
219.221298775293
 30
0.0
 10
-71.00000000000998
 20
219.221298775293
 30
0.0
  0
LEADER
  5
1EE
330
AC
100
AcDbEntity
  8
1
  6
Continuous
 62
     2
100
AcDbLeader
  3
Standard
 71
     0
 76
     2
 10
-56.00000000000998
 20
116.221298775293
 30
0.0
 10
-56.00000000000998
 20
121.221298775293
 30
0.0
  0
LEADER
  5
1EF
330
AC
100
AcDbEntity
  8
1
  6
Continuous
 62
     2
100
AcDbLeader
  3
Standard
 71
     0
 76
     2
 10
-56.00000000000998
 20
224.221298775293
 30
0.0
 10
-56.00000000000998
 20
219.221298775293
 30
0.0
  0
LEADER
  5
1F0
330
AC
100
AcDbEntity
  8
1
  6
Continuous
 62
     2
100
AcDbLeader
  3
Standard
 71
     0
 76
     2
 10
-56.00000000000998
 20
121.221298775293
 30
0.0
 10
-56.00000000000998
 20
126.221298775293
 30
0.0
  0
LEADER
  5
1F1
330
AC
100
AcDbEntity
  8
1
  6
Continuous
 62
     2
100
AcDbLeader
  3
Standard
 71
     0
 76
     2
 10
-56.00000000000998
 20
219.221298775293
 30
0.0
 10
-56.00000000000998
 20
214.221298775293
 30
0.0
  0
MTEXT
  5
1F2
330
AC
100
AcDbEntity
  8
1
 62
     1
100
AcDbMText
 10
-68.50000000000998
 20
109.221298775293
 30
0.0
 40
15.0
 41
0.0
 71
     5
 72
     1
  1
A
  7
CONVERTER_11
 73
     1
 44
1.32052821128451
  0
MTEXT
  5
1F3
330
AC
100
AcDbEntity
  8
1
 62
     1
100
AcDbMText
 10
-68.50000000000998
 20
233.221298775293
 30
0.0
 40
15.0
 41
0.0
 71
     5
 72
     1
  1
A
  7
CONVERTER_11
 73
     1
 44
1.32052821128451
  0
ENDBLK
  5
AE
330
AC
100
AcDbEntity
  8
0
100
AcDbBlockEnd
  0
BLOCK
  5
B0
330
AF
100
AcDbEntity
  8
0
100
AcDbBlockBegin
  2
976007501_Plan__15
 70
     0
 10
-281.00000000001
 20
135.5000000000847
 30
0.0
  3
976007501_Plan__15
  1

  0
LINE
  5
1F4
330
AF
100
AcDbEntity
  8
0
  6
Continuous
 62
     7
100
AcDbLine
 10
-281.00000000001
 20
135.5000000000847
 30
0.0
 11
-251.00000000001
 21
135.5000000000847
 31
0.0
  0
LINE
  5
1F5
330
AF
100
AcDbEntity
  8
0
  6
Continuous
 62
     7
100
AcDbLine
 10
-241.00000000001
 20
135.5000000000847
 30
0.0
 11
128.99999999999
 21
135.5000000000847
 31
0.0
  0
LINE
  5
1F6
330
AF
100
AcDbEntity
  8
0
  6
Continuous
 62
     7
100
AcDbLine
 10
136.99999999999
 20
135.5000000000847
 30
0.0
 11
138.99999999999
 21
135.5000000000847
 31
0.0
  0
LINE
  5
1F7
330
AF
100
AcDbEntity
  8
0
  6
Continuous
 62
     7
100
AcDbLine
 10
138.99999999999
 20
135.5000000000847
 30
0.0
 11
168.99999999999
 21
135.5000000000847
 31
0.0
  0
LINE
  5
1F8
330
AF
100
AcDbEntity
  8
0
  6
Continuous
 62
     7
100
AcDbLine
 10
128.99999999999
 20
135.5000000000847
 30
0.0
 11
136.99999999999
 21
135.5000000000847
 31
0.0
  0
LINE
  5
1F9
330
AF
100
AcDbEntity
  8
0
  6
Continuous
 62
     7
100
AcDbLine
 10
168.99999999999
 20
139.5000000000847
 30
0.0
 11
168.99999999999
 21
135.5000000000847
 31
0.0
  0
LINE
  5
1FA
330
AF
100
AcDbEntity
  8
0
  6
Continuous
 62
     7
100
AcDbLine
 10
168.99999999999
 20
205.5000000000847
 30
0.0
 11
168.99999999999
 21
155.5000000000847
 31
0.0
  0
LINE
  5
1FB
330
AF
100
AcDbEntity
  8
0
  6
Continuous
 62
     7
100
AcDbLine
 10
168.99999999999
 20
155.5000000000847
 30
0.0
 11
168.99999999999
 21
139.5000000000847
 31
0.0
  0
LINE
  5
1FC
330
AF
100
AcDbEntity
  8
0
  6
Continuous
 62
     7
100
AcDbLine
 10
-281.00000000001
 20
139.5000000000847
 30
0.0
 11
-281.00000000001
 21
155.5000000000847
 31
0.0
  0
LINE
  5
1FD
330
AF
100
AcDbEntity
  8
0
  6
Continuous
 62
     7
100
AcDbLine
 10
-281.00000000001
 20
135.5000000000847
 30
0.0
 11
-281.00000000001
 21
139.5000000000847
 31
0.0
  0
LINE
  5
1FE
330
AF
100
AcDbEntity
  8
0
  6
Continuous
 62
     7
100
AcDbLine
 10
-281.00000000001
 20
155.5000000000847
 30
0.0
 11
-281.00000000001
 21
205.5000000000847
 31
0.0
  0
LINE
  5
1FF
330
AF
100
AcDbEntity
  8
0
  6
Continuous
 62
     7
100
AcDbLine
 10
168.99999999999
 20
205.5000000000847
 30
0.0
 11
-281.00000000001
 21
205.5000000000847
 31
0.0
  0
LINE
  5
200
330
AF
100
AcDbEntity
  8
0
  6
Continuous
 62
     7
100
AcDbLine
 10
-251.00000000001
 20
135.5000000000847
 30
0.0
 11
-249.00000000001
 21
135.5000000000847
 31
0.0
  0
LINE
  5
201
330
AF
100
AcDbEntity
  8
0
  6
Continuous
 62
     7
100
AcDbLine
 10
-249.00000000001
 20
135.5000000000847
 30
0.0
 11
-241.00000000001
 21
135.5000000000847
 31
0.0
  0
ENDBLK
  5
B1
330
AF
100
AcDbEntity
  8
0
100
AcDbBlockEnd
  0
BLOCK
  5
B3
330
B2
100
AcDbEntity
  8
0
100
AcDbBlockBegin
  2
390997584_Schnitt_gefaltet__16
 70
     0
 10
-281.00000000001
 20
135.0000000000847
 30
0.0
  3
390997584_Schnitt_gefaltet__16
  1

  0
LINE
  5
202
330
B2
100
AcDbEntity
  8
0
  6
Continuous
 62
     7
100
AcDbLine
 10
-281.00000000001
 20
135.5000000000847
 30
0.0
 11
-251.00000000001
 21
135.5000000000847
 31
0.0
  0
LINE
  5
203
330
B2
100
AcDbEntity
  8
0
  6
Continuous
 62
     7
100
AcDbLine
 10
-241.00000000001
 20
135.5000000000847
 30
0.0
 11
128.99999999999
 21
135.5000000000847
 31
0.0
  0
LINE
  5
204
330
B2
100
AcDbEntity
  8
0
  6
Continuous
 62
     7
100
AcDbLine
 10
-281.00000000001
 20
135.0000000000847
 30
0.0
 11
168.99999999999
 21
135.0000000000847
 31
0.0
  0
LINE
  5
205
330
B2
100
AcDbEntity
  8
0
  6
Continuous
 62
     7
100
AcDbLine
 10
136.99999999999
 20
135.5000000000847
 30
0.0
 11
138.99999999999
 21
135.5000000000847
 31
0.0
  0
LINE
  5
206
330
B2
100
AcDbEntity
  8
0
  6
Continuous
 62
     7
100
AcDbLine
 10
138.99999999999
 20
135.5000000000847
 30
0.0
 11
168.99999999999
 21
135.5000000000847
 31
0.0
  0
LINE
  5
207
330
B2
100
AcDbEntity
  8
0
  6
Continuous
 62
     7
100
AcDbLine
 10
128.99999999999
 20
135.5000000000847
 30
0.0
 11
136.99999999999
 21
135.5000000000847
 31
0.0
  0
LINE
  5
208
330
B2
100
AcDbEntity
  8
0
  6
Continuous
 62
     7
100
AcDbLine
 10
168.99999999999
 20
139.5000000000847
 30
0.0
 11
168.99999999999
 21
135.5000000000847
 31
0.0
  0
LINE
  5
209
330
B2
100
AcDbEntity
  8
0
  6
Continuous
 62
     7
100
AcDbLine
 10
168.99999999999
 20
135.5000000000847
 30
0.0
 11
168.99999999999
 21
135.0000000000847
 31
0.0
  0
LINE
  5
20A
330
B2
100
AcDbEntity
  8
0
  6
Continuous
 62
     7
100
AcDbLine
 10
168.99999999999
 20
205.5000000000847
 30
0.0
 11
168.99999999999
 21
155.5000000000847
 31
0.0
  0
LINE
  5
20B
330
B2
100
AcDbEntity
  8
0
  6
Continuous
 62
     7
100
AcDbLine
 10
168.99999999999
 20
155.5000000000847
 30
0.0
 11
168.99999999999
 21
139.5000000000847
 31
0.0
  0
LINE
  5
20C
330
B2
100
AcDbEntity
  8
0
  6
Continuous
 62
     7
100
AcDbLine
 10
-281.00000000001
 20
139.5000000000847
 30
0.0
 11
-281.00000000001
 21
155.5000000000847
 31
0.0
  0
LINE
  5
20D
330
B2
100
AcDbEntity
  8
0
  6
Continuous
 62
     7
100
AcDbLine
 10
-281.00000000001
 20
135.5000000000847
 30
0.0
 11
-281.00000000001
 21
139.5000000000847
 31
0.0
  0
LINE
  5
20E
330
B2
100
AcDbEntity
  8
0
  6
Continuous
 62
     7
100
AcDbLine
 10
-281.00000000001
 20
135.5000000000847
 30
0.0
 11
-281.00000000001
 21
135.0000000000847
 31
0.0
  0
LINE
  5
20F
330
B2
100
AcDbEntity
  8
0
  6
Continuous
 62
     7
100
AcDbLine
 10
-281.00000000001
 20
155.5000000000847
 30
0.0
 11
-281.00000000001
 21
205.5000000000847
 31
0.0
  0
LINE
  5
210
330
B2
100
AcDbEntity
  8
0
  6
Continuous
 62
     7
100
AcDbLine
 10
168.99999999999
 20
205.5000000000847
 30
0.0
 11
-281.00000000001
 21
205.5000000000847
 31
0.0
  0
LINE
  5
211
330
B2
100
AcDbEntity
  8
0
  6
Continuous
 62
     7
100
AcDbLine
 10
-251.00000000001
 20
135.5000000000847
 30
0.0
 11
-249.00000000001
 21
135.5000000000847
 31
0.0
  0
LINE
  5
212
330
B2
100
AcDbEntity
  8
0
  6
Continuous
 62
     7
100
AcDbLine
 10
-249.00000000001
 20
135.5000000000847
 30
0.0
 11
-241.00000000001
 21
135.5000000000847
 31
0.0
  0
LINE
  5
213
330
B2
100
AcDbEntity
  8
1
  6
DOT_CENTER
 62
     2
100
AcDbLine
 10
-56.00000000000998
 20
208.289975360439
 30
0.0
 11
-56.00000000000998
 21
131.246218768228
 31
0.0
  0
ENDBLK
  5
B4
330
B2
100
AcDbEntity
  8
0
100
AcDbBlockEnd
  0
BLOCK
  5
B6
330
B5
100
AcDbEntity
  8
0
100
AcDbBlockBegin
  2
980057503__17
 70
     0
 10
-281.00000000001
 20
135.5000000000847
 30
0.0
  3
980057503__17
  1

  0
LINE
  5
214
330
B5
100
AcDbEntity
  8
0
  6
Continuous
 62
     7
100
AcDbLine
 10
134.3333333333235
 20
139.5000000000847
 30
0.0
 11
136.99999999999
 21
139.5000000000847
 31
0.0
  0
LINE
  5
215
330
B5
100
AcDbEntity
  8
0
  6
Continuous
 62
     7
100
AcDbLine
 10
-281.00000000001
 20
135.5000000000847
 30
0.0
 11
-251.00000000001
 21
135.5000000000847
 31
0.0
  0
LINE
  5
216
330
B5
100
AcDbEntity
  8
0
  6
Continuous
 62
     7
100
AcDbLine
 10
-241.00000000001
 20
135.5000000000847
 30
0.0
 11
128.99999999999
 21
135.5000000000847
 31
0.0
  0
LINE
  5
217
330
B5
100
AcDbEntity
  8
0
  6
Continuous
 62
     7
100
AcDbLine
 10
-30.75000000001
 20
139.5000000000847
 30
0.0
 11
124.99999999999
 21
139.5000000000847
 31
0.0
  0
LINE
  5
218
330
B5
100
AcDbEntity
  8
0
  6
Continuous
 62
     7
100
AcDbLine
 10
136.99999999999
 20
139.5000000000847
 30
0.0
 11
138.99999999999
 21
139.5000000000847
 31
0.0
  0
LINE
  5
219
330
B5
100
AcDbEntity
  8
0
  6
Continuous
 62
     3
100
AcDbLine
 10
138.99999999999
 20
139.5000000000847
 30
0.0
 11
138.99999999999
 21
135.5000000000847
 31
0.0
  0
LINE
  5
21A
330
B5
100
AcDbEntity
  8
0
  6
Continuous
 62
     7
100
AcDbLine
 10
128.99999999999
 20
135.5000000000847
 30
0.0
 11
128.99999999999
 21
139.5000000000847
 31
0.0
  0
LINE
  5
21B
330
B5
100
AcDbEntity
  8
0
  6
Continuous
 62
     7
100
AcDbLine
 10
128.99999999999
 20
139.5000000000847
 30
0.0
 11
134.3333333333235
 21
139.5000000000847
 31
0.0
  0
LINE
  5
21C
330
B5
100
AcDbEntity
  8
0
  6
Continuous
 62
     7
100
AcDbLine
 10
136.99999999999
 20
135.5000000000847
 30
0.0
 11
138.99999999999
 21
135.5000000000847
 31
0.0
  0
LINE
  5
21D
330
B5
100
AcDbEntity
  8
0
  6
Continuous
 62
     7
100
AcDbLine
 10
168.99999999999
 20
139.5000000000847
 30
0.0
 11
164.99999999999
 21
139.5000000000847
 31
0.0
  0
LINE
  5
21E
330
B5
100
AcDbEntity
  8
0
  6
Continuous
 62
     7
100
AcDbLine
 10
164.99999999999
 20
139.5000000000847
 30
0.0
 11
138.99999999999
 21
139.5000000000847
 31
0.0
  0
LINE
  5
21F
330
B5
100
AcDbEntity
  8
0
  6
Continuous
 62
     7
100
AcDbLine
 10
138.99999999999
 20
135.5000000000847
 30
0.0
 11
168.99999999999
 21
135.5000000000847
 31
0.0
  0
LINE
  5
220
330
B5
100
AcDbEntity
  8
0
  6
Continuous
 62
     7
100
AcDbLine
 10
128.99999999999
 20
135.5000000000847
 30
0.0
 11
136.99999999999
 21
135.5000000000847
 31
0.0
  0
LINE
  5
221
330
B5
100
AcDbEntity
  8
0
  6
Continuous
 62
     7
100
AcDbLine
 10
168.99999999999
 20
139.5000000000847
 30
0.0
 11
168.99999999999
 21
135.5000000000847
 31
0.0
  0
LINE
  5
222
330
B5
100
AcDbEntity
  8
0
  6
Continuous
 62
     7
100
AcDbLine
 10
-281.00000000001
 20
135.5000000000847
 30
0.0
 11
-281.00000000001
 21
139.5000000000847
 31
0.0
  0
LINE
  5
223
330
B5
100
AcDbEntity
  8
0
  6
Continuous
 62
     7
100
AcDbLine
 10
124.99999999999
 20
139.5000000000847
 30
0.0
 11
128.99999999999
 21
139.5000000000847
 31
0.0
  0
LINE
  5
224
330
B5
100
AcDbEntity
  8
0
  6
Continuous
 62
     7
100
AcDbLine
 10
-73.25000000001
 20
139.5000000000847
 30
0.0
 11
-38.75000000001
 21
139.5000000000847
 31
0.0
  0
LINE
  5
225
330
B5
100
AcDbEntity
  8
0
  6
Continuous
 62
     7
100
AcDbLine
 10
-34.75000000001
 20
139.5000000000847
 30
0.0
 11
-30.75000000001
 21
139.5000000000847
 31
0.0
  0
LINE
  5
226
330
B5
100
AcDbEntity
  8
0
  6
Continuous
 62
     7
100
AcDbLine
 10
-251.00000000001
 20
135.5000000000847
 30
0.0
 11
-249.00000000001
 21
135.5000000000847
 31
0.0
  0
LINE
  5
227
330
B5
100
AcDbEntity
  8
0
  6
Continuous
 62
     7
100
AcDbLine
 10
-249.00000000001
 20
135.5000000000847
 30
0.0
 11
-241.00000000001
 21
135.5000000000847
 31
0.0
  0
LINE
  5
228
330
B5
100
AcDbEntity
  8
0
  6
Continuous
 62
     3
100
AcDbLine
 10
-251.00000000001
 20
135.5000000000847
 30
0.0
 11
-251.00000000001
 21
139.5000000000847
 31
0.0
  0
LINE
  5
229
330
B5
100
AcDbEntity
  8
0
  6
Continuous
 62
     7
100
AcDbLine
 10
-77.25000000001
 20
139.5000000000847
 30
0.0
 11
-73.25000000001
 21
139.5000000000847
 31
0.0
  0
LINE
  5
22A
330
B5
100
AcDbEntity
  8
0
  6
Continuous
 62
     7
100
AcDbLine
 10
-38.75000000001
 20
139.5000000000847
 30
0.0
 11
-34.75000000001
 21
139.5000000000847
 31
0.0
  0
LINE
  5
22B
330
B5
100
AcDbEntity
  8
0
  6
Continuous
 62
     7
100
AcDbLine
 10
-251.00000000001
 20
139.5000000000847
 30
0.0
 11
-249.0000000000101
 21
139.5000000000847
 31
0.0
  0
LINE
  5
22C
330
B5
100
AcDbEntity
  8
0
  6
Continuous
 62
     7
100
AcDbLine
 10
-249.0000000000101
 20
139.5000000000847
 30
0.0
 11
-246.3333333333433
 21
139.5000000000847
 31
0.0
  0
LINE
  5
22D
330
B5
100
AcDbEntity
  8
0
  6
Continuous
 62
     7
100
AcDbLine
 10
-277.00000000001
 20
139.5000000000847
 30
0.0
 11
-281.00000000001
 21
139.5000000000847
 31
0.0
  0
LINE
  5
22E
330
B5
100
AcDbEntity
  8
0
  6
Continuous
 62
     7
100
AcDbLine
 10
-251.00000000001
 20
139.5000000000847
 30
0.0
 11
-277.00000000001
 21
139.5000000000847
 31
0.0
  0
LINE
  5
22F
330
B5
100
AcDbEntity
  8
0
  6
Continuous
 62
     7
100
AcDbLine
 10
-81.25000000001
 20
139.5000000000847
 30
0.0
 11
-77.25000000001
 21
139.5000000000847
 31
0.0
  0
LINE
  5
230
330
B5
100
AcDbEntity
  8
0
  6
Continuous
 62
     7
100
AcDbLine
 10
-237.0000000000097
 20
139.5000000000847
 30
0.0
 11
-81.25000000001
 21
139.5000000000847
 31
0.0
  0
LINE
  5
231
330
B5
100
AcDbEntity
  8
0
  6
Continuous
 62
     7
100
AcDbLine
 10
-241.00000000001
 20
139.5000000000847
 30
0.0
 11
-237.0000000000097
 21
139.5000000000847
 31
0.0
  0
LINE
  5
232
330
B5
100
AcDbEntity
  8
0
  6
Continuous
 62
     7
100
AcDbLine
 10
-241.00000000001
 20
135.5000000000847
 30
0.0
 11
-241.00000000001
 21
139.5000000000847
 31
0.0
  0
LINE
  5
233
330
B5
100
AcDbEntity
  8
0
  6
Continuous
 62
     7
100
AcDbLine
 10
-246.3333333333433
 20
139.5000000000847
 30
0.0
 11
-241.00000000001
 21
139.5000000000847
 31
0.0
  0
ENDBLK
  5
B7
330
B5
100
AcDbEntity
  8
0
100
AcDbBlockEnd
  0
BLOCK
  5
B9
330
B8
100
AcDbEntity
  8
0
100
AcDbBlockBegin
  2
368027497__18
 70
     0
 10
-281.00000000001
 20
139.5000000000847
 30
0.0
  3
368027497__18
  1

  0
LINE
  5
234
330
B8
100
AcDbEntity
  8
0
  6
Continuous
 62
     7
100
AcDbLine
 10
134.3333333333235
 20
139.5000000000847
 30
0.0
 11
136.99999999999
 21
139.5000000000847
 31
0.0
  0
LINE
  5
235
330
B8
100
AcDbEntity
  8
0
  6
Continuous
 62
     7
100
AcDbLine
 10
-33.80202711958691
 20
155.5000000000847
 30
0.0
 11
-29.75000000000989
 21
155.5000000000847
 31
0.0
  0
LINE
  5
236
330
B8
100
AcDbEntity
  8
0
  6
Continuous
 62
     7
100
AcDbLine
 10
164.99999999999
 20
155.5000000000847
 30
0.0
 11
168.99999999999
 21
155.5000000000847
 31
0.0
  0
LINE
  5
237
330
B8
100
AcDbEntity
  8
0
  6
Continuous
 62
     7
100
AcDbLine
 10
-35.00000000001
 20
186.0000000000847
 30
0.0
 11
-35.00000000001
 21
167.0000000000847
 31
0.0
  0
LINE
  5
238
330
B8
100
AcDbEntity
  8
0
  6
Continuous
 62
     3
100
AcDbLine
 10
-31.00000000001
 20
167.0000000000847
 30
0.0
 11
-35.00000000001
 21
167.0000000000847
 31
0.0
  0
LINE
  5
239
330
B8
100
AcDbEntity
  8
0
  6
Continuous
 62
     3
100
AcDbLine
 10
-31.00000000001
 20
186.0000000000847
 30
0.0
 11
-31.00000000001
 21
167.0000000000847
 31
0.0
  0
LINE
  5
23A
330
B8
100
AcDbEntity
  8
0
  6
Continuous
 62
     3
100
AcDbLine
 10
-30.75000000001
 20
153.7679491925157
 30
0.0
 11
-30.75000000001
 21
139.5000000000847
 31
0.0
  0
LINE
  5
23B
330
B8
100
AcDbEntity
  8
0
  6
Continuous
 62
     7
100
AcDbLine
 10
122.9840576511508
 20
182.5000000000847
 30
0.0
 11
122.9840576511506
 21
186.0000000000847
 31
0.0
  0
LINE
  5
23C
330
B8
100
AcDbEntity
  8
0
  6
Continuous
 62
     3
100
AcDbLine
 10
118.9999999999902
 20
155.5000000000847
 30
0.0
 11
118.9999999999902
 21
186.0000000000847
 31
0.0
  0
LINE
  5
23D
330
B8
100
AcDbEntity
  8
0
  6
Continuous
 62
     7
100
AcDbLine
 10
118.9999999999902
 20
155.5000000000847
 30
0.0
 11
124.99999999999
 21
155.5000000000847
 31
0.0
  0
LINE
  5
23E
330
B8
100
AcDbEntity
  8
0
  6
Continuous
 62
     7
100
AcDbLine
 10
127.0231374166942
 20
182.5000000000847
 30
0.0
 11
122.9840576511508
 21
182.5000000000847
 31
0.0
  0
LINE
  5
23F
330
B8
100
AcDbEntity
  8
0
  6
Continuous
 62
     7
100
AcDbLine
 10
-31.00000000001
 20
186.0000000000847
 30
0.0
 11
118.9999999999902
 21
186.0000000000847
 31
0.0
  0
LINE
  5
240
330
B8
100
AcDbEntity
  8
0
  6
Continuous
 62
     7
100
AcDbLine
 10
118.9999999999902
 20
186.0000000000847
 30
0.0
 11
122.9840576511506
 21
186.0000000000847
 31
0.0
  0
LINE
  5
241
330
B8
100
AcDbEntity
  8
0
  6
Continuous
 62
     7
100
AcDbLine
 10
127.0231374166942
 20
186.0000000000847
 30
0.0
 11
128.9999999999902
 21
186.0000000000847
 31
0.0
  0
LINE
  5
242
330
B8
100
AcDbEntity
  8
0
  6
Continuous
 62
     7
100
AcDbLine
 10
127.0231374166942
 20
186.0000000000847
 30
0.0
 11
122.9840576511506
 21
186.0000000000847
 31
0.0
  0
LINE
  5
243
330
B8
100
AcDbEntity
  8
0
  6
Continuous
 62
     7
100
AcDbLine
 10
127.0231374166942
 20
182.5000000000847
 30
0.0
 11
127.0231374166942
 21
186.0000000000847
 31
0.0
  0
LINE
  5
244
330
B8
100
AcDbEntity
  8
0
  6
Continuous
 62
     3
100
AcDbLine
 10
124.99999999999
 20
139.5000000000847
 30
0.0
 11
124.99999999999
 21
155.5000000000847
 31
0.0
  0
LINE
  5
245
330
B8
100
AcDbEntity
  8
0
  6
Continuous
 62
     7
100
AcDbLine
 10
-29.75000000000989
 20
155.5000000000847
 30
0.0
 11
118.9999999999902
 21
155.5000000000847
 31
0.0
  0
LINE
  5
246
330
B8
100
AcDbEntity
  8
0
  6
Continuous
 62
     7
100
AcDbLine
 10
-30.75000000001
 20
139.5000000000847
 30
0.0
 11
124.99999999999
 21
139.5000000000847
 31
0.0
  0
LINE
  5
247
330
B8
100
AcDbEntity
  8
0
  6
Continuous
 62
     7
100
AcDbLine
 10
128.9999999999902
 20
186.0000000000847
 30
0.0
 11
129.1505012481005
 21
186.0000000000847
 31
0.0
  0
LINE
  5
248
330
B8
100
AcDbEntity
  8
0
  6
Continuous
 62
     7
100
AcDbLine
 10
129.1505012481005
 20
186.0000000000847
 30
0.0
 11
135.5345956562819
 21
186.0000000000847
 31
0.0
  0
LINE
  5
249
330
B8
100
AcDbEntity
  8
0
  6
Continuous
 62
     7
100
AcDbLine
 10
129.1505012481005
 20
182.5000000000847
 30
0.0
 11
129.1505012481005
 21
186.0000000000847
 31
0.0
  0
LINE
  5
24A
330
B8
100
AcDbEntity
  8
0
  6
Continuous
 62
     7
100
AcDbLine
 10
135.534595656282
 20
182.5000000000847
 30
0.0
 11
135.5345956562819
 21
186.0000000000847
 31
0.0
  0
LINE
  5
24B
330
B8
100
AcDbEntity
  8
0
  6
Continuous
 62
     3
100
AcDbLine
 10
138.9999999999902
 20
155.5000000000847
 30
0.0
 11
138.99999999999
 21
139.5000000000847
 31
0.0
  0
LINE
  5
24C
330
B8
100
AcDbEntity
  8
0
  6
Continuous
 62
     7
100
AcDbLine
 10
128.9999999999902
 20
155.5000000000847
 30
0.0
 11
128.9999999999902
 21
186.0000000000847
 31
0.0
  0
LINE
  5
24D
330
B8
100
AcDbEntity
  8
0
  6
Continuous
 62
     7
100
AcDbLine
 10
134.3333333333234
 20
182.5000000000847
 30
0.0
 11
129.1505012481005
 21
182.5000000000847
 31
0.0
  0
LINE
  5
24E
330
B8
100
AcDbEntity
  8
0
  6
Continuous
 62
     7
100
AcDbLine
 10
136.99999999999
 20
139.5000000000847
 30
0.0
 11
138.99999999999
 21
139.5000000000847
 31
0.0
  0
LINE
  5
24F
330
B8
100
AcDbEntity
  8
0
  6
Continuous
 62
     7
100
AcDbLine
 10
128.99999999999
 20
139.5000000000847
 30
0.0
 11
134.3333333333235
 21
139.5000000000847
 31
0.0
  0
LINE
  5
250
330
B8
100
AcDbEntity
  8
0
  6
Continuous
 62
     3
100
AcDbLine
 10
134.3333333333235
 20
155.5000000000847
 30
0.0
 11
134.3333333333234
 21
182.5000000000847
 31
0.0
  0
LINE
  5
251
330
B8
100
AcDbEntity
  8
0
  6
Continuous
 62
     7
100
AcDbLine
 10
-29.75000000000989
 20
155.5000000000847
 30
0.0
 11
-30.75000000001
 21
153.7679491925157
 31
0.0
  0
LINE
  5
252
330
B8
100
AcDbEntity
  8
0
  6
Continuous
 62
     7
100
AcDbLine
 10
-34.75000000001
 20
146.8397459622402
 30
0.0
 11
-30.75000000001
 21
153.7679491925157
 31
0.0
  0
LINE
  5
253
330
B8
100
AcDbEntity
  8
0
  6
Continuous
 62
     7
100
AcDbLine
 10
136.99999999999
 20
155.5000000000847
 30
0.0
 11
136.99999999999
 21
186.0000000000847
 31
0.0
  0
LINE
  5
254
330
B8
100
AcDbEntity
  8
0
  6
Continuous
 62
     7
100
AcDbLine
 10
168.99999999999
 20
139.5000000000847
 30
0.0
 11
164.99999999999
 21
139.5000000000847
 31
0.0
  0
LINE
  5
255
330
B8
100
AcDbEntity
  8
0
  6
Continuous
 62
     7
100
AcDbLine
 10
164.99999999999
 20
139.5000000000847
 30
0.0
 11
138.99999999999
 21
139.5000000000847
 31
0.0
  0
LINE
  5
256
330
B8
100
AcDbEntity
  8
0
  6
Continuous
 62
     7
100
AcDbLine
 10
124.99999999999
 20
155.5000000000847
 30
0.0
 11
128.9999999999902
 21
155.5000000000847
 31
0.0
  0
LINE
  5
257
330
B8
100
AcDbEntity
  8
0
  6
Continuous
 62
     7
100
AcDbLine
 10
128.9999999999902
 20
155.5000000000847
 30
0.0
 11
128.99999999999
 21
139.5000000000847
 31
0.0
  0
LINE
  5
258
330
B8
100
AcDbEntity
  8
0
  6
Continuous
 62
     7
100
AcDbLine
 10
128.9999999999902
 20
155.5000000000847
 30
0.0
 11
138.9999999999902
 21
155.5000000000847
 31
0.0
  0
LINE
  5
259
330
B8
100
AcDbEntity
  8
0
  6
Continuous
 62
     7
100
AcDbLine
 10
138.9999999999902
 20
155.5000000000847
 30
0.0
 11
164.99999999999
 21
155.5000000000847
 31
0.0
  0
LINE
  5
25A
330
B8
100
AcDbEntity
  8
0
  6
Continuous
 62
     7
100
AcDbLine
 10
134.3333333333234
 20
182.5000000000847
 30
0.0
 11
135.534595656282
 21
182.5000000000847
 31
0.0
  0
LINE
  5
25B
330
B8
100
AcDbEntity
  8
0
  6
Continuous
 62
     3
100
AcDbLine
 10
164.99999999999
 20
139.5000000000847
 30
0.0
 11
164.99999999999
 21
155.5000000000847
 31
0.0
  0
LINE
  5
25C
330
B8
100
AcDbEntity
  8
0
  6
Continuous
 62
     7
100
AcDbLine
 10
168.99999999999
 20
155.5000000000847
 30
0.0
 11
168.99999999999
 21
139.5000000000847
 31
0.0
  0
LINE
  5
25D
330
B8
100
AcDbEntity
  8
0
  6
Continuous
 62
     3
100
AcDbLine
 10
-277.00000000001
 20
155.5000000000847
 30
0.0
 11
-277.00000000001
 21
139.5000000000847
 31
0.0
  0
LINE
  5
25E
330
B8
100
AcDbEntity
  8
0
  6
Continuous
 62
     7
100
AcDbLine
 10
-281.00000000001
 20
139.5000000000847
 30
0.0
 11
-281.00000000001
 21
155.5000000000847
 31
0.0
  0
LINE
  5
25F
330
B8
100
AcDbEntity
  8
0
  6
Continuous
 62
     7
100
AcDbLine
 10
-35.00000000001
 20
186.0000000000847
 30
0.0
 11
-31.00000000001
 21
186.0000000000847
 31
0.0
  0
LINE
  5
260
330
B8
100
AcDbEntity
  8
0
  6
Continuous
 62
     7
100
AcDbLine
 10
135.5345956562819
 20
186.0000000000847
 30
0.0
 11
136.99999999999
 21
186.0000000000847
 31
0.0
  0
LINE
  5
261
330
B8
100
AcDbEntity
  8
0
  6
Continuous
 62
     7
100
AcDbLine
 10
-81.00000000001
 20
186.0000000000847
 30
0.0
 11
-77.00000000001
 21
186.0000000000847
 31
0.0
  0
LINE
  5
262
330
B8
100
AcDbEntity
  8
0
  6
Continuous
 62
     3
100
AcDbLine
 10
-38.75000000001
 20
139.5000000000847
 30
0.0
 11
-38.75000000001
 21
139.9115427319647
 31
0.0
  0
LINE
  5
263
330
B8
100
AcDbEntity
  8
0
  6
Continuous
 62
     7
100
AcDbLine
 10
124.99999999999
 20
139.5000000000847
 30
0.0
 11
128.99999999999
 21
139.5000000000847
 31
0.0
  0
LINE
  5
264
330
B8
100
AcDbEntity
  8
0
  6
Continuous
 62
     7
100
AcDbLine
 10
-73.25000000001
 20
139.5000000000847
 30
0.0
 11
-38.75000000001
 21
139.5000000000847
 31
0.0
  0
LINE
  5
265
330
B8
100
AcDbEntity
  8
0
  6
Continuous
 62
     7
100
AcDbLine
 10
-34.75000000001
 20
139.5000000000847
 30
0.0
 11
-30.75000000001
 21
139.5000000000847
 31
0.0
  0
LINE
  5
266
330
B8
100
AcDbEntity
  8
0
  6
Continuous
 62
     7
100
AcDbLine
 10
-247.5345956563016
 20
182.5000000000847
 30
0.0
 11
-246.3333333333433
 21
182.5000000000847
 31
0.0
  0
LINE
  5
267
330
B8
100
AcDbEntity
  8
0
  6
Continuous
 62
     7
100
AcDbLine
 10
-249.0000000000101
 20
186.0000000000847
 30
0.0
 11
-247.5345956563016
 21
186.0000000000847
 31
0.0
  0
LINE
  5
268
330
B8
100
AcDbEntity
  8
0
  6
Continuous
 62
     7
100
AcDbLine
 10
-251.0000000000099
 20
155.5000000000847
 30
0.0
 11
-241.0000000000098
 21
155.5000000000847
 31
0.0
  0
LINE
  5
269
330
B8
100
AcDbEntity
  8
0
  6
Continuous
 62
     3
100
AcDbLine
 10
-251.0000000000099
 20
155.5000000000847
 30
0.0
 11
-251.00000000001
 21
139.5000000000847
 31
0.0
  0
LINE
  5
26A
330
B8
100
AcDbEntity
  8
0
  6
Continuous
 62
     7
100
AcDbLine
 10
-241.1505012481205
 20
186.0000000000847
 30
0.0
 11
-247.5345956563016
 21
186.0000000000847
 31
0.0
  0
LINE
  5
26B
330
B8
100
AcDbEntity
  8
0
  6
Continuous
 62
     7
100
AcDbLine
 10
-247.5345956563016
 20
186.0000000000847
 30
0.0
 11
-247.5345956563016
 21
182.5000000000847
 31
0.0
  0
LINE
  5
26C
330
B8
100
AcDbEntity
  8
0
  6
Continuous
 62
     7
100
AcDbLine
 10
-249.0000000000101
 20
155.5000000000847
 30
0.0
 11
-249.0000000000101
 21
186.0000000000847
 31
0.0
  0
LINE
  5
26D
330
B8
100
AcDbEntity
  8
0
  6
Continuous
 62
     3
100
AcDbLine
 10
-77.00000000001
 20
167.0000000000847
 30
0.0
 11
-81.00000000001
 21
167.0000000000847
 31
0.0
  0
LINE
  5
26E
330
B8
100
AcDbEntity
  8
0
  6
Continuous
 62
     7
100
AcDbLine
 10
-34.75000000001
 20
139.5000000000847
 30
0.0
 11
-34.75000000001
 21
146.8397459622402
 31
0.0
  0
LINE
  5
26F
330
B8
100
AcDbEntity
  8
0
  6
Continuous
 62
     7
100
AcDbLine
 10
-38.75000000001
 20
139.9115427319647
 30
0.0
 11
-34.75000000001
 21
146.8397459622402
 31
0.0
  0
LINE
  5
270
330
B8
100
AcDbEntity
  8
0
  6
Continuous
 62
     7
100
AcDbLine
 10
-77.25000000001
 20
139.5000000000847
 30
0.0
 11
-73.25000000001
 21
139.5000000000847
 31
0.0
  0
LINE
  5
271
330
B8
100
AcDbEntity
  8
0
  6
Continuous
 62
     7
100
AcDbLine
 10
-38.75000000001
 20
139.5000000000847
 30
0.0
 11
-34.75000000001
 21
139.5000000000847
 31
0.0
  0
LINE
  5
272
330
B8
100
AcDbEntity
  8
0
  6
Continuous
 62
     7
100
AcDbLine
 10
-38.4287166092044
 20
155.5000000000847
 30
0.0
 11
-33.80202711958691
 21
155.5000000000847
 31
0.0
  0
LINE
  5
273
330
B8
100
AcDbEntity
  8
0
  6
Continuous
 62
     3
100
AcDbLine
 10
-73.25000000001
 20
139.9115427319648
 30
0.0
 11
-73.25000000001
 21
139.5000000000847
 31
0.0
  0
LINE
  5
274
330
B8
100
AcDbEntity
  8
0
  6
Continuous
 62
     7
100
AcDbLine
 10
-82.25000000001
 20
155.5000000000847
 30
0.0
 11
-78.1979728804331
 21
155.5000000000847
 31
0.0
  0
LINE
  5
275
330
B8
100
AcDbEntity
  8
0
  6
Continuous
 62
     7
100
AcDbLine
 10
-78.1979728804331
 20
155.5000000000847
 30
0.0
 11
-73.57128339081561
 21
155.5000000000847
 31
0.0
  0
LINE
  5
276
330
B8
100
AcDbEntity
  8
0
  6
Continuous
 62
     7
100
AcDbLine
 10
-281.00000000001
 20
155.5000000000847
 30
0.0
 11
-277.00000000001
 21
155.5000000000847
 31
0.0
  0
LINE
  5
277
330
B8
100
AcDbEntity
  8
0
  6
Continuous
 62
     7
100
AcDbLine
 10
-277.00000000001
 20
155.5000000000847
 30
0.0
 11
-251.0000000000099
 21
155.5000000000847
 31
0.0
  0
LINE
  5
278
330
B8
100
AcDbEntity
  8
0
  6
Continuous
 62
     7
100
AcDbLine
 10
-251.00000000001
 20
139.5000000000847
 30
0.0
 11
-249.0000000000101
 21
139.5000000000847
 31
0.0
  0
LINE
  5
279
330
B8
100
AcDbEntity
  8
0
  6
Continuous
 62
     7
100
AcDbLine
 10
-249.0000000000101
 20
139.5000000000847
 30
0.0
 11
-246.3333333333433
 21
139.5000000000847
 31
0.0
  0
LINE
  5
27A
330
B8
100
AcDbEntity
  8
0
  6
Continuous
 62
     7
100
AcDbLine
 10
-277.00000000001
 20
139.5000000000847
 30
0.0
 11
-281.00000000001
 21
139.5000000000847
 31
0.0
  0
LINE
  5
27B
330
B8
100
AcDbEntity
  8
0
  6
Continuous
 62
     7
100
AcDbLine
 10
-251.00000000001
 20
139.5000000000847
 30
0.0
 11
-277.00000000001
 21
139.5000000000847
 31
0.0
  0
LINE
  5
27C
330
B8
100
AcDbEntity
  8
0
  6
Continuous
 62
     7
100
AcDbLine
 10
-77.25000000001
 20
146.8397459622403
 30
0.0
 11
-73.25000000001
 21
139.9115427319648
 31
0.0
  0
LINE
  5
27D
330
B8
100
AcDbEntity
  8
0
  6
Continuous
 62
     7
100
AcDbLine
 10
-77.00000000001
 20
167.0000000000847
 30
0.0
 11
-77.00000000001
 21
186.0000000000847
 31
0.0
  0
LINE
  5
27E
330
B8
100
AcDbEntity
  8
0
  6
Continuous
 62
     7
100
AcDbLine
 10
-77.25000000001
 20
139.5000000000847
 30
0.0
 11
-77.25000000001
 21
146.8397459622403
 31
0.0
  0
LINE
  5
27F
330
B8
100
AcDbEntity
  8
0
  6
Continuous
 62
     7
100
AcDbLine
 10
-81.25000000001
 20
139.5000000000847
 30
0.0
 11
-77.25000000001
 21
139.5000000000847
 31
0.0
  0
LINE
  5
280
330
B8
100
AcDbEntity
  8
0
  6
Continuous
 62
     7
100
AcDbLine
 10
-231.0000000000099
 20
155.5000000000847
 30
0.0
 11
-82.25000000001
 21
155.5000000000847
 31
0.0
  0
LINE
  5
281
330
B8
100
AcDbEntity
  8
0
  6
Continuous
 62
     7
100
AcDbLine
 10
-237.0000000000097
 20
139.5000000000847
 30
0.0
 11
-81.25000000001
 21
139.5000000000847
 31
0.0
  0
LINE
  5
282
330
B8
100
AcDbEntity
  8
0
  6
Continuous
 62
     3
100
AcDbLine
 10
-81.25000000001
 20
139.5000000000847
 30
0.0
 11
-81.25000000001
 21
153.7679491925158
 31
0.0
  0
LINE
  5
283
330
B8
100
AcDbEntity
  8
0
  6
Continuous
 62
     7
100
AcDbLine
 10
-231.0000000000099
 20
186.0000000000847
 30
0.0
 11
-81.00000000001
 21
186.0000000000847
 31
0.0
  0
LINE
  5
284
330
B8
100
AcDbEntity
  8
0
  6
Continuous
 62
     3
100
AcDbLine
 10
-81.00000000001
 20
167.0000000000847
 30
0.0
 11
-81.00000000001
 21
186.0000000000847
 31
0.0
  0
LINE
  5
285
330
B8
100
AcDbEntity
  8
0
  6
Continuous
 62
     7
100
AcDbLine
 10
-241.0000000000098
 20
155.5000000000847
 30
0.0
 11
-237.0000000000097
 21
155.5000000000847
 31
0.0
  0
LINE
  5
286
330
B8
100
AcDbEntity
  8
0
  6
Continuous
 62
     3
100
AcDbLine
 10
-237.0000000000097
 20
155.5000000000847
 30
0.0
 11
-237.0000000000097
 21
139.5000000000847
 31
0.0
  0
LINE
  5
287
330
B8
100
AcDbEntity
  8
0
  6
Continuous
 62
     7
100
AcDbLine
 10
-237.0000000000097
 20
155.5000000000847
 30
0.0
 11
-231.0000000000099
 21
155.5000000000847
 31
0.0
  0
LINE
  5
288
330
B8
100
AcDbEntity
  8
0
  6
Continuous
 62
     7
100
AcDbLine
 10
-241.00000000001
 20
139.5000000000847
 30
0.0
 11
-237.0000000000097
 21
139.5000000000847
 31
0.0
  0
LINE
  5
289
330
B8
100
AcDbEntity
  8
0
  6
Continuous
 62
     7
100
AcDbLine
 10
-234.9840576511706
 20
186.0000000000847
 30
0.0
 11
-239.0231374167142
 21
186.0000000000847
 31
0.0
  0
LINE
  5
28A
330
B8
100
AcDbEntity
  8
0
  6
Continuous
 62
     7
100
AcDbLine
 10
-239.0231374167142
 20
182.5000000000847
 30
0.0
 11
-239.0231374167142
 21
186.0000000000847
 31
0.0
  0
LINE
  5
28B
330
B8
100
AcDbEntity
  8
0
  6
Continuous
 62
     7
100
AcDbLine
 10
-239.0231374167142
 20
182.5000000000847
 30
0.0
 11
-234.9840576511706
 21
182.5000000000847
 31
0.0
  0
LINE
  5
28C
330
B8
100
AcDbEntity
  8
0
  6
Continuous
 62
     7
100
AcDbLine
 10
-234.9840576511706
 20
182.5000000000847
 30
0.0
 11
-234.9840576511706
 21
186.0000000000847
 31
0.0
  0
LINE
  5
28D
330
B8
100
AcDbEntity
  8
0
  6
Continuous
 62
     7
100
AcDbLine
 10
-234.9840576511706
 20
186.0000000000847
 30
0.0
 11
-231.0000000000099
 21
186.0000000000847
 31
0.0
  0
LINE
  5
28E
330
B8
100
AcDbEntity
  8
0
  6
Continuous
 62
     7
100
AcDbLine
 10
-241.0000000000098
 20
155.5000000000847
 30
0.0
 11
-241.00000000001
 21
139.5000000000847
 31
0.0
  0
LINE
  5
28F
330
B8
100
AcDbEntity
  8
0
  6
Continuous
 62
     7
100
AcDbLine
 10
-241.0000000000098
 20
155.5000000000847
 30
0.0
 11
-241.0000000000099
 21
186.0000000000847
 31
0.0
  0
LINE
  5
290
330
B8
100
AcDbEntity
  8
0
  6
Continuous
 62
     7
100
AcDbLine
 10
-241.0000000000099
 20
186.0000000000847
 30
0.0
 11
-239.0231374167142
 21
186.0000000000847
 31
0.0
  0
LINE
  5
291
330
B8
100
AcDbEntity
  8
0
  6
Continuous
 62
     7
100
AcDbLine
 10
-241.1505012481205
 20
182.5000000000847
 30
0.0
 11
-241.1505012481205
 21
186.0000000000847
 31
0.0
  0
LINE
  5
292
330
B8
100
AcDbEntity
  8
0
  6
Continuous
 62
     7
100
AcDbLine
 10
-241.1505012481205
 20
186.0000000000847
 30
0.0
 11
-241.0000000000099
 21
186.0000000000847
 31
0.0
  0
LINE
  5
293
330
B8
100
AcDbEntity
  8
0
  6
Continuous
 62
     7
100
AcDbLine
 10
-246.3333333333433
 20
182.5000000000847
 30
0.0
 11
-241.1505012481205
 21
182.5000000000847
 31
0.0
  0
LINE
  5
294
330
B8
100
AcDbEntity
  8
0
  6
Continuous
 62
     7
100
AcDbLine
 10
-246.3333333333433
 20
139.5000000000847
 30
0.0
 11
-241.00000000001
 21
139.5000000000847
 31
0.0
  0
LINE
  5
295
330
B8
100
AcDbEntity
  8
0
  6
Continuous
 62
     3
100
AcDbLine
 10
-246.3333333333433
 20
182.5000000000847
 30
0.0
 11
-246.3333333333433
 21
155.5000000000847
 31
0.0
  0
LINE
  5
296
330
B8
100
AcDbEntity
  8
0
  6
Continuous
 62
     3
100
AcDbLine
 10
-231.0000000000099
 20
155.5000000000847
 30
0.0
 11
-231.0000000000099
 21
186.0000000000847
 31
0.0
  0
LINE
  5
297
330
B8
100
AcDbEntity
  8
0
  6
Continuous
 62
     7
100
AcDbLine
 10
-81.25000000001
 20
153.7679491925158
 30
0.0
 11
-82.25000000001
 21
155.5000000000847
 31
0.0
  0
LINE
  5
298
330
B8
100
AcDbEntity
  8
0
  6
Continuous
 62
     7
100
AcDbLine
 10
-81.25000000001
 20
153.7679491925158
 30
0.0
 11
-77.25000000001
 21
146.8397459622403
 31
0.0
  0
ARC
  5
299
330
B8
100
AcDbEntity
  8
0
  6
Continuous
 62
     3
100
AcDbCircle
 10
-56.00000000001
 20
167.0000000000847
 30
0.0
 40
24.99999999999998
100
AcDbArc
 50
332.6128924973461
 51
0.0
  0
ARC
  5
29A
330
B8
100
AcDbEntity
  8
0
  6
Continuous
 62
     7
100
AcDbCircle
 10
-56.00000000001
 20
167.0000000000847
 30
0.0
 40
21.00000000000001
100
AcDbArc
 50
326.7961774700297
 51
0.0
  0
ARC
  5
29B
330
B8
100
AcDbEntity
  8
0
  6
Continuous
 62
     3
100
AcDbCircle
 10
-56.00000000001
 20
167.0000000000847
 30
0.0
 40
25.00000000000001
100
AcDbArc
 50
180.0
 51
207.3871075026539
  0
ARC
  5
29C
330
B8
100
AcDbEntity
  8
0
  6
Continuous
 62
     7
100
AcDbCircle
 10
-56.00000000001
 20
167.0000000000847
 30
0.0
 40
21.00000000000001
100
AcDbArc
 50
180.0
 51
213.2038225299702
  0
ARC
  5
29D
330
B8
100
AcDbEntity
  8
0
  6
Continuous
 62
     7
100
AcDbCircle
 10
-56.00000000001
 20
167.0000000000847
 30
0.0
 40
21.00000000000003
100
AcDbArc
 50
213.2038225299702
 51
326.7961774700297
  0
ENDBLK
  5
BA
330
B8
100
AcDbEntity
  8
0
100
AcDbBlockEnd
  0
BLOCK
  5
C0
330
BB
100
AcDbEntity
  8
0
100
AcDbBlockBegin
  2
539106__19
 70
     0
 10
-281.00000000001
 20
135.0000000000847
 30
0.0
  3
539106__19
  1

  0
INSERT
  5
BC
330
BB
100
AcDbEntity
  8
0
100
AcDbBlockReference
  2
976007501_Plan__15
 10
-281.00000000001
 20
135.5000000000847
 30
0.0
  0
INSERT
  5
BD
330
BB
100
AcDbEntity
  8
0
100
AcDbBlockReference
  2
390997584_Schnitt_gefaltet__16
 10
-281.00000000001
 20
135.0000000000847
 30
0.0
  0
INSERT
  5
BE
330
BB
100
AcDbEntity
  8
0
100
AcDbBlockReference
  2
980057503__17
 10
-281.00000000001
 20
135.5000000000847
 30
0.0
  0
INSERT
  5
BF
330
BB
100
AcDbEntity
  8
0
100
AcDbBlockReference
  2
368027497__18
 10
-281.00000000001
 20
139.5000000000847
 30
0.0
  0
ENDBLK
  5
C1
330
BB
100
AcDbEntity
  8
0
100
AcDbBlockEnd
  0
BLOCK
  5
C4
330
C2
100
AcDbEntity
  8
0
100
AcDbBlockBegin
  2
HL6700-WEB-Zeichnung__20
 70
     0
 10
-281.00000000001
 20
135.0000000000847
 30
0.0
  3
HL6700-WEB-Zeichnung__20
  1

  0
INSERT
  5
C3
330
C2
100
AcDbEntity
  8
0
100
AcDbBlockReference
  2
539106__19
 10
-281.00000000001
 20
135.0000000000847
 30
0.0
  0
ENDBLK
  5
C5
330
C2
100
AcDbEntity
  8
0
100
AcDbBlockEnd
  0
BLOCK
  5
C9
330
C6
100
AcDbEntity
  8
0
100
AcDbBlockBegin
  2
Vordans1
 70
     0
 10
-56.000000000005
 20
170.25000000004
 30
0.0
  3
Vordans1
  1

  0
INSERT
  5
C7
330
C6
100
AcDbEntity
  8
1
100
AcDbBlockReference
  2
A-A__14
 10
-71.35000000000997
 20
111.721298775293
 30
0.0
  0
INSERT
  5
C8
330
C6
100
AcDbEntity
  8
0
100
AcDbBlockReference
  2
HL6700-WEB-Zeichnung__20
 10
-281.00000000001
 20
135.0000000000847
 30
0.0
  0
MTEXT
  5
29E
330
C6
100
AcDbEntity
  8
1
 62
     1
100
AcDbMText
 10
-56.000000000005
 20
130.00000000004
 30
0.0
 40
3.5
 41
0.0
 71
     2
 72
     1
  1
 
  7
CONVERTER_11
 73
     1
 44
1.32052821128451
  0
DIMENSION
  5
2AB
330
C6
100
AcDbEntity
  8
1
100
AcDbDimension
  2
*D25
 10
203.204183152725
 20
135.5000000000847
 30
0.0
 11
190.704183152725
 21
182.271040896208
 31
0.0
 70
    32
  1
<>
 71
     5
 42
-1.0
 53
90.0
  3
ME10_DIM_12
100
AcDbAlignedDimension
 13
168.99999999999
 23
155.5000000000847
 33
0.0
 14
168.99999999999
 24
135.5000000000847
 34
0.0
 50
90.0
100
AcDbRotatedDimension
  0
DIMENSION
  5
2B6
330
C6
100
AcDbEntity
  8
1
100
AcDbDimension
  2
*D26
 10
-340.847015044576
 20
135.5000000000847
 30
0.0
 11
-353.347015044576
 21
170.771862841513
 31
0.0
 70
    32
  1
<>
 71
     5
 42
-1.0
 53
90.0
  3
ME10_DIM_13
100
AcDbAlignedDimension
 13
-281.00000000001
 23
205.5000000000847
 33
0.0
 14
-281.00000000001
 24
135.5000000000847
 34
0.0
 50
90.0
100
AcDbRotatedDimension
  0
DIMENSION
  5
2C2
330
C6
100
AcDbEntity
  8
1
100
AcDbDimension
  2
*D27
 10
-306.451360505493
 20
135.5000000000847
 30
0.0
 11
-319.701360505493
 21
107.298004562486
 31
0.0
 70
    32
  1
<>
 71
     5
 42
-1.0
 53
90.0
  3
ME10_DIM_14
100
AcDbAlignedDimension
 13
-249.0000000000101
 23
186.0000000000847
 33
0.0
 14
-281.00000000001
 24
135.5000000000847
 34
0.0
 50
90.0
100
AcDbRotatedDimension
  0
DIMENSION
  5
2CD
330
C6
100
AcDbEntity
  8
1
100
AcDbDimension
  2
*D28
 10
-281.00000000001
 20
249.314418603973
 30
0.0
 11
-91.45092468296889
 21
261.814418603973
 31
0.0
 70
    32
  1
<>
 71
     5
 42
-1.0
 53
0.00013888888889
  3
ME10_DIM_15
100
AcDbAlignedDimension
 13
168.99999999999
 23
205.5000000000847
 33
0.0
 14
-281.00000000001
 24
205.5000000000847
 34
0.0
100
AcDbRotatedDimension
  0
ENDBLK
  5
CA
330
C6
100
AcDbEntity
  8
0
100
AcDbBlockEnd
  0
BLOCK
  5
1DA
330
1D3
100
AcDbEntity
  8
0
100
AcDbBlockBegin
  2
*D23
 70
     1
 10
0.0
 20
0.0
 30
0.0
  3
*D23
  1

  0
LINE
  5
1D4
330
1D3
100
AcDbEntity
  8
1
  6
Continuous
 62
     4
100
AcDbLine
 10
-306.451360505493
 20
33.99999999986005
 30
0.0
 11
-306.451360505493
 21
-162.5000000001399
 31
0.0
  0
LINE
  5
1D5
330
1D3
100
AcDbEntity
  8
1
  6
Continuous
 62
     4
100
AcDbLine
 10
-281.00000000001
 20
33.99999999986004
 30
0.0
 11
-308.451360505493
 21
33.99999999986004
 31
0.0
  0
LINE
  5
1D6
330
1D3
100
AcDbEntity
  8
1
  6
Continuous
 62
     4
100
AcDbLine
 10
-241.00000000001
 20
-162.5000000001399
 30
0.0
 11
-308.451360505493
 21
-162.5000000001399
 31
0.0
  0
SOLID
  5
1D7
330
1D3
100
AcDbEntity
  8
1
 62
     4
100
AcDbTrace
 10
-304.4765730416821
 20
18.99999999986005
 30
0.0
 11
-308.4261479693039
 21
18.99999999986005
 31
0.0
 12
-306.451360505493
 22
33.99999999986005
 32
0.0
 13
-306.451360505493
 23
33.99999999986005
 33
0.0
  0
SOLID
  5
1D8
330
1D3
100
AcDbEntity
  8
1
 62
     4
100
AcDbTrace
 10
-308.4261479693039
 20
-147.5000000001399
 30
0.0
 11
-304.4765730416821
 21
-147.5000000001399
 31
0.0
 12
-306.451360505493
 22
-162.5000000001399
 32
0.0
 13
-306.451360505493
 23
-162.5000000001399
 33
0.0
  0
MTEXT
  5
1D9
330
1D3
100
AcDbEntity
  8
1
 62
     1
100
AcDbMText
 10
-312.951360505493
 20
-87.94751354217523
 30
0.0
 40
15.0
 41
0.0
 71
     7
 72
     1
  1
196,5
  7
CONVERTER_11
 11
0.0
 21
1.0
 31
0.0
 73
     1
 44
0.60024009603842
  0
ENDBLK
  5
1DB
330
1D3
100
AcDbEntity
  8
0
100
AcDbBlockEnd
  0
BLOCK
  5
1E5
330
1DE
100
AcDbEntity
  8
0
100
AcDbBlockBegin
  2
*D24
 70
     1
 10
0.0
 20
0.0
 30
0.0
  3
*D24
  1

  0
LINE
  5
1DF
330
1DE
100
AcDbEntity
  8
1
  6
Continuous
 62
     4
100
AcDbLine
 10
136.99999999999
 20
51.03599455584138
 30
0.0
 11
-249.00000000001
 21
51.03599455584138
 31
0.0
  0
LINE
  5
1E0
330
1DE
100
AcDbEntity
  8
1
  6
Continuous
 62
     4
100
AcDbLine
 10
136.99999999999
 20
30.49999999986016
 30
0.0
 11
136.99999999999
 21
53.03599455584138
 31
0.0
  0
LINE
  5
1E1
330
1DE
100
AcDbEntity
  8
1
  6
Continuous
 62
     4
100
AcDbLine
 10
-249.00000000001
 20
30.49999999986016
 30
0.0
 11
-249.00000000001
 21
53.03599455584138
 31
0.0
  0
SOLID
  5
1E2
330
1DE
100
AcDbEntity
  8
1
 62
     4
100
AcDbTrace
 10
121.99999999999
 20
49.06120709203044
 30
0.0
 11
121.99999999999
 21
53.01078201965232
 31
0.0
 12
136.99999999999
 22
51.03599455584138
 32
0.0
 13
136.99999999999
 23
51.03599455584138
 33
0.0
  0
SOLID
  5
1E3
330
1DE
100
AcDbEntity
  8
1
 62
     4
100
AcDbTrace
 10
-234.00000000001
 20
53.01078201965232
 30
0.0
 11
-234.00000000001
 21
49.06120709203044
 31
0.0
 12
-249.00000000001
 22
51.03599455584138
 32
0.0
 13
-249.00000000001
 23
51.03599455584138
 33
0.0
  0
MTEXT
  5
1E4
330
1DE
100
AcDbEntity
  8
1
 62
     1
100
AcDbMText
 10
-55.24258467608351
 20
56.03599455584138
 30
0.0
 40
15.0
 41
0.0
 71
     7
 72
     1
  1
386
  7
CONVERTER_11
 11
0.9999999999970619
 21
2.424068405545306E-6
 31
0.0
 73
     1
 44
0.60024009603842
  0
ENDBLK
  5
1E6
330
1DE
100
AcDbEntity
  8
0
100
AcDbBlockEnd
  0
BLOCK
  5
2A8
330
29F
100
AcDbEntity
  8
0
100
AcDbBlockBegin
  2
*D25
 70
     1
 10
0.0
 20
0.0
 30
0.0
  3
*D25
  1

  0
LINE
  5
2A0
330
29F
100
AcDbEntity
  8
1
  6
Continuous
 62
     4
100
AcDbLine
 10
203.204183152725
 20
105.5000000000847
 30
0.0
 11
203.204183152725
 21
135.5000000000847
 31
0.0
  0
LINE
  5
2A1
330
29F
100
AcDbEntity
  8
1
  6
Continuous
 62
     4
100
AcDbLine
 10
203.204183152725
 20
135.5000000000847
 30
0.0
 11
203.204183152725
 21
155.5000000000847
 31
0.0
  0
LINE
  5
2A2
330
29F
100
AcDbEntity
  8
1
  6
Continuous
 62
     4
100
AcDbLine
 10
203.204183152725
 20
155.5000000000847
 30
0.0
 11
203.204183152725
 21
193.521040896208
 31
0.0
  0
LINE
  5
2A3
330
29F
100
AcDbEntity
  8
1
  6
Continuous
 62
     4
100
AcDbLine
 10
168.99999999999
 20
135.5000000000847
 30
0.0
 11
205.204183152725
 21
135.5000000000847
 31
0.0
  0
LINE
  5
2A4
330
29F
100
AcDbEntity
  8
1
  6
Continuous
 62
     4
100
AcDbLine
 10
168.99999999999
 20
155.5000000000847
 30
0.0
 11
205.204183152725
 21
155.5000000000847
 31
0.0
  0
SOLID
  5
2A5
330
29F
100
AcDbEntity
  8
1
 62
     4
100
AcDbTrace
 10
205.1789706165359
 20
120.5000000000847
 30
0.0
 11
201.2293956889141
 21
120.5000000000847
 31
0.0
 12
203.204183152725
 22
135.5000000000847
 32
0.0
 13
203.204183152725
 23
135.5000000000847
 33
0.0
  0
SOLID
  5
2A6
330
29F
100
AcDbEntity
  8
1
 62
     4
100
AcDbTrace
 10
201.2293956889141
 20
170.5000000000847
 30
0.0
 11
205.1789706165359
 21
170.5000000000847
 31
0.0
 12
203.204183152725
 22
155.5000000000847
 32
0.0
 13
203.204183152725
 23
155.5000000000847
 33
0.0
  0
MTEXT
  5
2A7
330
29F
100
AcDbEntity
  8
1
 62
     1
100
AcDbMText
 10
198.204183152725
 20
171.021040896208
 30
0.0
 40
15.0
 41
0.0
 71
     7
 72
     1
  1
20
  7
CONVERTER_11
 11
0.0
 21
1.0
 31
0.0
 73
     1
 44
0.60024009603842
  0
ENDBLK
  5
2A9
330
29F
100
AcDbEntity
  8
0
100
AcDbBlockEnd
  0
BLOCK
  5
2B3
330
2AC
100
AcDbEntity
  8
0
100
AcDbBlockBegin
  2
*D26
 70
     1
 10
0.0
 20
0.0
 30
0.0
  3
*D26
  1

  0
LINE
  5
2AD
330
2AC
100
AcDbEntity
  8
1
  6
Continuous
 62
     4
100
AcDbLine
 10
-340.847015044576
 20
135.5000000000847
 30
0.0
 11
-340.847015044576
 21
205.5000000000847
 31
0.0
  0
LINE
  5
2AE
330
2AC
100
AcDbEntity
  8
1
  6
Continuous
 62
     4
100
AcDbLine
 10
-281.00000000001
 20
135.5000000000847
 30
0.0
 11
-342.847015044576
 21
135.5000000000847
 31
0.0
  0
LINE
  5
2AF
330
2AC
100
AcDbEntity
  8
1
  6
Continuous
 62
     4
100
AcDbLine
 10
-281.00000000001
 20
205.5000000000847
 30
0.0
 11
-342.847015044576
 21
205.5000000000847
 31
0.0
  0
SOLID
  5
2B0
330
2AC
100
AcDbEntity
  8
1
 62
     4
100
AcDbTrace
 10
-342.8218025083869
 20
150.5000000000847
 30
0.0
 11
-338.8722275807651
 21
150.5000000000847
 31
0.0
 12
-340.847015044576
 22
135.5000000000847
 32
0.0
 13
-340.847015044576
 23
135.5000000000847
 33
0.0
  0
SOLID
  5
2B1
330
2AC
100
AcDbEntity
  8
1
 62
     4
100
AcDbTrace
 10
-338.8722275807651
 20
190.5000000000847
 30
0.0
 11
-342.8218025083869
 21
190.5000000000847
 31
0.0
 12
-340.847015044576
 22
205.5000000000847
 32
0.0
 13
-340.847015044576
 23
205.5000000000847
 33
0.0
  0
MTEXT
  5
2B2
330
2AC
100
AcDbEntity
  8
1
 62
     1
100
AcDbMText
 10
-345.847015044576
 20
159.521862841513
 30
0.0
 40
15.0
 41
0.0
 71
     7
 72
     1
  1
70
  7
CONVERTER_11
 11
0.0
 21
1.0
 31
0.0
 73
     1
 44
0.60024009603842
  0
ENDBLK
  5
2B4
330
2AC
100
AcDbEntity
  8
0
100
AcDbBlockEnd
  0
BLOCK
  5
2BF
330
2B7
100
AcDbEntity
  8
0
100
AcDbBlockBegin
  2
*D27
 70
     1
 10
0.0
 20
0.0
 30
0.0
  3
*D27
  1

  0
LINE
  5
2B8
330
2B7
100
AcDbEntity
  8
1
  6
Continuous
 62
     4
100
AcDbLine
 10
-306.451360505493
 20
86.673004562486
 30
0.0
 11
-306.451360505493
 21
135.5000000000847
 31
0.0
  0
LINE
  5
2B9
330
2B7
100
AcDbEntity
  8
1
  6
Continuous
 62
     4
100
AcDbLine
 10
-306.451360505493
 20
135.5000000000847
 30
0.0
 11
-306.451360505493
 21
186.0000000000847
 31
0.0
  0
LINE
  5
2BA
330
2B7
100
AcDbEntity
  8
1
  6
Continuous
 62
     4
100
AcDbLine
 10
-281.00000000001
 20
135.5000000000847
 30
0.0
 11
-308.451360505493
 21
135.5000000000847
 31
0.0
  0
LINE
  5
2BB
330
2B7
100
AcDbEntity
  8
1
  6
Continuous
 62
     4
100
AcDbLine
 10
-249.0000000000101
 20
186.0000000000847
 30
0.0
 11
-308.451360505493
 21
186.0000000000847
 31
0.0
  0
SOLID
  5
2BC
330
2B7
100
AcDbEntity
  8
1
 62
     4
100
AcDbTrace
 10
-308.4261479693039
 20
150.5000000000847
 30
0.0
 11
-304.4765730416821
 21
150.5000000000847
 31
0.0
 12
-306.451360505493
 22
135.5000000000847
 32
0.0
 13
-306.451360505493
 23
135.5000000000847
 33
0.0
  0
SOLID
  5
2BD
330
2B7
100
AcDbEntity
  8
1
 62
     4
100
AcDbTrace
 10
-304.4765730416821
 20
171.0000000000847
 30
0.0
 11
-308.4261479693039
 21
171.0000000000847
 31
0.0
 12
-306.451360505493
 22
186.0000000000847
 32
0.0
 13
-306.451360505493
 23
186.0000000000847
 33
0.0
  0
MTEXT
  5
2BE
330
2B7
100
AcDbEntity
  8
1
 62
     1
100
AcDbMText
 10
-312.951360505493
 20
86.673004562486
 30
0.0
 40
15.0
 41
0.0
 71
     7
 72
     1
  1
50,5
  7
CONVERTER_11
 11
0.0
 21
1.0
 31
0.0
 73
     1
 44
0.60024009603842
  0
ENDBLK
  5
2C0
330
2B7
100
AcDbEntity
  8
0
100
AcDbBlockEnd
  0
BLOCK
  5
2CA
330
2C3
100
AcDbEntity
  8
0
100
AcDbBlockBegin
  2
*D28
 70
     1
 10
0.0
 20
0.0
 30
0.0
  3
*D28
  1

  0
LINE
  5
2C4
330
2C3
100
AcDbEntity
  8
1
  6
Continuous
 62
     4
100
AcDbLine
 10
-281.00000000001
 20
249.314418603973
 30
0.0
 11
168.99999999999
 21
249.314418603973
 31
0.0
  0
LINE
  5
2C5
330
2C3
100
AcDbEntity
  8
1
  6
Continuous
 62
     4
100
AcDbLine
 10
-281.00000000001
 20
205.5000000000848
 30
0.0
 11
-281.00000000001
 21
251.314418603973
 31
0.0
  0
LINE
  5
2C6
330
2C3
100
AcDbEntity
  8
1
  6
Continuous
 62
     4
100
AcDbLine
 10
168.99999999999
 20
205.5000000000848
 30
0.0
 11
168.99999999999
 21
251.314418603973
 31
0.0
  0
SOLID
  5
2C7
330
2C3
100
AcDbEntity
  8
1
 62
     4
100
AcDbTrace
 10
-266.00000000001
 20
251.289206067784
 30
0.0
 11
-266.00000000001
 21
247.3396311401621
 31
0.0
 12
-281.00000000001
 22
249.314418603973
 32
0.0
 13
-281.00000000001
 23
249.314418603973
 33
0.0
  0
SOLID
  5
2C8
330
2C3
100
AcDbEntity
  8
1
 62
     4
100
AcDbTrace
 10
153.99999999999
 20
247.3396311401621
 30
0.0
 11
153.99999999999
 21
251.289206067784
 31
0.0
 12
168.99999999999
 22
249.314418603973
 32
0.0
 13
168.99999999999
 23
249.314418603973
 33
0.0
  0
MTEXT
  5
2C9
330
2C3
100
AcDbEntity
  8
1
 62
     1
100
AcDbMText
 10
-109.4509246829689
 20
254.314418603973
 30
0.0
 40
15.0
 41
0.0
 71
     7
 72
     1
  1
450
  7
CONVERTER_11
 11
0.9999999999970619
 21
2.424068405545306E-6
 31
0.0
 73
     1
 44
0.60024009603842
  0
ENDBLK
  5
2CB
330
2C3
100
AcDbEntity
  8
0
100
AcDbBlockEnd
  0
ENDSEC
  0
SECTION
  2
ENTITIES
  0
INSERT
  5
CB
330
1F
100
AcDbEntity
  8
0
100
AcDbBlockReference
  2
A-A__7
 10
331.0
 20
170.25
 30
0.0
  0
INSERT
  5
CC
330
1F
100
AcDbEntity
  8
0
100
AcDbBlockReference
  2
Drfsicht1
 10
-56.000000000005
 20
-64.00000000006986
 30
0.0
  0
INSERT
  5
CD
330
1F
100
AcDbEntity
  8
0
100
AcDbBlockReference
  2
Vordans1
 10
-56.000000000005
 20
170.25000000004
 30
0.0
  0
ENDSEC
  0
SECTION
  2
OBJECTS
  0
DICTIONARY
  5
C
330
0
100
AcDbDictionary
281
     1
  3
ACAD_GROUP
350
D
  3
ACAD_LAYOUT
350
1A
  3
ACAD_MATERIAL
350
43
  3
ACAD_MLEADERSTYLE
350
6B
  3
ACAD_MLINESTYLE
350
17
  3
ACAD_PLOTSETTINGS
350
19
  3
ACAD_PLOTSTYLENAME
350
E
  3
ACAD_SCALELIST
350
47
  3
ACAD_TABLESTYLE
350
69
  3
ACAD_VISUALSTYLE
350
2A
  3
AcDbVariableDictionary
350
2CE
  0
DICTIONARY
  5
2D5
330
8
100
AcDbDictionary
280
     1
281
     1
  3
ACAD_XREC_ROUNDTRIP
360
2D6
  0
DICTIONARY
  5
D
102
{ACAD_REACTORS
330
C
102
}
330
C
100
AcDbDictionary
281
     1
  0
DICTIONARY
  5
1A
102
{ACAD_REACTORS
330
C
102
}
330
C
100
AcDbDictionary
281
     1
  3
Layout1
350
1E
  3
Layout2
350
26
  3
Model
350
22
  0
DICTIONARY
  5
43
102
{ACAD_REACTORS
330
C
102
}
330
C
100
AcDbDictionary
281
     1
  3
ByBlock
350
45
  3
ByLayer
350
44
  3
Global
350
46
  0
DICTIONARY
  5
6B
102
{ACAD_REACTORS
330
C
102
}
330
C
100
AcDbDictionary
281
     1
  3
Standard
350
6C
  0
DICTIONARY
  5
17
102
{ACAD_REACTORS
330
C
102
}
330
C
100
AcDbDictionary
281
     1
  3
Standard
350
18
  0
DICTIONARY
  5
19
102
{ACAD_REACTORS
330
C
102
}
330
C
100
AcDbDictionary
281
     1
  0
ACDBDICTIONARYWDFLT
  5
E
102
{ACAD_REACTORS
330
C
102
}
330
C
100
AcDbDictionary
281
     1
  3
Normal
350
F
100
AcDbDictionaryWithDefault
340
F
  0
DICTIONARY
  5
47
102
{ACAD_REACTORS
330
C
102
}
330
C
100
AcDbDictionary
281
     1
  3
A0
350
48
  3
A1
350
49
  3
A2
350
4A
  3
A3
350
4B
  3
A4
350
4C
  3
A5
350
4D
  3
A6
350
4E
  3
A7
350
4F
  3
A8
350
50
  3
A9
350
51
  3
B0
350
52
  3
B1
350
53
  3
B2
350
54
  3
B3
350
55
  3
B4
350
56
  3
B5
350
57
  3
B6
350
58
  3
B7
350
59
  3
B8
350
5A
  3
B9
350
5B
  3
C0
350
5C
  3
C1
350
5D
  3
C2
350
5E
  3
C3
350
5F
  3
C4
350
60
  3
C5
350
61
  3
C6
350
62
  3
C7
350
63
  3
C8
350
64
  3
C9
350
65
  3
D0
350
66
  3
D1
350
67
  3
D2
350
68
  0
DICTIONARY
  5
69
102
{ACAD_REACTORS
330
C
102
}
330
C
100
AcDbDictionary
281
     1
  3
Standard
350
6A
  0
DICTIONARY
  5
2A
102
{ACAD_REACTORS
330
C
102
}
330
C
100
AcDbDictionary
281
     1
  3
2dWireframe
350
2F
  3
Basic
350
32
  3
Brighten
350
36
  3
ColorChange
350
3A
  3
Conceptual
350
34
  3
Dim
350
35
  3
EdgeColorOff
350
3D
  3
Facepattern
350
39
  3
Flat
350
2B
  3
FlatWithEdges
350
2C
  3
Gouraud
350
2D
  3
GouraudWithEdges
350
2E
  3
Hidden
350
31
  3
JitterOff
350
3B
  3
Linepattern
350
38
  3
OverhangOff
350
3C
  3
Realistic
350
33
  3
Shaded
350
42
  3
Shaded with edges
350
41
  3
Shades of Gray
350
3E
  3
Sketchy
350
3F
  3
Thicken
350
37
  3
Wireframe
350
30
  3
X-Ray
350
40
  0
DICTIONARY
  5
2CE
102
{ACAD_REACTORS
330
C
102
}
330
C
100
AcDbDictionary
281
     1
  3
CANNOSCALE
350
2D7
  3
CMLEADERSTYLE
350
2D0
  3
CTABLESTYLE
350
2CF
  3
DIMASSOC
350
2D3
  3
HIDETEXT
350
2D4
  3
MSLTSCALE
350
2D8
  0
XRECORD
  5
2D6
102
{ACAD_REACTORS
330
2D5
102
}
330
2D5
100
AcDbXrecord
280
     1
102
VTR_0.000_0.000_1.000_1.000_GRIDDISPLAY
 70
     3
102
VTR_0.000_0.000_1.000_1.000_GRIDMAJOR
 70
     5
102
VTR_0.000_0.000_1.000_1.000_DEFAULTLIGHTING
280
     1
102
VTR_0.000_0.000_1.000_1.000_DEFAULTLIGHTINGTYPE
 70
     1
102
VTR_0.000_0.000_1.000_1.000_BRIGHTNESS
141
0.0
102
VTR_0.000_0.000_1.000_1.000_CONTRAST
142
0.0
  0
LAYOUT
  5
1E
102
{ACAD_REACTORS
330
1A
102
}
330
1A
100
AcDbPlotSettings
  1

  2
none_device
  4

  6

 40
0.0
 41
0.0
 42
0.0
 43
0.0
 44
0.0
 45
0.0
 46
0.0
 47
0.0
 48
0.0
 49
0.0
140
0.0
141
0.0
142
1.0
143
1.0
 70
   688
 72
     0
 73
     0
 74
     5
  7

 75
    16
147
1.0
148
0.0
149
0.0
100
AcDbLayout
  1
Layout1
 70
     1
 71
     1
 10
0.0
 20
0.0
 11
12.0
 21
9.0
 12
0.0
 22
0.0
 32
0.0
 14
1.00000000000000E+20
 24
1.00000000000000E+20
 34
1.00000000000000E+20
 15
-1.00000000000000E+20
 25
-1.00000000000000E+20
 35
-1.00000000000000E+20
146
0.0
 13
0.0
 23
0.0
 33
0.0
 16
1.0
 26
0.0
 36
0.0
 17
0.0
 27
1.0
 37
0.0
 76
     0
330
1B
  0
LAYOUT
  5
26
102
{ACAD_REACTORS
330
1A
102
}
330
1A
100
AcDbPlotSettings
  1

  2
none_device
  4

  6

 40
0.0
 41
0.0
 42
0.0
 43
0.0
 44
0.0
 45
0.0
 46
0.0
 47
0.0
 48
0.0
 49
0.0
140
0.0
141
0.0
142
1.0
143
1.0
 70
   688
 72
     0
 73
     0
 74
     5
  7

 75
    16
147
1.0
148
0.0
149
0.0
100
AcDbLayout
  1
Layout2
 70
     1
 71
     2
 10
0.0
 20
0.0
 11
0.0
 21
0.0
 12
0.0
 22
0.0
 32
0.0
 14
0.0
 24
0.0
 34
0.0
 15
0.0
 25
0.0
 35
0.0
146
0.0
 13
0.0
 23
0.0
 33
0.0
 16
1.0
 26
0.0
 36
0.0
 17
0.0
 27
1.0
 37
0.0
 76
     0
330
23
  0
LAYOUT
  5
22
102
{ACAD_REACTORS
330
1A
102
}
330
1A
100
AcDbPlotSettings
  1

  2
none_device
  4
Letter_(8.50_x_11.00_Inches)
  6

 40
6.35
 41
6.35
 42
6.35000508
 43
6.35000508
 44
215.9
 45
279.4
 46
0.0
 47
0.0
 48
0.0
 49
0.0
140
0.0
141
0.0
142
1.0
143
1.0
 70
  1712
 72
     0
 73
     0
 74
     0
  7

 75
     0
147
1.0
148
0.0
149
0.0
100
AcDbLayout
  1
Model
 70
     1
 71
     0
 10
0.0
 20
0.0
 11
12.0
 21
9.0
 12
0.0
 22
0.0
 32
0.0
 14
-360.847015044576
 24
-171.00000000007
 34
0.0
 15
429.5400000000699
 25
269.314418603973
 35
0.0
146
0.0
 13
0.0
 23
0.0
 33
0.0
 16
1.0
 26
0.0
 36
0.0
 17
0.0
 27
1.0
 37
0.0
 76
     0
330
1F
331
29
  0
MATERIAL
  5
45
102
{ACAD_REACTORS
330
43
102
}
102
{ACAD_XDICTIONARY
360
30B
102
}
330
43
100
AcDbMaterial
  1
ByBlock
  0
MATERIAL
  5
44
102
{ACAD_REACTORS
330
43
102
}
102
{ACAD_XDICTIONARY
360
309
102
}
330
43
100
AcDbMaterial
  1
ByLayer
  0
MATERIAL
  5
46
102
{ACAD_REACTORS
330
43
102
}
102
{ACAD_XDICTIONARY
360
30D
102
}
330
43
100
AcDbMaterial
  1
Global
  0
MLEADERSTYLE
  5
6C
102
{ACAD_REACTORS
330
6B
102
}
102
{ACAD_XDICTIONARY
360
310
102
}
330
6B
100
AcDbMLeaderStyle
170
     2
171
     1
172
     0
 90
        2
 40
0.0
 41
0.0
173
     1
 91
-1056964608
340
14
 92
       -2
290
     1
 42
0.09
291
     1
 43
0.36
  3
Standard
341
0
 44
0.18
300

342
11
174
     1
178
     6
175
     1
176
     0
 93
-1056964608
 45
0.18
292
     0
297
     0
 46
0.18
343
0
 94
-1056964608
 47
1.0
 49
1.0
140
1.0
293
     1
141
0.0
294
     1
177
     0
142
1.0
295
     0
296
     0
143
0.125
1001
ACAD_MLEADERVER
1070
     2
  0
MLINESTYLE
  5
18
102
{ACAD_REACTORS
330
17
102
}
330
17
100
AcDbMlineStyle
  2
Standard
 70
     0
  3

 62
   256
 51
90.0
 52
90.0
 71
     2
 49
0.5
 62
   256
  6
BYLAYER
 49
-0.5
 62
   256
  6
BYLAYER
  0
ACDBPLACEHOLDER
  5
F
102
{ACAD_REACTORS
330
E
102
}
330
E
  0
SCALE
  5
48
102
{ACAD_REACTORS
330
47
102
}
330
47
100
AcDbScale
 70
     0
300
1:1
140
1.0
141
1.0
290
     1
  0
SCALE
  5
49
102
{ACAD_REACTORS
330
47
102
}
330
47
100
AcDbScale
 70
     0
300
1:2
140
1.0
141
2.0
290
     0
  0
SCALE
  5
4A
102
{ACAD_REACTORS
330
47
102
}
330
47
100
AcDbScale
 70
     0
300
1:4
140
1.0
141
4.0
290
     0
  0
SCALE
  5
4B
102
{ACAD_REACTORS
330
47
102
}
330
47
100
AcDbScale
 70
     0
300
1:5
140
1.0
141
5.0
290
     0
  0
SCALE
  5
4C
102
{ACAD_REACTORS
330
47
102
}
330
47
100
AcDbScale
 70
     0
300
1:8
140
1.0
141
8.0
290
     0
  0
SCALE
  5
4D
102
{ACAD_REACTORS
330
47
102
}
330
47
100
AcDbScale
 70
     0
300
1:10
140
1.0
141
10.0
290
     0
  0
SCALE
  5
4E
102
{ACAD_REACTORS
330
47
102
}
330
47
100
AcDbScale
 70
     0
300
1:16
140
1.0
141
16.0
290
     0
  0
SCALE
  5
4F
102
{ACAD_REACTORS
330
47
102
}
330
47
100
AcDbScale
 70
     0
300
1:20
140
1.0
141
20.0
290
     0
  0
SCALE
  5
50
102
{ACAD_REACTORS
330
47
102
}
330
47
100
AcDbScale
 70
     0
300
1:30
140
1.0
141
30.0
290
     0
  0
SCALE
  5
51
102
{ACAD_REACTORS
330
47
102
}
330
47
100
AcDbScale
 70
     0
300
1:40
140
1.0
141
40.0
290
     0
  0
SCALE
  5
52
102
{ACAD_REACTORS
330
47
102
}
330
47
100
AcDbScale
 70
     0
300
1:50
140
1.0
141
50.0
290
     0
  0
SCALE
  5
53
102
{ACAD_REACTORS
330
47
102
}
330
47
100
AcDbScale
 70
     0
300
1:100
140
1.0
141
100.0
290
     0
  0
SCALE
  5
54
102
{ACAD_REACTORS
330
47
102
}
330
47
100
AcDbScale
 70
     0
300
2:1
140
2.0
141
1.0
290
     0
  0
SCALE
  5
55
102
{ACAD_REACTORS
330
47
102
}
330
47
100
AcDbScale
 70
     0
300
4:1
140
4.0
141
1.0
290
     0
  0
SCALE
  5
56
102
{ACAD_REACTORS
330
47
102
}
330
47
100
AcDbScale
 70
     0
300
8:1
140
8.0
141
1.0
290
     0
  0
SCALE
  5
57
102
{ACAD_REACTORS
330
47
102
}
330
47
100
AcDbScale
 70
     0
300
10:1
140
10.0
141
1.0
290
     0
  0
SCALE
  5
58
102
{ACAD_REACTORS
330
47
102
}
330
47
100
AcDbScale
 70
     0
300
100:1
140
100.0
141
1.0
290
     0
  0
SCALE
  5
59
102
{ACAD_REACTORS
330
47
102
}
330
47
100
AcDbScale
 70
     0
300
1/128" = 1'-0"
140
0.0078125
141
12.0
290
     0
  0
SCALE
  5
5A
102
{ACAD_REACTORS
330
47
102
}
330
47
100
AcDbScale
 70
     0
300
1/64" = 1'-0"
140
0.015625
141
12.0
290
     0
  0
SCALE
  5
5B
102
{ACAD_REACTORS
330
47
102
}
330
47
100
AcDbScale
 70
     0
300
1/32" = 1'-0"
140
0.03125
141
12.0
290
     0
  0
SCALE
  5
5C
102
{ACAD_REACTORS
330
47
102
}
330
47
100
AcDbScale
 70
     0
300
1/16" = 1'-0"
140
0.0625
141
12.0
290
     0
  0
SCALE
  5
5D
102
{ACAD_REACTORS
330
47
102
}
330
47
100
AcDbScale
 70
     0
300
3/32" = 1'-0"
140
0.09375
141
12.0
290
     0
  0
SCALE
  5
5E
102
{ACAD_REACTORS
330
47
102
}
330
47
100
AcDbScale
 70
     0
300
1/8" = 1'-0"
140
0.125
141
12.0
290
     0
  0
SCALE
  5
5F
102
{ACAD_REACTORS
330
47
102
}
330
47
100
AcDbScale
 70
     0
300
3/16" = 1'-0"
140
0.1875
141
12.0
290
     0
  0
SCALE
  5
60
102
{ACAD_REACTORS
330
47
102
}
330
47
100
AcDbScale
 70
     0
300
1/4" = 1'-0"
140
0.25
141
12.0
290
     0
  0
SCALE
  5
61
102
{ACAD_REACTORS
330
47
102
}
330
47
100
AcDbScale
 70
     0
300
3/8" = 1'-0"
140
0.375
141
12.0
290
     0
  0
SCALE
  5
62
102
{ACAD_REACTORS
330
47
102
}
330
47
100
AcDbScale
 70
     0
300
1/2" = 1'-0"
140
0.5
141
12.0
290
     0
  0
SCALE
  5
63
102
{ACAD_REACTORS
330
47
102
}
330
47
100
AcDbScale
 70
     0
300
3/4" = 1'-0"
140
0.75
141
12.0
290
     0
  0
SCALE
  5
64
102
{ACAD_REACTORS
330
47
102
}
330
47
100
AcDbScale
 70
     0
300
1" = 1'-0"
140
1.0
141
12.0
290
     0
  0
SCALE
  5
65
102
{ACAD_REACTORS
330
47
102
}
330
47
100
AcDbScale
 70
     0
300
1-1/2" = 1'-0"
140
1.5
141
12.0
290
     0
  0
SCALE
  5
66
102
{ACAD_REACTORS
330
47
102
}
330
47
100
AcDbScale
 70
     0
300
3" = 1'-0"
140
3.0
141
12.0
290
     0
  0
SCALE
  5
67
102
{ACAD_REACTORS
330
47
102
}
330
47
100
AcDbScale
 70
     0
300
6" = 1'-0"
140
6.0
141
12.0
290
     0
  0
SCALE
  5
68
102
{ACAD_REACTORS
330
47
102
}
330
47
100
AcDbScale
 70
     0
300
1'-0" = 1'-0"
140
12.0
141
12.0
290
     0
  0
TABLESTYLE
  5
6A
102
{ACAD_REACTORS
330
69
102
}
330
69
100
AcDbTableStyle
  3
Standard
 70
     0
 71
     0
 40
0.06
 41
0.06
280
     0
281
     0
  7
Standard
140
0.18
170
     2
 62
     0
 63
   257
283
     0
274
    -2
284
     1
 64
     0
275
    -2
285
     1
 65
     0
276
    -2
286
     1
 66
     0
277
    -2
287
     1
 67
     0
278
    -2
288
     1
 68
     0
279
    -2
289
     1
 69
     0
  7
Standard
140
0.25
170
     5
 62
     0
 63
   257
283
     0
274
    -2
284
     1
 64
     0
275
    -2
285
     1
 65
     0
276
    -2
286
     1
 66
     0
277
    -2
287
     1
 67
     0
278
    -2
288
     1
 68
     0
279
    -2
289
     1
 69
     0
  7
Standard
140
0.18
170
     5
 62
     0
 63
   257
283
     0
274
    -2
284
     1
 64
     0
275
    -2
285
     1
 65
     0
276
    -2
286
     1
 66
     0
277
    -2
287
     1
 67
     0
278
    -2
288
     1
 68
     0
279
    -2
289
     1
 69
     0
  0
VISUALSTYLE
  5
2F
102
{ACAD_REACTORS
330
2A
102
}
102
{ACAD_XDICTIONARY
360
2E1
102
}
330
2A
100
AcDbVisualStyle
  2
2dWireframe
 70
     4
 71
     0
 72
     2
 73
     0
 90
        0
 40
0.6
 41
30.0
 62
     5
 63
     7
 74
     1
 91
        4
 64
     7
 65
   257
 75
     1
175
     1
 42
1.0
 92
        0
 66
   257
 43
1.0
 76
     1
 77
     6
 78
     2
 67
     7
 79
     5
170
     0
171
     0
290
     0
174
     0
 93
        1
 44
0.0
173
     0
291
     0
 45
0.0
1001
ACAD
1000
AcDbSavedByObjectVersion
1070
     0
  0
VISUALSTYLE
  5
32
102
{ACAD_REACTORS
330
2A
102
}
102
{ACAD_XDICTIONARY
360
2E7
102
}
330
2A
100
AcDbVisualStyle
  2
Basic
 70
     7
 71
     1
 72
     0
 73
     1
 90
        0
 40
0.6
 41
30.0
 62
     5
 63
     7
 74
     0
 91
        4
 64
     7
 65
   257
 75
     1
175
     1
 42
1.0
 92
        8
 66
     7
 43
1.0
 76
     1
 77
     6
 78
     2
 67
     7
 79
     5
170
     0
171
     0
290
     0
174
     0
 93
        1
 44
0.0
173
     0
291
     1
 45
0.0
1001
ACAD
1000
AcDbSavedByObjectVersion
1070
     0
  0
VISUALSTYLE
  5
36
102
{ACAD_REACTORS
330
2A
102
}
102
{ACAD_XDICTIONARY
360
2EF
102
}
330
2A
100
AcDbVisualStyle
  2
Brighten
 70
    12
 71
     2
 72
     2
 73
     0
 90
        0
 40
0.6
 41
30.0
 62
     5
 63
     7
 74
     1
 91
        4
 64
     7
 65
   257
 75
     1
175
     1
 42
1.0
 92
        8
 66
     7
 43
1.0
 76
     1
 77
     6
 78
     2
 67
     7
 79
     5
170
     0
171
     0
290
     0
174
     0
 93
        1
 44
50.0
173
     0
291
     1
 45
0.0
1001
ACAD
1000
AcDbSavedByObjectVersion
1070
     0
  0
VISUALSTYLE
  5
3A
102
{ACAD_REACTORS
330
2A
102
}
102
{ACAD_XDICTIONARY
360
2F7
102
}
330
2A
100
AcDbVisualStyle
  2
ColorChange
 70
    16
 71
     2
 72
     2
 73
     3
 90
        0
 40
0.6
 41
30.0
 62
     5
 63
     8
 74
     1
 91
        4
 64
     7
 65
   257
 75
     1
175
     1
 42
1.0
 92
        8
 66
     8
 43
1.0
 76
     1
 77
     6
 78
     2
 67
     7
 79
     5
170
     0
171
     0
290
     0
174
     0
 93
        1
 44
0.0
173
     0
291
     1
 45
0.0
1001
ACAD
1000
AcDbSavedByObjectVersion
1070
     0
  0
VISUALSTYLE
  5
34
102
{ACAD_REACTORS
330
2A
102
}
102
{ACAD_XDICTIONARY
360
2EB
102
}
330
2A
100
AcDbVisualStyle
  2
Conceptual
 70
     9
 71
     3
 72
     2
 73
     0
 90
        0
 40
0.6
 41
30.0
 62
     5
 63
     7
 74
     2
 91
        2
 64
     7
 65
   257
 75
     1
175
     1
 42
179.0
 92
        8
 66
     7
 43
1.0
 76
     1
 77
     6
 78
     2
 67
     7
 79
     3
170
     0
171
     0
290
     0
174
     0
 93
        1
 44
0.0
173
     0
291
     0
 45
0.0
1001
ACAD
1000
AcDbSavedByObjectVersion
1070
     0
  0
VISUALSTYLE
  5
35
102
{ACAD_REACTORS
330
2A
102
}
102
{ACAD_XDICTIONARY
360
2ED
102
}
330
2A
100
AcDbVisualStyle
  2
Dim
 70
    11
 71
     2
 72
     2
 73
     0
 90
        0
 40
0.6
 41
30.0
 62
     5
 63
     7
 74
     1
 91
        4
 64
     7
 65
   257
 75
     1
175
     1
 42
1.0
 92
        8
 66
     7
 43
1.0
 76
     1
 77
     6
 78
     2
 67
     7
 79
     5
170
     0
171
     0
290
     0
174
     0
 93
        1
 44
-50.0
173
     0
291
     1
 45
0.0
1001
ACAD
1000
AcDbSavedByObjectVersion
1070
     0
  0
VISUALSTYLE
  5
3D
102
{ACAD_REACTORS
330
2A
102
}
102
{ACAD_XDICTIONARY
360
2FD
102
}
330
2A
100
AcDbVisualStyle
  2
EdgeColorOff
 70
    22
 71
     2
 72
     2
 73
     0
 90
        0
 40
0.6
 41
30.0
 62
     5
 63
     7
 74
     1
 91
        4
 64
     7
 65
   257
 75
     1
175
     1
 42
1.0
 92
        8
 66
     7
 43
1.0
 76
     1
 77
     6
 78
     2
 67
     7
 79
     5
170
     0
171
     0
290
     0
174
     0
 93
        1
 44
0.0
173
     0
291
     1
 45
0.0
1001
ACAD
1000
AcDbSavedByObjectVersion
1070
     0
  0
VISUALSTYLE
  5
39
102
{ACAD_REACTORS
330
2A
102
}
102
{ACAD_XDICTIONARY
360
2F5
102
}
330
2A
100
AcDbVisualStyle
  2
Facepattern
 70
    15
 71
     2
 72
     2
 73
     0
 90
        0
 40
0.6
 41
30.0
 62
     5
 63
     7
 74
     1
 91
        4
 64
     7
 65
   257
 75
     1
175
     1
 42
1.0
 92
        8
 66
     7
 43
1.0
 76
     1
 77
     6
 78
     2
 67
     7
 79
     5
170
     0
171
     0
290
     0
174
     0
 93
        1
 44
0.0
173
     0
291
     1
 45
0.0
1001
ACAD
1000
AcDbSavedByObjectVersion
1070
     0
  0
VISUALSTYLE
  5
2B
102
{ACAD_REACTORS
330
2A
102
}
102
{ACAD_XDICTIONARY
360
2D9
102
}
330
2A
100
AcDbVisualStyle
  2
Flat
 70
     0
 71
     2
 72
     1
 73
     1
 90
        2
 40
0.6
 41
30.0
 62
     5
 63
     7
 74
     0
 91
        0
 64
     7
 65
   257
 75
     1
175
     1
 42
1.0
 92
        8
 66
     7
 43
1.0
 76
     1
 77
     6
 78
     2
 67
     7
 79
     5
170
     0
171
     0
290
     0
174
     0
 93
       13
 44
0.0
173
     0
291
     1
 45
0.0
1001
ACAD
1000
AcDbSavedByObjectVersion
1070
     0
  0
VISUALSTYLE
  5
2C
102
{ACAD_REACTORS
330
2A
102
}
102
{ACAD_XDICTIONARY
360
2DB
102
}
330
2A
100
AcDbVisualStyle
  2
FlatWithEdges
 70
     1
 71
     2
 72
     1
 73
     1
 90
        2
 40
0.6
 41
30.0
 62
     5
 63
     7
 74
     1
 91
        0
 64
     7
 65
   257
 75
     1
175
     1
 42
1.0
 92
        0
 66
   257
 43
1.0
 76
     1
 77
     6
 78
     2
 67
     7
 79
     5
170
     0
171
     0
290
     0
174
     0
 93
       13
 44
0.0
173
     0
291
     1
 45
0.0
1001
ACAD
1000
AcDbSavedByObjectVersion
1070
     0
  0
VISUALSTYLE
  5
2D
102
{ACAD_REACTORS
330
2A
102
}
102
{ACAD_XDICTIONARY
360
2DD
102
}
330
2A
100
AcDbVisualStyle
  2
Gouraud
 70
     2
 71
     2
 72
     2
 73
     1
 90
        2
 40
0.6
 41
30.0
 62
     5
 63
     7
 74
     0
 91
        0
 64
     7
 65
   257
 75
     1
175
     1
 42
1.0
 92
        0
 66
     7
 43
1.0
 76
     1
 77
     6
 78
     2
 67
     7
 79
     5
170
     0
171
     0
290
     0
174
     0
 93
       13
 44
0.0
173
     0
291
     1
 45
0.0
1001
ACAD
1000
AcDbSavedByObjectVersion
1070
     0
  0
VISUALSTYLE
  5
2E
102
{ACAD_REACTORS
330
2A
102
}
102
{ACAD_XDICTIONARY
360
2DF
102
}
330
2A
100
AcDbVisualStyle
  2
GouraudWithEdges
 70
     3
 71
     2
 72
     2
 73
     1
 90
        2
 40
0.6
 41
30.0
 62
     5
 63
     7
 74
     1
 91
        0
 64
     7
 65
   257
 75
     1
175
     1
 42
1.0
 92
        0
 66
   257
 43
1.0
 76
     1
 77
     6
 78
     2
 67
     7
 79
     5
170
     0
171
     0
290
     0
174
     0
 93
       13
 44
0.0
173
     0
291
     1
 45
0.0
1001
ACAD
1000
AcDbSavedByObjectVersion
1070
     0
  0
VISUALSTYLE
  5
31
102
{ACAD_REACTORS
330
2A
102
}
102
{ACAD_XDICTIONARY
360
2E5
102
}
330
2A
100
AcDbVisualStyle
  2
Hidden
 70
     6
 71
     1
 72
     2
 73
     2
 90
        0
 40
0.6
 41
30.0
 62
     5
 63
     7
 74
     2
 91
        2
 64
     7
 65
   257
 75
     2
175
     1
 42
40.0
 92
        0
 66
   257
 43
1.0
 76
     1
 77
     6
 78
     2
 67
     7
 79
     3
170
     0
171
     0
290
     0
174
     0
 93
        1
 44
0.0
173
     0
291
     0
 45
0.0
1001
ACAD
1000
AcDbSavedByObjectVersion
1070
     0
  0
VISUALSTYLE
  5
3B
102
{ACAD_REACTORS
330
2A
102
}
102
{ACAD_XDICTIONARY
360
2F9
102
}
330
2A
100
AcDbVisualStyle
  2
JitterOff
 70
    20
 71
     2
 72
     2
 73
     0
 90
        0
 40
0.6
 41
30.0
 62
     5
 63
     7
 74
     1
 91
        4
 64
     7
 65
   257
 75
     1
175
     1
 42
1.0
 92
       10
 66
     7
 43
1.0
 76
     1
 77
     6
 78
     2
 67
     7
 79
     5
170
     0
171
     0
290
     0
174
     0
 93
        1
 44
0.0
173
     0
291
     1
 45
0.0
1001
ACAD
1000
AcDbSavedByObjectVersion
1070
     0
  0
VISUALSTYLE
  5
38
102
{ACAD_REACTORS
330
2A
102
}
102
{ACAD_XDICTIONARY
360
2F3
102
}
330
2A
100
AcDbVisualStyle
  2
Linepattern
 70
    14
 71
     2
 72
     2
 73
     0
 90
        0
 40
0.6
 41
30.0
 62
     5
 63
     7
 74
     1
 91
        4
 64
     7
 65
   257
 75
     7
175
     7
 42
1.0
 92
        8
 66
     7
 43
1.0
 76
     1
 77
     6
 78
     2
 67
     7
 79
     5
170
     0
171
     0
290
     0
174
     0
 93
        1
 44
0.0
173
     0
291
     1
 45
0.0
1001
ACAD
1000
AcDbSavedByObjectVersion
1070
     0
  0
VISUALSTYLE
  5
3C
102
{ACAD_REACTORS
330
2A
102
}
102
{ACAD_XDICTIONARY
360
2FB
102
}
330
2A
100
AcDbVisualStyle
  2
OverhangOff
 70
    21
 71
     2
 72
     2
 73
     0
 90
        0
 40
0.6
 41
30.0
 62
     5
 63
     7
 74
     1
 91
        4
 64
     7
 65
   257
 75
     1
175
     1
 42
1.0
 92
        9
 66
     7
 43
1.0
 76
     1
 77
     6
 78
     2
 67
     7
 79
     5
170
     0
171
     0
290
     0
174
     0
 93
        1
 44
0.0
173
     0
291
     1
 45
0.0
1001
ACAD
1000
AcDbSavedByObjectVersion
1070
     0
  0
VISUALSTYLE
  5
33
102
{ACAD_REACTORS
330
2A
102
}
102
{ACAD_XDICTIONARY
360
2E9
102
}
330
2A
100
AcDbVisualStyle
  2
Realistic
 70
     8
 71
     2
 72
     3
 73
     0
 90
        2
 40
0.6
 41
30.0
 62
     5
 63
     7
 74
     0
 91
        0
 64
     7
 65
   257
 75
     1
175
     1
 42
1.0
 92
        8
 66
   257
 43
1.0
 76
     1
 77
     6
 78
     2
 67
     7
 79
     3
170
     0
171
     0
290
     0
174
     0
 93
       13
 44
0.0
173
     0
291
     0
 45
0.0
1001
ACAD
1000
AcDbSavedByObjectVersion
1070
     0
  0
VISUALSTYLE
  5
42
102
{ACAD_REACTORS
330
2A
102
}
102
{ACAD_XDICTIONARY
360
307
102
}
330
2A
100
AcDbVisualStyle
  2
Shaded
 70
    27
 71
     2
 72
     2
 73
     1
 90
        2
 40
0.6
 41
30.0
 62
     5
 63
     7
 74
     0
 91
        4
 64
     7
 65
   257
 75
     1
175
     1
 42
1.0
 92
        8
 66
   257
 43
1.0
 76
     1
 77
     6
 78
     2
 67
     8
 79
     3
170
     0
171
     0
290
     0
174
     0
 93
        5
 44
0.0
173
     0
291
     0
 45
0.0
1001
ACAD
1000
AcDbSavedByObjectVersion
1070
     0
  0
VISUALSTYLE
  5
41
102
{ACAD_REACTORS
330
2A
102
}
102
{ACAD_XDICTIONARY
360
305
102
}
330
2A
100
AcDbVisualStyle
  2
Shaded with edges
 70
    26
 71
     2
 72
     2
 73
     1
 90
        2
 40
0.6
 41
30.0
 62
     5
 63
     7
 74
     1
 91
       10
 64
     7
 65
   257
 75
     2
175
     1
 42
1.0
 92
        8
 66
   257
 43
1.0
 76
     1
 77
     6
 78
     2
 67
     7
 79
     3
170
     0
171
     0
290
     0
174
     0
 93
        5
 44
0.0
173
     0
291
     0
 45
0.0
1001
ACAD
1000
AcDbSavedByObjectVersion
1070
     0
  0
VISUALSTYLE
  5
3E
102
{ACAD_REACTORS
330
2A
102
}
102
{ACAD_XDICTIONARY
360
2FF
102
}
330
2A
100
AcDbVisualStyle
  2
Shades of Gray
 70
    23
 71
     2
 72
     2
 73
     3
 90
        0
 40
0.6
 41
30.0
 62
     5
 63
     7
 74
     2
 91
        2
 64
     7
 65
     7
 75
     1
175
     1
 42
40.0
 92
        8
 66
     7
 43
1.0
 76
     1
 77
     6
 78
     2
 67
     7
 79
     3
170
     0
171
     0
290
     0
174
     0
 93
        1
 44
0.0
173
     0
291
     0
 45
0.0
1001
ACAD
1000
AcDbSavedByObjectVersion
1070
     0
  0
VISUALSTYLE
  5
3F
102
{ACAD_REACTORS
330
2A
102
}
102
{ACAD_XDICTIONARY
360
301
102
}
330
2A
100
AcDbVisualStyle
  2
Sketchy
 70
    24
 71
     1
 72
     2
 73
     2
 90
        0
 40
0.6
 41
30.0
 62
     5
 63
     7
 74
     2
 91
        2
 64
     7
 65
     7
 75
     1
175
     1
 42
40.0
 92
       11
 66
     7
 43
1.0
 76
     1
 77
     6
 78
     2
 67
     7
 79
     6
170
     0
171
     0
290
     0
174
     0
 93
        1
 44
0.0
173
     0
291
     0
 45
0.0
1001
ACAD
1000
AcDbSavedByObjectVersion
1070
     0
  0
VISUALSTYLE
  5
37
102
{ACAD_REACTORS
330
2A
102
}
102
{ACAD_XDICTIONARY
360
2F1
102
}
330
2A
100
AcDbVisualStyle
  2
Thicken
 70
    13
 71
     2
 72
     2
 73
     0
 90
        0
 40
0.6
 41
30.0
 62
     5
 63
     7
 74
     1
 91
        4
 64
     7
 65
   257
 75
     1
175
     1
 42
1.0
 92
       12
 66
     7
 43
1.0
 76
     1
 77
     6
 78
     2
 67
     7
 79
     5
170
     0
171
     0
290
     0
174
     0
 93
        1
 44
0.0
173
     0
291
     1
 45
0.0
1001
ACAD
1000
AcDbSavedByObjectVersion
1070
     0
  0
VISUALSTYLE
  5
30
102
{ACAD_REACTORS
330
2A
102
}
102
{ACAD_XDICTIONARY
360
2E3
102
}
330
2A
100
AcDbVisualStyle
  2
Wireframe
 70
     5
 71
     0
 72
     2
 73
     0
 90
        0
 40
0.6
 41
30.0
 62
     5
 63
     7
 74
     1
 91
        4
 64
     7
 65
   257
 75
     1
175
     1
 42
1.0
 92
        0
 66
   257
 43
1.0
 76
     1
 77
     6
 78
     2
 67
     7
 79
     3
170
     0
171
     0
290
     0
174
     0
 93
        1
 44
0.0
173
     0
291
     0
 45
0.0
1001
ACAD
1000
AcDbSavedByObjectVersion
1070
     0
  0
VISUALSTYLE
  5
40
102
{ACAD_REACTORS
330
2A
102
}
102
{ACAD_XDICTIONARY
360
303
102
}
330
2A
100
AcDbVisualStyle
  2
X-Ray
 70
    25
 71
     2
 72
     2
 73
     1
 90
        1
 40
0.5
 41
30.0
 62
     5
 63
     7
 74
     1
 91
        0
 64
     7
 65
   257
 75
     1
175
     1
 42
1.0
 92
        8
 66
     7
 43
1.0
 76
     1
 77
     6
 78
     2
 67
     7
 79
     3
170
     0
171
     0
290
     0
174
     0
 93
       13
 44
0.0
173
     0
291
     0
 45
0.0
1001
ACAD
1000
AcDbSavedByObjectVersion
1070
     0
  0
DICTIONARYVAR
  5
2D7
102
{ACAD_REACTORS
330
2CE
102
}
330
2CE
100
DictionaryVariables
280
     0
  1
1:1
  0
DICTIONARYVAR
  5
2D0
102
{ACAD_REACTORS
330
2CE
102
}
330
2CE
100
DictionaryVariables
280
     0
  1
Standard
  0
DICTIONARYVAR
  5
2CF
102
{ACAD_REACTORS
330
2CE
102
}
330
2CE
100
DictionaryVariables
280
     0
  1
Standard
  0
DICTIONARYVAR
  5
2D3
102
{ACAD_REACTORS
330
2CE
102
}
330
2CE
100
DictionaryVariables
280
     0
  1
2
  0
DICTIONARYVAR
  5
2D4
102
{ACAD_REACTORS
330
2CE
102
}
330
2CE
100
DictionaryVariables
280
     0
  1
1
  0
DICTIONARYVAR
  5
2D8
102
{ACAD_REACTORS
330
2CE
102
}
330
2CE
100
DictionaryVariables
280
     0
  1
1
  0
DICTIONARY
  5
30B
330
45
100
AcDbDictionary
280
     1
281
     1
  3
ACAD_XREC_ROUNDTRIP
360
30C
  0
DICTIONARY
  5
309
330
44
100
AcDbDictionary
280
     1
281
     1
  3
ACAD_XREC_ROUNDTRIP
360
30A
  0
DICTIONARY
  5
30D
330
46
100
AcDbDictionary
280
     1
281
     1
  3
ACAD_XREC_ROUNDTRIP
360
30E
  0
DICTIONARY
  5
310
330
6C
100
AcDbDictionary
280
     1
281
     1
  3
ACAD_XREC_ROUNDTRIP
360
311
  0
DICTIONARY
  5
2E1
330
2F
100
AcDbDictionary
280
     1
281
     1
  3
ACAD_XREC_ROUNDTRIP
360
2E2
  0
DICTIONARY
  5
2E7
330
32
100
AcDbDictionary
280
     1
281
     1
  3
ACAD_XREC_ROUNDTRIP
360
2E8
  0
DICTIONARY
  5
2EF
330
36
100
AcDbDictionary
280
     1
281
     1
  3
ACAD_XREC_ROUNDTRIP
360
2F0
  0
DICTIONARY
  5
2F7
330
3A
100
AcDbDictionary
280
     1
281
     1
  3
ACAD_XREC_ROUNDTRIP
360
2F8
  0
DICTIONARY
  5
2EB
330
34
100
AcDbDictionary
280
     1
281
     1
  3
ACAD_XREC_ROUNDTRIP
360
2EC
  0
DICTIONARY
  5
2ED
330
35
100
AcDbDictionary
280
     1
281
     1
  3
ACAD_XREC_ROUNDTRIP
360
2EE
  0
DICTIONARY
  5
2FD
330
3D
100
AcDbDictionary
280
     1
281
     1
  3
ACAD_XREC_ROUNDTRIP
360
2FE
  0
DICTIONARY
  5
2F5
330
39
100
AcDbDictionary
280
     1
281
     1
  3
ACAD_XREC_ROUNDTRIP
360
2F6
  0
DICTIONARY
  5
2D9
330
2B
100
AcDbDictionary
280
     1
281
     1
  3
ACAD_XREC_ROUNDTRIP
360
2DA
  0
DICTIONARY
  5
2DB
330
2C
100
AcDbDictionary
280
     1
281
     1
  3
ACAD_XREC_ROUNDTRIP
360
2DC
  0
DICTIONARY
  5
2DD
330
2D
100
AcDbDictionary
280
     1
281
     1
  3
ACAD_XREC_ROUNDTRIP
360
2DE
  0
DICTIONARY
  5
2DF
330
2E
100
AcDbDictionary
280
     1
281
     1
  3
ACAD_XREC_ROUNDTRIP
360
2E0
  0
DICTIONARY
  5
2E5
330
31
100
AcDbDictionary
280
     1
281
     1
  3
ACAD_XREC_ROUNDTRIP
360
2E6
  0
DICTIONARY
  5
2F9
330
3B
100
AcDbDictionary
280
     1
281
     1
  3
ACAD_XREC_ROUNDTRIP
360
2FA
  0
DICTIONARY
  5
2F3
330
38
100
AcDbDictionary
280
     1
281
     1
  3
ACAD_XREC_ROUNDTRIP
360
2F4
  0
DICTIONARY
  5
2FB
330
3C
100
AcDbDictionary
280
     1
281
     1
  3
ACAD_XREC_ROUNDTRIP
360
2FC
  0
DICTIONARY
  5
2E9
330
33
100
AcDbDictionary
280
     1
281
     1
  3
ACAD_XREC_ROUNDTRIP
360
2EA
  0
DICTIONARY
  5
307
330
42
100
AcDbDictionary
280
     1
281
     1
  3
ACAD_XREC_ROUNDTRIP
360
308
  0
DICTIONARY
  5
305
330
41
100
AcDbDictionary
280
     1
281
     1
  3
ACAD_XREC_ROUNDTRIP
360
306
  0
DICTIONARY
  5
2FF
330
3E
100
AcDbDictionary
280
     1
281
     1
  3
ACAD_XREC_ROUNDTRIP
360
300
  0
DICTIONARY
  5
301
330
3F
100
AcDbDictionary
280
     1
281
     1
  3
ACAD_XREC_ROUNDTRIP
360
302
  0
DICTIONARY
  5
2F1
330
37
100
AcDbDictionary
280
     1
281
     1
  3
ACAD_XREC_ROUNDTRIP
360
2F2
  0
DICTIONARY
  5
2E3
330
30
100
AcDbDictionary
280
     1
281
     1
  3
ACAD_XREC_ROUNDTRIP
360
2E4
  0
DICTIONARY
  5
303
330
40
100
AcDbDictionary
280
     1
281
     1
  3
ACAD_XREC_ROUNDTRIP
360
304
  0
XRECORD
  5
30C
102
{ACAD_REACTORS
330
30B
102
}
330
30B
100
AcDbXrecord
280
     1
102
MATERIAL
148
0.0
149
0.0
149
0.0
 93
        0
 94
      127
282
     0
 72
     1
 77
     1
171
     1
175
     1
179
     1
273
     0
  0
XRECORD
  5
30A
102
{ACAD_REACTORS
330
309
102
}
330
309
100
AcDbXrecord
280
     1
102
MATERIAL
148
0.0
149
0.0
149
0.0
 93
        0
 94
      127
282
     0
 72
     1
 77
     1
171
     1
175
     1
179
     1
273
     0
  0
XRECORD
  5
30E
102
{ACAD_REACTORS
330
30D
102
}
330
30D
100
AcDbXrecord
280
     1
102
MATERIAL
148
0.0
149
0.0
149
0.0
 93
        0
 94
      127
282
     0
 72
     1
 77
     1
171
     1
175
     1
179
     1
273
     0
  0
XRECORD
  5
311
102
{ACAD_REACTORS
330
310
102
}
330
310
100
AcDbXrecord
280
     1
102
ACAD_ROUNDTRIP_2010_MLEADER_STYLE
  0
XRECORD
  5
2E2
102
{ACAD_REACTORS
330
2E1
102
}
330
2E1
100
AcDbXrecord
280
     1
102
RTVSPropertyOp0
 70
     1
102
RTVSPropertyOp1
 70
     1
102
RTVSPropertyOp2
 70
     1
102
RTVSPropertyOp3
 70
     1
102
RTVSPropertyOp4
 70
     1
102
RTVSPropertyOp5
 70
     1
102
RTVSPropertyOp6
 70
     1
102
RTVSPropertyOp7
 70
     1
102
RTVSPropertyOp8
 70
     1
102
RTVSPropertyOp9
 70
     1
102
RTVSPropertyOp10
 70
     1
102
RTVSPropertyOp11
 70
     1
102
RTVSPropertyOp12
 70
     1
102
RTVSPropertyOp13
 70
     1
102
RTVSPropertyOp14
 70
     1
102
RTVSPropertyOp15
 70
     1
102
RTVSPropertyOp16
 70
     1
102
RTVSPropertyOp17
 70
     1
102
RTVSPropertyOp18
 70
     1
102
RTVSPropertyOp19
 70
     1
102
RTVSPropertyOp20
 70
     1
102
RTVSPropertyOp21
 70
     1
102
RTVSPropertyOp22
 70
     1
102
RTVSPropertyOp23
 70
     1
102
RTVSPropertyOp24
 70
     1
102
RTVSPropertyOp25
 70
     1
102
RTVSPropertyOp26
 70
     1
102
RTVSPropertyOp27
 70
     1
102
RTVSPropertyOp28
 70
     1
102
RTVSPropertyOp29
 70
     1
102
RTVSPropertyOp30
 70
     1
102
RTVSPropertyOp31
 70
     1
102
RTVSPropertyOp32
 70
     1
102
RTVSPropertyOp33
 70
     1
102
RTVSPropertyOp34
 70
     1
102
RTVSPropertyOp35
 70
     1
102
RTVSPropertyOp36
 70
     1
102
RTVSPropertyOp37
 70
     1
102
RTVSPropertyOp38
 70
     1
102
RTVSPropertyOp39
 70
     1
102
RTVSPropertyOp40
 70
     1
102
RTVSPropertyOp41
 70
     1
102
RTVSPropertyOp42
 70
     1
102
RTVSPropertyOp43
 70
     1
102
RTVSPropertyOp44
 70
     1
102
RTVSPropertyOp45
 70
     1
102
RTVSPropertyOp46
 70
     1
102
RTVSPropertyOp47
 70
     1
102
RTVSPropertyOp48
 70
     1
102
RTVSPropertyOp49
 70
     1
102
RTVSPropertyOp50
 70
     1
102
RTVSPropertyOp51
 70
     0
102
RTVSPropertyOp52
 70
     0
102
RTVSPropertyOp53
 70
     1
102
RTVSPropertyOp54
 70
     1
102
RTVSPropertyOp55
 70
     1
102
RTVSPropertyOp56
 70
     1
102
RTVSPropertyOp57
 70
     1
102
RTVSPost2010Prop28
280
     1
102
RTVSPost2010PropOp28
 70
     1
102
RTVSPost2010Prop29
280
     1
102
RTVSPost2010PropOp29
 70
     1
102
RTVSPost2010Prop30
280
     0
102
RTVSPost2010PropOp30
 70
     1
102
RTVSPost2010Prop31
280
     0
102
RTVSPost2010PropOp31
 70
     1
102
RTVSPost2010Prop32
280
     0
102
RTVSPost2010PropOp32
 70
     1
102
RTVSPost2010Prop33
280
     0
102
RTVSPost2010PropOp33
 70
     1
102
RTVSPost2010Prop34
280
     0
102
RTVSPost2010PropOp34
 70
     1
102
RTVSPost2010Prop35
280
     0
102
RTVSPost2010PropOp35
 70
     1
102
RTVSPost2010Prop36
280
     0
102
RTVSPost2010PropOp36
 70
     1
102
RTVSPost2010Prop37
 90
       50
102
RTVSPost2010PropOp37
 70
     1
102
RTVSPost2010Prop38
140
0.0
102
RTVSPost2010PropOp38
 70
     1
102
RTVSPost2010Prop39
140
1.0
102
RTVSPost2010PropOp39
 70
     1
102
RTVSPost2010Prop40
 90
        0
102
RTVSPost2010PropOp40
 70
     1
102
RTVSPost2010Prop41ColorIndex
 90
       18
102
RTVSPost2010Prop41ColorRGB
 90
        0
102
RTVSPost2010PropOp41
 70
     1
102
RTVSPost2010Prop42
 90
       50
102
RTVSPost2010PropOp42
 70
     1
102
RTVSPost2010Prop43
 90
        3
102
RTVSPost2010PropOp43
 70
     1
102
RTVSPost2010Prop44ColorIndex
 90
        5
102
RTVSPost2010Prop44ColorRGB
 90
      255
102
RTVSPost2010PropOp44
 70
     1
102
RTVSPost2010Prop45
280
     0
102
RTVSPost2010PropOp45
 70
     1
102
RTVSPost2010Prop46
 90
       50
102
RTVSPost2010PropOp46
 70
     1
102
RTVSPost2010Prop47
 90
       50
102
RTVSPost2010PropOp47
 70
     1
102
RTVSPost2010Prop48
 90
       50
102
RTVSPost2010PropOp48
 70
     1
102
RTVSPost2010Prop49
280
     0
102
RTVSPost2010PropOp49
 70
     1
102
RTVSPost2010Prop50
 90
       50
102
RTVSPost2010PropOp50
 70
     1
102
RTVSPost2010Prop51ColorIndex
 90
      256
102
RTVSPost2010Prop51ColorRGB
 90
-16777216
102
RTVSPost2010PropOp51
 70
     0
102
RTVSPost2010Prop52
140
1.0
102
RTVSPost2010PropOp52
 70
     0
102
RTVSPost2010Prop53
 90
        2
102
RTVSPost2010PropOp53
 70
     1
102
RTVSPost2010Prop54
  1
strokes_ogs.tif
102
RTVSPost2010PropOp54
 70
     1
102
RTVSPost2010Prop55
280
     0
102
RTVSPost2010PropOp55
 70
     1
102
RTVSPost2010Prop56
140
1.0
102
RTVSPost2010PropOp56
 70
     1
102
RTVSPost2010Prop57
140
1.0
102
RTVSPost2010PropOp57
 70
     1
  0
XRECORD
  5
2E8
102
{ACAD_REACTORS
330
2E7
102
}
330
2E7
100
AcDbXrecord
280
     1
102
RTVSPropertyOp0
 70
     1
102
RTVSPropertyOp1
 70
     1
102
RTVSPropertyOp2
 70
     1
102
RTVSPropertyOp3
 70
     1
102
RTVSPropertyOp4
 70
     1
102
RTVSPropertyOp5
 70
     1
102
RTVSPropertyOp6
 70
     1
102
RTVSPropertyOp7
 70
     1
102
RTVSPropertyOp8
 70
     1
102
RTVSPropertyOp9
 70
     1
102
RTVSPropertyOp10
 70
     1
102
RTVSPropertyOp11
 70
     1
102
RTVSPropertyOp12
 70
     1
102
RTVSPropertyOp13
 70
     1
102
RTVSPropertyOp14
 70
     1
102
RTVSPropertyOp15
 70
     1
102
RTVSPropertyOp16
 70
     1
102
RTVSPropertyOp17
 70
     1
102
RTVSPropertyOp18
 70
     1
102
RTVSPropertyOp19
 70
     1
102
RTVSPropertyOp20
 70
     1
102
RTVSPropertyOp21
 70
     1
102
RTVSPropertyOp22
 70
     1
102
RTVSPropertyOp23
 70
     1
102
RTVSPropertyOp24
 70
     1
102
RTVSPropertyOp25
 70
     1
102
RTVSPropertyOp26
 70
     1
102
RTVSPropertyOp27
 70
     1
102
RTVSPropertyOp28
 70
     1
102
RTVSPropertyOp29
 70
     1
102
RTVSPropertyOp30
 70
     1
102
RTVSPropertyOp31
 70
     1
102
RTVSPropertyOp32
 70
     1
102
RTVSPropertyOp33
 70
     1
102
RTVSPropertyOp34
 70
     1
102
RTVSPropertyOp35
 70
     1
102
RTVSPropertyOp36
 70
     1
102
RTVSPropertyOp37
 70
     1
102
RTVSPropertyOp38
 70
     1
102
RTVSPropertyOp39
 70
     1
102
RTVSPropertyOp40
 70
     1
102
RTVSPropertyOp41
 70
     1
102
RTVSPropertyOp42
 70
     1
102
RTVSPropertyOp43
 70
     1
102
RTVSPropertyOp44
 70
     1
102
RTVSPropertyOp45
 70
     1
102
RTVSPropertyOp46
 70
     1
102
RTVSPropertyOp47
 70
     1
102
RTVSPropertyOp48
 70
     1
102
RTVSPropertyOp49
 70
     1
102
RTVSPropertyOp50
 70
     1
102
RTVSPropertyOp51
 70
     0
102
RTVSPropertyOp52
 70
     0
102
RTVSPropertyOp53
 70
     1
102
RTVSPropertyOp54
 70
     1
102
RTVSPropertyOp55
 70
     1
102
RTVSPropertyOp56
 70
     1
102
RTVSPropertyOp57
 70
     1
102
RTVSPost2010Prop28
280
     0
102
RTVSPost2010PropOp28
 70
     1
102
RTVSPost2010Prop29
280
     1
102
RTVSPost2010PropOp29
 70
     1
102
RTVSPost2010Prop30
280
     1
102
RTVSPost2010PropOp30
 70
     1
102
RTVSPost2010Prop31
280
     0
102
RTVSPost2010PropOp31
 70
     1
102
RTVSPost2010Prop32
280
     0
102
RTVSPost2010PropOp32
 70
     1
102
RTVSPost2010Prop33
280
     0
102
RTVSPost2010PropOp33
 70
     1
102
RTVSPost2010Prop34
280
     0
102
RTVSPost2010PropOp34
 70
     1
102
RTVSPost2010Prop35
280
     0
102
RTVSPost2010PropOp35
 70
     1
102
RTVSPost2010Prop36
280
     0
102
RTVSPost2010PropOp36
 70
     1
102
RTVSPost2010Prop37
 90
       50
102
RTVSPost2010PropOp37
 70
     1
102
RTVSPost2010Prop38
140
0.0
102
RTVSPost2010PropOp38
 70
     1
102
RTVSPost2010Prop39
140
1.0
102
RTVSPost2010PropOp39
 70
     1
102
RTVSPost2010Prop40
 90
        0
102
RTVSPost2010PropOp40
 70
     1
102
RTVSPost2010Prop41ColorIndex
 90
       18
102
RTVSPost2010Prop41ColorRGB
 90
        0
102
RTVSPost2010PropOp41
 70
     1
102
RTVSPost2010Prop42
 90
       50
102
RTVSPost2010PropOp42
 70
     1
102
RTVSPost2010Prop43
 90
        3
102
RTVSPost2010PropOp43
 70
     1
102
RTVSPost2010Prop44ColorIndex
 90
        5
102
RTVSPost2010Prop44ColorRGB
 90
      255
102
RTVSPost2010PropOp44
 70
     1
102
RTVSPost2010Prop45
280
     0
102
RTVSPost2010PropOp45
 70
     1
102
RTVSPost2010Prop46
 90
       50
102
RTVSPost2010PropOp46
 70
     1
102
RTVSPost2010Prop47
 90
       50
102
RTVSPost2010PropOp47
 70
     1
102
RTVSPost2010Prop48
 90
       50
102
RTVSPost2010PropOp48
 70
     1
102
RTVSPost2010Prop49
280
     0
102
RTVSPost2010PropOp49
 70
     1
102
RTVSPost2010Prop50
 90
       50
102
RTVSPost2010PropOp50
 70
     1
102
RTVSPost2010Prop51ColorIndex
 90
      256
102
RTVSPost2010Prop51ColorRGB
 90
-16777216
102
RTVSPost2010PropOp51
 70
     0
102
RTVSPost2010Prop52
140
1.0
102
RTVSPost2010PropOp52
 70
     0
102
RTVSPost2010Prop53
 90
        2
102
RTVSPost2010PropOp53
 70
     1
102
RTVSPost2010Prop54
  1
strokes_ogs.tif
102
RTVSPost2010PropOp54
 70
     1
102
RTVSPost2010Prop55
280
     0
102
RTVSPost2010PropOp55
 70
     1
102
RTVSPost2010Prop56
140
1.0
102
RTVSPost2010PropOp56
 70
     1
102
RTVSPost2010Prop57
140
1.0
102
RTVSPost2010PropOp57
 70
     1
  0
XRECORD
  5
2F0
102
{ACAD_REACTORS
330
2EF
102
}
330
2EF
100
AcDbXrecord
280
     1
102
RTVSPropertyOp0
 70
     1
102
RTVSPropertyOp1
 70
     1
102
RTVSPropertyOp2
 70
     1
102
RTVSPropertyOp3
 70
     1
102
RTVSPropertyOp4
 70
     1
102
RTVSPropertyOp5
 70
     1
102
RTVSPropertyOp6
 70
     1
102
RTVSPropertyOp7
 70
     1
102
RTVSPropertyOp8
 70
     1
102
RTVSPropertyOp9
 70
     1
102
RTVSPropertyOp10
 70
     1
102
RTVSPropertyOp11
 70
     1
102
RTVSPropertyOp12
 70
     1
102
RTVSPropertyOp13
 70
     1
102
RTVSPropertyOp14
 70
     1
102
RTVSPropertyOp15
 70
     1
102
RTVSPropertyOp16
 70
     1
102
RTVSPropertyOp17
 70
     1
102
RTVSPropertyOp18
 70
     1
102
RTVSPropertyOp19
 70
     1
102
RTVSPropertyOp20
 70
     1
102
RTVSPropertyOp21
 70
     1
102
RTVSPropertyOp22
 70
     1
102
RTVSPropertyOp23
 70
     1
102
RTVSPropertyOp24
 70
     1
102
RTVSPropertyOp25
 70
     1
102
RTVSPropertyOp26
 70
     1
102
RTVSPropertyOp27
 70
     1
102
RTVSPropertyOp28
 70
     1
102
RTVSPropertyOp29
 70
     1
102
RTVSPropertyOp30
 70
     1
102
RTVSPropertyOp31
 70
     1
102
RTVSPropertyOp32
 70
     1
102
RTVSPropertyOp33
 70
     1
102
RTVSPropertyOp34
 70
     1
102
RTVSPropertyOp35
 70
     1
102
RTVSPropertyOp36
 70
     1
102
RTVSPropertyOp37
 70
     1
102
RTVSPropertyOp38
 70
     1
102
RTVSPropertyOp39
 70
     1
102
RTVSPropertyOp40
 70
     1
102
RTVSPropertyOp41
 70
     1
102
RTVSPropertyOp42
 70
     1
102
RTVSPropertyOp43
 70
     1
102
RTVSPropertyOp44
 70
     1
102
RTVSPropertyOp45
 70
     1
102
RTVSPropertyOp46
 70
     1
102
RTVSPropertyOp47
 70
     1
102
RTVSPropertyOp48
 70
     1
102
RTVSPropertyOp49
 70
     1
102
RTVSPropertyOp50
 70
     1
102
RTVSPropertyOp51
 70
     0
102
RTVSPropertyOp52
 70
     0
102
RTVSPropertyOp53
 70
     1
102
RTVSPropertyOp54
 70
     1
102
RTVSPropertyOp55
 70
     1
102
RTVSPropertyOp56
 70
     1
102
RTVSPropertyOp57
 70
     1
102
RTVSPost2010Prop28
280
     0
102
RTVSPost2010PropOp28
 70
     1
102
RTVSPost2010Prop29
280
     1
102
RTVSPost2010PropOp29
 70
     1
102
RTVSPost2010Prop30
280
     1
102
RTVSPost2010PropOp30
 70
     1
102
RTVSPost2010Prop31
280
     0
102
RTVSPost2010PropOp31
 70
     1
102
RTVSPost2010Prop32
280
     0
102
RTVSPost2010PropOp32
 70
     1
102
RTVSPost2010Prop33
280
     0
102
RTVSPost2010PropOp33
 70
     1
102
RTVSPost2010Prop34
280
     0
102
RTVSPost2010PropOp34
 70
     1
102
RTVSPost2010Prop35
280
     0
102
RTVSPost2010PropOp35
 70
     1
102
RTVSPost2010Prop36
280
     0
102
RTVSPost2010PropOp36
 70
     1
102
RTVSPost2010Prop37
 90
       50
102
RTVSPost2010PropOp37
 70
     1
102
RTVSPost2010Prop38
140
0.0
102
RTVSPost2010PropOp38
 70
     1
102
RTVSPost2010Prop39
140
1.0
102
RTVSPost2010PropOp39
 70
     1
102
RTVSPost2010Prop40
 90
        0
102
RTVSPost2010PropOp40
 70
     1
102
RTVSPost2010Prop41ColorIndex
 90
       18
102
RTVSPost2010Prop41ColorRGB
 90
        0
102
RTVSPost2010PropOp41
 70
     1
102
RTVSPost2010Prop42
 90
       50
102
RTVSPost2010PropOp42
 70
     1
102
RTVSPost2010Prop43
 90
        3
102
RTVSPost2010PropOp43
 70
     1
102
RTVSPost2010Prop44ColorIndex
 90
        5
102
RTVSPost2010Prop44ColorRGB
 90
      255
102
RTVSPost2010PropOp44
 70
     1
102
RTVSPost2010Prop45
280
     0
102
RTVSPost2010PropOp45
 70
     1
102
RTVSPost2010Prop46
 90
       50
102
RTVSPost2010PropOp46
 70
     1
102
RTVSPost2010Prop47
 90
       50
102
RTVSPost2010PropOp47
 70
     1
102
RTVSPost2010Prop48
 90
       50
102
RTVSPost2010PropOp48
 70
     1
102
RTVSPost2010Prop49
280
     0
102
RTVSPost2010PropOp49
 70
     1
102
RTVSPost2010Prop50
 90
       50
102
RTVSPost2010PropOp50
 70
     1
102
RTVSPost2010Prop51ColorIndex
 90
      256
102
RTVSPost2010Prop51ColorRGB
 90
-16777216
102
RTVSPost2010PropOp51
 70
     0
102
RTVSPost2010Prop52
140
1.0
102
RTVSPost2010PropOp52
 70
     0
102
RTVSPost2010Prop53
 90
        2
102
RTVSPost2010PropOp53
 70
     1
102
RTVSPost2010Prop54
  1
strokes_ogs.tif
102
RTVSPost2010PropOp54
 70
     1
102
RTVSPost2010Prop55
280
     0
102
RTVSPost2010PropOp55
 70
     1
102
RTVSPost2010Prop56
140
1.0
102
RTVSPost2010PropOp56
 70
     1
102
RTVSPost2010Prop57
140
1.0
102
RTVSPost2010PropOp57
 70
     1
  0
XRECORD
  5
2F8
102
{ACAD_REACTORS
330
2F7
102
}
330
2F7
100
AcDbXrecord
280
     1
102
RTVSPropertyOp0
 70
     1
102
RTVSPropertyOp1
 70
     1
102
RTVSPropertyOp2
 70
     1
102
RTVSPropertyOp3
 70
     1
102
RTVSPropertyOp4
 70
     1
102
RTVSPropertyOp5
 70
     1
102
RTVSPropertyOp6
 70
     1
102
RTVSPropertyOp7
 70
     1
102
RTVSPropertyOp8
 70
     1
102
RTVSPropertyOp9
 70
     1
102
RTVSPropertyOp10
 70
     1
102
RTVSPropertyOp11
 70
     1
102
RTVSPropertyOp12
 70
     1
102
RTVSPropertyOp13
 70
     1
102
RTVSPropertyOp14
 70
     1
102
RTVSPropertyOp15
 70
     1
102
RTVSPropertyOp16
 70
     1
102
RTVSPropertyOp17
 70
     1
102
RTVSPropertyOp18
 70
     1
102
RTVSPropertyOp19
 70
     1
102
RTVSPropertyOp20
 70
     1
102
RTVSPropertyOp21
 70
     1
102
RTVSPropertyOp22
 70
     1
102
RTVSPropertyOp23
 70
     1
102
RTVSPropertyOp24
 70
     1
102
RTVSPropertyOp25
 70
     1
102
RTVSPropertyOp26
 70
     1
102
RTVSPropertyOp27
 70
     1
102
RTVSPropertyOp28
 70
     1
102
RTVSPropertyOp29
 70
     1
102
RTVSPropertyOp30
 70
     1
102
RTVSPropertyOp31
 70
     1
102
RTVSPropertyOp32
 70
     1
102
RTVSPropertyOp33
 70
     1
102
RTVSPropertyOp34
 70
     1
102
RTVSPropertyOp35
 70
     1
102
RTVSPropertyOp36
 70
     1
102
RTVSPropertyOp37
 70
     1
102
RTVSPropertyOp38
 70
     1
102
RTVSPropertyOp39
 70
     1
102
RTVSPropertyOp40
 70
     1
102
RTVSPropertyOp41
 70
     1
102
RTVSPropertyOp42
 70
     1
102
RTVSPropertyOp43
 70
     1
102
RTVSPropertyOp44
 70
     1
102
RTVSPropertyOp45
 70
     1
102
RTVSPropertyOp46
 70
     1
102
RTVSPropertyOp47
 70
     1
102
RTVSPropertyOp48
 70
     1
102
RTVSPropertyOp49
 70
     1
102
RTVSPropertyOp50
 70
     1
102
RTVSPropertyOp51
 70
     0
102
RTVSPropertyOp52
 70
     0
102
RTVSPropertyOp53
 70
     1
102
RTVSPropertyOp54
 70
     1
102
RTVSPropertyOp55
 70
     1
102
RTVSPropertyOp56
 70
     1
102
RTVSPropertyOp57
 70
     1
102
RTVSPost2010Prop28
280
     0
102
RTVSPost2010PropOp28
 70
     1
102
RTVSPost2010Prop29
280
     1
102
RTVSPost2010PropOp29
 70
     1
102
RTVSPost2010Prop30
280
     1
102
RTVSPost2010PropOp30
 70
     1
102
RTVSPost2010Prop31
280
     0
102
RTVSPost2010PropOp31
 70
     1
102
RTVSPost2010Prop32
280
     0
102
RTVSPost2010PropOp32
 70
     1
102
RTVSPost2010Prop33
280
     0
102
RTVSPost2010PropOp33
 70
     1
102
RTVSPost2010Prop34
280
     0
102
RTVSPost2010PropOp34
 70
     1
102
RTVSPost2010Prop35
280
     0
102
RTVSPost2010PropOp35
 70
     1
102
RTVSPost2010Prop36
280
     0
102
RTVSPost2010PropOp36
 70
     1
102
RTVSPost2010Prop37
 90
       50
102
RTVSPost2010PropOp37
 70
     1
102
RTVSPost2010Prop38
140
0.0
102
RTVSPost2010PropOp38
 70
     1
102
RTVSPost2010Prop39
140
1.0
102
RTVSPost2010PropOp39
 70
     1
102
RTVSPost2010Prop40
 90
        0
102
RTVSPost2010PropOp40
 70
     1
102
RTVSPost2010Prop41ColorIndex
 90
       18
102
RTVSPost2010Prop41ColorRGB
 90
        0
102
RTVSPost2010PropOp41
 70
     1
102
RTVSPost2010Prop42
 90
       50
102
RTVSPost2010PropOp42
 70
     1
102
RTVSPost2010Prop43
 90
        3
102
RTVSPost2010PropOp43
 70
     1
102
RTVSPost2010Prop44ColorIndex
 90
        5
102
RTVSPost2010Prop44ColorRGB
 90
      255
102
RTVSPost2010PropOp44
 70
     1
102
RTVSPost2010Prop45
280
     0
102
RTVSPost2010PropOp45
 70
     1
102
RTVSPost2010Prop46
 90
       50
102
RTVSPost2010PropOp46
 70
     1
102
RTVSPost2010Prop47
 90
       50
102
RTVSPost2010PropOp47
 70
     1
102
RTVSPost2010Prop48
 90
       50
102
RTVSPost2010PropOp48
 70
     1
102
RTVSPost2010Prop49
280
     0
102
RTVSPost2010PropOp49
 70
     1
102
RTVSPost2010Prop50
 90
       50
102
RTVSPost2010PropOp50
 70
     1
102
RTVSPost2010Prop51ColorIndex
 90
      256
102
RTVSPost2010Prop51ColorRGB
 90
-16777216
102
RTVSPost2010PropOp51
 70
     0
102
RTVSPost2010Prop52
140
1.0
102
RTVSPost2010PropOp52
 70
     0
102
RTVSPost2010Prop53
 90
        2
102
RTVSPost2010PropOp53
 70
     1
102
RTVSPost2010Prop54
  1
strokes_ogs.tif
102
RTVSPost2010PropOp54
 70
     1
102
RTVSPost2010Prop55
280
     0
102
RTVSPost2010PropOp55
 70
     1
102
RTVSPost2010Prop56
140
1.0
102
RTVSPost2010PropOp56
 70
     1
102
RTVSPost2010Prop57
140
1.0
102
RTVSPost2010PropOp57
 70
     1
  0
XRECORD
  5
2EC
102
{ACAD_REACTORS
330
2EB
102
}
330
2EB
100
AcDbXrecord
280
     1
102
RTVSPropertyOp0
 70
     1
102
RTVSPropertyOp1
 70
     1
102
RTVSPropertyOp2
 70
     1
102
RTVSPropertyOp3
 70
     1
102
RTVSPropertyOp4
 70
     1
102
RTVSPropertyOp5
 70
     1
102
RTVSPropertyOp6
 70
     1
102
RTVSPropertyOp7
 70
     1
102
RTVSPropertyOp8
 70
     1
102
RTVSPropertyOp9
 70
     1
102
RTVSPropertyOp10
 70
     1
102
RTVSPropertyOp11
 70
     1
102
RTVSPropertyOp12
 70
     1
102
RTVSPropertyOp13
 70
     1
102
RTVSPropertyOp14
 70
     1
102
RTVSPropertyOp15
 70
     1
102
RTVSPropertyOp16
 70
     1
102
RTVSPropertyOp17
 70
     1
102
RTVSPropertyOp18
 70
     1
102
RTVSPropertyOp19
 70
     1
102
RTVSPropertyOp20
 70
     1
102
RTVSPropertyOp21
 70
     1
102
RTVSPropertyOp22
 70
     1
102
RTVSPropertyOp23
 70
     1
102
RTVSPropertyOp24
 70
     1
102
RTVSPropertyOp25
 70
     1
102
RTVSPropertyOp26
 70
     1
102
RTVSPropertyOp27
 70
     1
102
RTVSPropertyOp28
 70
     1
102
RTVSPropertyOp29
 70
     1
102
RTVSPropertyOp30
 70
     1
102
RTVSPropertyOp31
 70
     1
102
RTVSPropertyOp32
 70
     1
102
RTVSPropertyOp33
 70
     1
102
RTVSPropertyOp34
 70
     1
102
RTVSPropertyOp35
 70
     1
102
RTVSPropertyOp36
 70
     1
102
RTVSPropertyOp37
 70
     1
102
RTVSPropertyOp38
 70
     1
102
RTVSPropertyOp39
 70
     1
102
RTVSPropertyOp40
 70
     1
102
RTVSPropertyOp41
 70
     1
102
RTVSPropertyOp42
 70
     1
102
RTVSPropertyOp43
 70
     1
102
RTVSPropertyOp44
 70
     1
102
RTVSPropertyOp45
 70
     1
102
RTVSPropertyOp46
 70
     1
102
RTVSPropertyOp47
 70
     1
102
RTVSPropertyOp48
 70
     1
102
RTVSPropertyOp49
 70
     1
102
RTVSPropertyOp50
 70
     1
102
RTVSPropertyOp51
 70
     0
102
RTVSPropertyOp52
 70
     0
102
RTVSPropertyOp53
 70
     1
102
RTVSPropertyOp54
 70
     1
102
RTVSPropertyOp55
 70
     1
102
RTVSPropertyOp56
 70
     1
102
RTVSPropertyOp57
 70
     1
102
RTVSPost2010Prop28
280
     0
102
RTVSPost2010PropOp28
 70
     1
102
RTVSPost2010Prop29
280
     1
102
RTVSPost2010PropOp29
 70
     1
102
RTVSPost2010Prop30
280
     1
102
RTVSPost2010PropOp30
 70
     1
102
RTVSPost2010Prop31
280
     0
102
RTVSPost2010PropOp31
 70
     1
102
RTVSPost2010Prop32
280
     0
102
RTVSPost2010PropOp32
 70
     1
102
RTVSPost2010Prop33
280
     0
102
RTVSPost2010PropOp33
 70
     1
102
RTVSPost2010Prop34
280
     0
102
RTVSPost2010PropOp34
 70
     1
102
RTVSPost2010Prop35
280
     0
102
RTVSPost2010PropOp35
 70
     1
102
RTVSPost2010Prop36
280
     0
102
RTVSPost2010PropOp36
 70
     1
102
RTVSPost2010Prop37
 90
       50
102
RTVSPost2010PropOp37
 70
     1
102
RTVSPost2010Prop38
140
0.0
102
RTVSPost2010PropOp38
 70
     1
102
RTVSPost2010Prop39
140
1.0
102
RTVSPost2010PropOp39
 70
     1
102
RTVSPost2010Prop40
 90
        0
102
RTVSPost2010PropOp40
 70
     1
102
RTVSPost2010Prop41ColorIndex
 90
       18
102
RTVSPost2010Prop41ColorRGB
 90
        0
102
RTVSPost2010PropOp41
 70
     1
102
RTVSPost2010Prop42
 90
       50
102
RTVSPost2010PropOp42
 70
     1
102
RTVSPost2010Prop43
 90
        3
102
RTVSPost2010PropOp43
 70
     1
102
RTVSPost2010Prop44ColorIndex
 90
        5
102
RTVSPost2010Prop44ColorRGB
 90
      255
102
RTVSPost2010PropOp44
 70
     1
102
RTVSPost2010Prop45
280
     0
102
RTVSPost2010PropOp45
 70
     1
102
RTVSPost2010Prop46
 90
       50
102
RTVSPost2010PropOp46
 70
     1
102
RTVSPost2010Prop47
 90
       50
102
RTVSPost2010PropOp47
 70
     1
102
RTVSPost2010Prop48
 90
       50
102
RTVSPost2010PropOp48
 70
     1
102
RTVSPost2010Prop49
280
     0
102
RTVSPost2010PropOp49
 70
     1
102
RTVSPost2010Prop50
 90
       50
102
RTVSPost2010PropOp50
 70
     1
102
RTVSPost2010Prop51ColorIndex
 90
      256
102
RTVSPost2010Prop51ColorRGB
 90
-16777216
102
RTVSPost2010PropOp51
 70
     0
102
RTVSPost2010Prop52
140
1.0
102
RTVSPost2010PropOp52
 70
     0
102
RTVSPost2010Prop53
 90
        2
102
RTVSPost2010PropOp53
 70
     1
102
RTVSPost2010Prop54
  1
strokes_ogs.tif
102
RTVSPost2010PropOp54
 70
     1
102
RTVSPost2010Prop55
280
     0
102
RTVSPost2010PropOp55
 70
     1
102
RTVSPost2010Prop56
140
1.0
102
RTVSPost2010PropOp56
 70
     1
102
RTVSPost2010Prop57
140
1.0
102
RTVSPost2010PropOp57
 70
     1
  0
XRECORD
  5
2EE
102
{ACAD_REACTORS
330
2ED
102
}
330
2ED
100
AcDbXrecord
280
     1
102
RTVSPropertyOp0
 70
     1
102
RTVSPropertyOp1
 70
     1
102
RTVSPropertyOp2
 70
     1
102
RTVSPropertyOp3
 70
     1
102
RTVSPropertyOp4
 70
     1
102
RTVSPropertyOp5
 70
     1
102
RTVSPropertyOp6
 70
     1
102
RTVSPropertyOp7
 70
     1
102
RTVSPropertyOp8
 70
     1
102
RTVSPropertyOp9
 70
     1
102
RTVSPropertyOp10
 70
     1
102
RTVSPropertyOp11
 70
     1
102
RTVSPropertyOp12
 70
     1
102
RTVSPropertyOp13
 70
     1
102
RTVSPropertyOp14
 70
     1
102
RTVSPropertyOp15
 70
     1
102
RTVSPropertyOp16
 70
     1
102
RTVSPropertyOp17
 70
     1
102
RTVSPropertyOp18
 70
     1
102
RTVSPropertyOp19
 70
     1
102
RTVSPropertyOp20
 70
     1
102
RTVSPropertyOp21
 70
     1
102
RTVSPropertyOp22
 70
     1
102
RTVSPropertyOp23
 70
     1
102
RTVSPropertyOp24
 70
     1
102
RTVSPropertyOp25
 70
     1
102
RTVSPropertyOp26
 70
     1
102
RTVSPropertyOp27
 70
     1
102
RTVSPropertyOp28
 70
     1
102
RTVSPropertyOp29
 70
     1
102
RTVSPropertyOp30
 70
     1
102
RTVSPropertyOp31
 70
     1
102
RTVSPropertyOp32
 70
     1
102
RTVSPropertyOp33
 70
     1
102
RTVSPropertyOp34
 70
     1
102
RTVSPropertyOp35
 70
     1
102
RTVSPropertyOp36
 70
     1
102
RTVSPropertyOp37
 70
     1
102
RTVSPropertyOp38
 70
     1
102
RTVSPropertyOp39
 70
     1
102
RTVSPropertyOp40
 70
     1
102
RTVSPropertyOp41
 70
     1
102
RTVSPropertyOp42
 70
     1
102
RTVSPropertyOp43
 70
     1
102
RTVSPropertyOp44
 70
     1
102
RTVSPropertyOp45
 70
     1
102
RTVSPropertyOp46
 70
     1
102
RTVSPropertyOp47
 70
     1
102
RTVSPropertyOp48
 70
     1
102
RTVSPropertyOp49
 70
     1
102
RTVSPropertyOp50
 70
     1
102
RTVSPropertyOp51
 70
     0
102
RTVSPropertyOp52
 70
     0
102
RTVSPropertyOp53
 70
     1
102
RTVSPropertyOp54
 70
     1
102
RTVSPropertyOp55
 70
     1
102
RTVSPropertyOp56
 70
     1
102
RTVSPropertyOp57
 70
     1
102
RTVSPost2010Prop28
280
     0
102
RTVSPost2010PropOp28
 70
     1
102
RTVSPost2010Prop29
280
     1
102
RTVSPost2010PropOp29
 70
     1
102
RTVSPost2010Prop30
280
     1
102
RTVSPost2010PropOp30
 70
     1
102
RTVSPost2010Prop31
280
     0
102
RTVSPost2010PropOp31
 70
     1
102
RTVSPost2010Prop32
280
     0
102
RTVSPost2010PropOp32
 70
     1
102
RTVSPost2010Prop33
280
     0
102
RTVSPost2010PropOp33
 70
     1
102
RTVSPost2010Prop34
280
     0
102
RTVSPost2010PropOp34
 70
     1
102
RTVSPost2010Prop35
280
     0
102
RTVSPost2010PropOp35
 70
     1
102
RTVSPost2010Prop36
280
     0
102
RTVSPost2010PropOp36
 70
     1
102
RTVSPost2010Prop37
 90
       50
102
RTVSPost2010PropOp37
 70
     1
102
RTVSPost2010Prop38
140
0.0
102
RTVSPost2010PropOp38
 70
     1
102
RTVSPost2010Prop39
140
1.0
102
RTVSPost2010PropOp39
 70
     1
102
RTVSPost2010Prop40
 90
        0
102
RTVSPost2010PropOp40
 70
     1
102
RTVSPost2010Prop41ColorIndex
 90
       18
102
RTVSPost2010Prop41ColorRGB
 90
        0
102
RTVSPost2010PropOp41
 70
     1
102
RTVSPost2010Prop42
 90
       50
102
RTVSPost2010PropOp42
 70
     1
102
RTVSPost2010Prop43
 90
        3
102
RTVSPost2010PropOp43
 70
     1
102
RTVSPost2010Prop44ColorIndex
 90
        5
102
RTVSPost2010Prop44ColorRGB
 90
      255
102
RTVSPost2010PropOp44
 70
     1
102
RTVSPost2010Prop45
280
     0
102
RTVSPost2010PropOp45
 70
     1
102
RTVSPost2010Prop46
 90
       50
102
RTVSPost2010PropOp46
 70
     1
102
RTVSPost2010Prop47
 90
       50
102
RTVSPost2010PropOp47
 70
     1
102
RTVSPost2010Prop48
 90
       50
102
RTVSPost2010PropOp48
 70
     1
102
RTVSPost2010Prop49
280
     0
102
RTVSPost2010PropOp49
 70
     1
102
RTVSPost2010Prop50
 90
       50
102
RTVSPost2010PropOp50
 70
     1
102
RTVSPost2010Prop51ColorIndex
 90
      256
102
RTVSPost2010Prop51ColorRGB
 90
-16777216
102
RTVSPost2010PropOp51
 70
     0
102
RTVSPost2010Prop52
140
1.0
102
RTVSPost2010PropOp52
 70
     0
102
RTVSPost2010Prop53
 90
        2
102
RTVSPost2010PropOp53
 70
     1
102
RTVSPost2010Prop54
  1
strokes_ogs.tif
102
RTVSPost2010PropOp54
 70
     1
102
RTVSPost2010Prop55
280
     0
102
RTVSPost2010PropOp55
 70
     1
102
RTVSPost2010Prop56
140
1.0
102
RTVSPost2010PropOp56
 70
     1
102
RTVSPost2010Prop57
140
1.0
102
RTVSPost2010PropOp57
 70
     1
  0
XRECORD
  5
2FE
102
{ACAD_REACTORS
330
2FD
102
}
330
2FD
100
AcDbXrecord
280
     1
102
RTVSPropertyOp0
 70
     0
102
RTVSPropertyOp1
 70
     0
102
RTVSPropertyOp2
 70
     0
102
RTVSPropertyOp3
 70
     0
102
RTVSPropertyOp4
 70
     0
102
RTVSPropertyOp5
 70
     0
102
RTVSPropertyOp6
 70
     0
102
RTVSPropertyOp7
 70
     0
102
RTVSPropertyOp8
 70
     0
102
RTVSPropertyOp9
 70
     0
102
RTVSPropertyOp10
 70
     0
102
RTVSPropertyOp11
 70
     0
102
RTVSPropertyOp12
 70
     0
102
RTVSPropertyOp13
 70
     0
102
RTVSPropertyOp14
 70
     2
102
RTVSPropertyOp15
 70
     0
102
RTVSPropertyOp16
 70
     0
102
RTVSPropertyOp17
 70
     0
102
RTVSPropertyOp18
 70
     0
102
RTVSPropertyOp19
 70
     0
102
RTVSPropertyOp20
 70
     0
102
RTVSPropertyOp21
 70
     0
102
RTVSPropertyOp22
 70
     0
102
RTVSPropertyOp23
 70
     0
102
RTVSPropertyOp24
 70
     0
102
RTVSPropertyOp25
 70
     0
102
RTVSPropertyOp26
 70
     0
102
RTVSPropertyOp27
 70
     0
102
RTVSPropertyOp28
 70
     0
102
RTVSPropertyOp29
 70
     0
102
RTVSPropertyOp30
 70
     0
102
RTVSPropertyOp31
 70
     0
102
RTVSPropertyOp32
 70
     0
102
RTVSPropertyOp33
 70
     0
102
RTVSPropertyOp34
 70
     0
102
RTVSPropertyOp35
 70
     0
102
RTVSPropertyOp36
 70
     0
102
RTVSPropertyOp37
 70
     0
102
RTVSPropertyOp38
 70
     0
102
RTVSPropertyOp39
 70
     0
102
RTVSPropertyOp40
 70
     0
102
RTVSPropertyOp41
 70
     0
102
RTVSPropertyOp42
 70
     0
102
RTVSPropertyOp43
 70
     0
102
RTVSPropertyOp44
 70
     0
102
RTVSPropertyOp45
 70
     0
102
RTVSPropertyOp46
 70
     0
102
RTVSPropertyOp47
 70
     0
102
RTVSPropertyOp48
 70
     0
102
RTVSPropertyOp49
 70
     0
102
RTVSPropertyOp50
 70
     0
102
RTVSPropertyOp51
 70
     0
102
RTVSPropertyOp52
 70
     0
102
RTVSPropertyOp53
 70
     0
102
RTVSPropertyOp54
 70
     0
102
RTVSPropertyOp55
 70
     0
102
RTVSPropertyOp56
 70
     0
102
RTVSPropertyOp57
 70
     0
102
RTVSPost2010Prop28
280
     0
102
RTVSPost2010PropOp28
 70
     0
102
RTVSPost2010Prop29
280
     1
102
RTVSPost2010PropOp29
 70
     0
102
RTVSPost2010Prop30
280
     1
102
RTVSPost2010PropOp30
 70
     0
102
RTVSPost2010Prop31
280
     0
102
RTVSPost2010PropOp31
 70
     0
102
RTVSPost2010Prop32
280
     0
102
RTVSPost2010PropOp32
 70
     0
102
RTVSPost2010Prop33
280
     0
102
RTVSPost2010PropOp33
 70
     0
102
RTVSPost2010Prop34
280
     0
102
RTVSPost2010PropOp34
 70
     0
102
RTVSPost2010Prop35
280
     0
102
RTVSPost2010PropOp35
 70
     0
102
RTVSPost2010Prop36
280
     0
102
RTVSPost2010PropOp36
 70
     0
102
RTVSPost2010Prop37
 90
       50
102
RTVSPost2010PropOp37
 70
     0
102
RTVSPost2010Prop38
140
0.0
102
RTVSPost2010PropOp38
 70
     0
102
RTVSPost2010Prop39
140
1.0
102
RTVSPost2010PropOp39
 70
     0
102
RTVSPost2010Prop40
 90
        0
102
RTVSPost2010PropOp40
 70
     0
102
RTVSPost2010Prop41ColorIndex
 90
       18
102
RTVSPost2010Prop41ColorRGB
 90
        0
102
RTVSPost2010PropOp41
 70
     0
102
RTVSPost2010Prop42
 90
       50
102
RTVSPost2010PropOp42
 70
     0
102
RTVSPost2010Prop43
 90
        3
102
RTVSPost2010PropOp43
 70
     0
102
RTVSPost2010Prop44ColorIndex
 90
        5
102
RTVSPost2010Prop44ColorRGB
 90
      255
102
RTVSPost2010PropOp44
 70
     0
102
RTVSPost2010Prop45
280
     0
102
RTVSPost2010PropOp45
 70
     0
102
RTVSPost2010Prop46
 90
       50
102
RTVSPost2010PropOp46
 70
     0
102
RTVSPost2010Prop47
 90
       50
102
RTVSPost2010PropOp47
 70
     0
102
RTVSPost2010Prop48
 90
       50
102
RTVSPost2010PropOp48
 70
     0
102
RTVSPost2010Prop49
280
     0
102
RTVSPost2010PropOp49
 70
     0
102
RTVSPost2010Prop50
 90
       50
102
RTVSPost2010PropOp50
 70
     0
102
RTVSPost2010Prop51ColorIndex
 90
      256
102
RTVSPost2010Prop51ColorRGB
 90
-16777216
102
RTVSPost2010PropOp51
 70
     0
102
RTVSPost2010Prop52
140
1.0
102
RTVSPost2010PropOp52
 70
     0
102
RTVSPost2010Prop53
 90
        2
102
RTVSPost2010PropOp53
 70
     0
102
RTVSPost2010Prop54
  1
strokes_ogs.tif
102
RTVSPost2010PropOp54
 70
     0
102
RTVSPost2010Prop55
280
     0
102
RTVSPost2010PropOp55
 70
     0
102
RTVSPost2010Prop56
140
1.0
102
RTVSPost2010PropOp56
 70
     0
102
RTVSPost2010Prop57
140
1.0
102
RTVSPost2010PropOp57
 70
     0
  0
XRECORD
  5
2F6
102
{ACAD_REACTORS
330
2F5
102
}
330
2F5
100
AcDbXrecord
280
     1
102
RTVSPropertyOp0
 70
     1
102
RTVSPropertyOp1
 70
     1
102
RTVSPropertyOp2
 70
     1
102
RTVSPropertyOp3
 70
     1
102
RTVSPropertyOp4
 70
     1
102
RTVSPropertyOp5
 70
     1
102
RTVSPropertyOp6
 70
     1
102
RTVSPropertyOp7
 70
     1
102
RTVSPropertyOp8
 70
     1
102
RTVSPropertyOp9
 70
     1
102
RTVSPropertyOp10
 70
     1
102
RTVSPropertyOp11
 70
     1
102
RTVSPropertyOp12
 70
     1
102
RTVSPropertyOp13
 70
     1
102
RTVSPropertyOp14
 70
     1
102
RTVSPropertyOp15
 70
     1
102
RTVSPropertyOp16
 70
     1
102
RTVSPropertyOp17
 70
     1
102
RTVSPropertyOp18
 70
     1
102
RTVSPropertyOp19
 70
     1
102
RTVSPropertyOp20
 70
     1
102
RTVSPropertyOp21
 70
     1
102
RTVSPropertyOp22
 70
     1
102
RTVSPropertyOp23
 70
     1
102
RTVSPropertyOp24
 70
     1
102
RTVSPropertyOp25
 70
     1
102
RTVSPropertyOp26
 70
     1
102
RTVSPropertyOp27
 70
     1
102
RTVSPropertyOp28
 70
     1
102
RTVSPropertyOp29
 70
     1
102
RTVSPropertyOp30
 70
     1
102
RTVSPropertyOp31
 70
     1
102
RTVSPropertyOp32
 70
     1
102
RTVSPropertyOp33
 70
     1
102
RTVSPropertyOp34
 70
     1
102
RTVSPropertyOp35
 70
     1
102
RTVSPropertyOp36
 70
     1
102
RTVSPropertyOp37
 70
     1
102
RTVSPropertyOp38
 70
     1
102
RTVSPropertyOp39
 70
     1
102
RTVSPropertyOp40
 70
     1
102
RTVSPropertyOp41
 70
     1
102
RTVSPropertyOp42
 70
     1
102
RTVSPropertyOp43
 70
     1
102
RTVSPropertyOp44
 70
     1
102
RTVSPropertyOp45
 70
     1
102
RTVSPropertyOp46
 70
     1
102
RTVSPropertyOp47
 70
     1
102
RTVSPropertyOp48
 70
     1
102
RTVSPropertyOp49
 70
     1
102
RTVSPropertyOp50
 70
     1
102
RTVSPropertyOp51
 70
     0
102
RTVSPropertyOp52
 70
     0
102
RTVSPropertyOp53
 70
     1
102
RTVSPropertyOp54
 70
     1
102
RTVSPropertyOp55
 70
     1
102
RTVSPropertyOp56
 70
     1
102
RTVSPropertyOp57
 70
     1
102
RTVSPost2010Prop28
280
     0
102
RTVSPost2010PropOp28
 70
     1
102
RTVSPost2010Prop29
280
     1
102
RTVSPost2010PropOp29
 70
     1
102
RTVSPost2010Prop30
280
     1
102
RTVSPost2010PropOp30
 70
     1
102
RTVSPost2010Prop31
280
     0
102
RTVSPost2010PropOp31
 70
     1
102
RTVSPost2010Prop32
280
     0
102
RTVSPost2010PropOp32
 70
     1
102
RTVSPost2010Prop33
280
     0
102
RTVSPost2010PropOp33
 70
     1
102
RTVSPost2010Prop34
280
     0
102
RTVSPost2010PropOp34
 70
     1
102
RTVSPost2010Prop35
280
     0
102
RTVSPost2010PropOp35
 70
     1
102
RTVSPost2010Prop36
280
     0
102
RTVSPost2010PropOp36
 70
     1
102
RTVSPost2010Prop37
 90
       50
102
RTVSPost2010PropOp37
 70
     1
102
RTVSPost2010Prop38
140
0.0
102
RTVSPost2010PropOp38
 70
     1
102
RTVSPost2010Prop39
140
1.0
102
RTVSPost2010PropOp39
 70
     1
102
RTVSPost2010Prop40
 90
        0
102
RTVSPost2010PropOp40
 70
     1
102
RTVSPost2010Prop41ColorIndex
 90
       18
102
RTVSPost2010Prop41ColorRGB
 90
        0
102
RTVSPost2010PropOp41
 70
     1
102
RTVSPost2010Prop42
 90
       50
102
RTVSPost2010PropOp42
 70
     1
102
RTVSPost2010Prop43
 90
        3
102
RTVSPost2010PropOp43
 70
     1
102
RTVSPost2010Prop44ColorIndex
 90
        5
102
RTVSPost2010Prop44ColorRGB
 90
      255
102
RTVSPost2010PropOp44
 70
     1
102
RTVSPost2010Prop45
280
     0
102
RTVSPost2010PropOp45
 70
     1
102
RTVSPost2010Prop46
 90
       50
102
RTVSPost2010PropOp46
 70
     1
102
RTVSPost2010Prop47
 90
       50
102
RTVSPost2010PropOp47
 70
     1
102
RTVSPost2010Prop48
 90
       50
102
RTVSPost2010PropOp48
 70
     1
102
RTVSPost2010Prop49
280
     0
102
RTVSPost2010PropOp49
 70
     1
102
RTVSPost2010Prop50
 90
       50
102
RTVSPost2010PropOp50
 70
     1
102
RTVSPost2010Prop51ColorIndex
 90
      256
102
RTVSPost2010Prop51ColorRGB
 90
-16777216
102
RTVSPost2010PropOp51
 70
     0
102
RTVSPost2010Prop52
140
1.0
102
RTVSPost2010PropOp52
 70
     0
102
RTVSPost2010Prop53
 90
        2
102
RTVSPost2010PropOp53
 70
     1
102
RTVSPost2010Prop54
  1
strokes_ogs.tif
102
RTVSPost2010PropOp54
 70
     1
102
RTVSPost2010Prop55
280
     0
102
RTVSPost2010PropOp55
 70
     1
102
RTVSPost2010Prop56
140
1.0
102
RTVSPost2010PropOp56
 70
     1
102
RTVSPost2010Prop57
140
1.0
102
RTVSPost2010PropOp57
 70
     1
  0
XRECORD
  5
2DA
102
{ACAD_REACTORS
330
2D9
102
}
330
2D9
100
AcDbXrecord
280
     1
102
RTVSPropertyOp0
 70
     1
102
RTVSPropertyOp1
 70
     1
102
RTVSPropertyOp2
 70
     1
102
RTVSPropertyOp3
 70
     1
102
RTVSPropertyOp4
 70
     1
102
RTVSPropertyOp5
 70
     1
102
RTVSPropertyOp6
 70
     1
102
RTVSPropertyOp7
 70
     1
102
RTVSPropertyOp8
 70
     1
102
RTVSPropertyOp9
 70
     1
102
RTVSPropertyOp10
 70
     1
102
RTVSPropertyOp11
 70
     1
102
RTVSPropertyOp12
 70
     1
102
RTVSPropertyOp13
 70
     1
102
RTVSPropertyOp14
 70
     1
102
RTVSPropertyOp15
 70
     1
102
RTVSPropertyOp16
 70
     1
102
RTVSPropertyOp17
 70
     1
102
RTVSPropertyOp18
 70
     1
102
RTVSPropertyOp19
 70
     1
102
RTVSPropertyOp20
 70
     1
102
RTVSPropertyOp21
 70
     1
102
RTVSPropertyOp22
 70
     1
102
RTVSPropertyOp23
 70
     1
102
RTVSPropertyOp24
 70
     1
102
RTVSPropertyOp25
 70
     1
102
RTVSPropertyOp26
 70
     1
102
RTVSPropertyOp27
 70
     1
102
RTVSPropertyOp28
 70
     1
102
RTVSPropertyOp29
 70
     1
102
RTVSPropertyOp30
 70
     1
102
RTVSPropertyOp31
 70
     1
102
RTVSPropertyOp32
 70
     1
102
RTVSPropertyOp33
 70
     1
102
RTVSPropertyOp34
 70
     1
102
RTVSPropertyOp35
 70
     1
102
RTVSPropertyOp36
 70
     1
102
RTVSPropertyOp37
 70
     1
102
RTVSPropertyOp38
 70
     1
102
RTVSPropertyOp39
 70
     1
102
RTVSPropertyOp40
 70
     1
102
RTVSPropertyOp41
 70
     1
102
RTVSPropertyOp42
 70
     1
102
RTVSPropertyOp43
 70
     1
102
RTVSPropertyOp44
 70
     1
102
RTVSPropertyOp45
 70
     1
102
RTVSPropertyOp46
 70
     1
102
RTVSPropertyOp47
 70
     1
102
RTVSPropertyOp48
 70
     1
102
RTVSPropertyOp49
 70
     1
102
RTVSPropertyOp50
 70
     1
102
RTVSPropertyOp51
 70
     0
102
RTVSPropertyOp52
 70
     0
102
RTVSPropertyOp53
 70
     1
102
RTVSPropertyOp54
 70
     1
102
RTVSPropertyOp55
 70
     1
102
RTVSPropertyOp56
 70
     1
102
RTVSPropertyOp57
 70
     1
102
RTVSPost2010Prop28
280
     0
102
RTVSPost2010PropOp28
 70
     1
102
RTVSPost2010Prop29
280
     1
102
RTVSPost2010PropOp29
 70
     1
102
RTVSPost2010Prop30
280
     1
102
RTVSPost2010PropOp30
 70
     1
102
RTVSPost2010Prop31
280
     0
102
RTVSPost2010PropOp31
 70
     1
102
RTVSPost2010Prop32
280
     0
102
RTVSPost2010PropOp32
 70
     1
102
RTVSPost2010Prop33
280
     0
102
RTVSPost2010PropOp33
 70
     1
102
RTVSPost2010Prop34
280
     0
102
RTVSPost2010PropOp34
 70
     1
102
RTVSPost2010Prop35
280
     0
102
RTVSPost2010PropOp35
 70
     1
102
RTVSPost2010Prop36
280
     0
102
RTVSPost2010PropOp36
 70
     1
102
RTVSPost2010Prop37
 90
       50
102
RTVSPost2010PropOp37
 70
     1
102
RTVSPost2010Prop38
140
0.0
102
RTVSPost2010PropOp38
 70
     1
102
RTVSPost2010Prop39
140
1.0
102
RTVSPost2010PropOp39
 70
     1
102
RTVSPost2010Prop40
 90
        0
102
RTVSPost2010PropOp40
 70
     1
102
RTVSPost2010Prop41ColorIndex
 90
       18
102
RTVSPost2010Prop41ColorRGB
 90
        0
102
RTVSPost2010PropOp41
 70
     1
102
RTVSPost2010Prop42
 90
       50
102
RTVSPost2010PropOp42
 70
     1
102
RTVSPost2010Prop43
 90
        3
102
RTVSPost2010PropOp43
 70
     1
102
RTVSPost2010Prop44ColorIndex
 90
        5
102
RTVSPost2010Prop44ColorRGB
 90
      255
102
RTVSPost2010PropOp44
 70
     1
102
RTVSPost2010Prop45
280
     0
102
RTVSPost2010PropOp45
 70
     1
102
RTVSPost2010Prop46
 90
       50
102
RTVSPost2010PropOp46
 70
     1
102
RTVSPost2010Prop47
 90
       50
102
RTVSPost2010PropOp47
 70
     1
102
RTVSPost2010Prop48
 90
       50
102
RTVSPost2010PropOp48
 70
     1
102
RTVSPost2010Prop49
280
     0
102
RTVSPost2010PropOp49
 70
     1
102
RTVSPost2010Prop50
 90
       50
102
RTVSPost2010PropOp50
 70
     1
102
RTVSPost2010Prop51ColorIndex
 90
      256
102
RTVSPost2010Prop51ColorRGB
 90
-16777216
102
RTVSPost2010PropOp51
 70
     0
102
RTVSPost2010Prop52
140
1.0
102
RTVSPost2010PropOp52
 70
     0
102
RTVSPost2010Prop53
 90
        2
102
RTVSPost2010PropOp53
 70
     1
102
RTVSPost2010Prop54
  1
strokes_ogs.tif
102
RTVSPost2010PropOp54
 70
     1
102
RTVSPost2010Prop55
280
     0
102
RTVSPost2010PropOp55
 70
     1
102
RTVSPost2010Prop56
140
1.0
102
RTVSPost2010PropOp56
 70
     1
102
RTVSPost2010Prop57
140
1.0
102
RTVSPost2010PropOp57
 70
     1
  0
XRECORD
  5
2DC
102
{ACAD_REACTORS
330
2DB
102
}
330
2DB
100
AcDbXrecord
280
     1
102
RTVSPropertyOp0
 70
     1
102
RTVSPropertyOp1
 70
     1
102
RTVSPropertyOp2
 70
     1
102
RTVSPropertyOp3
 70
     1
102
RTVSPropertyOp4
 70
     1
102
RTVSPropertyOp5
 70
     1
102
RTVSPropertyOp6
 70
     1
102
RTVSPropertyOp7
 70
     1
102
RTVSPropertyOp8
 70
     1
102
RTVSPropertyOp9
 70
     1
102
RTVSPropertyOp10
 70
     1
102
RTVSPropertyOp11
 70
     1
102
RTVSPropertyOp12
 70
     1
102
RTVSPropertyOp13
 70
     1
102
RTVSPropertyOp14
 70
     1
102
RTVSPropertyOp15
 70
     1
102
RTVSPropertyOp16
 70
     1
102
RTVSPropertyOp17
 70
     1
102
RTVSPropertyOp18
 70
     1
102
RTVSPropertyOp19
 70
     1
102
RTVSPropertyOp20
 70
     1
102
RTVSPropertyOp21
 70
     1
102
RTVSPropertyOp22
 70
     1
102
RTVSPropertyOp23
 70
     1
102
RTVSPropertyOp24
 70
     1
102
RTVSPropertyOp25
 70
     1
102
RTVSPropertyOp26
 70
     1
102
RTVSPropertyOp27
 70
     1
102
RTVSPropertyOp28
 70
     1
102
RTVSPropertyOp29
 70
     1
102
RTVSPropertyOp30
 70
     1
102
RTVSPropertyOp31
 70
     1
102
RTVSPropertyOp32
 70
     1
102
RTVSPropertyOp33
 70
     1
102
RTVSPropertyOp34
 70
     1
102
RTVSPropertyOp35
 70
     1
102
RTVSPropertyOp36
 70
     1
102
RTVSPropertyOp37
 70
     1
102
RTVSPropertyOp38
 70
     1
102
RTVSPropertyOp39
 70
     1
102
RTVSPropertyOp40
 70
     1
102
RTVSPropertyOp41
 70
     1
102
RTVSPropertyOp42
 70
     1
102
RTVSPropertyOp43
 70
     1
102
RTVSPropertyOp44
 70
     1
102
RTVSPropertyOp45
 70
     1
102
RTVSPropertyOp46
 70
     1
102
RTVSPropertyOp47
 70
     1
102
RTVSPropertyOp48
 70
     1
102
RTVSPropertyOp49
 70
     1
102
RTVSPropertyOp50
 70
     1
102
RTVSPropertyOp51
 70
     0
102
RTVSPropertyOp52
 70
     0
102
RTVSPropertyOp53
 70
     1
102
RTVSPropertyOp54
 70
     1
102
RTVSPropertyOp55
 70
     1
102
RTVSPropertyOp56
 70
     1
102
RTVSPropertyOp57
 70
     1
102
RTVSPost2010Prop28
280
     0
102
RTVSPost2010PropOp28
 70
     1
102
RTVSPost2010Prop29
280
     1
102
RTVSPost2010PropOp29
 70
     1
102
RTVSPost2010Prop30
280
     1
102
RTVSPost2010PropOp30
 70
     1
102
RTVSPost2010Prop31
280
     0
102
RTVSPost2010PropOp31
 70
     1
102
RTVSPost2010Prop32
280
     0
102
RTVSPost2010PropOp32
 70
     1
102
RTVSPost2010Prop33
280
     0
102
RTVSPost2010PropOp33
 70
     1
102
RTVSPost2010Prop34
280
     0
102
RTVSPost2010PropOp34
 70
     1
102
RTVSPost2010Prop35
280
     0
102
RTVSPost2010PropOp35
 70
     1
102
RTVSPost2010Prop36
280
     0
102
RTVSPost2010PropOp36
 70
     1
102
RTVSPost2010Prop37
 90
       50
102
RTVSPost2010PropOp37
 70
     1
102
RTVSPost2010Prop38
140
0.0
102
RTVSPost2010PropOp38
 70
     1
102
RTVSPost2010Prop39
140
1.0
102
RTVSPost2010PropOp39
 70
     1
102
RTVSPost2010Prop40
 90
        0
102
RTVSPost2010PropOp40
 70
     1
102
RTVSPost2010Prop41ColorIndex
 90
       18
102
RTVSPost2010Prop41ColorRGB
 90
        0
102
RTVSPost2010PropOp41
 70
     1
102
RTVSPost2010Prop42
 90
       50
102
RTVSPost2010PropOp42
 70
     1
102
RTVSPost2010Prop43
 90
        3
102
RTVSPost2010PropOp43
 70
     1
102
RTVSPost2010Prop44ColorIndex
 90
        5
102
RTVSPost2010Prop44ColorRGB
 90
      255
102
RTVSPost2010PropOp44
 70
     1
102
RTVSPost2010Prop45
280
     0
102
RTVSPost2010PropOp45
 70
     1
102
RTVSPost2010Prop46
 90
       50
102
RTVSPost2010PropOp46
 70
     1
102
RTVSPost2010Prop47
 90
       50
102
RTVSPost2010PropOp47
 70
     1
102
RTVSPost2010Prop48
 90
       50
102
RTVSPost2010PropOp48
 70
     1
102
RTVSPost2010Prop49
280
     0
102
RTVSPost2010PropOp49
 70
     1
102
RTVSPost2010Prop50
 90
       50
102
RTVSPost2010PropOp50
 70
     1
102
RTVSPost2010Prop51ColorIndex
 90
      256
102
RTVSPost2010Prop51ColorRGB
 90
-16777216
102
RTVSPost2010PropOp51
 70
     0
102
RTVSPost2010Prop52
140
1.0
102
RTVSPost2010PropOp52
 70
     0
102
RTVSPost2010Prop53
 90
        2
102
RTVSPost2010PropOp53
 70
     1
102
RTVSPost2010Prop54
  1
strokes_ogs.tif
102
RTVSPost2010PropOp54
 70
     1
102
RTVSPost2010Prop55
280
     0
102
RTVSPost2010PropOp55
 70
     1
102
RTVSPost2010Prop56
140
1.0
102
RTVSPost2010PropOp56
 70
     1
102
RTVSPost2010Prop57
140
1.0
102
RTVSPost2010PropOp57
 70
     1
  0
XRECORD
  5
2DE
102
{ACAD_REACTORS
330
2DD
102
}
330
2DD
100
AcDbXrecord
280
     1
102
RTVSPropertyOp0
 70
     1
102
RTVSPropertyOp1
 70
     1
102
RTVSPropertyOp2
 70
     1
102
RTVSPropertyOp3
 70
     1
102
RTVSPropertyOp4
 70
     1
102
RTVSPropertyOp5
 70
     1
102
RTVSPropertyOp6
 70
     1
102
RTVSPropertyOp7
 70
     1
102
RTVSPropertyOp8
 70
     1
102
RTVSPropertyOp9
 70
     1
102
RTVSPropertyOp10
 70
     1
102
RTVSPropertyOp11
 70
     1
102
RTVSPropertyOp12
 70
     1
102
RTVSPropertyOp13
 70
     1
102
RTVSPropertyOp14
 70
     1
102
RTVSPropertyOp15
 70
     1
102
RTVSPropertyOp16
 70
     1
102
RTVSPropertyOp17
 70
     1
102
RTVSPropertyOp18
 70
     1
102
RTVSPropertyOp19
 70
     1
102
RTVSPropertyOp20
 70
     1
102
RTVSPropertyOp21
 70
     1
102
RTVSPropertyOp22
 70
     1
102
RTVSPropertyOp23
 70
     1
102
RTVSPropertyOp24
 70
     1
102
RTVSPropertyOp25
 70
     1
102
RTVSPropertyOp26
 70
     1
102
RTVSPropertyOp27
 70
     1
102
RTVSPropertyOp28
 70
     1
102
RTVSPropertyOp29
 70
     1
102
RTVSPropertyOp30
 70
     1
102
RTVSPropertyOp31
 70
     1
102
RTVSPropertyOp32
 70
     1
102
RTVSPropertyOp33
 70
     1
102
RTVSPropertyOp34
 70
     1
102
RTVSPropertyOp35
 70
     1
102
RTVSPropertyOp36
 70
     1
102
RTVSPropertyOp37
 70
     1
102
RTVSPropertyOp38
 70
     1
102
RTVSPropertyOp39
 70
     1
102
RTVSPropertyOp40
 70
     1
102
RTVSPropertyOp41
 70
     1
102
RTVSPropertyOp42
 70
     1
102
RTVSPropertyOp43
 70
     1
102
RTVSPropertyOp44
 70
     1
102
RTVSPropertyOp45
 70
     1
102
RTVSPropertyOp46
 70
     1
102
RTVSPropertyOp47
 70
     1
102
RTVSPropertyOp48
 70
     1
102
RTVSPropertyOp49
 70
     1
102
RTVSPropertyOp50
 70
     1
102
RTVSPropertyOp51
 70
     0
102
RTVSPropertyOp52
 70
     0
102
RTVSPropertyOp53
 70
     1
102
RTVSPropertyOp54
 70
     1
102
RTVSPropertyOp55
 70
     1
102
RTVSPropertyOp56
 70
     1
102
RTVSPropertyOp57
 70
     1
102
RTVSPost2010Prop28
280
     0
102
RTVSPost2010PropOp28
 70
     1
102
RTVSPost2010Prop29
280
     1
102
RTVSPost2010PropOp29
 70
     1
102
RTVSPost2010Prop30
280
     1
102
RTVSPost2010PropOp30
 70
     1
102
RTVSPost2010Prop31
280
     0
102
RTVSPost2010PropOp31
 70
     1
102
RTVSPost2010Prop32
280
     0
102
RTVSPost2010PropOp32
 70
     1
102
RTVSPost2010Prop33
280
     0
102
RTVSPost2010PropOp33
 70
     1
102
RTVSPost2010Prop34
280
     0
102
RTVSPost2010PropOp34
 70
     1
102
RTVSPost2010Prop35
280
     0
102
RTVSPost2010PropOp35
 70
     1
102
RTVSPost2010Prop36
280
     0
102
RTVSPost2010PropOp36
 70
     1
102
RTVSPost2010Prop37
 90
       50
102
RTVSPost2010PropOp37
 70
     1
102
RTVSPost2010Prop38
140
0.0
102
RTVSPost2010PropOp38
 70
     1
102
RTVSPost2010Prop39
140
1.0
102
RTVSPost2010PropOp39
 70
     1
102
RTVSPost2010Prop40
 90
        0
102
RTVSPost2010PropOp40
 70
     1
102
RTVSPost2010Prop41ColorIndex
 90
       18
102
RTVSPost2010Prop41ColorRGB
 90
        0
102
RTVSPost2010PropOp41
 70
     1
102
RTVSPost2010Prop42
 90
       50
102
RTVSPost2010PropOp42
 70
     1
102
RTVSPost2010Prop43
 90
        3
102
RTVSPost2010PropOp43
 70
     1
102
RTVSPost2010Prop44ColorIndex
 90
        5
102
RTVSPost2010Prop44ColorRGB
 90
      255
102
RTVSPost2010PropOp44
 70
     1
102
RTVSPost2010Prop45
280
     0
102
RTVSPost2010PropOp45
 70
     1
102
RTVSPost2010Prop46
 90
       50
102
RTVSPost2010PropOp46
 70
     1
102
RTVSPost2010Prop47
 90
       50
102
RTVSPost2010PropOp47
 70
     1
102
RTVSPost2010Prop48
 90
       50
102
RTVSPost2010PropOp48
 70
     1
102
RTVSPost2010Prop49
280
     0
102
RTVSPost2010PropOp49
 70
     1
102
RTVSPost2010Prop50
 90
       50
102
RTVSPost2010PropOp50
 70
     1
102
RTVSPost2010Prop51ColorIndex
 90
      256
102
RTVSPost2010Prop51ColorRGB
 90
-16777216
102
RTVSPost2010PropOp51
 70
     0
102
RTVSPost2010Prop52
140
1.0
102
RTVSPost2010PropOp52
 70
     0
102
RTVSPost2010Prop53
 90
        2
102
RTVSPost2010PropOp53
 70
     1
102
RTVSPost2010Prop54
  1
strokes_ogs.tif
102
RTVSPost2010PropOp54
 70
     1
102
RTVSPost2010Prop55
280
     0
102
RTVSPost2010PropOp55
 70
     1
102
RTVSPost2010Prop56
140
1.0
102
RTVSPost2010PropOp56
 70
     1
102
RTVSPost2010Prop57
140
1.0
102
RTVSPost2010PropOp57
 70
     1
  0
XRECORD
  5
2E0
102
{ACAD_REACTORS
330
2DF
102
}
330
2DF
100
AcDbXrecord
280
     1
102
RTVSPropertyOp0
 70
     1
102
RTVSPropertyOp1
 70
     1
102
RTVSPropertyOp2
 70
     1
102
RTVSPropertyOp3
 70
     1
102
RTVSPropertyOp4
 70
     1
102
RTVSPropertyOp5
 70
     1
102
RTVSPropertyOp6
 70
     1
102
RTVSPropertyOp7
 70
     1
102
RTVSPropertyOp8
 70
     1
102
RTVSPropertyOp9
 70
     1
102
RTVSPropertyOp10
 70
     1
102
RTVSPropertyOp11
 70
     1
102
RTVSPropertyOp12
 70
     1
102
RTVSPropertyOp13
 70
     1
102
RTVSPropertyOp14
 70
     1
102
RTVSPropertyOp15
 70
     1
102
RTVSPropertyOp16
 70
     1
102
RTVSPropertyOp17
 70
     1
102
RTVSPropertyOp18
 70
     1
102
RTVSPropertyOp19
 70
     1
102
RTVSPropertyOp20
 70
     1
102
RTVSPropertyOp21
 70
     1
102
RTVSPropertyOp22
 70
     1
102
RTVSPropertyOp23
 70
     1
102
RTVSPropertyOp24
 70
     1
102
RTVSPropertyOp25
 70
     1
102
RTVSPropertyOp26
 70
     1
102
RTVSPropertyOp27
 70
     1
102
RTVSPropertyOp28
 70
     1
102
RTVSPropertyOp29
 70
     1
102
RTVSPropertyOp30
 70
     1
102
RTVSPropertyOp31
 70
     1
102
RTVSPropertyOp32
 70
     1
102
RTVSPropertyOp33
 70
     1
102
RTVSPropertyOp34
 70
     1
102
RTVSPropertyOp35
 70
     1
102
RTVSPropertyOp36
 70
     1
102
RTVSPropertyOp37
 70
     1
102
RTVSPropertyOp38
 70
     1
102
RTVSPropertyOp39
 70
     1
102
RTVSPropertyOp40
 70
     1
102
RTVSPropertyOp41
 70
     1
102
RTVSPropertyOp42
 70
     1
102
RTVSPropertyOp43
 70
     1
102
RTVSPropertyOp44
 70
     1
102
RTVSPropertyOp45
 70
     1
102
RTVSPropertyOp46
 70
     1
102
RTVSPropertyOp47
 70
     1
102
RTVSPropertyOp48
 70
     1
102
RTVSPropertyOp49
 70
     1
102
RTVSPropertyOp50
 70
     1
102
RTVSPropertyOp51
 70
     0
102
RTVSPropertyOp52
 70
     0
102
RTVSPropertyOp53
 70
     1
102
RTVSPropertyOp54
 70
     1
102
RTVSPropertyOp55
 70
     1
102
RTVSPropertyOp56
 70
     1
102
RTVSPropertyOp57
 70
     1
102
RTVSPost2010Prop28
280
     0
102
RTVSPost2010PropOp28
 70
     1
102
RTVSPost2010Prop29
280
     1
102
RTVSPost2010PropOp29
 70
     1
102
RTVSPost2010Prop30
280
     1
102
RTVSPost2010PropOp30
 70
     1
102
RTVSPost2010Prop31
280
     0
102
RTVSPost2010PropOp31
 70
     1
102
RTVSPost2010Prop32
280
     0
102
RTVSPost2010PropOp32
 70
     1
102
RTVSPost2010Prop33
280
     0
102
RTVSPost2010PropOp33
 70
     1
102
RTVSPost2010Prop34
280
     0
102
RTVSPost2010PropOp34
 70
     1
102
RTVSPost2010Prop35
280
     0
102
RTVSPost2010PropOp35
 70
     1
102
RTVSPost2010Prop36
280
     0
102
RTVSPost2010PropOp36
 70
     1
102
RTVSPost2010Prop37
 90
       50
102
RTVSPost2010PropOp37
 70
     1
102
RTVSPost2010Prop38
140
0.0
102
RTVSPost2010PropOp38
 70
     1
102
RTVSPost2010Prop39
140
1.0
102
RTVSPost2010PropOp39
 70
     1
102
RTVSPost2010Prop40
 90
        0
102
RTVSPost2010PropOp40
 70
     1
102
RTVSPost2010Prop41ColorIndex
 90
       18
102
RTVSPost2010Prop41ColorRGB
 90
        0
102
RTVSPost2010PropOp41
 70
     1
102
RTVSPost2010Prop42
 90
       50
102
RTVSPost2010PropOp42
 70
     1
102
RTVSPost2010Prop43
 90
        3
102
RTVSPost2010PropOp43
 70
     1
102
RTVSPost2010Prop44ColorIndex
 90
        5
102
RTVSPost2010Prop44ColorRGB
 90
      255
102
RTVSPost2010PropOp44
 70
     1
102
RTVSPost2010Prop45
280
     0
102
RTVSPost2010PropOp45
 70
     1
102
RTVSPost2010Prop46
 90
       50
102
RTVSPost2010PropOp46
 70
     1
102
RTVSPost2010Prop47
 90
       50
102
RTVSPost2010PropOp47
 70
     1
102
RTVSPost2010Prop48
 90
       50
102
RTVSPost2010PropOp48
 70
     1
102
RTVSPost2010Prop49
280
     0
102
RTVSPost2010PropOp49
 70
     1
102
RTVSPost2010Prop50
 90
       50
102
RTVSPost2010PropOp50
 70
     1
102
RTVSPost2010Prop51ColorIndex
 90
      256
102
RTVSPost2010Prop51ColorRGB
 90
-16777216
102
RTVSPost2010PropOp51
 70
     0
102
RTVSPost2010Prop52
140
1.0
102
RTVSPost2010PropOp52
 70
     0
102
RTVSPost2010Prop53
 90
        2
102
RTVSPost2010PropOp53
 70
     1
102
RTVSPost2010Prop54
  1
strokes_ogs.tif
102
RTVSPost2010PropOp54
 70
     1
102
RTVSPost2010Prop55
280
     0
102
RTVSPost2010PropOp55
 70
     1
102
RTVSPost2010Prop56
140
1.0
102
RTVSPost2010PropOp56
 70
     1
102
RTVSPost2010Prop57
140
1.0
102
RTVSPost2010PropOp57
 70
     1
  0
XRECORD
  5
2E6
102
{ACAD_REACTORS
330
2E5
102
}
330
2E5
100
AcDbXrecord
280
     1
102
RTVSPropertyOp0
 70
     1
102
RTVSPropertyOp1
 70
     1
102
RTVSPropertyOp2
 70
     1
102
RTVSPropertyOp3
 70
     1
102
RTVSPropertyOp4
 70
     1
102
RTVSPropertyOp5
 70
     1
102
RTVSPropertyOp6
 70
     1
102
RTVSPropertyOp7
 70
     1
102
RTVSPropertyOp8
 70
     1
102
RTVSPropertyOp9
 70
     1
102
RTVSPropertyOp10
 70
     1
102
RTVSPropertyOp11
 70
     1
102
RTVSPropertyOp12
 70
     1
102
RTVSPropertyOp13
 70
     1
102
RTVSPropertyOp14
 70
     1
102
RTVSPropertyOp15
 70
     1
102
RTVSPropertyOp16
 70
     1
102
RTVSPropertyOp17
 70
     1
102
RTVSPropertyOp18
 70
     1
102
RTVSPropertyOp19
 70
     1
102
RTVSPropertyOp20
 70
     1
102
RTVSPropertyOp21
 70
     1
102
RTVSPropertyOp22
 70
     1
102
RTVSPropertyOp23
 70
     1
102
RTVSPropertyOp24
 70
     1
102
RTVSPropertyOp25
 70
     1
102
RTVSPropertyOp26
 70
     1
102
RTVSPropertyOp27
 70
     1
102
RTVSPropertyOp28
 70
     1
102
RTVSPropertyOp29
 70
     1
102
RTVSPropertyOp30
 70
     1
102
RTVSPropertyOp31
 70
     1
102
RTVSPropertyOp32
 70
     1
102
RTVSPropertyOp33
 70
     1
102
RTVSPropertyOp34
 70
     1
102
RTVSPropertyOp35
 70
     1
102
RTVSPropertyOp36
 70
     1
102
RTVSPropertyOp37
 70
     1
102
RTVSPropertyOp38
 70
     1
102
RTVSPropertyOp39
 70
     1
102
RTVSPropertyOp40
 70
     1
102
RTVSPropertyOp41
 70
     1
102
RTVSPropertyOp42
 70
     1
102
RTVSPropertyOp43
 70
     1
102
RTVSPropertyOp44
 70
     1
102
RTVSPropertyOp45
 70
     1
102
RTVSPropertyOp46
 70
     1
102
RTVSPropertyOp47
 70
     1
102
RTVSPropertyOp48
 70
     1
102
RTVSPropertyOp49
 70
     1
102
RTVSPropertyOp50
 70
     1
102
RTVSPropertyOp51
 70
     0
102
RTVSPropertyOp52
 70
     0
102
RTVSPropertyOp53
 70
     1
102
RTVSPropertyOp54
 70
     1
102
RTVSPropertyOp55
 70
     1
102
RTVSPropertyOp56
 70
     1
102
RTVSPropertyOp57
 70
     1
102
RTVSPost2010Prop28
280
     0
102
RTVSPost2010PropOp28
 70
     1
102
RTVSPost2010Prop29
280
     1
102
RTVSPost2010PropOp29
 70
     1
102
RTVSPost2010Prop30
280
     1
102
RTVSPost2010PropOp30
 70
     1
102
RTVSPost2010Prop31
280
     0
102
RTVSPost2010PropOp31
 70
     1
102
RTVSPost2010Prop32
280
     0
102
RTVSPost2010PropOp32
 70
     1
102
RTVSPost2010Prop33
280
     0
102
RTVSPost2010PropOp33
 70
     1
102
RTVSPost2010Prop34
280
     0
102
RTVSPost2010PropOp34
 70
     1
102
RTVSPost2010Prop35
280
     0
102
RTVSPost2010PropOp35
 70
     1
102
RTVSPost2010Prop36
280
     0
102
RTVSPost2010PropOp36
 70
     1
102
RTVSPost2010Prop37
 90
       50
102
RTVSPost2010PropOp37
 70
     1
102
RTVSPost2010Prop38
140
0.0
102
RTVSPost2010PropOp38
 70
     1
102
RTVSPost2010Prop39
140
1.0
102
RTVSPost2010PropOp39
 70
     1
102
RTVSPost2010Prop40
 90
        0
102
RTVSPost2010PropOp40
 70
     1
102
RTVSPost2010Prop41ColorIndex
 90
       18
102
RTVSPost2010Prop41ColorRGB
 90
        0
102
RTVSPost2010PropOp41
 70
     1
102
RTVSPost2010Prop42
 90
       50
102
RTVSPost2010PropOp42
 70
     1
102
RTVSPost2010Prop43
 90
        3
102
RTVSPost2010PropOp43
 70
     1
102
RTVSPost2010Prop44ColorIndex
 90
        5
102
RTVSPost2010Prop44ColorRGB
 90
      255
102
RTVSPost2010PropOp44
 70
     1
102
RTVSPost2010Prop45
280
     0
102
RTVSPost2010PropOp45
 70
     1
102
RTVSPost2010Prop46
 90
       50
102
RTVSPost2010PropOp46
 70
     1
102
RTVSPost2010Prop47
 90
       50
102
RTVSPost2010PropOp47
 70
     1
102
RTVSPost2010Prop48
 90
       50
102
RTVSPost2010PropOp48
 70
     1
102
RTVSPost2010Prop49
280
     0
102
RTVSPost2010PropOp49
 70
     1
102
RTVSPost2010Prop50
 90
       50
102
RTVSPost2010PropOp50
 70
     1
102
RTVSPost2010Prop51ColorIndex
 90
      256
102
RTVSPost2010Prop51ColorRGB
 90
-16777216
102
RTVSPost2010PropOp51
 70
     0
102
RTVSPost2010Prop52
140
1.0
102
RTVSPost2010PropOp52
 70
     0
102
RTVSPost2010Prop53
 90
        2
102
RTVSPost2010PropOp53
 70
     1
102
RTVSPost2010Prop54
  1
strokes_ogs.tif
102
RTVSPost2010PropOp54
 70
     1
102
RTVSPost2010Prop55
280
     0
102
RTVSPost2010PropOp55
 70
     1
102
RTVSPost2010Prop56
140
1.0
102
RTVSPost2010PropOp56
 70
     1
102
RTVSPost2010Prop57
140
1.0
102
RTVSPost2010PropOp57
 70
     1
  0
XRECORD
  5
2FA
102
{ACAD_REACTORS
330
2F9
102
}
330
2F9
100
AcDbXrecord
280
     1
102
RTVSPropertyOp0
 70
     0
102
RTVSPropertyOp1
 70
     0
102
RTVSPropertyOp2
 70
     0
102
RTVSPropertyOp3
 70
     0
102
RTVSPropertyOp4
 70
     0
102
RTVSPropertyOp5
 70
     0
102
RTVSPropertyOp6
 70
     0
102
RTVSPropertyOp7
 70
     0
102
RTVSPropertyOp8
 70
     0
102
RTVSPropertyOp9
 70
     0
102
RTVSPropertyOp10
 70
     0
102
RTVSPropertyOp11
 70
     0
102
RTVSPropertyOp12
 70
     0
102
RTVSPropertyOp13
 70
     0
102
RTVSPropertyOp14
 70
     2
102
RTVSPropertyOp15
 70
     0
102
RTVSPropertyOp16
 70
     0
102
RTVSPropertyOp17
 70
     0
102
RTVSPropertyOp18
 70
     0
102
RTVSPropertyOp19
 70
     0
102
RTVSPropertyOp20
 70
     0
102
RTVSPropertyOp21
 70
     0
102
RTVSPropertyOp22
 70
     0
102
RTVSPropertyOp23
 70
     0
102
RTVSPropertyOp24
 70
     0
102
RTVSPropertyOp25
 70
     0
102
RTVSPropertyOp26
 70
     0
102
RTVSPropertyOp27
 70
     0
102
RTVSPropertyOp28
 70
     0
102
RTVSPropertyOp29
 70
     0
102
RTVSPropertyOp30
 70
     0
102
RTVSPropertyOp31
 70
     0
102
RTVSPropertyOp32
 70
     0
102
RTVSPropertyOp33
 70
     0
102
RTVSPropertyOp34
 70
     0
102
RTVSPropertyOp35
 70
     0
102
RTVSPropertyOp36
 70
     0
102
RTVSPropertyOp37
 70
     0
102
RTVSPropertyOp38
 70
     0
102
RTVSPropertyOp39
 70
     0
102
RTVSPropertyOp40
 70
     0
102
RTVSPropertyOp41
 70
     0
102
RTVSPropertyOp42
 70
     0
102
RTVSPropertyOp43
 70
     0
102
RTVSPropertyOp44
 70
     0
102
RTVSPropertyOp45
 70
     0
102
RTVSPropertyOp46
 70
     0
102
RTVSPropertyOp47
 70
     0
102
RTVSPropertyOp48
 70
     0
102
RTVSPropertyOp49
 70
     0
102
RTVSPropertyOp50
 70
     0
102
RTVSPropertyOp51
 70
     0
102
RTVSPropertyOp52
 70
     0
102
RTVSPropertyOp53
 70
     0
102
RTVSPropertyOp54
 70
     0
102
RTVSPropertyOp55
 70
     0
102
RTVSPropertyOp56
 70
     0
102
RTVSPropertyOp57
 70
     0
102
RTVSPost2010Prop28
280
     0
102
RTVSPost2010PropOp28
 70
     0
102
RTVSPost2010Prop29
280
     1
102
RTVSPost2010PropOp29
 70
     0
102
RTVSPost2010Prop30
280
     1
102
RTVSPost2010PropOp30
 70
     0
102
RTVSPost2010Prop31
280
     0
102
RTVSPost2010PropOp31
 70
     0
102
RTVSPost2010Prop32
280
     0
102
RTVSPost2010PropOp32
 70
     0
102
RTVSPost2010Prop33
280
     0
102
RTVSPost2010PropOp33
 70
     0
102
RTVSPost2010Prop34
280
     0
102
RTVSPost2010PropOp34
 70
     0
102
RTVSPost2010Prop35
280
     0
102
RTVSPost2010PropOp35
 70
     0
102
RTVSPost2010Prop36
280
     0
102
RTVSPost2010PropOp36
 70
     0
102
RTVSPost2010Prop37
 90
       50
102
RTVSPost2010PropOp37
 70
     0
102
RTVSPost2010Prop38
140
0.0
102
RTVSPost2010PropOp38
 70
     0
102
RTVSPost2010Prop39
140
1.0
102
RTVSPost2010PropOp39
 70
     0
102
RTVSPost2010Prop40
 90
        0
102
RTVSPost2010PropOp40
 70
     0
102
RTVSPost2010Prop41ColorIndex
 90
       18
102
RTVSPost2010Prop41ColorRGB
 90
        0
102
RTVSPost2010PropOp41
 70
     0
102
RTVSPost2010Prop42
 90
       50
102
RTVSPost2010PropOp42
 70
     0
102
RTVSPost2010Prop43
 90
        3
102
RTVSPost2010PropOp43
 70
     0
102
RTVSPost2010Prop44ColorIndex
 90
        5
102
RTVSPost2010Prop44ColorRGB
 90
      255
102
RTVSPost2010PropOp44
 70
     0
102
RTVSPost2010Prop45
280
     0
102
RTVSPost2010PropOp45
 70
     0
102
RTVSPost2010Prop46
 90
       50
102
RTVSPost2010PropOp46
 70
     0
102
RTVSPost2010Prop47
 90
       50
102
RTVSPost2010PropOp47
 70
     0
102
RTVSPost2010Prop48
 90
       50
102
RTVSPost2010PropOp48
 70
     0
102
RTVSPost2010Prop49
280
     0
102
RTVSPost2010PropOp49
 70
     0
102
RTVSPost2010Prop50
 90
       50
102
RTVSPost2010PropOp50
 70
     0
102
RTVSPost2010Prop51ColorIndex
 90
      256
102
RTVSPost2010Prop51ColorRGB
 90
-16777216
102
RTVSPost2010PropOp51
 70
     0
102
RTVSPost2010Prop52
140
1.0
102
RTVSPost2010PropOp52
 70
     0
102
RTVSPost2010Prop53
 90
        2
102
RTVSPost2010PropOp53
 70
     0
102
RTVSPost2010Prop54
  1
strokes_ogs.tif
102
RTVSPost2010PropOp54
 70
     0
102
RTVSPost2010Prop55
280
     0
102
RTVSPost2010PropOp55
 70
     0
102
RTVSPost2010Prop56
140
1.0
102
RTVSPost2010PropOp56
 70
     0
102
RTVSPost2010Prop57
140
1.0
102
RTVSPost2010PropOp57
 70
     0
  0
XRECORD
  5
2F4
102
{ACAD_REACTORS
330
2F3
102
}
330
2F3
100
AcDbXrecord
280
     1
102
RTVSPropertyOp0
 70
     1
102
RTVSPropertyOp1
 70
     1
102
RTVSPropertyOp2
 70
     1
102
RTVSPropertyOp3
 70
     1
102
RTVSPropertyOp4
 70
     1
102
RTVSPropertyOp5
 70
     1
102
RTVSPropertyOp6
 70
     1
102
RTVSPropertyOp7
 70
     1
102
RTVSPropertyOp8
 70
     1
102
RTVSPropertyOp9
 70
     1
102
RTVSPropertyOp10
 70
     1
102
RTVSPropertyOp11
 70
     1
102
RTVSPropertyOp12
 70
     1
102
RTVSPropertyOp13
 70
     1
102
RTVSPropertyOp14
 70
     1
102
RTVSPropertyOp15
 70
     1
102
RTVSPropertyOp16
 70
     1
102
RTVSPropertyOp17
 70
     1
102
RTVSPropertyOp18
 70
     1
102
RTVSPropertyOp19
 70
     1
102
RTVSPropertyOp20
 70
     1
102
RTVSPropertyOp21
 70
     1
102
RTVSPropertyOp22
 70
     1
102
RTVSPropertyOp23
 70
     1
102
RTVSPropertyOp24
 70
     1
102
RTVSPropertyOp25
 70
     1
102
RTVSPropertyOp26
 70
     1
102
RTVSPropertyOp27
 70
     1
102
RTVSPropertyOp28
 70
     1
102
RTVSPropertyOp29
 70
     1
102
RTVSPropertyOp30
 70
     1
102
RTVSPropertyOp31
 70
     1
102
RTVSPropertyOp32
 70
     1
102
RTVSPropertyOp33
 70
     1
102
RTVSPropertyOp34
 70
     1
102
RTVSPropertyOp35
 70
     1
102
RTVSPropertyOp36
 70
     1
102
RTVSPropertyOp37
 70
     1
102
RTVSPropertyOp38
 70
     1
102
RTVSPropertyOp39
 70
     1
102
RTVSPropertyOp40
 70
     1
102
RTVSPropertyOp41
 70
     1
102
RTVSPropertyOp42
 70
     1
102
RTVSPropertyOp43
 70
     1
102
RTVSPropertyOp44
 70
     1
102
RTVSPropertyOp45
 70
     1
102
RTVSPropertyOp46
 70
     1
102
RTVSPropertyOp47
 70
     1
102
RTVSPropertyOp48
 70
     1
102
RTVSPropertyOp49
 70
     1
102
RTVSPropertyOp50
 70
     1
102
RTVSPropertyOp51
 70
     0
102
RTVSPropertyOp52
 70
     0
102
RTVSPropertyOp53
 70
     1
102
RTVSPropertyOp54
 70
     1
102
RTVSPropertyOp55
 70
     1
102
RTVSPropertyOp56
 70
     1
102
RTVSPropertyOp57
 70
     1
102
RTVSPost2010Prop28
280
     0
102
RTVSPost2010PropOp28
 70
     1
102
RTVSPost2010Prop29
280
     1
102
RTVSPost2010PropOp29
 70
     1
102
RTVSPost2010Prop30
280
     1
102
RTVSPost2010PropOp30
 70
     1
102
RTVSPost2010Prop31
280
     0
102
RTVSPost2010PropOp31
 70
     1
102
RTVSPost2010Prop32
280
     0
102
RTVSPost2010PropOp32
 70
     1
102
RTVSPost2010Prop33
280
     0
102
RTVSPost2010PropOp33
 70
     1
102
RTVSPost2010Prop34
280
     0
102
RTVSPost2010PropOp34
 70
     1
102
RTVSPost2010Prop35
280
     0
102
RTVSPost2010PropOp35
 70
     1
102
RTVSPost2010Prop36
280
     0
102
RTVSPost2010PropOp36
 70
     1
102
RTVSPost2010Prop37
 90
       50
102
RTVSPost2010PropOp37
 70
     1
102
RTVSPost2010Prop38
140
0.0
102
RTVSPost2010PropOp38
 70
     1
102
RTVSPost2010Prop39
140
1.0
102
RTVSPost2010PropOp39
 70
     1
102
RTVSPost2010Prop40
 90
        0
102
RTVSPost2010PropOp40
 70
     1
102
RTVSPost2010Prop41ColorIndex
 90
       18
102
RTVSPost2010Prop41ColorRGB
 90
        0
102
RTVSPost2010PropOp41
 70
     1
102
RTVSPost2010Prop42
 90
       50
102
RTVSPost2010PropOp42
 70
     1
102
RTVSPost2010Prop43
 90
        3
102
RTVSPost2010PropOp43
 70
     1
102
RTVSPost2010Prop44ColorIndex
 90
        5
102
RTVSPost2010Prop44ColorRGB
 90
      255
102
RTVSPost2010PropOp44
 70
     1
102
RTVSPost2010Prop45
280
     0
102
RTVSPost2010PropOp45
 70
     1
102
RTVSPost2010Prop46
 90
       50
102
RTVSPost2010PropOp46
 70
     1
102
RTVSPost2010Prop47
 90
       50
102
RTVSPost2010PropOp47
 70
     1
102
RTVSPost2010Prop48
 90
       50
102
RTVSPost2010PropOp48
 70
     1
102
RTVSPost2010Prop49
280
     0
102
RTVSPost2010PropOp49
 70
     1
102
RTVSPost2010Prop50
 90
       50
102
RTVSPost2010PropOp50
 70
     1
102
RTVSPost2010Prop51ColorIndex
 90
      256
102
RTVSPost2010Prop51ColorRGB
 90
-16777216
102
RTVSPost2010PropOp51
 70
     0
102
RTVSPost2010Prop52
140
1.0
102
RTVSPost2010PropOp52
 70
     0
102
RTVSPost2010Prop53
 90
        2
102
RTVSPost2010PropOp53
 70
     1
102
RTVSPost2010Prop54
  1
strokes_ogs.tif
102
RTVSPost2010PropOp54
 70
     1
102
RTVSPost2010Prop55
280
     0
102
RTVSPost2010PropOp55
 70
     1
102
RTVSPost2010Prop56
140
1.0
102
RTVSPost2010PropOp56
 70
     1
102
RTVSPost2010Prop57
140
1.0
102
RTVSPost2010PropOp57
 70
     1
  0
XRECORD
  5
2FC
102
{ACAD_REACTORS
330
2FB
102
}
330
2FB
100
AcDbXrecord
280
     1
102
RTVSPropertyOp0
 70
     0
102
RTVSPropertyOp1
 70
     0
102
RTVSPropertyOp2
 70
     0
102
RTVSPropertyOp3
 70
     0
102
RTVSPropertyOp4
 70
     0
102
RTVSPropertyOp5
 70
     0
102
RTVSPropertyOp6
 70
     0
102
RTVSPropertyOp7
 70
     0
102
RTVSPropertyOp8
 70
     0
102
RTVSPropertyOp9
 70
     0
102
RTVSPropertyOp10
 70
     0
102
RTVSPropertyOp11
 70
     0
102
RTVSPropertyOp12
 70
     0
102
RTVSPropertyOp13
 70
     0
102
RTVSPropertyOp14
 70
     2
102
RTVSPropertyOp15
 70
     0
102
RTVSPropertyOp16
 70
     0
102
RTVSPropertyOp17
 70
     0
102
RTVSPropertyOp18
 70
     0
102
RTVSPropertyOp19
 70
     0
102
RTVSPropertyOp20
 70
     0
102
RTVSPropertyOp21
 70
     0
102
RTVSPropertyOp22
 70
     0
102
RTVSPropertyOp23
 70
     0
102
RTVSPropertyOp24
 70
     0
102
RTVSPropertyOp25
 70
     0
102
RTVSPropertyOp26
 70
     0
102
RTVSPropertyOp27
 70
     0
102
RTVSPropertyOp28
 70
     0
102
RTVSPropertyOp29
 70
     0
102
RTVSPropertyOp30
 70
     0
102
RTVSPropertyOp31
 70
     0
102
RTVSPropertyOp32
 70
     0
102
RTVSPropertyOp33
 70
     0
102
RTVSPropertyOp34
 70
     0
102
RTVSPropertyOp35
 70
     0
102
RTVSPropertyOp36
 70
     0
102
RTVSPropertyOp37
 70
     0
102
RTVSPropertyOp38
 70
     0
102
RTVSPropertyOp39
 70
     0
102
RTVSPropertyOp40
 70
     0
102
RTVSPropertyOp41
 70
     0
102
RTVSPropertyOp42
 70
     0
102
RTVSPropertyOp43
 70
     0
102
RTVSPropertyOp44
 70
     0
102
RTVSPropertyOp45
 70
     0
102
RTVSPropertyOp46
 70
     0
102
RTVSPropertyOp47
 70
     0
102
RTVSPropertyOp48
 70
     0
102
RTVSPropertyOp49
 70
     0
102
RTVSPropertyOp50
 70
     0
102
RTVSPropertyOp51
 70
     0
102
RTVSPropertyOp52
 70
     0
102
RTVSPropertyOp53
 70
     0
102
RTVSPropertyOp54
 70
     0
102
RTVSPropertyOp55
 70
     0
102
RTVSPropertyOp56
 70
     0
102
RTVSPropertyOp57
 70
     0
102
RTVSPost2010Prop28
280
     0
102
RTVSPost2010PropOp28
 70
     0
102
RTVSPost2010Prop29
280
     1
102
RTVSPost2010PropOp29
 70
     0
102
RTVSPost2010Prop30
280
     1
102
RTVSPost2010PropOp30
 70
     0
102
RTVSPost2010Prop31
280
     0
102
RTVSPost2010PropOp31
 70
     0
102
RTVSPost2010Prop32
280
     0
102
RTVSPost2010PropOp32
 70
     0
102
RTVSPost2010Prop33
280
     0
102
RTVSPost2010PropOp33
 70
     0
102
RTVSPost2010Prop34
280
     0
102
RTVSPost2010PropOp34
 70
     0
102
RTVSPost2010Prop35
280
     0
102
RTVSPost2010PropOp35
 70
     0
102
RTVSPost2010Prop36
280
     0
102
RTVSPost2010PropOp36
 70
     0
102
RTVSPost2010Prop37
 90
       50
102
RTVSPost2010PropOp37
 70
     0
102
RTVSPost2010Prop38
140
0.0
102
RTVSPost2010PropOp38
 70
     0
102
RTVSPost2010Prop39
140
1.0
102
RTVSPost2010PropOp39
 70
     0
102
RTVSPost2010Prop40
 90
        0
102
RTVSPost2010PropOp40
 70
     0
102
RTVSPost2010Prop41ColorIndex
 90
       18
102
RTVSPost2010Prop41ColorRGB
 90
        0
102
RTVSPost2010PropOp41
 70
     0
102
RTVSPost2010Prop42
 90
       50
102
RTVSPost2010PropOp42
 70
     0
102
RTVSPost2010Prop43
 90
        3
102
RTVSPost2010PropOp43
 70
     0
102
RTVSPost2010Prop44ColorIndex
 90
        5
102
RTVSPost2010Prop44ColorRGB
 90
      255
102
RTVSPost2010PropOp44
 70
     0
102
RTVSPost2010Prop45
280
     0
102
RTVSPost2010PropOp45
 70
     0
102
RTVSPost2010Prop46
 90
       50
102
RTVSPost2010PropOp46
 70
     0
102
RTVSPost2010Prop47
 90
       50
102
RTVSPost2010PropOp47
 70
     0
102
RTVSPost2010Prop48
 90
       50
102
RTVSPost2010PropOp48
 70
     0
102
RTVSPost2010Prop49
280
     0
102
RTVSPost2010PropOp49
 70
     0
102
RTVSPost2010Prop50
 90
       50
102
RTVSPost2010PropOp50
 70
     0
102
RTVSPost2010Prop51ColorIndex
 90
      256
102
RTVSPost2010Prop51ColorRGB
 90
-16777216
102
RTVSPost2010PropOp51
 70
     0
102
RTVSPost2010Prop52
140
1.0
102
RTVSPost2010PropOp52
 70
     0
102
RTVSPost2010Prop53
 90
        2
102
RTVSPost2010PropOp53
 70
     0
102
RTVSPost2010Prop54
  1
strokes_ogs.tif
102
RTVSPost2010PropOp54
 70
     0
102
RTVSPost2010Prop55
280
     0
102
RTVSPost2010PropOp55
 70
     0
102
RTVSPost2010Prop56
140
1.0
102
RTVSPost2010PropOp56
 70
     0
102
RTVSPost2010Prop57
140
1.0
102
RTVSPost2010PropOp57
 70
     0
  0
XRECORD
  5
2EA
102
{ACAD_REACTORS
330
2E9
102
}
330
2E9
100
AcDbXrecord
280
     1
102
RTVSPropertyOp0
 70
     1
102
RTVSPropertyOp1
 70
     1
102
RTVSPropertyOp2
 70
     1
102
RTVSPropertyOp3
 70
     1
102
RTVSPropertyOp4
 70
     1
102
RTVSPropertyOp5
 70
     1
102
RTVSPropertyOp6
 70
     1
102
RTVSPropertyOp7
 70
     1
102
RTVSPropertyOp8
 70
     1
102
RTVSPropertyOp9
 70
     1
102
RTVSPropertyOp10
 70
     1
102
RTVSPropertyOp11
 70
     1
102
RTVSPropertyOp12
 70
     1
102
RTVSPropertyOp13
 70
     1
102
RTVSPropertyOp14
 70
     1
102
RTVSPropertyOp15
 70
     1
102
RTVSPropertyOp16
 70
     1
102
RTVSPropertyOp17
 70
     1
102
RTVSPropertyOp18
 70
     1
102
RTVSPropertyOp19
 70
     1
102
RTVSPropertyOp20
 70
     1
102
RTVSPropertyOp21
 70
     1
102
RTVSPropertyOp22
 70
     1
102
RTVSPropertyOp23
 70
     1
102
RTVSPropertyOp24
 70
     1
102
RTVSPropertyOp25
 70
     1
102
RTVSPropertyOp26
 70
     1
102
RTVSPropertyOp27
 70
     1
102
RTVSPropertyOp28
 70
     1
102
RTVSPropertyOp29
 70
     1
102
RTVSPropertyOp30
 70
     1
102
RTVSPropertyOp31
 70
     1
102
RTVSPropertyOp32
 70
     1
102
RTVSPropertyOp33
 70
     1
102
RTVSPropertyOp34
 70
     1
102
RTVSPropertyOp35
 70
     1
102
RTVSPropertyOp36
 70
     1
102
RTVSPropertyOp37
 70
     1
102
RTVSPropertyOp38
 70
     1
102
RTVSPropertyOp39
 70
     1
102
RTVSPropertyOp40
 70
     1
102
RTVSPropertyOp41
 70
     1
102
RTVSPropertyOp42
 70
     1
102
RTVSPropertyOp43
 70
     1
102
RTVSPropertyOp44
 70
     1
102
RTVSPropertyOp45
 70
     1
102
RTVSPropertyOp46
 70
     1
102
RTVSPropertyOp47
 70
     1
102
RTVSPropertyOp48
 70
     1
102
RTVSPropertyOp49
 70
     1
102
RTVSPropertyOp50
 70
     1
102
RTVSPropertyOp51
 70
     0
102
RTVSPropertyOp52
 70
     0
102
RTVSPropertyOp53
 70
     1
102
RTVSPropertyOp54
 70
     1
102
RTVSPropertyOp55
 70
     1
102
RTVSPropertyOp56
 70
     1
102
RTVSPropertyOp57
 70
     1
102
RTVSPost2010Prop28
280
     0
102
RTVSPost2010PropOp28
 70
     1
102
RTVSPost2010Prop29
280
     1
102
RTVSPost2010PropOp29
 70
     1
102
RTVSPost2010Prop30
280
     1
102
RTVSPost2010PropOp30
 70
     1
102
RTVSPost2010Prop31
280
     0
102
RTVSPost2010PropOp31
 70
     1
102
RTVSPost2010Prop32
280
     0
102
RTVSPost2010PropOp32
 70
     1
102
RTVSPost2010Prop33
280
     0
102
RTVSPost2010PropOp33
 70
     1
102
RTVSPost2010Prop34
280
     0
102
RTVSPost2010PropOp34
 70
     1
102
RTVSPost2010Prop35
280
     0
102
RTVSPost2010PropOp35
 70
     1
102
RTVSPost2010Prop36
280
     0
102
RTVSPost2010PropOp36
 70
     1
102
RTVSPost2010Prop37
 90
       50
102
RTVSPost2010PropOp37
 70
     1
102
RTVSPost2010Prop38
140
0.0
102
RTVSPost2010PropOp38
 70
     1
102
RTVSPost2010Prop39
140
1.0
102
RTVSPost2010PropOp39
 70
     1
102
RTVSPost2010Prop40
 90
        0
102
RTVSPost2010PropOp40
 70
     1
102
RTVSPost2010Prop41ColorIndex
 90
       18
102
RTVSPost2010Prop41ColorRGB
 90
        0
102
RTVSPost2010PropOp41
 70
     1
102
RTVSPost2010Prop42
 90
       50
102
RTVSPost2010PropOp42
 70
     1
102
RTVSPost2010Prop43
 90
        3
102
RTVSPost2010PropOp43
 70
     1
102
RTVSPost2010Prop44ColorIndex
 90
        5
102
RTVSPost2010Prop44ColorRGB
 90
      255
102
RTVSPost2010PropOp44
 70
     1
102
RTVSPost2010Prop45
280
     0
102
RTVSPost2010PropOp45
 70
     1
102
RTVSPost2010Prop46
 90
       50
102
RTVSPost2010PropOp46
 70
     1
102
RTVSPost2010Prop47
 90
       50
102
RTVSPost2010PropOp47
 70
     1
102
RTVSPost2010Prop48
 90
       50
102
RTVSPost2010PropOp48
 70
     1
102
RTVSPost2010Prop49
280
     0
102
RTVSPost2010PropOp49
 70
     1
102
RTVSPost2010Prop50
 90
       50
102
RTVSPost2010PropOp50
 70
     1
102
RTVSPost2010Prop51ColorIndex
 90
      256
102
RTVSPost2010Prop51ColorRGB
 90
-16777216
102
RTVSPost2010PropOp51
 70
     0
102
RTVSPost2010Prop52
140
1.0
102
RTVSPost2010PropOp52
 70
     0
102
RTVSPost2010Prop53
 90
        2
102
RTVSPost2010PropOp53
 70
     1
102
RTVSPost2010Prop54
  1
strokes_ogs.tif
102
RTVSPost2010PropOp54
 70
     1
102
RTVSPost2010Prop55
280
     0
102
RTVSPost2010PropOp55
 70
     1
102
RTVSPost2010Prop56
140
1.0
102
RTVSPost2010PropOp56
 70
     1
102
RTVSPost2010Prop57
140
1.0
102
RTVSPost2010PropOp57
 70
     1
  0
XRECORD
  5
308
102
{ACAD_REACTORS
330
307
102
}
330
307
100
AcDbXrecord
280
     1
102
RTVSPropertyOp0
 70
     1
102
RTVSPropertyOp1
 70
     1
102
RTVSPropertyOp2
 70
     1
102
RTVSPropertyOp3
 70
     1
102
RTVSPropertyOp4
 70
     1
102
RTVSPropertyOp5
 70
     1
102
RTVSPropertyOp6
 70
     1
102
RTVSPropertyOp7
 70
     1
102
RTVSPropertyOp8
 70
     1
102
RTVSPropertyOp9
 70
     1
102
RTVSPropertyOp10
 70
     1
102
RTVSPropertyOp11
 70
     1
102
RTVSPropertyOp12
 70
     1
102
RTVSPropertyOp13
 70
     1
102
RTVSPropertyOp14
 70
     1
102
RTVSPropertyOp15
 70
     1
102
RTVSPropertyOp16
 70
     1
102
RTVSPropertyOp17
 70
     1
102
RTVSPropertyOp18
 70
     1
102
RTVSPropertyOp19
 70
     1
102
RTVSPropertyOp20
 70
     1
102
RTVSPropertyOp21
 70
     1
102
RTVSPropertyOp22
 70
     1
102
RTVSPropertyOp23
 70
     1
102
RTVSPropertyOp24
 70
     1
102
RTVSPropertyOp25
 70
     1
102
RTVSPropertyOp26
 70
     1
102
RTVSPropertyOp27
 70
     1
102
RTVSPropertyOp28
 70
     1
102
RTVSPropertyOp29
 70
     1
102
RTVSPropertyOp30
 70
     1
102
RTVSPropertyOp31
 70
     1
102
RTVSPropertyOp32
 70
     1
102
RTVSPropertyOp33
 70
     1
102
RTVSPropertyOp34
 70
     1
102
RTVSPropertyOp35
 70
     1
102
RTVSPropertyOp36
 70
     1
102
RTVSPropertyOp37
 70
     1
102
RTVSPropertyOp38
 70
     1
102
RTVSPropertyOp39
 70
     1
102
RTVSPropertyOp40
 70
     1
102
RTVSPropertyOp41
 70
     1
102
RTVSPropertyOp42
 70
     1
102
RTVSPropertyOp43
 70
     1
102
RTVSPropertyOp44
 70
     1
102
RTVSPropertyOp45
 70
     1
102
RTVSPropertyOp46
 70
     1
102
RTVSPropertyOp47
 70
     1
102
RTVSPropertyOp48
 70
     1
102
RTVSPropertyOp49
 70
     1
102
RTVSPropertyOp50
 70
     1
102
RTVSPropertyOp51
 70
     0
102
RTVSPropertyOp52
 70
     0
102
RTVSPropertyOp53
 70
     1
102
RTVSPropertyOp54
 70
     1
102
RTVSPropertyOp55
 70
     1
102
RTVSPropertyOp56
 70
     1
102
RTVSPropertyOp57
 70
     1
102
RTVSPost2010Prop28
280
     0
102
RTVSPost2010PropOp28
 70
     1
102
RTVSPost2010Prop29
280
     1
102
RTVSPost2010PropOp29
 70
     1
102
RTVSPost2010Prop30
280
     1
102
RTVSPost2010PropOp30
 70
     1
102
RTVSPost2010Prop31
280
     0
102
RTVSPost2010PropOp31
 70
     1
102
RTVSPost2010Prop32
280
     0
102
RTVSPost2010PropOp32
 70
     1
102
RTVSPost2010Prop33
280
     0
102
RTVSPost2010PropOp33
 70
     1
102
RTVSPost2010Prop34
280
     0
102
RTVSPost2010PropOp34
 70
     1
102
RTVSPost2010Prop35
280
     0
102
RTVSPost2010PropOp35
 70
     1
102
RTVSPost2010Prop36
280
     0
102
RTVSPost2010PropOp36
 70
     1
102
RTVSPost2010Prop37
 90
       50
102
RTVSPost2010PropOp37
 70
     1
102
RTVSPost2010Prop38
140
0.0
102
RTVSPost2010PropOp38
 70
     1
102
RTVSPost2010Prop39
140
1.0
102
RTVSPost2010PropOp39
 70
     1
102
RTVSPost2010Prop40
 90
        0
102
RTVSPost2010PropOp40
 70
     1
102
RTVSPost2010Prop41ColorIndex
 90
       18
102
RTVSPost2010Prop41ColorRGB
 90
        0
102
RTVSPost2010PropOp41
 70
     1
102
RTVSPost2010Prop42
 90
       50
102
RTVSPost2010PropOp42
 70
     1
102
RTVSPost2010Prop43
 90
        3
102
RTVSPost2010PropOp43
 70
     1
102
RTVSPost2010Prop44ColorIndex
 90
        5
102
RTVSPost2010Prop44ColorRGB
 90
      255
102
RTVSPost2010PropOp44
 70
     1
102
RTVSPost2010Prop45
280
     0
102
RTVSPost2010PropOp45
 70
     1
102
RTVSPost2010Prop46
 90
       50
102
RTVSPost2010PropOp46
 70
     1
102
RTVSPost2010Prop47
 90
       50
102
RTVSPost2010PropOp47
 70
     1
102
RTVSPost2010Prop48
 90
       50
102
RTVSPost2010PropOp48
 70
     1
102
RTVSPost2010Prop49
280
     0
102
RTVSPost2010PropOp49
 70
     1
102
RTVSPost2010Prop50
 90
       50
102
RTVSPost2010PropOp50
 70
     1
102
RTVSPost2010Prop51ColorIndex
 90
      256
102
RTVSPost2010Prop51ColorRGB
 90
-16777216
102
RTVSPost2010PropOp51
 70
     0
102
RTVSPost2010Prop52
140
1.0
102
RTVSPost2010PropOp52
 70
     0
102
RTVSPost2010Prop53
 90
        2
102
RTVSPost2010PropOp53
 70
     1
102
RTVSPost2010Prop54
  1
strokes_ogs.tif
102
RTVSPost2010PropOp54
 70
     1
102
RTVSPost2010Prop55
280
     0
102
RTVSPost2010PropOp55
 70
     1
102
RTVSPost2010Prop56
140
1.0
102
RTVSPost2010PropOp56
 70
     1
102
RTVSPost2010Prop57
140
1.0
102
RTVSPost2010PropOp57
 70
     1
  0
XRECORD
  5
306
102
{ACAD_REACTORS
330
305
102
}
330
305
100
AcDbXrecord
280
     1
102
RTVSPropertyOp0
 70
     1
102
RTVSPropertyOp1
 70
     1
102
RTVSPropertyOp2
 70
     1
102
RTVSPropertyOp3
 70
     1
102
RTVSPropertyOp4
 70
     1
102
RTVSPropertyOp5
 70
     1
102
RTVSPropertyOp6
 70
     1
102
RTVSPropertyOp7
 70
     1
102
RTVSPropertyOp8
 70
     1
102
RTVSPropertyOp9
 70
     1
102
RTVSPropertyOp10
 70
     1
102
RTVSPropertyOp11
 70
     1
102
RTVSPropertyOp12
 70
     1
102
RTVSPropertyOp13
 70
     1
102
RTVSPropertyOp14
 70
     1
102
RTVSPropertyOp15
 70
     1
102
RTVSPropertyOp16
 70
     1
102
RTVSPropertyOp17
 70
     1
102
RTVSPropertyOp18
 70
     1
102
RTVSPropertyOp19
 70
     1
102
RTVSPropertyOp20
 70
     1
102
RTVSPropertyOp21
 70
     1
102
RTVSPropertyOp22
 70
     1
102
RTVSPropertyOp23
 70
     1
102
RTVSPropertyOp24
 70
     1
102
RTVSPropertyOp25
 70
     1
102
RTVSPropertyOp26
 70
     1
102
RTVSPropertyOp27
 70
     1
102
RTVSPropertyOp28
 70
     1
102
RTVSPropertyOp29
 70
     1
102
RTVSPropertyOp30
 70
     1
102
RTVSPropertyOp31
 70
     1
102
RTVSPropertyOp32
 70
     1
102
RTVSPropertyOp33
 70
     1
102
RTVSPropertyOp34
 70
     1
102
RTVSPropertyOp35
 70
     1
102
RTVSPropertyOp36
 70
     1
102
RTVSPropertyOp37
 70
     1
102
RTVSPropertyOp38
 70
     1
102
RTVSPropertyOp39
 70
     1
102
RTVSPropertyOp40
 70
     1
102
RTVSPropertyOp41
 70
     1
102
RTVSPropertyOp42
 70
     1
102
RTVSPropertyOp43
 70
     1
102
RTVSPropertyOp44
 70
     1
102
RTVSPropertyOp45
 70
     1
102
RTVSPropertyOp46
 70
     1
102
RTVSPropertyOp47
 70
     1
102
RTVSPropertyOp48
 70
     1
102
RTVSPropertyOp49
 70
     1
102
RTVSPropertyOp50
 70
     1
102
RTVSPropertyOp51
 70
     0
102
RTVSPropertyOp52
 70
     0
102
RTVSPropertyOp53
 70
     1
102
RTVSPropertyOp54
 70
     1
102
RTVSPropertyOp55
 70
     1
102
RTVSPropertyOp56
 70
     1
102
RTVSPropertyOp57
 70
     1
102
RTVSPost2010Prop28
280
     0
102
RTVSPost2010PropOp28
 70
     1
102
RTVSPost2010Prop29
280
     1
102
RTVSPost2010PropOp29
 70
     1
102
RTVSPost2010Prop30
280
     1
102
RTVSPost2010PropOp30
 70
     1
102
RTVSPost2010Prop31
280
     0
102
RTVSPost2010PropOp31
 70
     1
102
RTVSPost2010Prop32
280
     0
102
RTVSPost2010PropOp32
 70
     1
102
RTVSPost2010Prop33
280
     0
102
RTVSPost2010PropOp33
 70
     1
102
RTVSPost2010Prop34
280
     0
102
RTVSPost2010PropOp34
 70
     1
102
RTVSPost2010Prop35
280
     0
102
RTVSPost2010PropOp35
 70
     1
102
RTVSPost2010Prop36
280
     0
102
RTVSPost2010PropOp36
 70
     1
102
RTVSPost2010Prop37
 90
       50
102
RTVSPost2010PropOp37
 70
     1
102
RTVSPost2010Prop38
140
0.0
102
RTVSPost2010PropOp38
 70
     1
102
RTVSPost2010Prop39
140
1.0
102
RTVSPost2010PropOp39
 70
     1
102
RTVSPost2010Prop40
 90
        0
102
RTVSPost2010PropOp40
 70
     1
102
RTVSPost2010Prop41ColorIndex
 90
       18
102
RTVSPost2010Prop41ColorRGB
 90
        0
102
RTVSPost2010PropOp41
 70
     1
102
RTVSPost2010Prop42
 90
       50
102
RTVSPost2010PropOp42
 70
     1
102
RTVSPost2010Prop43
 90
        3
102
RTVSPost2010PropOp43
 70
     1
102
RTVSPost2010Prop44ColorIndex
 90
        5
102
RTVSPost2010Prop44ColorRGB
 90
      255
102
RTVSPost2010PropOp44
 70
     1
102
RTVSPost2010Prop45
280
     0
102
RTVSPost2010PropOp45
 70
     1
102
RTVSPost2010Prop46
 90
       50
102
RTVSPost2010PropOp46
 70
     1
102
RTVSPost2010Prop47
 90
       50
102
RTVSPost2010PropOp47
 70
     1
102
RTVSPost2010Prop48
 90
       50
102
RTVSPost2010PropOp48
 70
     1
102
RTVSPost2010Prop49
280
     0
102
RTVSPost2010PropOp49
 70
     1
102
RTVSPost2010Prop50
 90
       50
102
RTVSPost2010PropOp50
 70
     1
102
RTVSPost2010Prop51ColorIndex
 90
      256
102
RTVSPost2010Prop51ColorRGB
 90
-16777216
102
RTVSPost2010PropOp51
 70
     0
102
RTVSPost2010Prop52
140
1.0
102
RTVSPost2010PropOp52
 70
     0
102
RTVSPost2010Prop53
 90
        2
102
RTVSPost2010PropOp53
 70
     1
102
RTVSPost2010Prop54
  1
strokes_ogs.tif
102
RTVSPost2010PropOp54
 70
     1
102
RTVSPost2010Prop55
280
     0
102
RTVSPost2010PropOp55
 70
     1
102
RTVSPost2010Prop56
140
1.0
102
RTVSPost2010PropOp56
 70
     1
102
RTVSPost2010Prop57
140
1.0
102
RTVSPost2010PropOp57
 70
     1
  0
XRECORD
  5
300
102
{ACAD_REACTORS
330
2FF
102
}
330
2FF
100
AcDbXrecord
280
     1
102
RTVSPropertyOp0
 70
     1
102
RTVSPropertyOp1
 70
     1
102
RTVSPropertyOp2
 70
     1
102
RTVSPropertyOp3
 70
     1
102
RTVSPropertyOp4
 70
     1
102
RTVSPropertyOp5
 70
     1
102
RTVSPropertyOp6
 70
     1
102
RTVSPropertyOp7
 70
     1
102
RTVSPropertyOp8
 70
     1
102
RTVSPropertyOp9
 70
     1
102
RTVSPropertyOp10
 70
     1
102
RTVSPropertyOp11
 70
     1
102
RTVSPropertyOp12
 70
     1
102
RTVSPropertyOp13
 70
     1
102
RTVSPropertyOp14
 70
     1
102
RTVSPropertyOp15
 70
     1
102
RTVSPropertyOp16
 70
     1
102
RTVSPropertyOp17
 70
     1
102
RTVSPropertyOp18
 70
     1
102
RTVSPropertyOp19
 70
     1
102
RTVSPropertyOp20
 70
     1
102
RTVSPropertyOp21
 70
     1
102
RTVSPropertyOp22
 70
     1
102
RTVSPropertyOp23
 70
     1
102
RTVSPropertyOp24
 70
     1
102
RTVSPropertyOp25
 70
     1
102
RTVSPropertyOp26
 70
     1
102
RTVSPropertyOp27
 70
     1
102
RTVSPropertyOp28
 70
     1
102
RTVSPropertyOp29
 70
     1
102
RTVSPropertyOp30
 70
     1
102
RTVSPropertyOp31
 70
     1
102
RTVSPropertyOp32
 70
     1
102
RTVSPropertyOp33
 70
     1
102
RTVSPropertyOp34
 70
     1
102
RTVSPropertyOp35
 70
     1
102
RTVSPropertyOp36
 70
     1
102
RTVSPropertyOp37
 70
     1
102
RTVSPropertyOp38
 70
     1
102
RTVSPropertyOp39
 70
     1
102
RTVSPropertyOp40
 70
     1
102
RTVSPropertyOp41
 70
     1
102
RTVSPropertyOp42
 70
     1
102
RTVSPropertyOp43
 70
     1
102
RTVSPropertyOp44
 70
     1
102
RTVSPropertyOp45
 70
     1
102
RTVSPropertyOp46
 70
     1
102
RTVSPropertyOp47
 70
     1
102
RTVSPropertyOp48
 70
     1
102
RTVSPropertyOp49
 70
     1
102
RTVSPropertyOp50
 70
     1
102
RTVSPropertyOp51
 70
     0
102
RTVSPropertyOp52
 70
     0
102
RTVSPropertyOp53
 70
     1
102
RTVSPropertyOp54
 70
     1
102
RTVSPropertyOp55
 70
     1
102
RTVSPropertyOp56
 70
     1
102
RTVSPropertyOp57
 70
     1
102
RTVSPost2010Prop28
280
     0
102
RTVSPost2010PropOp28
 70
     1
102
RTVSPost2010Prop29
280
     1
102
RTVSPost2010PropOp29
 70
     1
102
RTVSPost2010Prop30
280
     1
102
RTVSPost2010PropOp30
 70
     1
102
RTVSPost2010Prop31
280
     0
102
RTVSPost2010PropOp31
 70
     1
102
RTVSPost2010Prop32
280
     0
102
RTVSPost2010PropOp32
 70
     1
102
RTVSPost2010Prop33
280
     0
102
RTVSPost2010PropOp33
 70
     1
102
RTVSPost2010Prop34
280
     0
102
RTVSPost2010PropOp34
 70
     1
102
RTVSPost2010Prop35
280
     0
102
RTVSPost2010PropOp35
 70
     1
102
RTVSPost2010Prop36
280
     0
102
RTVSPost2010PropOp36
 70
     1
102
RTVSPost2010Prop37
 90
       50
102
RTVSPost2010PropOp37
 70
     1
102
RTVSPost2010Prop38
140
0.0
102
RTVSPost2010PropOp38
 70
     1
102
RTVSPost2010Prop39
140
1.0
102
RTVSPost2010PropOp39
 70
     1
102
RTVSPost2010Prop40
 90
        0
102
RTVSPost2010PropOp40
 70
     1
102
RTVSPost2010Prop41ColorIndex
 90
       18
102
RTVSPost2010Prop41ColorRGB
 90
        0
102
RTVSPost2010PropOp41
 70
     1
102
RTVSPost2010Prop42
 90
       50
102
RTVSPost2010PropOp42
 70
     1
102
RTVSPost2010Prop43
 90
        3
102
RTVSPost2010PropOp43
 70
     1
102
RTVSPost2010Prop44ColorIndex
 90
        5
102
RTVSPost2010Prop44ColorRGB
 90
      255
102
RTVSPost2010PropOp44
 70
     1
102
RTVSPost2010Prop45
280
     0
102
RTVSPost2010PropOp45
 70
     1
102
RTVSPost2010Prop46
 90
       50
102
RTVSPost2010PropOp46
 70
     1
102
RTVSPost2010Prop47
 90
       50
102
RTVSPost2010PropOp47
 70
     1
102
RTVSPost2010Prop48
 90
       50
102
RTVSPost2010PropOp48
 70
     1
102
RTVSPost2010Prop49
280
     0
102
RTVSPost2010PropOp49
 70
     1
102
RTVSPost2010Prop50
 90
       50
102
RTVSPost2010PropOp50
 70
     1
102
RTVSPost2010Prop51ColorIndex
 90
      256
102
RTVSPost2010Prop51ColorRGB
 90
-16777216
102
RTVSPost2010PropOp51
 70
     0
102
RTVSPost2010Prop52
140
1.0
102
RTVSPost2010PropOp52
 70
     0
102
RTVSPost2010Prop53
 90
        2
102
RTVSPost2010PropOp53
 70
     1
102
RTVSPost2010Prop54
  1
strokes_ogs.tif
102
RTVSPost2010PropOp54
 70
     1
102
RTVSPost2010Prop55
280
     0
102
RTVSPost2010PropOp55
 70
     1
102
RTVSPost2010Prop56
140
1.0
102
RTVSPost2010PropOp56
 70
     1
102
RTVSPost2010Prop57
140
1.0
102
RTVSPost2010PropOp57
 70
     1
  0
XRECORD
  5
302
102
{ACAD_REACTORS
330
301
102
}
330
301
100
AcDbXrecord
280
     1
102
RTVSPropertyOp0
 70
     1
102
RTVSPropertyOp1
 70
     1
102
RTVSPropertyOp2
 70
     1
102
RTVSPropertyOp3
 70
     1
102
RTVSPropertyOp4
 70
     1
102
RTVSPropertyOp5
 70
     1
102
RTVSPropertyOp6
 70
     1
102
RTVSPropertyOp7
 70
     1
102
RTVSPropertyOp8
 70
     1
102
RTVSPropertyOp9
 70
     1
102
RTVSPropertyOp10
 70
     1
102
RTVSPropertyOp11
 70
     1
102
RTVSPropertyOp12
 70
     1
102
RTVSPropertyOp13
 70
     1
102
RTVSPropertyOp14
 70
     1
102
RTVSPropertyOp15
 70
     1
102
RTVSPropertyOp16
 70
     1
102
RTVSPropertyOp17
 70
     1
102
RTVSPropertyOp18
 70
     1
102
RTVSPropertyOp19
 70
     1
102
RTVSPropertyOp20
 70
     1
102
RTVSPropertyOp21
 70
     1
102
RTVSPropertyOp22
 70
     1
102
RTVSPropertyOp23
 70
     1
102
RTVSPropertyOp24
 70
     1
102
RTVSPropertyOp25
 70
     1
102
RTVSPropertyOp26
 70
     1
102
RTVSPropertyOp27
 70
     1
102
RTVSPropertyOp28
 70
     1
102
RTVSPropertyOp29
 70
     1
102
RTVSPropertyOp30
 70
     1
102
RTVSPropertyOp31
 70
     1
102
RTVSPropertyOp32
 70
     1
102
RTVSPropertyOp33
 70
     1
102
RTVSPropertyOp34
 70
     1
102
RTVSPropertyOp35
 70
     1
102
RTVSPropertyOp36
 70
     1
102
RTVSPropertyOp37
 70
     1
102
RTVSPropertyOp38
 70
     1
102
RTVSPropertyOp39
 70
     1
102
RTVSPropertyOp40
 70
     1
102
RTVSPropertyOp41
 70
     1
102
RTVSPropertyOp42
 70
     1
102
RTVSPropertyOp43
 70
     1
102
RTVSPropertyOp44
 70
     1
102
RTVSPropertyOp45
 70
     1
102
RTVSPropertyOp46
 70
     1
102
RTVSPropertyOp47
 70
     1
102
RTVSPropertyOp48
 70
     1
102
RTVSPropertyOp49
 70
     1
102
RTVSPropertyOp50
 70
     1
102
RTVSPropertyOp51
 70
     0
102
RTVSPropertyOp52
 70
     0
102
RTVSPropertyOp53
 70
     1
102
RTVSPropertyOp54
 70
     1
102
RTVSPropertyOp55
 70
     1
102
RTVSPropertyOp56
 70
     1
102
RTVSPropertyOp57
 70
     1
102
RTVSPost2010Prop28
280
     0
102
RTVSPost2010PropOp28
 70
     1
102
RTVSPost2010Prop29
280
     1
102
RTVSPost2010PropOp29
 70
     1
102
RTVSPost2010Prop30
280
     1
102
RTVSPost2010PropOp30
 70
     1
102
RTVSPost2010Prop31
280
     0
102
RTVSPost2010PropOp31
 70
     1
102
RTVSPost2010Prop32
280
     0
102
RTVSPost2010PropOp32
 70
     1
102
RTVSPost2010Prop33
280
     0
102
RTVSPost2010PropOp33
 70
     1
102
RTVSPost2010Prop34
280
     0
102
RTVSPost2010PropOp34
 70
     1
102
RTVSPost2010Prop35
280
     0
102
RTVSPost2010PropOp35
 70
     1
102
RTVSPost2010Prop36
280
     0
102
RTVSPost2010PropOp36
 70
     1
102
RTVSPost2010Prop37
 90
       50
102
RTVSPost2010PropOp37
 70
     1
102
RTVSPost2010Prop38
140
0.0
102
RTVSPost2010PropOp38
 70
     1
102
RTVSPost2010Prop39
140
1.0
102
RTVSPost2010PropOp39
 70
     1
102
RTVSPost2010Prop40
 90
        0
102
RTVSPost2010PropOp40
 70
     1
102
RTVSPost2010Prop41ColorIndex
 90
       18
102
RTVSPost2010Prop41ColorRGB
 90
        0
102
RTVSPost2010PropOp41
 70
     1
102
RTVSPost2010Prop42
 90
       50
102
RTVSPost2010PropOp42
 70
     1
102
RTVSPost2010Prop43
 90
        3
102
RTVSPost2010PropOp43
 70
     1
102
RTVSPost2010Prop44ColorIndex
 90
        5
102
RTVSPost2010Prop44ColorRGB
 90
      255
102
RTVSPost2010PropOp44
 70
     1
102
RTVSPost2010Prop45
280
     0
102
RTVSPost2010PropOp45
 70
     1
102
RTVSPost2010Prop46
 90
       50
102
RTVSPost2010PropOp46
 70
     1
102
RTVSPost2010Prop47
 90
       50
102
RTVSPost2010PropOp47
 70
     1
102
RTVSPost2010Prop48
 90
       50
102
RTVSPost2010PropOp48
 70
     1
102
RTVSPost2010Prop49
280
     0
102
RTVSPost2010PropOp49
 70
     1
102
RTVSPost2010Prop50
 90
       50
102
RTVSPost2010PropOp50
 70
     1
102
RTVSPost2010Prop51ColorIndex
 90
      256
102
RTVSPost2010Prop51ColorRGB
 90
-16777216
102
RTVSPost2010PropOp51
 70
     0
102
RTVSPost2010Prop52
140
1.0
102
RTVSPost2010PropOp52
 70
     0
102
RTVSPost2010Prop53
 90
        2
102
RTVSPost2010PropOp53
 70
     1
102
RTVSPost2010Prop54
  1
strokes_ogs.tif
102
RTVSPost2010PropOp54
 70
     1
102
RTVSPost2010Prop55
280
     0
102
RTVSPost2010PropOp55
 70
     1
102
RTVSPost2010Prop56
140
1.0
102
RTVSPost2010PropOp56
 70
     1
102
RTVSPost2010Prop57
140
1.0
102
RTVSPost2010PropOp57
 70
     1
  0
XRECORD
  5
2F2
102
{ACAD_REACTORS
330
2F1
102
}
330
2F1
100
AcDbXrecord
280
     1
102
RTVSPropertyOp0
 70
     1
102
RTVSPropertyOp1
 70
     1
102
RTVSPropertyOp2
 70
     1
102
RTVSPropertyOp3
 70
     1
102
RTVSPropertyOp4
 70
     1
102
RTVSPropertyOp5
 70
     1
102
RTVSPropertyOp6
 70
     1
102
RTVSPropertyOp7
 70
     1
102
RTVSPropertyOp8
 70
     1
102
RTVSPropertyOp9
 70
     1
102
RTVSPropertyOp10
 70
     1
102
RTVSPropertyOp11
 70
     1
102
RTVSPropertyOp12
 70
     1
102
RTVSPropertyOp13
 70
     1
102
RTVSPropertyOp14
 70
     1
102
RTVSPropertyOp15
 70
     1
102
RTVSPropertyOp16
 70
     1
102
RTVSPropertyOp17
 70
     1
102
RTVSPropertyOp18
 70
     1
102
RTVSPropertyOp19
 70
     1
102
RTVSPropertyOp20
 70
     1
102
RTVSPropertyOp21
 70
     1
102
RTVSPropertyOp22
 70
     1
102
RTVSPropertyOp23
 70
     1
102
RTVSPropertyOp24
 70
     1
102
RTVSPropertyOp25
 70
     1
102
RTVSPropertyOp26
 70
     1
102
RTVSPropertyOp27
 70
     1
102
RTVSPropertyOp28
 70
     1
102
RTVSPropertyOp29
 70
     1
102
RTVSPropertyOp30
 70
     1
102
RTVSPropertyOp31
 70
     1
102
RTVSPropertyOp32
 70
     1
102
RTVSPropertyOp33
 70
     1
102
RTVSPropertyOp34
 70
     1
102
RTVSPropertyOp35
 70
     1
102
RTVSPropertyOp36
 70
     1
102
RTVSPropertyOp37
 70
     1
102
RTVSPropertyOp38
 70
     1
102
RTVSPropertyOp39
 70
     1
102
RTVSPropertyOp40
 70
     1
102
RTVSPropertyOp41
 70
     1
102
RTVSPropertyOp42
 70
     1
102
RTVSPropertyOp43
 70
     1
102
RTVSPropertyOp44
 70
     1
102
RTVSPropertyOp45
 70
     1
102
RTVSPropertyOp46
 70
     1
102
RTVSPropertyOp47
 70
     1
102
RTVSPropertyOp48
 70
     1
102
RTVSPropertyOp49
 70
     1
102
RTVSPropertyOp50
 70
     1
102
RTVSPropertyOp51
 70
     0
102
RTVSPropertyOp52
 70
     0
102
RTVSPropertyOp53
 70
     1
102
RTVSPropertyOp54
 70
     1
102
RTVSPropertyOp55
 70
     1
102
RTVSPropertyOp56
 70
     1
102
RTVSPropertyOp57
 70
     1
102
RTVSPost2010Prop28
280
     0
102
RTVSPost2010PropOp28
 70
     1
102
RTVSPost2010Prop29
280
     1
102
RTVSPost2010PropOp29
 70
     1
102
RTVSPost2010Prop30
280
     1
102
RTVSPost2010PropOp30
 70
     1
102
RTVSPost2010Prop31
280
     0
102
RTVSPost2010PropOp31
 70
     1
102
RTVSPost2010Prop32
280
     0
102
RTVSPost2010PropOp32
 70
     1
102
RTVSPost2010Prop33
280
     0
102
RTVSPost2010PropOp33
 70
     1
102
RTVSPost2010Prop34
280
     0
102
RTVSPost2010PropOp34
 70
     1
102
RTVSPost2010Prop35
280
     0
102
RTVSPost2010PropOp35
 70
     1
102
RTVSPost2010Prop36
280
     0
102
RTVSPost2010PropOp36
 70
     1
102
RTVSPost2010Prop37
 90
       50
102
RTVSPost2010PropOp37
 70
     1
102
RTVSPost2010Prop38
140
0.0
102
RTVSPost2010PropOp38
 70
     1
102
RTVSPost2010Prop39
140
1.0
102
RTVSPost2010PropOp39
 70
     1
102
RTVSPost2010Prop40
 90
        0
102
RTVSPost2010PropOp40
 70
     1
102
RTVSPost2010Prop41ColorIndex
 90
       18
102
RTVSPost2010Prop41ColorRGB
 90
        0
102
RTVSPost2010PropOp41
 70
     1
102
RTVSPost2010Prop42
 90
       50
102
RTVSPost2010PropOp42
 70
     1
102
RTVSPost2010Prop43
 90
        3
102
RTVSPost2010PropOp43
 70
     1
102
RTVSPost2010Prop44ColorIndex
 90
        5
102
RTVSPost2010Prop44ColorRGB
 90
      255
102
RTVSPost2010PropOp44
 70
     1
102
RTVSPost2010Prop45
280
     0
102
RTVSPost2010PropOp45
 70
     1
102
RTVSPost2010Prop46
 90
       50
102
RTVSPost2010PropOp46
 70
     1
102
RTVSPost2010Prop47
 90
       50
102
RTVSPost2010PropOp47
 70
     1
102
RTVSPost2010Prop48
 90
       50
102
RTVSPost2010PropOp48
 70
     1
102
RTVSPost2010Prop49
280
     0
102
RTVSPost2010PropOp49
 70
     1
102
RTVSPost2010Prop50
 90
       50
102
RTVSPost2010PropOp50
 70
     1
102
RTVSPost2010Prop51ColorIndex
 90
      256
102
RTVSPost2010Prop51ColorRGB
 90
-16777216
102
RTVSPost2010PropOp51
 70
     0
102
RTVSPost2010Prop52
140
1.0
102
RTVSPost2010PropOp52
 70
     0
102
RTVSPost2010Prop53
 90
        2
102
RTVSPost2010PropOp53
 70
     1
102
RTVSPost2010Prop54
  1
strokes_ogs.tif
102
RTVSPost2010PropOp54
 70
     1
102
RTVSPost2010Prop55
280
     0
102
RTVSPost2010PropOp55
 70
     1
102
RTVSPost2010Prop56
140
1.0
102
RTVSPost2010PropOp56
 70
     1
102
RTVSPost2010Prop57
140
1.0
102
RTVSPost2010PropOp57
 70
     1
  0
XRECORD
  5
2E4
102
{ACAD_REACTORS
330
2E3
102
}
330
2E3
100
AcDbXrecord
280
     1
102
RTVSPropertyOp0
 70
     1
102
RTVSPropertyOp1
 70
     1
102
RTVSPropertyOp2
 70
     1
102
RTVSPropertyOp3
 70
     1
102
RTVSPropertyOp4
 70
     1
102
RTVSPropertyOp5
 70
     1
102
RTVSPropertyOp6
 70
     1
102
RTVSPropertyOp7
 70
     1
102
RTVSPropertyOp8
 70
     1
102
RTVSPropertyOp9
 70
     1
102
RTVSPropertyOp10
 70
     1
102
RTVSPropertyOp11
 70
     1
102
RTVSPropertyOp12
 70
     1
102
RTVSPropertyOp13
 70
     1
102
RTVSPropertyOp14
 70
     1
102
RTVSPropertyOp15
 70
     1
102
RTVSPropertyOp16
 70
     1
102
RTVSPropertyOp17
 70
     1
102
RTVSPropertyOp18
 70
     1
102
RTVSPropertyOp19
 70
     1
102
RTVSPropertyOp20
 70
     1
102
RTVSPropertyOp21
 70
     1
102
RTVSPropertyOp22
 70
     1
102
RTVSPropertyOp23
 70
     1
102
RTVSPropertyOp24
 70
     1
102
RTVSPropertyOp25
 70
     1
102
RTVSPropertyOp26
 70
     1
102
RTVSPropertyOp27
 70
     1
102
RTVSPropertyOp28
 70
     1
102
RTVSPropertyOp29
 70
     1
102
RTVSPropertyOp30
 70
     1
102
RTVSPropertyOp31
 70
     1
102
RTVSPropertyOp32
 70
     1
102
RTVSPropertyOp33
 70
     1
102
RTVSPropertyOp34
 70
     1
102
RTVSPropertyOp35
 70
     1
102
RTVSPropertyOp36
 70
     1
102
RTVSPropertyOp37
 70
     1
102
RTVSPropertyOp38
 70
     1
102
RTVSPropertyOp39
 70
     1
102
RTVSPropertyOp40
 70
     1
102
RTVSPropertyOp41
 70
     1
102
RTVSPropertyOp42
 70
     1
102
RTVSPropertyOp43
 70
     1
102
RTVSPropertyOp44
 70
     1
102
RTVSPropertyOp45
 70
     1
102
RTVSPropertyOp46
 70
     1
102
RTVSPropertyOp47
 70
     1
102
RTVSPropertyOp48
 70
     1
102
RTVSPropertyOp49
 70
     1
102
RTVSPropertyOp50
 70
     1
102
RTVSPropertyOp51
 70
     0
102
RTVSPropertyOp52
 70
     0
102
RTVSPropertyOp53
 70
     1
102
RTVSPropertyOp54
 70
     1
102
RTVSPropertyOp55
 70
     1
102
RTVSPropertyOp56
 70
     1
102
RTVSPropertyOp57
 70
     1
102
RTVSPost2010Prop28
280
     0
102
RTVSPost2010PropOp28
 70
     1
102
RTVSPost2010Prop29
280
     1
102
RTVSPost2010PropOp29
 70
     1
102
RTVSPost2010Prop30
280
     1
102
RTVSPost2010PropOp30
 70
     1
102
RTVSPost2010Prop31
280
     0
102
RTVSPost2010PropOp31
 70
     1
102
RTVSPost2010Prop32
280
     0
102
RTVSPost2010PropOp32
 70
     1
102
RTVSPost2010Prop33
280
     0
102
RTVSPost2010PropOp33
 70
     1
102
RTVSPost2010Prop34
280
     0
102
RTVSPost2010PropOp34
 70
     1
102
RTVSPost2010Prop35
280
     0
102
RTVSPost2010PropOp35
 70
     1
102
RTVSPost2010Prop36
280
     0
102
RTVSPost2010PropOp36
 70
     1
102
RTVSPost2010Prop37
 90
       50
102
RTVSPost2010PropOp37
 70
     1
102
RTVSPost2010Prop38
140
0.0
102
RTVSPost2010PropOp38
 70
     1
102
RTVSPost2010Prop39
140
1.0
102
RTVSPost2010PropOp39
 70
     1
102
RTVSPost2010Prop40
 90
        0
102
RTVSPost2010PropOp40
 70
     1
102
RTVSPost2010Prop41ColorIndex
 90
       18
102
RTVSPost2010Prop41ColorRGB
 90
        0
102
RTVSPost2010PropOp41
 70
     1
102
RTVSPost2010Prop42
 90
       50
102
RTVSPost2010PropOp42
 70
     1
102
RTVSPost2010Prop43
 90
        3
102
RTVSPost2010PropOp43
 70
     1
102
RTVSPost2010Prop44ColorIndex
 90
        5
102
RTVSPost2010Prop44ColorRGB
 90
      255
102
RTVSPost2010PropOp44
 70
     1
102
RTVSPost2010Prop45
280
     0
102
RTVSPost2010PropOp45
 70
     1
102
RTVSPost2010Prop46
 90
       50
102
RTVSPost2010PropOp46
 70
     1
102
RTVSPost2010Prop47
 90
       50
102
RTVSPost2010PropOp47
 70
     1
102
RTVSPost2010Prop48
 90
       50
102
RTVSPost2010PropOp48
 70
     1
102
RTVSPost2010Prop49
280
     0
102
RTVSPost2010PropOp49
 70
     1
102
RTVSPost2010Prop50
 90
       50
102
RTVSPost2010PropOp50
 70
     1
102
RTVSPost2010Prop51ColorIndex
 90
      256
102
RTVSPost2010Prop51ColorRGB
 90
-16777216
102
RTVSPost2010PropOp51
 70
     0
102
RTVSPost2010Prop52
140
1.0
102
RTVSPost2010PropOp52
 70
     0
102
RTVSPost2010Prop53
 90
        2
102
RTVSPost2010PropOp53
 70
     1
102
RTVSPost2010Prop54
  1
strokes_ogs.tif
102
RTVSPost2010PropOp54
 70
     1
102
RTVSPost2010Prop55
280
     0
102
RTVSPost2010PropOp55
 70
     1
102
RTVSPost2010Prop56
140
1.0
102
RTVSPost2010PropOp56
 70
     1
102
RTVSPost2010Prop57
140
1.0
102
RTVSPost2010PropOp57
 70
     1
  0
XRECORD
  5
304
102
{ACAD_REACTORS
330
303
102
}
330
303
100
AcDbXrecord
280
     1
102
RTVSPropertyOp0
 70
     1
102
RTVSPropertyOp1
 70
     1
102
RTVSPropertyOp2
 70
     1
102
RTVSPropertyOp3
 70
     1
102
RTVSPropertyOp4
 70
     1
102
RTVSPropertyOp5
 70
     1
102
RTVSPropertyOp6
 70
     1
102
RTVSPropertyOp7
 70
     1
102
RTVSPropertyOp8
 70
     1
102
RTVSPropertyOp9
 70
     1
102
RTVSPropertyOp10
 70
     1
102
RTVSPropertyOp11
 70
     1
102
RTVSPropertyOp12
 70
     1
102
RTVSPropertyOp13
 70
     1
102
RTVSPropertyOp14
 70
     1
102
RTVSPropertyOp15
 70
     1
102
RTVSPropertyOp16
 70
     1
102
RTVSPropertyOp17
 70
     1
102
RTVSPropertyOp18
 70
     1
102
RTVSPropertyOp19
 70
     1
102
RTVSPropertyOp20
 70
     1
102
RTVSPropertyOp21
 70
     1
102
RTVSPropertyOp22
 70
     1
102
RTVSPropertyOp23
 70
     1
102
RTVSPropertyOp24
 70
     1
102
RTVSPropertyOp25
 70
     1
102
RTVSPropertyOp26
 70
     1
102
RTVSPropertyOp27
 70
     1
102
RTVSPropertyOp28
 70
     1
102
RTVSPropertyOp29
 70
     1
102
RTVSPropertyOp30
 70
     1
102
RTVSPropertyOp31
 70
     1
102
RTVSPropertyOp32
 70
     1
102
RTVSPropertyOp33
 70
     1
102
RTVSPropertyOp34
 70
     1
102
RTVSPropertyOp35
 70
     1
102
RTVSPropertyOp36
 70
     1
102
RTVSPropertyOp37
 70
     1
102
RTVSPropertyOp38
 70
     1
102
RTVSPropertyOp39
 70
     1
102
RTVSPropertyOp40
 70
     1
102
RTVSPropertyOp41
 70
     1
102
RTVSPropertyOp42
 70
     1
102
RTVSPropertyOp43
 70
     1
102
RTVSPropertyOp44
 70
     1
102
RTVSPropertyOp45
 70
     1
102
RTVSPropertyOp46
 70
     1
102
RTVSPropertyOp47
 70
     1
102
RTVSPropertyOp48
 70
     1
102
RTVSPropertyOp49
 70
     1
102
RTVSPropertyOp50
 70
     1
102
RTVSPropertyOp51
 70
     0
102
RTVSPropertyOp52
 70
     0
102
RTVSPropertyOp53
 70
     1
102
RTVSPropertyOp54
 70
     1
102
RTVSPropertyOp55
 70
     1
102
RTVSPropertyOp56
 70
     1
102
RTVSPropertyOp57
 70
     1
102
RTVSPost2010Prop28
280
     0
102
RTVSPost2010PropOp28
 70
     1
102
RTVSPost2010Prop29
280
     1
102
RTVSPost2010PropOp29
 70
     1
102
RTVSPost2010Prop30
280
     1
102
RTVSPost2010PropOp30
 70
     1
102
RTVSPost2010Prop31
280
     0
102
RTVSPost2010PropOp31
 70
     1
102
RTVSPost2010Prop32
280
     0
102
RTVSPost2010PropOp32
 70
     1
102
RTVSPost2010Prop33
280
     0
102
RTVSPost2010PropOp33
 70
     1
102
RTVSPost2010Prop34
280
     0
102
RTVSPost2010PropOp34
 70
     1
102
RTVSPost2010Prop35
280
     0
102
RTVSPost2010PropOp35
 70
     1
102
RTVSPost2010Prop36
280
     0
102
RTVSPost2010PropOp36
 70
     1
102
RTVSPost2010Prop37
 90
       50
102
RTVSPost2010PropOp37
 70
     1
102
RTVSPost2010Prop38
140
0.0
102
RTVSPost2010PropOp38
 70
     1
102
RTVSPost2010Prop39
140
1.0
102
RTVSPost2010PropOp39
 70
     1
102
RTVSPost2010Prop40
 90
        0
102
RTVSPost2010PropOp40
 70
     1
102
RTVSPost2010Prop41ColorIndex
 90
       18
102
RTVSPost2010Prop41ColorRGB
 90
        0
102
RTVSPost2010PropOp41
 70
     1
102
RTVSPost2010Prop42
 90
       50
102
RTVSPost2010PropOp42
 70
     1
102
RTVSPost2010Prop43
 90
        3
102
RTVSPost2010PropOp43
 70
     1
102
RTVSPost2010Prop44ColorIndex
 90
        5
102
RTVSPost2010Prop44ColorRGB
 90
      255
102
RTVSPost2010PropOp44
 70
     1
102
RTVSPost2010Prop45
280
     0
102
RTVSPost2010PropOp45
 70
     1
102
RTVSPost2010Prop46
 90
       50
102
RTVSPost2010PropOp46
 70
     1
102
RTVSPost2010Prop47
 90
       50
102
RTVSPost2010PropOp47
 70
     1
102
RTVSPost2010Prop48
 90
       50
102
RTVSPost2010PropOp48
 70
     1
102
RTVSPost2010Prop49
280
     0
102
RTVSPost2010PropOp49
 70
     1
102
RTVSPost2010Prop50
 90
       50
102
RTVSPost2010PropOp50
 70
     1
102
RTVSPost2010Prop51ColorIndex
 90
      256
102
RTVSPost2010Prop51ColorRGB
 90
-16777216
102
RTVSPost2010PropOp51
 70
     0
102
RTVSPost2010Prop52
140
1.0
102
RTVSPost2010PropOp52
 70
     0
102
RTVSPost2010Prop53
 90
        2
102
RTVSPost2010PropOp53
 70
     1
102
RTVSPost2010Prop54
  1
strokes_ogs.tif
102
RTVSPost2010PropOp54
 70
     1
102
RTVSPost2010Prop55
280
     0
102
RTVSPost2010PropOp55
 70
     1
102
RTVSPost2010Prop56
140
1.0
102
RTVSPost2010PropOp56
 70
     1
102
RTVSPost2010Prop57
140
1.0
102
RTVSPost2010PropOp57
 70
     1
  0
ENDSEC
  0
EOF
