  0
SECTION
  2
HEADER
  9
$ACADVER
  1
AC1014
  9
$ACADMAINTVER
 70
             0
  9
$DWGCODEPAGE
  3
ANSI_1252
  9
$INSBASE
 10
0.0
 20
0.0
 30
0.0
  9
$EXTMIN
 10
-60.51816291583258
 20
-114.08384396233789
 30
0.0
  9
$EXTMAX
 10
626.05620102788805
 20
243.26271167632049
 30
0.0
  9
$LIMMIN
 10
0.0
 20
0.0
  9
$LIMMAX
 10
0.0
 20
0.0
  9
$ORTHOMODE
 70
             0
  9
$REGENMODE
 70
             1
  9
$FILLMODE
 70
             1
  9
$QTEXTMODE
 70
             0
  9
$MIRRTEXT
 70
             1
  9
$DRAGMODE
 70
             2
  9
$LTSCALE
 40
1.0
  9
$OSMODE
 70
             0
  9
$ATTMODE
 70
             1
  9
$TEXTSIZE
 40
0.2
  9
$TRACEWID
 40
0.05
  9
$TEXTSTYLE
  7
STANDARD
  9
$CLAYER
  8
0
  9
$CELTYPE
  6
CONTINUOUS
  9
$CECOLOR
 62
           256
  9
$CELTSCALE
 40
1.0
  9
$DELOBJ
 70
             1
  9
$DISPSILH
 70
             0
  9
$DIMSCALE
 40
1.0
  9
$DIMASZ
 40
0.18
  9
$DIMEXO
 40
0.0625
  9
$DIMDLI
 40
0.38
  9
$DIMRND
 40
0.0
  9
$DIMDLE
 40
0.0
  9
$DIMEXE
 40
0.18
  9
$DIMTP
 40
0.0
  9
$DIMTM
 40
0.0
  9
$DIMTXT
 40
0.18
  9
$DIMCEN
 40
0.09
  9
$DIMTSZ
 40
0.0
  9
$DIMTOL
 70
             0
  9
$DIMLIM
 70
             0
  9
$DIMTIH
 70
             1
  9
$DIMTOH
 70
             1
  9
$DIMSE1
 70
             0
  9
$DIMSE2
 70
             0
  9
$DIMTAD
 70
             0
  9
$DIMZIN
 70
             0
  9
$DIMBLK
  1

  9
$DIMASO
 70
             1
  9
$DIMSHO
 70
             1
  9
$DIMPOST
  1

  9
$DIMAPOST
  1

  9
$DIMALT
 70
             0
  9
$DIMALTD
 70
             2
  9
$DIMALTF
 40
25.4
  9
$DIMLFAC
 40
1.0
  9
$DIMTOFL
 70
             0
  9
$DIMTVP
 40
0.0
  9
$DIMTIX
 70
             0
  9
$DIMSOXD
 70
             0
  9
$DIMSAH
 70
             0
  9
$DIMBLK1
  1

  9
$DIMBLK2
  1

  9
$DIMSTYLE
  2
STANDARD
  9
$DIMCLRD
 70
             0
  9
$DIMCLRE
 70
             0
  9
$DIMCLRT
 70
             0
  9
$DIMTFAC
 40
1.0
  9
$DIMGAP
 40
0.09
  9
$DIMJUST
 70
             0
  9
$DIMSD1
 70
             0
  9
$DIMSD2
 70
             0
  9
$DIMTOLJ
 70
             1
  9
$DIMTZIN
 70
             0
  9
$DIMALTZ
 70
             0
  9
$DIMALTTZ
 70
             0
  9
$DIMFIT
 70
             3
  9
$DIMUPT
 70
             0
  9
$DIMUNIT
 70
             2
  9
$DIMDEC
 70
             4
  9
$DIMTDEC
 70
             4
  9
$DIMALTU
 70
             2
  9
$DIMALTTD
 70
             2
  9
$DIMTXSTY
  7
STANDARD
  9
$DIMAUNIT
 70
             0
  9
$LUNITS
 70
             2
  9
$LUPREC
 70
             4
  9
$SKETCHINC
 40
0.1
  9
$FILLETRAD
 40
0.0
  9
$AUNITS
 70
             0
  9
$AUPREC
 70
             0
  9
$MENU
  1
acad
  9
$ELEVATION
 40
0.0
  9
$PELEVATION
 40
0.0
  9
$THICKNESS
 40
0.0
  9
$LIMCHECK
 70
             0
  9
$BLIPMODE
 70
             1
  9
$CHAMFERA
 40
0.0
  9
$CHAMFERB
 40
0.0
  9
$CHAMFERC
 40
0.0
  9
$CHAMFERD
 40
0.0
  9
$SKPOLY
 70
             0
  9
$TDCREATE
 40
0.000000000
  9
$TDUPDATE
 40
0.000000000
  9
$TDINDWG
 40
0.0000000000
  9
$TDUSRTIMER
 40
0.0000000000
  9
$USRTIMER
 70
             1
  9
$ANGBASE
 50
0.0
  9
$ANGDIR
 70
             0
  9
$PDMODE
 70
             0
  9
$PDSIZE
 40
0.0
  9
$PLINEWID
 40
0.0
  9
$COORDS
 70
             0
  9
$SPLFRAME
 70
             0
  9
$SPLINETYPE
 70
             6
  9
$SPLINESEGS
 70
             8
  9
$ATTDIA
 70
             0
  9
$ATTREQ
 70
             1
  9
$HANDLING
 70
             1
  9
$HANDSEED
  5
1E8
  9
$SURFTAB1
 70
             6
  9
$SURFTAB2
 70
             6
  9
$SURFTYPE
 70
             6
  9
$SURFU
 70
             6
  9
$SURFV
 70
             6
  9
$UCSNAME
  2

  9
$UCSORG
 10
0.0
 20
0.0
 30
0.0
  9
$UCSXDIR
 10
1.0
 20
0.0
 30
0.0
  9
$UCSYDIR
 10
0.0
 20
1.0
 30
0.0
  9
$PUCSNAME
  2

  9
$PUCSORG
 10
0.0
 20
0.0
 30
0.0
  9
$PUCSXDIR
 10
1.0
 20
0.0
 30
0.0
  9
$PUCSYDIR
 10
0.0
 20
1.0
 30
0.0
  9
$USERI1
 70
             0
  9
$USERI2
 70
             0
  9
$USERI3
 70
             0
  9
$USERI4
 70
             0
  9
$USERI5
 70
             0
  9
$USERR1
 40
12.01
  9
$USERR2
 40
0.0
  9
$USERR3
 40
0.0
  9
$USERR4
 40
0.0
  9
$USERR5
 40
0.0
  9
$WORLDVIEW
 70
             1
  9
$SHADEDGE
 70
             3
  9
$SHADEDIF
 70
            70
  9
$TILEMODE
 70
             1
  9
$MAXACTVP
 70
            16
  9
$PINSBASE
 10
0.0
 20
0.0
 30
0.0
  9
$PLIMCHECK
 70
             0
  9
$PEXTMIN
 10
1.00000000000000E+20
 20
1.00000000000000E+20
 30
1.00000000000000E+20
  9
$PEXTMAX
 10
-1.00000000000000E+20
 20
-1.00000000000000E+20
 30
-1.00000000000000E+20
  9
$PLIMMIN
 10
0.0
 20
0.0
  9
$PLIMMAX
 10
12.0
 20
9.0
  9
$UNITMODE
 70
             0
  9
$VISRETAIN
 70
             0
  9
$PLINEGEN
 70
             1
  9
$PSLTSCALE
 70
             0
  9
$TREEDEPTH
 70
          3020
  9
$PICKSTYLE
 70
             1
  9
$CMLSTYLE
  2
STANDARD
  9
$CMLJUST
 70
             0
  9
$CMLSCALE
 40
1.0
  9
$PROXYGRAPHICS
 70
             0
  9
$MEASUREMENT
 70
             1
  0
ENDSEC
  0
SECTION
  2
CLASSES
  0
CLASS
  1
LWPOLYLINE
  2
AcDbPolyline
  3
"AutoCAD"
 90
        0
280
             0
281
             1
  0
CLASS
  1
IMAGE
  2
AcDbRasterImage
  3
ISM
 90
      127
280
             0
281
             1
  0
CLASS
  1
OLE2FRAME
  2
AcDbOle2Frame
  3
""
 90
        0
280
             0
281
             1
  0
CLASS
  1
HATCH
  2
AcDbHatch
  3
"ACAD_SEDONA"
 90
        0
280
             0
281
             1
  0
CLASS
  1
DICTIONARYVAR
  2
AcDbDictionaryVar
  3
"AutoCAD"
 90
        0
280
             0
281
             0
  0
CLASS
  1
RASTERVARIABLES
  2
AcDbRasterVariables
  3
ISM
 90
        0
280
             0
281
             0
  0
CLASS
  1
IMAGEDEF
  2
AcDbRasterImageDef
  3
ISM
 90
        0
280
             0
281
             0
  0
CLASS
  1
IMAGEDEF_REACTOR
  2
AcDbRasterImageDefReactor
  3
ISM
 90
        1
280
             0
281
             0
  0
CLASS
  1
IDBUFFER
  2
AcDbIdBuffer
  3
"Acad"
 90
        0
280
             0
281
             0
  0
CLASS
  1
SPATIAL_FILTER
  2
AcDbSpatialFilter
  3
"Acad"
 90
        0
280
             0
281
             0
  0
CLASS
  1
XRECORD
  2
AcDbXrecord
  3
"<Built In>"
 90
        0
280
             0
281
             0
  0
CLASS
  1
SORTENTSTABLE
  2
AcDbSortentsTable
  3
"AutoCAD"
 90
        0
280
             0
281
             0
  0
CLASS
  1
LAYER_INDEX
  2
AcDbLayerIndex
  3
"Acad"
 90
        0
280
             0
281
             0
  0
CLASS
  1
SPATIAL_INDEX
  2
AcDbSpatialIndex
  3
"Acad"
 90
        0
280
             0
281
             0
  0
CLASS
  1
OBJECT_PTR
  2
CAseDLPNTableRecord
  3
"ASE-LPNTableRecord"
 90
        1
280
             0
281
             0
  0
CLASS
  1
LAYOUT
  2
AcDbLayout
  3
"AutoCAD 2000"
 90
        0
280
             0
281
             0
  0
CLASS
  1
PLOTSETTINGS
  2
AcDbPlotSettings
  3
"AutoCAD 2000"
 90
        0
280
             0
281
             0
  0
CLASS
  1
ACDBDICTIONARYWDFLT
  2
AcDbDictionaryWithDefault
  3
"AutoCAD 2000"
 90
        0
280
             0
281
             0
  0
CLASS
  1
ACDBPLACEHOLDER
  2
AcDbPlaceHolder
  3
"AutoCAD 2000"
 90
        0
280
             0
281
             0
  0
ENDSEC
  0
SECTION
  2
TABLES
  0
TABLE
  2
VPORT
  5
7
100
AcDbSymbolTable
 70
             1
  0
VPORT
  5
15
100
AcDbSymbolTableRecord
100
AcDbViewportTableRecord
  2
*ACTIVE
 70
             0
 10
0.0
 20
0.0
 11
1.0
 21
1.0
 12
282.76901905602773
 22
64.58943385699129
 13
0.0
 23
0.0
 14
1.0
 24
1.0
 15
0.0
 25
0.0
 16
0.0
 26
0.0
 36
1.0
 17
0.0
 27
0.0
 37
0.0
 40
471.23098405496614
 41
1.60267857142857
 42
50.0
 43
0.0
 44
0.0
 50
0.0
 51
0.0
 71
             0
 72
           100
 73
             1
 74
             1
 75
             0
 76
             0
 77
             0
 78
             0
  0
ENDTAB
  0
TABLE
  2
LTYPE
  5
4
100
AcDbSymbolTable
 70
            11
  0
LTYPE
  5
11
100
AcDbSymbolTableRecord
100
AcDbLinetypeTableRecord
  2
BYBLOCK
 70
            64
  3

 72
            65
 73
             0
 40
0.0
  0
LTYPE
  5
12
100
AcDbSymbolTableRecord
100
AcDbLinetypeTableRecord
  2
BYLAYER
 70
            64
  3

 72
            65
 73
             0
 40
0.0
  0
LTYPE
  5
13
100
AcDbSymbolTableRecord
100
AcDbLinetypeTableRecord
  2
CONTINUOUS
 70
            64
  3
Solid line
 72
            65
 73
             0
 40
0.0
  0
LTYPE
  5
1D
100
AcDbSymbolTableRecord
100
AcDbLinetypeTableRecord
  2
DASHED
 70
            64
  3
Dashed
 72
            65
 73
             2
 40
15.0
 49
7.0
 74
             0
 49
-8.0
 74
             0
  0
LTYPE
  5
1E
100
AcDbSymbolTableRecord
100
AcDbLinetypeTableRecord
  2
DOTTED
 70
            64
  3
Dotted
 72
            65
 73
             2
 40
1.0
 49
0.0
 74
             0
 49
-1.0
 74
             0
  0
LTYPE
  5
1F
100
AcDbSymbolTableRecord
100
AcDbLinetypeTableRecord
  2
DOT_CENTER
 70
            64
  3
Dot_Center
 72
            65
 73
             4
 40
14.0
 49
12.0
 74
             0
 49
-1.0
 74
             0
 49
0.0
 74
             0
 49
-1.0
 74
             0
  0
LTYPE
  5
20
100
AcDbSymbolTableRecord
100
AcDbLinetypeTableRecord
  2
LONG_DASHED
 70
            64
  3
Long_Dashed
 72
            65
 73
             2
 40
15.0
 49
10.0
 74
             0
 49
-5.0
 74
             0
  0
LTYPE
  5
21
100
AcDbSymbolTableRecord
100
AcDbLinetypeTableRecord
  2
DASH_CENTER
 70
            64
  3
Dash_Center
 72
            65
 73
             4
 40
14.0
 49
11.0
 74
             0
 49
-1.0
 74
             0
 49
1.0
 74
             0
 49
-1.0
 74
             0
  0
LTYPE
  5
22
100
AcDbSymbolTableRecord
100
AcDbLinetypeTableRecord
  2
PHANTOM
 70
            64
  3
Phantom
 72
            65
 73
             6
 40
13.0
 49
10.0
 74
             0
 49
-1.0
 74
             0
 49
0.0
 74
             0
 49
-1.0
 74
             0
 49
0.0
 74
             0
 49
-1.0
 74
             0
  0
LTYPE
  5
23
100
AcDbSymbolTableRecord
100
AcDbLinetypeTableRecord
  2
CENTER_DASH_DASH
 70
            64
  3
Center_Dash_Dash
 72
            65
 73
             6
 40
14.0
 49
9.0
 74
             0
 49
-1.0
 74
             0
 49
1.0
 74
             0
 49
-1.0
 74
             0
 49
1.0
 74
             0
 49
-1.0
 74
             0
  0
LTYPE
  5
24
100
AcDbSymbolTableRecord
100
AcDbLinetypeTableRecord
  2
DASHDOT
 70
            64
  3
DASHDOT
 72
            65
 73
             4
 40
16.0
 49
10.0
 74
             0
 49
-3.0
 74
             0
 49
0.0
 74
             0
 49
-3.0
 74
             0
  0
ENDTAB
  0
TABLE
  2
LAYER
  5
2
100
AcDbSymbolTable
 70
             8
  0
LAYER
  5
14
100
AcDbSymbolTableRecord
100
AcDbLayerTableRecord
  2
0
 70
             0
 62
             7
  6
CONTINUOUS
  0
LAYER
  5
25
100
AcDbSymbolTableRecord
100
AcDbLayerTableRecord
  2
1
 70
             0
 62
             7
  6
CONTINUOUS
  0
LAYER
  5
26
100
AcDbSymbolTableRecord
100
AcDbLayerTableRecord
  2
LC-001-001-----0
 70
             0
 62
             7
  6
CONTINUOUS
  0
LAYER
  5
27
100
AcDbSymbolTableRecord
100
AcDbLayerTableRecord
  2
LC-002-002-----0
 70
             0
 62
             7
  6
CONTINUOUS
  0
LAYER
  5
28
100
AcDbSymbolTableRecord
100
AcDbLayerTableRecord
  2
LC-003-100-D03-0
 70
             0
 62
             7
  6
CONTINUOUS
  0
LAYER
  5
29
100
AcDbSymbolTableRecord
100
AcDbLayerTableRecord
  2
LC-004-002-----0
 70
             0
 62
             7
  6
CONTINUOUS
  0
LAYER
  5
2A
100
AcDbSymbolTableRecord
100
AcDbLayerTableRecord
  2
LC-008-002-RND-0
 70
             0
 62
             7
  6
CONTINUOUS
  0
LAYER
  5
2B
100
AcDbSymbolTableRecord
100
AcDbLayerTableRecord
  2
LC-009-002-RND-0
 70
             0
 62
             7
  6
CONTINUOUS
  0
ENDTAB
  0
TABLE
  2
STYLE
  5
3
100
AcDbSymbolTable
 70
             2
  0
STYLE
  5
17
100
AcDbSymbolTableRecord
100
AcDbTextStyleTableRecord
  2
STANDARD
 70
             0
 40
0.0
 41
1.0
 50
0.0
 71
             0
 42
0.0
  3
txt
  4

  0
STYLE
  5
19E
100
AcDbSymbolTableRecord
100
AcDbTextStyleTableRecord
  2
CONVERTER_1
 70
             0
 40
0.0
 41
0.9
 50
0.0
 71
             0
 42
0.0
  3
txt.shx
  4

  0
ENDTAB
  0
TABLE
  2
VIEW
  5
5
100
AcDbSymbolTable
 70
             0
  0
ENDTAB
  0
TABLE
  2
UCS
  5
6
100
AcDbSymbolTable
 70
             0
  0
ENDTAB
  0
TABLE
  2
APPID
  5
8
100
AcDbSymbolTable
 70
             1
  0
APPID
  5
16
100
AcDbSymbolTableRecord
100
AcDbRegAppTableRecord
  2
ACAD
 70
             0
  0
ENDTAB
  0
TABLE
  2
DIMSTYLE
  5
9
100
AcDbSymbolTable
 70
             8
  0
DIMSTYLE
105
18
100
AcDbSymbolTableRecord
100
AcDbDimStyleTableRecord
  2
STANDARD
 70
             0
  3

  4

  5

  6

  7

 40
1.0
 41
0.18
 42
0.0625
 43
0.38
 44
0.18
 45
0.0
 46
0.0
 47
0.0
 48
0.0
 71
             0
 72
             0
 73
             1
 74
             1
 75
             0
 76
             0
 77
             0
 78
             0
140
0.18
141
0.09
142
0.0
143
25.4
144
1.0
145
0.0
146
1.0
147
0.09
170
             0
171
             2
172
             0
173
             0
174
             0
175
             0
176
             0
177
             0
178
             0
270
             2
271
             4
272
             4
273
             2
274
             2
275
             0
280
             0
281
             0
282
             0
283
             1
284
             0
285
             0
286
             0
287
             3
288
             0
340
17
  0
DIMSTYLE
105
1A1
100
AcDbSymbolTableRecord
100
AcDbDimStyleTableRecord
  2
ME10_DIM_0
 70
             0
  3

  4

  5

  6

  7

 40
1.0
 41
15.0
 42
0.0
 43
0.38
 44
2.0
 45
0.0
 46
0.0
 47
0.0
 48
0.0
 71
             0
 72
             0
 73
             0
 74
             0
 75
             0
 76
             0
 77
             1
 78
             8
140
15.0
141
0.09
142
0.0
143
25.4
144
1.0
145
0.0
146
1.0
147
0.625
170
             0
171
             2
172
             1
173
             1
174
             0
175
             0
176
             4
177
             4
178
             1
270
             2
271
             2
272
             4
273
             2
274
             2
275
             0
280
             0
281
             0
282
             0
283
             1
284
             0
285
             0
286
             0
287
             3
288
             0
340
19E
  0
DIMSTYLE
105
1AE
100
AcDbSymbolTableRecord
100
AcDbDimStyleTableRecord
  2
ME10_DIM_1
 70
             0
  3

  4

  5

  6

  7

 40
1.0
 41
15.0
 42
0.0
 43
0.38
 44
2.0
 45
0.0
 46
0.0
 47
0.0
 48
0.0
 71
             0
 72
             0
 73
             0
 74
             0
 75
             0
 76
             0
 77
             1
 78
             8
140
15.0
141
0.09
142
0.0
143
25.4
144
1.0
145
0.0
146
1.0
147
0.625
170
             0
171
             2
172
             1
173
             1
174
             0
175
             0
176
             4
177
             4
178
             1
270
             2
271
             2
272
             4
273
             2
274
             2
275
             0
280
             0
281
             0
282
             0
283
             1
284
             0
285
             0
286
             0
287
             4
288
             0
340
19E
  0
DIMSTYLE
105
1B9
100
AcDbSymbolTableRecord
100
AcDbDimStyleTableRecord
  2
ME10_DIM_2
 70
             0
  3
220-<>
  4

  5

  6

  7

 40
1.0
 41
15.0
 42
0.0
 43
0.38
 44
2.0
 45
0.0
 46
0.0
 47
0.0
 48
0.0
 71
             0
 72
             0
 73
             0
 74
             0
 75
             0
 76
             0
 77
             1
 78
             8
140
15.0
141
0.09
142
0.0
143
25.4
144
1.0
145
0.0
146
1.0
147
0.625
170
             0
171
             2
172
             1
173
             1
174
             0
175
             0
176
             4
177
             4
178
             1
270
             2
271
             2
272
             4
273
             2
274
             2
275
             0
280
             0
281
             0
282
             0
283
             1
284
             0
285
             0
286
             0
287
             3
288
             0
340
19E
  0
DIMSTYLE
105
1C4
100
AcDbSymbolTableRecord
100
AcDbDimStyleTableRecord
  2
ME10_DIM_3
 70
             0
  3
DN<>
  4

  5

  6

  7

 40
1.0
 41
15.0
 42
0.0
 43
0.38
 44
2.0
 45
0.0
 46
0.0
 47
0.0
 48
0.0
 71
             0
 72
             0
 73
             0
 74
             0
 75
             0
 76
             0
 77
             1
 78
             8
140
15.0
141
0.09
142
0.0
143
25.4
144
1.0
145
0.0
146
1.0
147
0.625
170
             0
171
             2
172
             1
173
             1
174
             0
175
             0
176
             4
177
             4
178
             1
270
             2
271
             2
272
             4
273
             2
274
             2
275
             0
280
             0
281
             0
282
             0
283
             1
284
             0
285
             0
286
             0
287
             3
288
             0
340
19E
  0
DIMSTYLE
105
1CF
100
AcDbSymbolTableRecord
100
AcDbDimStyleTableRecord
  2
ME10_DIM_4
 70
             0
  3
DN<>
  4

  5

  6

  7

 40
1.0
 41
15.0
 42
0.0
 43
0.38
 44
2.0
 45
0.0
 46
0.0
 47
0.0
 48
0.0
 71
             0
 72
             0
 73
             0
 74
             0
 75
             0
 76
             0
 77
             1
 78
             8
140
15.0
141
0.09
142
0.0
143
25.4
144
1.0
145
0.0
146
1.0
147
0.625
170
             0
171
             2
172
             1
173
             1
174
             0
175
             0
176
             4
177
             4
178
             1
270
             2
271
             2
272
             4
273
             2
274
             2
275
             0
280
             0
281
             0
282
             0
283
             1
284
             0
285
             0
286
             0
287
             3
288
             0
340
19E
  0
DIMSTYLE
105
1DA
100
AcDbSymbolTableRecord
100
AcDbDimStyleTableRecord
  2
ME10_DIM_5
 70
             0
  3

  4

  5

  6

  7

 40
1.0
 41
15.0
 42
0.0
 43
0.38
 44
2.0
 45
0.0
 46
0.0
 47
0.0
 48
0.0
 71
             0
 72
             0
 73
             0
 74
             0
 75
             0
 76
             0
 77
             1
 78
             8
140
15.0
141
0.09
142
0.0
143
25.4
144
1.0
145
0.0
146
1.0
147
0.625
170
             0
171
             2
172
             1
173
             1
174
             0
175
             0
176
             4
177
             4
178
             1
270
             2
271
             2
272
             4
273
             2
274
             2
275
             0
280
             0
281
             0
282
             0
283
             1
284
             0
285
             0
286
             0
287
             3
288
             0
340
19E
  0
DIMSTYLE
105
1E5
100
AcDbSymbolTableRecord
100
AcDbDimStyleTableRecord
  2
ME10_DIM_6
 70
             0
  3

  4

  5

  6

  7

 40
1.0
 41
15.0
 42
0.0
 43
0.38
 44
2.0
 45
0.0
 46
0.0
 47
0.0
 48
0.0
 71
             0
 72
             0
 73
             0
 74
             0
 75
             0
 76
             0
 77
             1
 78
             8
140
15.0
141
0.09
142
0.0
143
25.4
144
1.0
145
0.0
146
1.0
147
0.625
170
             0
171
             2
172
             1
173
             1
174
             0
175
             0
176
             4
177
             4
178
             1
270
             2
271
             2
272
             4
273
             2
274
             2
275
             0
280
             0
281
             0
282
             0
283
             1
284
             0
285
             0
286
             0
287
             3
288
             0
340
19E
  0
ENDTAB
  0
TABLE
  2
BLOCK_RECORD
  5
1
100
AcDbSymbolTable
 70
             9
  0
BLOCK_RECORD
  5
A
100
AcDbSymbolTableRecord
100
AcDbBlockTableRecord
  2
*MODEL_SPACE
  0
BLOCK_RECORD
  5
B
100
AcDbSymbolTableRecord
100
AcDbBlockTableRecord
  2
*PAPER_SPACE
  0
BLOCK_RECORD
  5
2C
100
AcDbSymbolTableRecord
100
AcDbBlockTableRecord
  2
HL_712_1_R_CKSTAUVERSCS__1
  0
BLOCK_RECORD
  5
2E
100
AcDbSymbolTableRecord
100
AcDbBlockTableRecord
  2
HL_712_1_R_CKSTAUVERSCS__2
  0
BLOCK_RECORD
  5
197
100
AcDbSymbolTableRecord
100
AcDbBlockTableRecord
  2
*D2
  0
BLOCK_RECORD
  5
1A3
100
AcDbSymbolTableRecord
100
AcDbBlockTableRecord
  2
*D3
  0
BLOCK_RECORD
  5
1B0
100
AcDbSymbolTableRecord
100
AcDbBlockTableRecord
  2
*D4
  0
BLOCK_RECORD
  5
1BB
100
AcDbSymbolTableRecord
100
AcDbBlockTableRecord
  2
*D5
  0
BLOCK_RECORD
  5
1C6
100
AcDbSymbolTableRecord
100
AcDbBlockTableRecord
  2
*D6
  0
BLOCK_RECORD
  5
1D1
100
AcDbSymbolTableRecord
100
AcDbBlockTableRecord
  2
*D7
  0
BLOCK_RECORD
  5
1DC
100
AcDbSymbolTableRecord
100
AcDbBlockTableRecord
  2
*D8
  0
ENDTAB
  0
ENDSEC
  0
SECTION
  2
BLOCKS
  0
BLOCK
  5
D
100
AcDbEntity
  8
0
100
AcDbBlockBegin
  2
*MODEL_SPACE
 70
             0
 10
0.0
 20
0.0
 30
0.0
  3
*MODEL_SPACE
  1

  0
ENDBLK
  5
E
100
AcDbEntity
  8
0
100
AcDbBlockEnd
  0
BLOCK
  5
F
100
AcDbEntity
 67
             1
  8
0
100
AcDbBlockBegin
  2
*PAPER_SPACE
 70
             0
 10
0.0
 20
0.0
 30
0.0
  3
*PAPER_SPACE
  1

  0
ENDBLK
  5
10
100
AcDbEntity
 67
             1
  8
0
100
AcDbBlockEnd
  0
BLOCK
  5
2D
100
AcDbEntity
  8
0
100
AcDbBlockBegin
  2
HL_712_1_R_CKSTAUVERSCS__1
 70
             0
 10
-30.91486457831343
 20
-1688.7834973359941
 30
0.0
  3
HL_712_1_R_CKSTAUVERSCS__1
  1

  0
CIRCLE
  5
E4
100
AcDbEntity
  8
LC-004-002-----0
  6
CONTINUOUS
 62
             7
100
AcDbCircle
 10
123.12874799999879
 20
220.99654787108349
 40
2.5
  0
ARC
  5
E3
100
AcDbEntity
  8
LC-008-002-RND-0
  6
CONTINUOUS
 62
             7
100
AcDbCircle
 10
217.90620543119439
 20
96.51654787108146
 40
0.5
100
AcDbArc
 50
-90.0
 51
0.0
  0
ARC
  5
E2
100
AcDbEntity
  8
LC-008-002-RND-0
  6
CONTINUOUS
 62
             7
100
AcDbCircle
 10
198.90620543119439
 20
96.51654787108146
 40
0.5
100
AcDbArc
 50
180.0
 51
-90.0
  0
ARC
  5
E1
100
AcDbEntity
  8
LC-008-002-RND-0
  6
CONTINUOUS
 62
             7
100
AcDbCircle
 10
217.90620543119439
 20
103.5165501703714
 40
0.5
100
AcDbArc
 50
0.0
 51
90.0
  0
ARC
  5
E0
100
AcDbEntity
  8
LC-008-002-RND-0
  6
CONTINUOUS
 62
             7
100
AcDbCircle
 10
198.90620543119439
 20
103.5165501703714
 40
0.5
100
AcDbArc
 50
90.0
 51
180.0
  0
ARC
  5
DF
100
AcDbEntity
  8
LC-008-002-RND-0
  6
CONTINUOUS
 62
             7
100
AcDbCircle
 10
217.90620543119439
 20
95.51654787108146
 40
0.5
100
AcDbArc
 50
0.0
 51
90.0
  0
ARC
  5
DE
100
AcDbEntity
  8
LC-008-002-RND-0
  6
CONTINUOUS
 62
             7
100
AcDbCircle
 10
198.90620543119439
 20
95.51654787108146
 40
0.5
100
AcDbArc
 50
90.0
 51
180.0
  0
ARC
  5
DD
100
AcDbEntity
  8
LC-008-002-RND-0
  6
CONTINUOUS
 62
             7
100
AcDbCircle
 10
198.90620543119439
 20
88.99645978216813
 40
0.5
100
AcDbArc
 50
180.0
 51
-90.0
  0
ARC
  5
DC
100
AcDbEntity
  8
LC-008-002-RND-0
  6
CONTINUOUS
 62
             7
100
AcDbCircle
 10
217.90620543119439
 20
88.99645978216813
 40
0.5
100
AcDbArc
 50
-90.0
 51
0.0
  0
ARC
  5
DB
100
AcDbEntity
  8
LC-008-002-RND-0
  6
CONTINUOUS
 62
             7
100
AcDbCircle
 10
109.9052327586724
 20
96.51654787108146
 40
0.5
100
AcDbArc
 50
-90.0
 51
0.0
  0
ARC
  5
DA
100
AcDbEntity
  8
LC-008-002-RND-0
  6
CONTINUOUS
 62
             7
100
AcDbCircle
 10
90.90523275867236
 20
96.51654787108146
 40
0.5
100
AcDbArc
 50
180.0
 51
-90.0
  0
ARC
  5
D9
100
AcDbEntity
  8
LC-008-002-RND-0
  6
CONTINUOUS
 62
             7
100
AcDbCircle
 10
109.9052327586724
 20
103.5165478710815
 40
0.5
100
AcDbArc
 50
0.0
 51
90.0
  0
ARC
  5
D8
100
AcDbEntity
  8
LC-008-002-RND-0
  6
CONTINUOUS
 62
             7
100
AcDbCircle
 10
90.90523275867236
 20
103.5165478710815
 40
0.5
100
AcDbArc
 50
90.0
 51
180.0
  0
ARC
  5
D7
100
AcDbEntity
  8
LC-008-002-RND-0
  6
CONTINUOUS
 62
             7
100
AcDbCircle
 10
109.9052327586724
 20
95.51654787108146
 40
0.5
100
AcDbArc
 50
0.0
 51
90.0
  0
ARC
  5
D6
100
AcDbEntity
  8
LC-008-002-RND-0
  6
CONTINUOUS
 62
             7
100
AcDbCircle
 10
90.90523275867236
 20
95.51654787108146
 40
0.5
100
AcDbArc
 50
90.0
 51
180.0
  0
ARC
  5
D5
100
AcDbEntity
  8
LC-008-002-RND-0
  6
CONTINUOUS
 62
             7
100
AcDbCircle
 10
90.90523275867236
 20
88.99645978216813
 40
0.5
100
AcDbArc
 50
180.0
 51
-90.0
  0
ARC
  5
D4
100
AcDbEntity
  8
LC-008-002-RND-0
  6
CONTINUOUS
 62
             7
100
AcDbCircle
 10
109.9052327586724
 20
88.99645978216813
 40
0.5
100
AcDbArc
 50
-90.0
 51
0.0
  0
ARC
  5
D3
100
AcDbEntity
  8
LC-008-002-RND-0
  6
CONTINUOUS
 62
             7
100
AcDbCircle
 10
243.9054670000005
 20
108.02654787108349
 40
3.0
100
AcDbArc
 50
0.0
 51
90.0
  0
ARC
  5
D2
100
AcDbEntity
  8
LC-004-002-----0
  6
CONTINUOUS
 62
             7
100
AcDbCircle
 10
98.90523275867236
 20
128.75082287108401
 40
1.0
100
AcDbArc
 50
180.0
 51
-89.99994200008796
  0
ARC
  5
D1
100
AcDbEntity
  8
LC-008-002-RND-0
  6
CONTINUOUS
 62
             7
100
AcDbCircle
 10
64.90490299999874
 20
108.02654787108349
 40
3.0
100
AcDbArc
 50
90.0
 51
180.0
  0
ARC
  5
D0
100
AcDbEntity
  8
LC-004-002-----0
  6
CONTINUOUS
 62
             7
100
AcDbCircle
 10
101.9052327586724
 20
128.75082287108401
 40
1.00000000000053
100
AcDbArc
 50
-89.99994200008959
 51
0.0
  0
ARC
  5
CF
100
AcDbEntity
  8
LC-004-002-----0
  6
CONTINUOUS
 62
             7
100
AcDbCircle
 10
101.9052327586724
 20
131.75082287108401
 40
1.0
100
AcDbArc
 50
0.0
 51
90.0
  0
ARC
  5
CE
100
AcDbEntity
  8
LC-004-002-----0
  6
CONTINUOUS
 62
             7
100
AcDbCircle
 10
98.90523275867236
 20
131.75082287108401
 40
1.0
100
AcDbArc
 50
90.0
 51
179.99984800015309
  0
ARC
  5
CD
100
AcDbEntity
  8
LC-004-002-----0
  6
CONTINUOUS
 62
             7
100
AcDbCircle
 10
95.90523275867236
 20
131.11747487108099
 40
2.0
100
AcDbArc
 50
0.0
 51
79.66010899997816
  0
ARC
  5
CC
100
AcDbEntity
  8
LC-004-002-----0
  6
CONTINUOUS
 62
             7
100
AcDbCircle
 10
118.9052327586724
 20
129.220590871083
 40
2.00000000000096
100
AcDbArc
 50
-73.27314000001408
 51
0.0
  0
ARC
  5
CB
100
AcDbEntity
  8
LC-004-002-----0
  6
CONTINUOUS
 62
             7
100
AcDbCircle
 10
100.4052327586724
 20
190.77966887108141
 40
66.27884599999918
100
AcDbArc
 50
-106.72695300000068
 51
-73.27319899999901
  0
ARC
  5
CA
100
AcDbEntity
  8
LC-004-002-----0
  6
CONTINUOUS
 62
             7
100
AcDbCircle
 10
118.9054497586731
 20
129.3843318710833
 40
2.00000000000184
100
AcDbArc
 50
-79.66008800005925
 51
-0.00003700001854
  0
ARC
  5
C9
100
AcDbEntity
  8
LC-004-002-----0
  6
CONTINUOUS
 62
             7
100
AcDbCircle
 10
118.9052327586724
 20
131.28105387108101
 40
2.0
100
AcDbArc
 50
0.0
 51
73.27319899994943
  0
ARC
  5
C8
100
AcDbEntity
  8
LC-004-002-----0
  6
CONTINUOUS
 62
             7
100
AcDbCircle
 10
100.4052327586724
 20
69.72197687108292
 40
66.27884599999992
100
AcDbArc
 50
73.27319899999903
 51
106.72678200000115
  0
ARC
  5
C7
100
AcDbEntity
  8
LC-004-002-----0
  6
CONTINUOUS
 62
             7
100
AcDbCircle
 10
118.90545175867371
 20
131.1176368710812
 40
2.00000000000042
100
AcDbArc
 50
-0.00003700001854
 51
79.65999700002016
  0
ARC
  5
C6
100
AcDbEntity
  8
LC-004-002-----0
  6
CONTINUOUS
 62
             7
100
AcDbCircle
 10
111.905475758671
 20
167.750988871082
 40
40.99999999999849
100
AcDbArc
 50
-100.3400799999981
 51
-79.6601469999971
  0
ARC
  5
C5
100
AcDbEntity
  8
LC-004-002-----0
  6
CONTINUOUS
 62
             7
100
AcDbCircle
 10
104.9054497586731
 20
129.38434087108271
 40
2.00000000000042
100
AcDbArc
 50
179.99996299998145
 51
-100.34000500004734
  0
ARC
  5
C4
100
AcDbEntity
  8
LC-004-002-----0
  6
CONTINUOUS
 62
             7
100
AcDbCircle
 10
104.90545175867371
 20
131.11764587108431
 40
1.9999999999976
100
AcDbArc
 50
100.3398350000284
 51
179.99996300008488
  0
ARC
  5
C3
100
AcDbEntity
  8
LC-004-002-----0
  6
CONTINUOUS
 62
             7
100
AcDbCircle
 10
111.90542575867219
 20
92.75098887108197
 40
40.99999999999943
100
AcDbArc
 50
79.66007200000102
 51
100.33983500000159
  0
ARC
  5
C2
100
AcDbEntity
  8
LC-004-002-----0
  6
CONTINUOUS
 62
             7
100
AcDbCircle
 10
81.90523275867236
 20
129.220590871083
 40
2.0
100
AcDbArc
 50
180.0
 51
-106.72695299996323
  0
ARC
  5
C1
100
AcDbEntity
  8
LC-004-002-----0
  6
CONTINUOUS
 62
             7
100
AcDbCircle
 10
81.90523275867236
 20
131.28105387108101
 40
2.00000000000031
100
AcDbArc
 50
106.72678199997618
 51
180.0
  0
ARC
  5
C0
100
AcDbEntity
  8
LC-004-002-----0
  6
CONTINUOUS
 62
             7
100
AcDbCircle
 10
81.90523275867236
 20
129.3841708710834
 40
2.0
100
AcDbArc
 50
180.0
 51
-100.34004299999239
  0
ARC
  5
BF
100
AcDbEntity
  8
LC-004-002-----0
  6
CONTINUOUS
 62
             7
100
AcDbCircle
 10
88.90523275867236
 20
167.75082287108401
 40
41.00000000000274
100
AcDbArc
 50
-100.33989099999982
 51
-79.66005099999765
  0
ARC
  5
BE
100
AcDbEntity
  8
LC-004-002-----0
  6
CONTINUOUS
 62
             7
100
AcDbCircle
 10
81.90523275867236
 20
131.11747487108099
 40
2.00000000000351
100
AcDbArc
 50
100.33987199994645
 51
180.0
  0
ARC
  5
BD
100
AcDbEntity
  8
LC-004-002-----0
  6
CONTINUOUS
 62
             7
100
AcDbCircle
 10
88.90523275867236
 20
92.75082287108398
 40
40.9999999999992
100
AcDbArc
 50
79.66010899999927
 51
100.33989100000073
  0
ARC
  5
BC
100
AcDbEntity
  8
LC-004-002-----0
  6
CONTINUOUS
 62
             7
100
AcDbCircle
 10
95.90523275867236
 20
129.3841708710834
 40
1.99999999999937
100
AcDbArc
 50
-79.66005099998361
 51
0.0
  0
ARC
  5
BB
100
AcDbEntity
  8
LC-004-002-----0
  6
CONTINUOUS
 62
             7
100
AcDbCircle
 10
206.90523943119479
 20
128.7508228711749
 40
1.0
100
AcDbArc
 50
180.0
 51
-89.99994200008959
  0
ARC
  5
BA
100
AcDbEntity
  8
LC-004-002-----0
  6
CONTINUOUS
 62
             7
100
AcDbCircle
 10
209.90523943119479
 20
128.7508228711749
 40
1.00000000000051
100
AcDbArc
 50
-89.99994200008959
 51
0.0
  0
ARC
  5
B9
100
AcDbEntity
  8
LC-004-002-----0
  6
CONTINUOUS
 62
             7
100
AcDbCircle
 10
209.90523943119479
 20
131.7508228711749
 40
1.0
100
AcDbArc
 50
0.0
 51
90.0
  0
ARC
  5
B8
100
AcDbEntity
  8
LC-004-002-----0
  6
CONTINUOUS
 62
             7
100
AcDbCircle
 10
206.90523943119479
 20
131.7508228711749
 40
1.0
100
AcDbArc
 50
90.0
 51
179.99984799994138
  0
ARC
  5
B7
100
AcDbEntity
  8
LC-004-002-----0
  6
CONTINUOUS
 62
             7
100
AcDbCircle
 10
203.90523943119479
 20
131.1174748711756
 40
2.0
100
AcDbArc
 50
0.0
 51
79.66010900006074
  0
ARC
  5
B6
100
AcDbEntity
  8
LC-004-002-----0
  6
CONTINUOUS
 62
             7
100
AcDbCircle
 10
226.90523943119479
 20
129.22059087117401
 40
2.00000000000097
100
AcDbArc
 50
-73.2731400000133
 51
0.0
  0
ARC
  5
B5
100
AcDbEntity
  8
LC-004-002-----0
  6
CONTINUOUS
 62
             7
100
AcDbCircle
 10
208.40523943119479
 20
190.779668871176
 40
66.2788460000026
100
AcDbArc
 50
-106.72695299999975
 51
-73.27319900000198
  0
ARC
  5
B4
100
AcDbEntity
  8
LC-004-002-----0
  6
CONTINUOUS
 62
             7
100
AcDbCircle
 10
226.90545643119191
 20
129.38433187117431
 40
1.99999999999895
100
AcDbArc
 50
-79.66008799993983
 51
-0.0000370000218
  0
ARC
  5
B3
100
AcDbEntity
  8
LC-004-002-----0
  6
CONTINUOUS
 62
             7
100
AcDbCircle
 10
226.90523943119479
 20
131.2810538711756
 40
2.0
100
AcDbArc
 50
0.0
 51
73.27319900002017
  0
ARC
  5
B2
100
AcDbEntity
  8
LC-004-002-----0
  6
CONTINUOUS
 62
             7
100
AcDbCircle
 10
208.40523943119479
 20
69.72197687117387
 40
66.27884600000238
100
AcDbArc
 50
73.27319900000289
 51
106.72678200000114
  0
ARC
  5
B1
100
AcDbEntity
  8
LC-004-002-----0
  6
CONTINUOUS
 62
             7
100
AcDbCircle
 10
226.9054584311925
 20
131.11763687117579
 40
2.00000000000042
100
AcDbArc
 50
-0.00003700001854
 51
79.65999700000091
  0
ARC
  5
B0
100
AcDbEntity
  8
LC-004-002-----0
  6
CONTINUOUS
 62
             7
100
AcDbCircle
 10
219.90548243119341
 20
167.75098887117659
 40
41.00000000000213
100
AcDbArc
 50
-100.34007999999717
 51
-79.66014699999801
  0
ARC
  5
AF
100
AcDbEntity
  8
LC-004-002-----0
  6
CONTINUOUS
 62
             7
100
AcDbCircle
 10
212.90545643119191
 20
129.38434087117369
 40
2.00000000000042
100
AcDbArc
 50
179.99996299998065
 51
-100.34000499994616
  0
ARC
  5
AE
100
AcDbEntity
  8
LC-004-002-----0
  6
CONTINUOUS
 62
             7
100
AcDbCircle
 10
212.9054584311925
 20
131.1176458711752
 40
2.00000000000124
100
AcDbArc
 50
100.339835000009
 51
179.99996299997821
  0
ARC
  5
AD
100
AcDbEntity
  8
LC-004-002-----0
  6
CONTINUOUS
 62
             7
100
AcDbCircle
 10
219.90543243119461
 20
92.75098887117656
 40
40.99999999999946
100
AcDbArc
 50
79.66007200000104
 51
100.33983500000163
  0
ARC
  5
AC
100
AcDbEntity
  8
LC-003-100-D03-0
  6
CONTINUOUS
 62
             7
100
AcDbCircle
 10
8.47050099999979
 20
67.79921178216551
 40
4.97050100000153
100
AcDbArc
 50
93.03803791172261
 51
-175.36203085153946
  0
ARC
  5
AB
100
AcDbEntity
  8
LC-004-002-----0
  6
CONTINUOUS
 62
             7
100
AcDbCircle
 10
189.90523943119479
 20
129.22059087117401
 40
2.0
100
AcDbArc
 50
180.0
 51
-106.72695300006292
  0
ARC
  5
AA
100
AcDbEntity
  8
LC-004-002-----0
  6
CONTINUOUS
 62
             7
100
AcDbCircle
 10
189.90523943119479
 20
131.2810538711756
 40
2.00000000000138
100
AcDbArc
 50
106.72678200007576
 51
180.0
  0
ARC
  5
A9
100
AcDbEntity
  8
LC-004-002-----0
  6
CONTINUOUS
 62
             7
100
AcDbCircle
 10
189.90523943119479
 20
129.38417087117429
 40
2.0
100
AcDbArc
 50
180.0
 51
-100.34004300009411
  0
ARC
  5
A8
100
AcDbEntity
  8
LC-003-100-D03-0
  6
CONTINUOUS
 62
             7
100
AcDbCircle
 10
8.47050099999979
 20
-67.40631521783274
 40
4.97050099999849
100
AcDbArc
 50
175.36204236760315
 51
-93.01131272745059
  0
ARC
  5
A7
100
AcDbEntity
  8
LC-003-100-D03-0
  6
CONTINUOUS
 62
             7
100
AcDbCircle
 10
70.99151400000119
 20
-81.01696421783254
 40
2.98229999999934
100
AcDbArc
 50
-178.99999899996249
 51
-90.0
  0
ARC
  5
A6
100
AcDbEntity
  8
LC-004-002-----0
  6
CONTINUOUS
 62
             7
100
AcDbCircle
 10
196.90523943119479
 20
167.7508228711749
 40
40.99999999999908
100
AcDbArc
 50
-100.33989100000073
 51
-79.66005100000267
  0
ARC
  5
A5
100
AcDbEntity
  8
LC-004-002-----0
  6
CONTINUOUS
 62
             7
100
AcDbCircle
 10
189.90523943119479
 20
131.1174748711756
 40
2.00000000000058
100
AcDbArc
 50
100.33987200006689
 51
180.0
  0
ARC
  5
A4
100
AcDbEntity
  8
LC-004-002-----0
  6
CONTINUOUS
 62
             7
100
AcDbCircle
 10
196.90523943119479
 20
92.75082287117493
 40
40.99999999999914
100
AcDbArc
 50
79.66010899999925
 51
100.3398910000007
  0
ARC
  5
A3
100
AcDbEntity
  8
LC-004-002-----0
  6
CONTINUOUS
 62
             7
100
AcDbCircle
 10
203.90523943119479
 20
129.38417087117429
 40
1.99999999999871
100
AcDbArc
 50
-79.66005100008694
 51
0.0
  0
ARC
  5
A2
100
AcDbEntity
  8
LC-003-100-D03-0
  6
CONTINUOUS
 62
             7
100
AcDbCircle
 10
95.9961919999987
 20
-82.01106521783277
 40
1.98819999999978
100
AcDbArc
 50
-90.0
 51
0.0
  0
ARC
  5
A1
100
AcDbEntity
  8
LC-004-002-----0
  6
CONTINUOUS
 62
             7
100
AcDbCircle
 10
98.62874799999884
 20
232.99654787108349
 40
3.0
100
AcDbArc
 50
90.0
 51
179.99984800000709
  0
ARC
  5
A0
100
AcDbEntity
  8
LC-004-002-----0
  6
CONTINUOUS
 62
             7
100
AcDbCircle
 10
117.12874799999879
 20
232.99654787108349
 40
3.0
100
AcDbArc
 50
0.0
 51
90.0
  0
ARC
  5
9F
100
AcDbEntity
  8
LC-004-002-----0
  6
CONTINUOUS
 62
             7
100
AcDbCircle
 10
107.62874799999879
 20
215.49654787108349
 40
2.0
100
AcDbArc
 50
90.0
 51
179.99984799999757
  0
ARC
  5
9E
100
AcDbEntity
  8
LC-004-002-----0
  6
CONTINUOUS
 62
             7
100
AcDbCircle
 10
103.62874799999879
 20
200.49654787108349
 40
2.00000000000003
100
AcDbArc
 50
-89.99994199999799
 51
0.0
  0
ARC
  5
9D
100
AcDbEntity
  8
LC-004-002-----0
  6
CONTINUOUS
 62
             7
100
AcDbCircle
 10
97.62874799999884
 20
200.49654787108349
 40
2.00000000000005
100
AcDbArc
 50
179.99984799999757
 51
-90.0
  0
ARC
  5
9C
100
AcDbEntity
  8
LC-004-002-----0
  6
CONTINUOUS
 62
             7
100
AcDbCircle
 10
123.12874799999879
 20
220.99654787108349
 40
2.99999999999993
100
AcDbArc
 50
-59.99988299999941
 51
179.99988800000514
  0
ARC
  5
9B
100
AcDbEntity
  8
LC-004-002-----0
  6
CONTINUOUS
 62
             7
100
AcDbCircle
 10
123.12874799999879
 20
228.99654787108349
 40
3.0
100
AcDbArc
 50
180.0
 51
-89.99994199999786
  0
ARC
  5
9A
100
AcDbEntity
  8
LC-004-002-----0
  6
CONTINUOUS
 62
             7
100
AcDbCircle
 10
123.12874799999879
 20
212.99654787108349
 40
3.0
100
AcDbArc
 50
90.0
 51
180.0
  0
ARC
  5
99
100
AcDbEntity
  8
LC-004-002-----0
  6
CONTINUOUS
 62
             7
100
AcDbCircle
 10
123.12874799999879
 20
220.99654787108349
 40
5.0
100
AcDbArc
 50
-90.0
 51
90.00003999999409
  0
ARC
  5
98
100
AcDbEntity
  8
LC-008-002-RND-0
  6
CONTINUOUS
 62
             7
100
AcDbCircle
 10
124.62874799999879
 20
112.02654787108349
 40
1.0
100
AcDbArc
 50
180.0
 51
-90.0
  0
ARC
  5
97
100
AcDbEntity
  8
LC-008-002-RND-0
  6
CONTINUOUS
 62
             7
100
AcDbCircle
 10
123.12874799999879
 20
117.52654787108349
 40
0.5
100
AcDbArc
 50
0.0
 51
90.0
  0
LINE
  5
96
100
AcDbEntity
  8
1
  6
DOT_CENTER
 62
             2
100
AcDbLine
 10
103.60573847922571
 20
136.0008228709894
 11
96.60573847922569
 21
136.0008228709894
  0
LINE
  5
95
100
AcDbEntity
  8
1
  6
DOT_CENTER
 62
             2
100
AcDbLine
 10
-3.0
 20
-62.30000130690809
 11
-6.0
 21
-62.30000130690809
  0
LINE
  5
94
100
AcDbEntity
  8
1
  6
DOT_CENTER
 62
             2
100
AcDbLine
 10
-6.0
 20
62.69999869501277
 11
-3.0
 21
62.69999869501277
  0
LINE
  5
93
100
AcDbEntity
  8
LC-001-001-----0
  6
CONTINUOUS
 62
             7
100
AcDbLine
 10
241.3685839999998
 20
-78.99982821783397
 11
244.4216090000009
 21
96.01654787108146
  0
LINE
  5
92
100
AcDbEntity
  8
1
  6
CONTINUOUS
 62
             3
100
AcDbLine
 10
8.47050099999979
 20
67.79921178216551
 11
8.47050099999979
 21
-67.40631521783274
  0
LINE
  5
91
100
AcDbEntity
  8
1
  6
PHANTOM
 62
             2
100
AcDbLine
 10
100.4053302141583
 20
86.50455835082266
 11
100.4053434375564
 21
137.3993543822335
  0
LINE
  5
90
100
AcDbEntity
  8
1
  6
PHANTOM
 62
             2
100
AcDbLine
 10
208.40533688111461
 20
86.50195914249798
 11
208.40535107797771
 21
141.14346061685231
  0
LINE
  5
8F
100
AcDbEntity
  8
1
  6
PHANTOM
 62
             2
100
AcDbLine
 10
223.3955007535551
 20
-16.50058686146713
 11
321.88839343730427
 21
-16.50086011940493
  0
LINE
  5
8E
100
AcDbEntity
  8
1
  6
PHANTOM
 62
             2
100
AcDbLine
 10
71.63988682440606
 20
-0.00000004582358
 11
-3.52913292995606
 21
0.00000000225737
  0
LINE
  5
8D
100
AcDbEntity
  8
LC-004-002-----0
  6
CONTINUOUS
 62
             7
100
AcDbLine
 10
198.40620543119439
 20
96.51654787108146
 11
198.40620543119439
 21
103.5165501703714
  0
LINE
  5
8C
100
AcDbEntity
  8
LC-004-002-----0
  6
CONTINUOUS
 62
             7
100
AcDbLine
 10
218.40620543119439
 20
96.51654787108146
 11
218.40620543119439
 21
103.5165501703714
  0
LINE
  5
8B
100
AcDbEntity
  8
LC-004-002-----0
  6
CONTINUOUS
 62
             7
100
AcDbLine
 10
198.90620543119439
 20
104.0165501703714
 11
217.90620543119439
 21
104.0165501703714
  0
LINE
  5
8A
100
AcDbEntity
  8
LC-004-002-----0
  6
CONTINUOUS
 62
             7
100
AcDbLine
 10
218.40620543119439
 20
88.99645978216813
 11
218.40620543119439
 21
95.51654787108146
  0
LINE
  5
89
100
AcDbEntity
  8
LC-004-002-----0
  6
CONTINUOUS
 62
             7
100
AcDbLine
 10
198.40620543119439
 20
95.51654787108146
 11
198.40620543119439
 21
88.99645978216813
  0
LINE
  5
88
100
AcDbEntity
  8
LC-004-002-----0
  6
CONTINUOUS
 62
             7
100
AcDbLine
 10
198.9065294311913
 20
104.01655617037341
 11
217.90620543119439
 21
104.016544170373
  0
LINE
  5
87
100
AcDbEntity
  8
LC-004-002-----0
  6
CONTINUOUS
 62
             7
100
AcDbLine
 10
198.90620543119439
 20
88.49645978216813
 11
217.90620543119439
 21
88.49645978216813
  0
LINE
  5
86
100
AcDbEntity
  8
LC-004-002-----0
  6
CONTINUOUS
 62
             7
100
AcDbLine
 10
90.40523275867236
 20
96.51654787108146
 11
90.40523275867236
 21
103.5165478710815
  0
LINE
  5
85
100
AcDbEntity
  8
LC-004-002-----0
  6
CONTINUOUS
 62
             7
100
AcDbLine
 10
110.4052327586724
 20
96.51654787108146
 11
110.4052327586724
 21
103.5165478710815
  0
LINE
  5
84
100
AcDbEntity
  8
LC-004-002-----0
  6
CONTINUOUS
 62
             7
100
AcDbLine
 10
90.90523275867236
 20
104.0165478710815
 11
109.9052327586724
 21
104.0165478710815
  0
LINE
  5
83
100
AcDbEntity
  8
LC-004-002-----0
  6
CONTINUOUS
 62
             7
100
AcDbLine
 10
90.9055567586729
 20
104.0165538710835
 11
109.9052327586724
 21
104.01654187108311
  0
LINE
  5
82
100
AcDbEntity
  8
LC-004-002-----0
  6
CONTINUOUS
 62
             7
100
AcDbLine
 10
110.4052327586724
 20
88.99645978216813
 11
110.4052327586724
 21
95.51654787108146
  0
LINE
  5
81
100
AcDbEntity
  8
LC-004-002-----0
  6
CONTINUOUS
 62
             7
100
AcDbLine
 10
90.40523275867236
 20
95.51654787108146
 11
90.40523275867236
 21
88.99645978216813
  0
LINE
  5
80
100
AcDbEntity
  8
LC-004-002-----0
  6
CONTINUOUS
 62
             7
100
AcDbLine
 10
90.90523275867236
 20
88.49645978216813
 11
109.9052327586724
 21
88.49645978216813
  0
LINE
  5
7F
100
AcDbEntity
  8
LC-004-002-----0
  6
CONTINUOUS
 62
             7
100
AcDbLine
 10
246.9054670000005
 20
108.02654787108349
 11
246.9054670000005
 21
96.01654787108146
  0
LINE
  5
7E
100
AcDbEntity
  8
LC-004-002-----0
  6
CONTINUOUS
 62
             7
100
AcDbLine
 10
61.90490299999874
 20
108.02654787108349
 11
61.90490299999874
 21
96.01654787108146
  0
LINE
  5
7D
100
AcDbEntity
  8
LC-004-002-----0
  6
CONTINUOUS
 62
             7
100
AcDbLine
 10
23.76325999999972
 20
67.39644478216593
 11
23.76325999999972
 21
-67.0035492178335
  0
LINE
  5
7C
100
AcDbEntity
  8
LC-004-002-----0
  6
CONTINUOUS
 62
             7
100
AcDbLine
 10
20.29915800000163
 20
73.39644578216627
 11
20.29915800000163
 21
-73.00355021783383
  0
LINE
  5
7B
100
AcDbEntity
  8
LC-004-002-----0
  6
CONTINUOUS
 62
             7
100
AcDbLine
 10
3.5
 20
67.39644678216661
 11
3.5
 21
-67.00355121783417
  0
LINE
  5
7A
100
AcDbEntity
  8
LC-003-100-D03-0
  6
CONTINUOUS
 62
             7
100
AcDbLine
 10
310.03226500000159
 20
-79.00020921783198
 11
315.00418899999931
 21
-77.66798621783437
  0
LINE
  5
79
100
AcDbEntity
  8
LC-003-100-D03-0
  6
CONTINUOUS
 62
             7
100
AcDbLine
 10
310.03368799999947
 20
45.99855478216796
 11
315.00418899999931
 21
44.66671278216836
  0
LINE
  5
78
100
AcDbEntity
  8
LC-003-100-D03-0
  6
CONTINUOUS
 62
             7
100
AcDbLine
 10
243.54908388685001
 20
45.99855478216796
 11
310.03368799999947
 21
45.99855478216796
  0
LINE
  5
77
100
AcDbEntity
  8
LC-003-100-D03-0
  6
CONTINUOUS
 62
             7
100
AcDbLine
 10
315.00418899999931
 20
-77.66798621783437
 11
315.00418899999931
 21
44.66671278216836
  0
LINE
  5
76
100
AcDbEntity
  8
LC-004-002-----0
  6
CONTINUOUS
 62
             7
100
AcDbLine
 10
98.90523275867236
 20
127.750822871084
 11
101.9052327586724
 21
127.750822871084
  0
LINE
  5
75
100
AcDbEntity
  8
LC-004-002-----0
  6
CONTINUOUS
 62
             7
100
AcDbLine
 10
97.90523275867236
 20
131.75082287108401
 11
97.90523275867236
 21
128.75082287108401
  0
LINE
  5
74
100
AcDbEntity
  8
LC-004-002-----0
  6
CONTINUOUS
 62
             7
100
AcDbLine
 10
102.9052327586724
 20
128.75082287108401
 11
102.9052327586724
 21
131.75082287108401
  0
LINE
  5
73
100
AcDbEntity
  8
LC-004-002-----0
  6
CONTINUOUS
 62
             7
100
AcDbLine
 10
101.9052327586724
 20
132.75082287108401
 11
98.90523275867236
 21
132.75082287108401
  0
LINE
  5
72
100
AcDbEntity
  8
LC-004-002-----0
  6
CONTINUOUS
 62
             7
100
AcDbLine
 10
64.90490299999874
 20
111.02654787108349
 11
90.90523275867236
 21
111.02654787108349
  0
LINE
  5
71
100
AcDbEntity
  8
LC-004-002-----0
  6
CONTINUOUS
 62
             7
100
AcDbLine
 10
120.9052327586724
 20
129.220590871083
 11
120.9052327586724
 21
131.28105387108101
  0
LINE
  5
70
100
AcDbEntity
  8
LC-004-002-----0
  6
CONTINUOUS
 62
             7
100
AcDbLine
 10
109.90543675867229
 20
104.01671487108339
 11
109.90544775867239
 21
125.18535887108099
  0
LINE
  5
6F
100
AcDbEntity
  8
LC-004-002-----0
  6
CONTINUOUS
 62
             7
100
AcDbLine
 10
79.90523275867236
 20
129.220590871083
 11
79.90523275867236
 21
131.28105387108101
  0
LINE
  5
6E
100
AcDbEntity
  8
LC-004-002-----0
  6
CONTINUOUS
 62
             7
100
AcDbLine
 10
90.90523275867236
 20
104.0165478710815
 11
90.90523275867236
 21
125.18519187108269
  0
LINE
  5
6D
100
AcDbEntity
  8
LC-004-002-----0
  6
CONTINUOUS
 62
             7
100
AcDbLine
 10
109.90544022721591
 20
111.02654787108349
 11
195.88717643119159
 21
111.02654787108349
  0
LINE
  5
6C
100
AcDbEntity
  8
LC-004-002-----0
  6
CONTINUOUS
 62
             7
100
AcDbLine
 10
206.90523943119479
 20
127.7508228711749
 11
209.90523943119479
 21
127.7508228711749
  0
LINE
  5
6B
100
AcDbEntity
  8
LC-004-002-----0
  6
CONTINUOUS
 62
             7
100
AcDbLine
 10
205.90523943119479
 20
131.7508228711749
 11
205.90523943119479
 21
128.7508228711749
  0
LINE
  5
6A
100
AcDbEntity
  8
LC-004-002-----0
  6
CONTINUOUS
 62
             7
100
AcDbLine
 10
210.90523943119479
 20
128.7508228711749
 11
210.90523943119479
 21
131.7508228711749
  0
LINE
  5
69
100
AcDbEntity
  8
LC-004-002-----0
  6
CONTINUOUS
 62
             7
100
AcDbLine
 10
209.90523943119479
 20
132.7508228711749
 11
206.90523943119479
 21
132.7508228711749
  0
LINE
  5
68
100
AcDbEntity
  8
LC-004-002-----0
  6
CONTINUOUS
 62
             7
100
AcDbLine
 10
228.90523943119479
 20
129.22059087117401
 11
228.90523943119479
 21
131.2810538711756
  0
LINE
  5
67
100
AcDbEntity
  8
LC-004-002-----0
  6
CONTINUOUS
 62
             7
100
AcDbLine
 10
195.88717643119159
 20
111.02654787108349
 11
198.90523943119479
 21
111.02654787108349
  0
LINE
  5
66
100
AcDbEntity
  8
LC-004-002-----0
  6
CONTINUOUS
 62
             7
100
AcDbLine
 10
310.03368799999947
 20
45.99855478216796
 11
310.03368799999947
 21
-79.00020921783198
  0
LINE
  5
65
100
AcDbEntity
  8
LC-003-100-D03-0
  6
CONTINUOUS
 62
             7
100
AcDbLine
 10
206.41864843119399
 20
88.49645978216813
 11
207.1626144311922
 21
66.88820823662991
  0
LINE
  5
64
100
AcDbEntity
  8
LC-003-100-D03-0
  6
CONTINUOUS
 62
             7
100
AcDbLine
 10
209.64786543119411
 20
66.88820823662991
 11
210.39183143119229
 21
88.49645978216813
  0
LINE
  5
63
100
AcDbEntity
  8
LC-003-100-D03-0
  6
CONTINUOUS
 62
             7
100
AcDbLine
 10
207.1626144311922
 20
66.88820823662991
 11
209.64786543119411
 21
66.88820823662991
  0
LINE
  5
62
100
AcDbEntity
  8
LC-003-100-D03-0
  6
CONTINUOUS
 62
             7
100
AcDbLine
 10
101.64785775867129
 20
66.88820823662991
 11
102.3918237586731
 21
88.49645978216813
  0
LINE
  5
61
100
AcDbEntity
  8
LC-003-100-D03-0
  6
CONTINUOUS
 62
             7
100
AcDbLine
 10
98.41864075867125
 20
88.49645978216813
 11
99.16260675867306
 21
66.88820823662991
  0
LINE
  5
60
100
AcDbEntity
  8
LC-003-100-D03-0
  6
CONTINUOUS
 62
             7
100
AcDbLine
 10
99.16260675867306
 20
66.88820823662991
 11
101.64785775867129
 21
66.88820823662991
  0
LINE
  5
5F
100
AcDbEntity
  8
LC-003-100-D03-0
  6
CONTINUOUS
 62
             7
100
AcDbLine
 10
61.90490299999874
 20
96.01654787108146
 11
246.9054670000005
 21
96.01654787108146
  0
LINE
  5
5E
100
AcDbEntity
  8
LC-003-100-D03-0
  6
CONTINUOUS
 62
             7
100
AcDbLine
 10
0.0
 20
67.21301981392622
 11
0.0
 21
-66.82012424959379
  0
LINE
  5
5D
100
AcDbEntity
  8
LC-003-100-D03-0
  6
CONTINUOUS
 62
             7
100
AcDbLine
 10
65.42166873126917
 20
66.99644378233296
 11
23.76325999999972
 21
66.99644478216595
  0
LINE
  5
5C
100
AcDbEntity
  8
LC-003-100-D03-0
  6
CONTINUOUS
 62
             7
100
AcDbLine
 10
67.7738658440976
 20
-66.99644621784813
 11
23.76325999999972
 21
-66.99644721783392
  0
LINE
  5
5B
100
AcDbEntity
  8
LC-003-100-D03-0
  6
CONTINUOUS
 62
             7
100
AcDbLine
 10
3.51627584173548
 20
67.39729976168252
 11
0.0
 21
67.21301981392622
  0
LINE
  5
5A
100
AcDbEntity
  8
LC-003-100-D03-0
  6
CONTINUOUS
 62
             7
100
AcDbLine
 10
20.29915800000163
 20
73.39644578216627
 11
23.76325999999972
 21
67.39644478216593
  0
LINE
  5
59
100
AcDbEntity
  8
LC-003-100-D03-0
  6
CONTINUOUS
 62
             7
100
AcDbLine
 10
20.29915800000163
 20
73.39644578216627
 11
8.2070698070529
 21
72.76272708863922
  0
LINE
  5
58
100
AcDbEntity
  8
LC-003-100-D03-0
  6
CONTINUOUS
 62
             7
100
AcDbLine
 10
3.51627576095416
 20
-67.00440419311548
 11
0.0
 21
-66.82012424959379
  0
LINE
  5
57
100
AcDbEntity
  8
LC-004-002-----0
  6
CONTINUOUS
 62
             7
100
AcDbLine
 10
217.90544743119241
 20
111.02654787108349
 11
243.9054670000005
 21
111.02654787108349
  0
LINE
  5
56
100
AcDbEntity
  8
LC-004-002-----0
  6
CONTINUOUS
 62
             7
100
AcDbLine
 10
217.9054434311947
 20
104.0167171703733
 11
217.90545443119481
 21
125.18535887117559
  0
LINE
  5
55
100
AcDbEntity
  8
LC-004-002-----0
  6
CONTINUOUS
 62
             7
100
AcDbLine
 10
187.90523943119479
 20
129.22059087117401
 11
187.90523943119479
 21
131.2810538711756
  0
LINE
  5
54
100
AcDbEntity
  8
LC-003-100-D03-0
  6
CONTINUOUS
 62
             7
100
AcDbLine
 10
20.29915800000163
 20
-73.00355021783383
 11
8.20938502990975
 21
-72.36995285984216
  0
LINE
  5
53
100
AcDbEntity
  8
LC-003-100-D03-0
  6
CONTINUOUS
 62
             7
100
AcDbLine
 10
20.29915800000163
 20
-73.00355021783383
 11
23.76325999999972
 21
-67.0035492178335
  0
LINE
  5
52
100
AcDbEntity
  8
LC-003-100-D03-0
  6
CONTINUOUS
 62
             7
100
AcDbLine
 10
68.00966799999878
 20
-81.06901321783425
 11
64.9102469999998
 21
96.01654787108146
  0
LINE
  5
51
100
AcDbEntity
  8
LC-001-001-----0
  6
CONTINUOUS
 62
             7
100
AcDbLine
 10
65.90449900000021
 20
96.01654787108146
 11
64.9102469999998
 21
96.01654787108146
  0
LINE
  5
50
100
AcDbEntity
  8
LC-001-001-----0
  6
CONTINUOUS
 62
             7
100
AcDbLine
 10
241.3685839999998
 20
-78.99982821783397
 11
310.03226500000159
 21
-79.00020921783198
  0
LINE
  5
4F
100
AcDbEntity
  8
LC-004-002-----0
  6
CONTINUOUS
 62
             7
100
AcDbLine
 10
198.90523943119479
 20
104.0165501703714
 11
198.90523943119479
 21
125.1851918711736
  0
LINE
  5
4E
100
AcDbEntity
  8
LC-003-100-D03-0
  6
CONTINUOUS
 62
             7
100
AcDbLine
 10
70.99151400000119
 20
-83.99926521783254
 11
95.9961919999987
 21
-83.99926521783254
  0
LINE
  5
4D
100
AcDbEntity
  8
LC-003-100-D03-0
  6
CONTINUOUS
 62
             7
100
AcDbLine
 10
97.98439299999882
 20
-82.01106521783277
 11
97.98439299999882
 21
1.67828578216813
  0
LINE
  5
4C
100
AcDbEntity
  8
LC-003-100-D03-0
  6
CONTINUOUS
 62
             7
100
AcDbLine
 10
98.48144500000126
 20
-78.99902021783328
 11
241.3685839999998
 21
-78.99982221783193
  0
LINE
  5
4B
100
AcDbEntity
  8
LC-004-002-----0
  6
CONTINUOUS
 62
             7
100
AcDbLine
 10
117.62874799999879
 20
217.49654787108349
 11
109.62874799999879
 21
217.49654787108349
  0
LINE
  5
4A
100
AcDbEntity
  8
LC-004-002-----0
  6
CONTINUOUS
 62
             7
100
AcDbLine
 10
109.62874799999879
 20
217.49654787108349
 11
109.62874799999879
 21
215.49654787108349
  0
LINE
  5
49
100
AcDbEntity
  8
LC-004-002-----0
  6
CONTINUOUS
 62
             7
100
AcDbLine
 10
120.12874799999879
 20
215.49654787108349
 11
106.12874799999879
 21
215.49654787108349
  0
LINE
  5
48
100
AcDbEntity
  8
LC-004-002-----0
  6
CONTINUOUS
 62
             7
100
AcDbLine
 10
117.62874799999879
 20
215.49654787108349
 11
117.62874799999879
 21
217.49654787108349
  0
LINE
  5
47
100
AcDbEntity
  8
LC-004-002-----0
  6
CONTINUOUS
 62
             7
100
AcDbLine
 10
120.12874799999879
 20
217.49654787108349
 11
117.62874799999879
 21
217.49654787108349
  0
LINE
  5
46
100
AcDbEntity
  8
LC-004-002-----0
  6
CONTINUOUS
 62
             7
100
AcDbLine
 10
98.62874799999884
 20
235.99654787108349
 11
117.12874799999879
 21
235.99654787108349
  0
LINE
  5
45
100
AcDbEntity
  8
LC-004-002-----0
  6
CONTINUOUS
 62
             7
100
AcDbLine
 10
107.62874799999879
 20
217.49654787108349
 11
109.62874799999879
 21
217.49654787108349
  0
LINE
  5
44
100
AcDbEntity
  8
LC-004-002-----0
  6
CONTINUOUS
 62
             7
100
AcDbLine
 10
105.62874799999879
 20
215.49654787108349
 11
105.62874799999879
 21
200.49654787108349
  0
LINE
  5
43
100
AcDbEntity
  8
LC-004-002-----0
  6
CONTINUOUS
 62
             7
100
AcDbLine
 10
103.62874799999879
 20
198.49654787108349
 11
97.62874799999884
 21
198.49654787108349
  0
LINE
  5
42
100
AcDbEntity
  8
LC-004-002-----0
  6
CONTINUOUS
 62
             7
100
AcDbLine
 10
95.62874799999884
 20
200.49654787108349
 11
95.62874799999884
 21
232.99654787108349
  0
LINE
  5
41
100
AcDbEntity
  8
LC-004-002-----0
  6
CONTINUOUS
 62
             7
100
AcDbLine
 10
124.62874799999879
 20
218.3984718710835
 11
125.62874799999879
 21
216.6664208710836
  0
LINE
  5
40
100
AcDbEntity
  8
LC-004-002-----0
  6
CONTINUOUS
 62
             7
100
AcDbLine
 10
120.12874799999879
 20
220.99654787108349
 11
120.12874799999879
 21
217.49654787108349
  0
LINE
  5
3F
100
AcDbEntity
  8
LC-004-002-----0
  6
DASHDOT
 62
             2
100
AcDbLine
 10
123.1287499999988
 20
223.99654787108349
 11
123.1287499999988
 21
218.49654787108349
  0
LINE
  5
3E
100
AcDbEntity
  8
LC-004-002-----0
  6
DASHDOT
 62
             2
100
AcDbLine
 10
120.12874799999879
 20
220.99654787108349
 11
126.12874799999879
 21
220.99654787108349
  0
LINE
  5
3D
100
AcDbEntity
  8
LC-004-002-----0
  6
CONTINUOUS
 62
             7
100
AcDbLine
 10
120.12874799999879
 20
232.99654787108349
 11
120.12874799999879
 21
228.99654787108349
  0
LINE
  5
3C
100
AcDbEntity
  8
LC-004-002-----0
  6
CONTINUOUS
 62
             7
100
AcDbLine
 10
123.12874799999879
 20
225.99654787108349
 11
123.12874799999879
 21
225.99654787108349
  0
LINE
  5
3B
100
AcDbEntity
  8
LC-004-002-----0
  6
CONTINUOUS
 62
             7
100
AcDbLine
 10
120.12874799999879
 20
128.38763987108351
 11
120.12874799999879
 21
215.49654787108349
  0
LINE
  5
3A
100
AcDbEntity
  8
LC-004-002-----0
  6
DASHED
 62
             2
100
AcDbLine
 10
117.62874799999879
 20
128.8750558710835
 11
117.62874799999879
 21
215.49654787108349
  0
LINE
  5
39
100
AcDbEntity
  8
LC-004-002-----0
  6
DASHDOT
 62
             2
100
AcDbLine
 10
113.62874799999879
 20
243.26271167632049
 11
113.62874799999879
 21
136.79271167632049
  0
LINE
  5
38
100
AcDbEntity
  8
LC-004-002-----0
  6
DASHED
 62
             2
100
AcDbLine
 10
109.62874799999879
 20
130.88140387108339
 11
109.62874799999879
 21
215.49654787108349
  0
LINE
  5
37
100
AcDbEntity
  8
LC-004-002-----0
  6
CONTINUOUS
 62
             7
100
AcDbLine
 10
106.12874799999879
 20
215.49654787108349
 11
106.12874799999879
 21
131.27881987108341
  0
LINE
  5
36
100
AcDbEntity
  8
LC-004-002-----0
  6
CONTINUOUS
 62
             7
100
AcDbLine
 10
117.62874799999879
 20
118.02654787108349
 11
117.62874799999879
 21
122.3039778710835
  0
LINE
  5
35
100
AcDbEntity
  8
LC-004-002-----0
  6
CONTINUOUS
 62
             7
100
AcDbLine
 10
109.9038559999988
 20
118.02654787108349
 11
123.12874799999879
 21
118.02654787108349
  0
LINE
  5
34
100
AcDbEntity
  8
LC-004-002-----0
  6
CONTINUOUS
 62
             7
100
AcDbLine
 10
123.62874799999879
 20
117.52654787108349
 11
123.62874799999879
 21
112.02654787108349
  0
ENDBLK
  5
E5
100
AcDbEntity
  8
0
100
AcDbBlockEnd
  0
BLOCK
  5
2F
100
AcDbEntity
  8
0
100
AcDbBlockBegin
  2
HL_712_1_R_CKSTAUVERSCS__2
 70
             0
 10
1068.0642528021531
 20
-744.25994807558345
 30
0.0
  3
HL_712_1_R_CKSTAUVERSCS__2
  1

  0
XLINE
  5
194
100
AcDbEntity
  8
1
  6
DOT_CENTER
 62
             3
 60
             1
100
AcDbXline
 10
1581.914836802152
 20
-179.7235389665347
 30
0.0
 11
0.0
 21
1.0
 31
0.0
  0
XLINE
  5
193
100
AcDbEntity
  8
1
  6
DOT_CENTER
 62
             3
 60
             1
100
AcDbXline
 10
1581.914836802152
 20
-179.7235389665347
 30
0.0
 11
1.0
 21
0.0
 31
0.0
  0
CIRCLE
  5
192
100
AcDbEntity
  8
1
  6
CONTINUOUS
 62
             7
100
AcDbCircle
 10
506.056093657914
 20
-0.00000002782838
 40
62.94999973090677
  0
CIRCLE
  5
191
100
AcDbEntity
  8
1
  6
CONTINUOUS
 62
             7
100
AcDbCircle
 10
506.056093657914
 20
-0.00000002782838
 40
67.19644873090516
  0
CIRCLE
  5
190
100
AcDbEntity
  8
1
  6
CONTINUOUS
 62
             7
100
AcDbCircle
 10
506.056093657914
 20
-0.00000002782838
 40
73.19644773090482
  0
ARC
  5
18F
100
AcDbEntity
  8
LC-009-002-RND-0
  6
CONTINUOUS
 62
             7
100
AcDbCircle
 10
560.05609365791406
 20
111.99645917273899
 40
1.0
100
AcDbArc
 50
180.0
 51
-90.0
  0
ARC
  5
18E
100
AcDbEntity
  8
LC-009-002-RND-0
  6
CONTINUOUS
 62
             7
100
AcDbCircle
 10
538.05609365791406
 20
111.99645917273899
 40
1.0
100
AcDbArc
 50
-90.0
 51
0.0
  0
ARC
  5
18D
100
AcDbEntity
  8
LC-009-002-RND-0
  6
CONTINUOUS
 62
             7
100
AcDbCircle
 10
539.55609365791406
 20
117.49645917273899
 40
0.5
100
AcDbArc
 50
90.0
 51
180.0
  0
ARC
  5
18C
100
AcDbEntity
  8
LC-009-002-RND-0
  6
CONTINUOUS
 62
             7
100
AcDbCircle
 10
558.55609365791406
 20
117.49645917273899
 40
0.5
100
AcDbArc
 50
0.0
 51
90.0
  0
ARC
  5
18B
100
AcDbEntity
  8
LC-009-002-RND-0
  6
CONTINUOUS
 62
             7
100
AcDbCircle
 10
452.056093657914
 20
111.99645917273899
 40
1.0
100
AcDbArc
 50
-90.0
 51
0.0
  0
ARC
  5
18A
100
AcDbEntity
  8
LC-009-002-RND-0
  6
CONTINUOUS
 62
             7
100
AcDbCircle
 10
453.556093657914
 20
117.49645917273899
 40
0.5
100
AcDbArc
 50
90.0
 51
180.0
  0
ARC
  5
189
100
AcDbEntity
  8
LC-009-002-RND-0
  6
CONTINUOUS
 62
             7
100
AcDbCircle
 10
474.056093657914
 20
111.99645917273899
 40
1.0
100
AcDbArc
 50
180.0
 51
-90.0
  0
ARC
  5
188
100
AcDbEntity
  8
LC-009-002-RND-0
  6
CONTINUOUS
 62
             7
100
AcDbCircle
 10
472.556093657914
 20
117.49645917273899
 40
0.5
100
AcDbArc
 50
0.0
 51
90.0
  0
ARC
  5
187
100
AcDbEntity
  8
LC-009-002-RND-0
  6
CONTINUOUS
 62
             7
100
AcDbCircle
 10
541.05609365791406
 20
135.53516117273901
 40
0.99999999999961
100
AcDbArc
 50
-126.757613999941
 51
0.0
  0
ARC
  5
186
100
AcDbEntity
  8
LC-009-002-RND-0
  6
CONTINUOUS
 62
             7
100
AcDbCircle
 10
532.05609365791406
 20
124.70958117273879
 40
10.0
100
AcDbArc
 50
0.0
 51
62.42153200002039
  0
ARC
  5
185
100
AcDbEntity
  8
LC-002-002-----0
  6
CONTINUOUS
 62
             7
100
AcDbCircle
 10
529.93109365791406
 20
120.6411081727391
 40
14.59000000000114
100
AcDbArc
 50
62.42153199999038
 51
131.29186300000342
  0
ARC
  5
184
100
AcDbEntity
  8
LC-002-002-----0
  6
CONTINUOUS
 62
             7
100
AcDbCircle
 10
529.93109365791406
 20
120.6411081727391
 40
17.59027799999866
100
AcDbArc
 50
53.24238600000767
 51
129.95133399998841
  0
ARC
  5
183
100
AcDbEntity
  8
LC-009-002-RND-0
  6
CONTINUOUS
 62
             7
100
AcDbCircle
 10
517.99359365791406
 20
134.23317217273899
 40
3.49999999999694
100
AcDbArc
 50
-131.29186299994214
 51
-48.70813700005508
  0
ARC
  5
182
100
AcDbEntity
  8
LC-009-002-RND-0
  6
CONTINUOUS
 62
             7
100
AcDbCircle
 10
517.99359365791406
 20
134.89223217273889
 40
0.99999999999679
100
AcDbArc
 50
-129.951333999784
 51
-50.04866600020603
  0
ARC
  5
181
100
AcDbEntity
  8
LC-002-002-----0
  6
CONTINUOUS
 62
             7
100
AcDbCircle
 10
482.181093657914
 20
120.6411081727391
 40
17.59027799999729
100
AcDbArc
 50
50.04866600001102
 51
126.75761399999234
  0
ARC
  5
180
100
AcDbEntity
  8
LC-002-002-----0
  6
CONTINUOUS
 62
             7
100
AcDbCircle
 10
506.056093657914
 20
120.6411081727391
 40
14.59000000000104
100
AcDbArc
 50
48.70813699999575
 51
131.29186300000342
  0
ARC
  5
17F
100
AcDbEntity
  8
LC-009-002-RND-0
  6
CONTINUOUS
 62
             7
100
AcDbCircle
 10
480.056093657914
 20
124.70958117273879
 40
9.99999999999834
100
AcDbArc
 50
117.57846799997846
 51
180.0
  0
ARC
  5
17E
100
AcDbEntity
  8
LC-002-002-----0
  6
CONTINUOUS
 62
             7
100
AcDbCircle
 10
506.056093657914
 20
120.6411081727391
 40
17.59027799999733
100
AcDbArc
 50
50.04866600001088
 51
129.95133399998841
  0
ARC
  5
17D
100
AcDbEntity
  8
LC-009-002-RND-0
  6
CONTINUOUS
 62
             7
100
AcDbCircle
 10
545.60484665791409
 20
219.49654787108349
 40
2.00000000000088
100
AcDbArc
 50
-142.72420900002788
 51
-90.0
  0
ARC
  5
17C
100
AcDbEntity
  8
LC-009-002-RND-0
  6
CONTINUOUS
 62
             7
100
AcDbCircle
 10
526.50733965791414
 20
219.49654787108349
 40
2.0
100
AcDbArc
 50
-90.0
 51
-37.27579099997211
  0
ARC
  5
17B
100
AcDbEntity
  8
LC-009-002-RND-0
  6
CONTINUOUS
 62
             7
100
AcDbCircle
 10
466.50733965791409
 20
219.49654787108349
 40
2.0
100
AcDbArc
 50
-90.0
 51
-37.27579099997211
  0
ARC
  5
17A
100
AcDbEntity
  8
LC-009-002-RND-0
  6
CONTINUOUS
 62
             7
100
AcDbCircle
 10
525.60484665791409
 20
219.49654787108349
 40
2.00000000000088
100
AcDbArc
 50
-142.72420900002788
 51
-90.0
  0
ARC
  5
179
100
AcDbEntity
  8
LC-009-002-RND-0
  6
CONTINUOUS
 62
             7
100
AcDbCircle
 10
506.50733965791409
 20
219.49654787108349
 40
2.0
100
AcDbArc
 50
-90.0
 51
-37.27579099997211
  0
ARC
  5
178
100
AcDbEntity
  8
LC-009-002-RND-0
  6
CONTINUOUS
 62
             7
100
AcDbCircle
 10
505.60484665791409
 20
219.49654787108349
 40
2.00000000000093
100
AcDbArc
 50
-142.72420900002888
 51
-90.0
  0
ARC
  5
177
100
AcDbEntity
  8
LC-009-002-RND-0
  6
CONTINUOUS
 62
             7
100
AcDbCircle
 10
486.50733965791409
 20
219.49654787108349
 40
2.0
100
AcDbArc
 50
-90.0
 51
-37.27579099997211
  0
ARC
  5
176
100
AcDbEntity
  8
LC-009-002-RND-0
  6
CONTINUOUS
 62
             7
100
AcDbCircle
 10
485.60484665791409
 20
219.49654787108349
 40
2.00000000000093
100
AcDbArc
 50
-142.72420900002888
 51
-90.0
  0
ARC
  5
175
100
AcDbEntity
  8
LC-009-002-RND-0
  6
CONTINUOUS
 62
             7
100
AcDbCircle
 10
548.05609365791406
 20
200.49654787108349
 40
2.0
100
AcDbArc
 50
180.0
 51
-90.0
  0
ARC
  5
174
100
AcDbEntity
  8
LC-009-002-RND-0
  6
CONTINUOUS
 62
             7
100
AcDbCircle
 10
464.056093657914
 20
200.49654787108349
 40
2.0
100
AcDbArc
 50
-90.0
 51
0.0
  0
ARC
  5
173
100
AcDbEntity
  8
LC-009-002-RND-0
  6
CONTINUOUS
 62
             7
100
AcDbCircle
 10
554.05609365791406
 20
233.99654787108349
 40
2.0
100
AcDbArc
 50
0.0
 51
90.0
  0
ARC
  5
172
100
AcDbEntity
  8
LC-002-002-----0
  6
CONTINUOUS
 62
             7
100
AcDbCircle
 10
458.056093657914
 20
233.99654787108349
 40
2.0
100
AcDbArc
 50
90.0
 51
180.0
  0
ARC
  5
171
100
AcDbEntity
  8
LC-009-002-RND-0
  6
CONTINUOUS
 62
             7
100
AcDbCircle
 10
471.056093657914
 20
135.53516117273901
 40
1.0
100
AcDbArc
 50
180.0
 51
-53.242386000059
  0
ARC
  5
170
100
AcDbEntity
  8
LC-009-002-RND-0
  6
CONTINUOUS
 62
             7
100
AcDbCircle
 10
494.118593657914
 20
134.23317217273899
 40
3.49999999999694
100
AcDbArc
 50
-131.29186299994214
 51
-48.70813700005578
  0
ARC
  5
16F
100
AcDbEntity
  8
LC-002-002-----0
  6
CONTINUOUS
 62
             7
100
AcDbCircle
 10
496.056093657914
 20
212.22872187108359
 40
9.99999999999782
100
AcDbArc
 50
37.27579100001231
 51
142.7242089999873
  0
ARC
  5
16E
100
AcDbEntity
  8
LC-002-002-----0
  6
CONTINUOUS
 62
             7
100
AcDbCircle
 10
482.181093657914
 20
120.6411081727391
 40
14.59000000000104
100
AcDbArc
 50
48.70813699999575
 51
117.57846800000864
  0
ARC
  5
16D
100
AcDbEntity
  8
LC-002-002-----0
  6
CONTINUOUS
 62
             7
100
AcDbCircle
 10
536.05609365791406
 20
212.22872187108359
 40
9.99999999999777
100
AcDbArc
 50
37.2757910000125
 51
142.72420899998752
  0
ARC
  5
16C
100
AcDbEntity
  8
LC-002-002-----0
  6
CONTINUOUS
 62
             7
100
AcDbCircle
 10
516.05609365791406
 20
212.22872187108359
 40
9.99999999999777
100
AcDbArc
 50
37.2757910000125
 51
142.72420899998752
  0
ARC
  5
16B
100
AcDbEntity
  8
LC-002-002-----0
  6
CONTINUOUS
 62
             7
100
AcDbCircle
 10
476.056093657914
 20
212.22872187108359
 40
9.99999999999782
100
AcDbArc
 50
37.27579100001231
 51
142.7242089999873
  0
ARC
  5
16A
100
AcDbEntity
  8
LC-009-002-RND-0
  6
CONTINUOUS
 62
             7
100
AcDbCircle
 10
494.118593657914
 20
134.89223217273889
 40
0.99999999999679
100
AcDbArc
 50
-129.951333999784
 51
-50.04866600020353
  0
ARC
  5
169
100
AcDbEntity
  8
LC-002-002-----0
  6
CONTINUOUS
 62
             7
100
AcDbCircle
 10
409.04066302788942
 20
128.89479445882401
 40
1.00000000000053
100
AcDbArc
 50
-90.00005799970685
 51
0.0
  0
ARC
  5
168
100
AcDbEntity
  8
LC-002-002-----0
  6
CONTINUOUS
 62
             7
100
AcDbCircle
 10
406.04066302788942
 20
128.89479445882401
 40
1.0
100
AcDbArc
 50
180.0
 51
-90.00005799970685
  0
ARC
  5
167
100
AcDbEntity
  8
LC-002-002-----0
  6
CONTINUOUS
 62
             7
100
AcDbCircle
 10
406.04066302788942
 20
131.6063513352843
 40
1.0
100
AcDbArc
 50
90.0
 51
180.0
  0
ARC
  5
166
100
AcDbEntity
  8
LC-002-002-----0
  6
CONTINUOUS
 62
             7
100
AcDbCircle
 10
409.04066302788942
 20
131.6063513352843
 40
1.00000000000352
100
AcDbArc
 50
0.00015200005373
 51
90.0
  0
ARC
  5
165
100
AcDbEntity
  8
LC-002-002-----0
  6
CONTINUOUS
 62
             7
100
AcDbCircle
 10
412.04066302788942
 20
130.97300333528119
 40
1.99999999999816
100
AcDbArc
 50
100.33989099993947
 51
180.0
  0
ARC
  5
164
100
AcDbEntity
  8
LC-002-002-----0
  6
CONTINUOUS
 62
             7
100
AcDbCircle
 10
388.05598302789531
 20
129.36456245881939
 40
2.0
100
AcDbArc
 50
180.0
 51
-106.72686000001963
  0
ARC
  5
163
100
AcDbEntity
  8
LC-002-002-----0
  6
CONTINUOUS
 62
             7
100
AcDbCircle
 10
407.53832302789033
 20
194.2008919409077
 40
69.70015619088025
100
AcDbArc
 50
-106.64675155019097
 51
-73.27506491509818
  0
ARC
  5
162
100
AcDbEntity
  8
LC-002-002-----0
  6
CONTINUOUS
 62
             7
100
AcDbCircle
 10
388.05576602789461
 20
129.52830345882339
 40
2.00000000000042
100
AcDbArc
 50
-179.99996299987561
 51
-100.3399119999594
  0
ARC
  5
161
100
AcDbEntity
  8
LC-002-002-----0
  6
CONTINUOUS
 62
             7
100
AcDbCircle
 10
388.05598302789531
 20
131.1365823352813
 40
2.00000000000387
100
AcDbArc
 50
106.72680100025113
 51
180.0
  0
ARC
  5
160
100
AcDbEntity
  8
LC-002-002-----0
  6
CONTINUOUS
 62
             7
100
AcDbCircle
 10
407.53832302789033
 20
66.30874959105728
 40
69.69201988818944
100
AcDbArc
 50
73.27321753473153
 51
106.72680053473579
  0
ARC
  5
15F
100
AcDbEntity
  8
LC-002-002-----0
  6
CONTINUOUS
 62
             7
100
AcDbCircle
 10
388.05576502789421
 20
130.97316533528519
 40
1.99999999999822
100
AcDbArc
 50
100.34000299989556
 51
-179.99996299987561
  0
ARC
  5
15E
100
AcDbEntity
  8
LC-002-002-----0
  6
CONTINUOUS
 62
             7
100
AcDbCircle
 10
395.54808102789042
 20
170.59343136917099
 40
43.74301730391209
100
AcDbArc
 50
-100.33986011730561
 51
-79.65992711730641
  0
ARC
  5
15D
100
AcDbEntity
  8
LC-002-002-----0
  6
CONTINUOUS
 62
             7
100
AcDbCircle
 10
403.04044602788872
 20
129.52831245882641
 40
2.00000000000014
100
AcDbArc
 50
-79.65999500005792
 51
0.00003699991514
  0
ARC
  5
15C
100
AcDbEntity
  8
LC-002-002-----0
  6
CONTINUOUS
 62
             7
100
AcDbCircle
 10
403.0404450278956
 20
130.9731743352809
 40
2.00000000000042
100
AcDbArc
 50
0.00003700012439
 51
79.66016500021142
  0
ARC
  5
15B
100
AcDbEntity
  8
LC-002-002-----0
  6
CONTINUOUS
 62
             7
100
AcDbCircle
 10
395.54813002788882
 20
89.90802375283099
 40
43.74303960783378
100
AcDbArc
 50
79.66016208407494
 51
100.33992508407695
  0
ARC
  5
15A
100
AcDbEntity
  8
LC-002-002-----0
  6
CONTINUOUS
 62
             7
100
AcDbCircle
 10
427.02066302789262
 20
129.36456245881939
 40
2.00000000000092
100
AcDbArc
 50
-73.27304699983871
 51
0.0
  0
ARC
  5
159
100
AcDbEntity
  8
LC-002-002-----0
  6
CONTINUOUS
 62
             7
100
AcDbCircle
 10
427.02066302789262
 20
131.1365823352813
 40
2.0
100
AcDbArc
 50
0.0
 51
73.27321800015496
  0
ARC
  5
158
100
AcDbEntity
  8
LC-002-002-----0
  6
CONTINUOUS
 62
             7
100
AcDbCircle
 10
427.02066302789262
 20
129.52814245881979
 40
1.99999999999973
100
AcDbArc
 50
-79.65995700011176
 51
0.0
  0
ARC
  5
157
100
AcDbEntity
  8
LC-002-002-----0
  6
CONTINUOUS
 62
             7
100
AcDbCircle
 10
419.5306630278946
 20
170.5804523852662
 40
43.7299923988696
100
AcDbArc
 50
-100.33994718957658
 51
-79.66010718956885
  0
ARC
  5
156
100
AcDbEntity
  8
LC-002-002-----0
  6
CONTINUOUS
 62
             7
100
AcDbCircle
 10
427.02066302789262
 20
130.97300333528119
 40
2.0
100
AcDbArc
 50
0.0
 51
79.66012800013957
  0
ARC
  5
155
100
AcDbEntity
  8
LC-002-002-----0
  6
CONTINUOUS
 62
             7
100
AcDbCircle
 10
419.5306630278946
 20
89.92068571039138
 40
43.72999997229527
100
AcDbArc
 50
79.66010899999161
 51
100.33989100001301
  0
ARC
  5
154
100
AcDbEntity
  8
LC-002-002-----0
  6
CONTINUOUS
 62
             7
100
AcDbCircle
 10
412.04066302788942
 20
129.52814245881979
 40
2.0
100
AcDbArc
 50
180.0
 51
-100.33994900003655
  0
ARC
  5
153
100
AcDbEntity
  8
LC-002-002-----0
  6
CONTINUOUS
 62
             7
100
AcDbCircle
 10
604.57364302789301
 20
194.2008919409077
 40
69.70015619087994
100
AcDbArc
 50
-106.724935084899
 51
-73.35324844980904
  0
ARC
  5
152
100
AcDbEntity
  8
LC-002-002-----0
  6
CONTINUOUS
 62
             7
100
AcDbCircle
 10
600.07130302789392
 20
129.52814245881979
 40
1.99999999999581
100
AcDbArc
 50
-79.66005099996504
 51
0.0
  0
ARC
  5
151
100
AcDbEntity
  8
LC-002-002-----0
  6
CONTINUOUS
 62
             7
100
AcDbCircle
 10
592.58130302788868
 20
89.92065104554649
 40
43.72999997229591
100
AcDbArc
 50
79.66010899998699
 51
100.33989100000363
  0
ARC
  5
150
100
AcDbEntity
  8
LC-002-002-----0
  6
CONTINUOUS
 62
             7
100
AcDbCircle
 10
585.09130302789072
 20
130.97296867043639
 40
1.99999999999931
100
AcDbArc
 50
100.33987199986248
 51
180.0
  0
ARC
  5
14F
100
AcDbEntity
  8
LC-002-002-----0
  6
CONTINUOUS
 62
             7
100
AcDbCircle
 10
592.58130302788868
 20
170.5804523852662
 40
43.72999239886436
100
AcDbArc
 50
-100.33989281042641
 51
-79.66005281041873
  0
ARC
  5
14E
100
AcDbEntity
  8
LC-002-002-----0
  6
CONTINUOUS
 62
             7
100
AcDbCircle
 10
585.09130302789072
 20
129.52814245881979
 40
2.0
100
AcDbArc
 50
180.0
 51
-100.34004299988986
  0
ARC
  5
14D
100
AcDbEntity
  8
LC-002-002-----0
  6
CONTINUOUS
 62
             7
100
AcDbCircle
 10
585.09130302789072
 20
131.13654767043641
 40
2.0000000000028
100
AcDbArc
 50
106.72678199984591
 51
180.0
  0
ARC
  5
14C
100
AcDbEntity
  8
LC-002-002-----0
  6
CONTINUOUS
 62
             7
100
AcDbCircle
 10
585.09130302789072
 20
129.36456245881939
 40
2.0
100
AcDbArc
 50
180.0
 51
-106.72695300016285
  0
ARC
  5
14B
100
AcDbEntity
  8
LC-002-002-----0
  6
CONTINUOUS
 62
             7
100
AcDbCircle
 10
616.56383602789083
 20
89.90798908798618
 40
43.74303960783112
100
AcDbArc
 50
79.66007491591367
 51
100.33983791592031
  0
ARC
  5
14A
100
AcDbEntity
  8
LC-002-002-----0
  6
CONTINUOUS
 62
             7
100
AcDbCircle
 10
609.07152102789496
 20
130.9731396704361
 40
2.0000000000048
100
AcDbArc
 50
100.33983499999204
 51
179.99996299987805
  0
ARC
  5
149
100
AcDbEntity
  8
LC-002-002-----0
  6
CONTINUOUS
 62
             7
100
AcDbCircle
 10
609.07152002789462
 20
129.52831245882641
 40
2.00000000000042
100
AcDbArc
 50
179.99996300008488
 51
-100.34000499994367
  0
ARC
  5
148
100
AcDbEntity
  8
LC-002-002-----0
  6
CONTINUOUS
 62
             7
100
AcDbCircle
 10
616.56388502789287
 20
170.59343136917099
 40
43.7430173039084
100
AcDbArc
 50
-100.34007288268884
 51
-79.66013988269432
  0
ARC
  5
147
100
AcDbEntity
  8
LC-002-002-----0
  6
CONTINUOUS
 62
             7
100
AcDbCircle
 10
624.05620102788907
 20
130.9731306704403
 40
2.00000000000042
100
AcDbArc
 50
-0.00003700012439
 51
79.65999700000236
  0
ARC
  5
146
100
AcDbEntity
  8
LC-002-002-----0
  6
CONTINUOUS
 62
             7
100
AcDbCircle
 10
604.57364302789301
 20
66.30871492621242
 40
69.69201988818982
100
AcDbArc
 50
73.27319946525853
 51
106.72678246526564
  0
ARC
  5
145
100
AcDbEntity
  8
LC-002-002-----0
  6
CONTINUOUS
 62
             7
100
AcDbCircle
 10
624.05598302789531
 20
131.13654767043641
 40
2.0
100
AcDbArc
 50
0.0
 51
73.27319899994983
  0
ARC
  5
144
100
AcDbEntity
  8
LC-002-002-----0
  6
CONTINUOUS
 62
             7
100
AcDbCircle
 10
624.05620002788874
 20
129.52830345882339
 40
1.99999999999958
100
AcDbArc
 50
-79.66008799983557
 51
-0.00003700012439
  0
ARC
  5
143
100
AcDbEntity
  8
LC-002-002-----0
  6
CONTINUOUS
 62
             7
100
AcDbCircle
 10
624.05598302789531
 20
129.36456245881939
 40
1.99999999999533
100
AcDbArc
 50
-73.27314000018156
 51
0.0
  0
ARC
  5
142
100
AcDbEntity
  8
LC-002-002-----0
  6
CONTINUOUS
 62
             7
100
AcDbCircle
 10
600.07130302789392
 20
130.97296867043639
 40
2.0
100
AcDbArc
 50
0.0
 51
79.66010899985663
  0
ARC
  5
141
100
AcDbEntity
  8
LC-002-002-----0
  6
CONTINUOUS
 62
             7
100
AcDbCircle
 10
603.07130302789392
 20
131.60631667043941
 40
1.0
100
AcDbArc
 50
90.0
 51
179.99984799994138
  0
ARC
  5
140
100
AcDbEntity
  8
LC-002-002-----0
  6
CONTINUOUS
 62
             7
100
AcDbCircle
 10
606.07130302789392
 20
131.60631667043941
 40
1.0
100
AcDbArc
 50
0.0
 51
90.0
  0
ARC
  5
13F
100
AcDbEntity
  8
LC-002-002-----0
  6
CONTINUOUS
 62
             7
100
AcDbCircle
 10
606.07130302789392
 20
128.89479445882401
 40
1.00000000000053
100
AcDbArc
 50
-89.99994200008796
 51
0.0
  0
ARC
  5
13E
100
AcDbEntity
  8
LC-002-002-----0
  6
CONTINUOUS
 62
             7
100
AcDbCircle
 10
603.07130302789392
 20
128.89479445882401
 40
1.0
100
AcDbArc
 50
180.0
 51
-89.99994200008796
  0
ARC
  5
13D
100
AcDbEntity
  8
LC-009-002-RND-0
  6
CONTINUOUS
 62
             7
100
AcDbCircle
 10
591.10602465790816
 20
107.99645917273899
 40
3.0
100
AcDbArc
 50
0.0
 51
90.0
  0
ARC
  5
13C
100
AcDbEntity
  8
LC-009-002-RND-0
  6
CONTINUOUS
 62
             7
100
AcDbCircle
 10
596.10602465790816
 20
105.99645917273899
 40
2.0
100
AcDbArc
 50
180.0
 51
-90.0
  0
ARC
  5
13B
100
AcDbEntity
  8
LC-003-100-D03-0
  6
CONTINUOUS
 62
             7
100
AcDbCircle
 10
614.01536465791378
 20
89.04070954257131
 40
0.4970500000054
100
AcDbArc
 50
-90.0
 51
0.0
  0
ARC
  5
13A
100
AcDbEntity
  8
LC-003-100-D03-0
  6
CONTINUOUS
 62
             7
100
AcDbCircle
 10
506.056093657914
 20
-2.5064622178374
 40
81.4928029999958
100
AcDbArc
 50
-178.72632026524082
 51
-2.45566879744839
  0
ARC
  5
139
100
AcDbEntity
  8
LC-009-002-RND-0
  6
CONTINUOUS
 62
             7
100
AcDbCircle
 10
614.05469265791271
 20
103.49645917273899
 40
0.5
100
AcDbArc
 50
0.0
 51
90.0
  0
ARC
  5
138
100
AcDbEntity
  8
LC-009-002-RND-0
  6
CONTINUOUS
 62
             7
100
AcDbCircle
 10
614.05469265791271
 20
96.49645917273898
 40
0.5
100
AcDbArc
 50
-90.0
 51
0.0
  0
ARC
  5
137
100
AcDbEntity
  8
LC-009-002-RND-0
  6
CONTINUOUS
 62
             7
100
AcDbCircle
 10
398.05749465790808
 20
96.49645917273898
 40
0.5
100
AcDbArc
 50
180.0
 51
-90.0
  0
ARC
  5
136
100
AcDbEntity
  8
LC-009-002-RND-0
  6
CONTINUOUS
 62
             7
100
AcDbCircle
 10
398.05749465790808
 20
103.49645917273899
 40
0.5
100
AcDbArc
 50
90.0
 51
180.0
  0
ARC
  5
135
100
AcDbEntity
  8
LC-003-100-D03-0
  6
CONTINUOUS
 62
             7
100
AcDbCircle
 10
398.09682265791429
 20
89.04070954257131
 40
0.4970500000054
100
AcDbArc
 50
180.0
 51
-90.0
  0
ARC
  5
134
100
AcDbEntity
  8
LC-009-002-RND-0
  6
CONTINUOUS
 62
             7
100
AcDbCircle
 10
416.00616265791263
 20
105.99645917273899
 40
2.0
100
AcDbArc
 50
-90.0
 51
0.0
  0
ARC
  5
133
100
AcDbEntity
  8
LC-009-002-RND-0
  6
CONTINUOUS
 62
             7
100
AcDbCircle
 10
421.00616265791263
 20
107.99645917273899
 40
3.0
100
AcDbArc
 50
90.0
 51
180.0
  0
ARC
  5
132
100
AcDbEntity
  8
1
  6
CONTINUOUS
 62
             7
100
AcDbCircle
 10
506.056093657914
 20
-16.50079232804416
 40
58.49996759792401
100
AcDbArc
 50
-7.98482633144223
 51
-172.01517366855825
  0
LINE
  5
131
100
AcDbEntity
  8
LC-009-002-RND-0
  6
CONTINUOUS
 62
             7
100
AcDbLine
 10
559.05609365791406
 20
117.49645917273899
 11
559.05609365791406
 21
111.99645917273899
  0
LINE
  5
130
100
AcDbEntity
  8
LC-002-002-----0
  6
CONTINUOUS
 62
             7
100
AcDbLine
 10
539.05609365791406
 20
117.49645917273899
 11
539.05609365791406
 21
111.99645917273899
  0
LINE
  5
12F
100
AcDbEntity
  8
LC-002-002-----0
  6
CONTINUOUS
 62
             7
100
AcDbLine
 10
558.55609365791406
 20
117.99645917273899
 11
539.55609365791406
 21
117.99645917273899
  0
LINE
  5
12E
100
AcDbEntity
  8
LC-002-002-----0
  6
CONTINUOUS
 62
             7
100
AcDbLine
 10
545.05609365791406
 20
118.3729151727389
 11
542.05609365791406
 21
118.3729151727389
  0
LINE
  5
12D
100
AcDbEntity
  8
LC-002-002-----0
  6
CONTINUOUS
 62
             7
100
AcDbLine
 10
456.056093657914
 20
118.3729151727389
 11
459.056093657914
 21
118.3729151727389
  0
LINE
  5
12C
100
AcDbEntity
  8
LC-009-002-RND-0
  6
CONTINUOUS
 62
             7
100
AcDbLine
 10
453.056093657914
 20
117.49645917273899
 11
453.056093657914
 21
111.99645917273899
  0
LINE
  5
12B
100
AcDbEntity
  8
LC-002-002-----0
  6
CONTINUOUS
 62
             7
100
AcDbLine
 10
453.556093657914
 20
117.99645917273899
 11
472.556093657914
 21
117.99645917273899
  0
LINE
  5
12A
100
AcDbEntity
  8
LC-002-002-----0
  6
CONTINUOUS
 62
             7
100
AcDbLine
 10
473.056093657914
 20
117.49645917273899
 11
473.056093657914
 21
111.99645917273899
  0
LINE
  5
129
100
AcDbEntity
  8
LC-002-002-----0
  6
CONTINUOUS
 62
             7
100
AcDbLine
 10
556.05609365791406
 20
118.3729151727389
 11
553.05609365791406
 21
118.3729151727389
  0
LINE
  5
128
100
AcDbEntity
  8
LC-002-002-----0
  6
CONTINUOUS
 62
             7
100
AcDbLine
 10
467.056093657914
 20
118.3729151727389
 11
470.056093657914
 21
118.3729151727389
  0
LINE
  5
127
100
AcDbEntity
  8
LC-002-002-----0
  6
CONTINUOUS
 62
             7
100
AcDbLine
 10
542.05609365791406
 20
135.53516117273901
 11
542.05609365791406
 21
217.07330387108351
  0
LINE
  5
126
100
AcDbEntity
  8
LC-002-002-----0
  6
CONTINUOUS
 62
             7
100
AcDbLine
 10
470.056093657914
 20
135.53516117273901
 11
470.056093657914
 21
217.07330387108351
  0
LINE
  5
125
100
AcDbEntity
  8
LC-002-002-----0
  6
CONTINUOUS
 62
             7
100
AcDbLine
 10
466.50733965791409
 20
217.49654787108349
 11
466.056093657914
 21
217.49654787108349
  0
LINE
  5
124
100
AcDbEntity
  8
LC-002-002-----0
  6
CONTINUOUS
 62
             7
100
AcDbLine
 10
486.50733965791409
 20
217.49654787108349
 11
485.60484665791409
 21
217.49654787108349
  0
LINE
  5
123
100
AcDbEntity
  8
LC-002-002-----0
  6
CONTINUOUS
 62
             7
100
AcDbLine
 10
506.50733965791409
 20
217.49654787108349
 11
505.60484665791409
 21
217.49654787108349
  0
LINE
  5
122
100
AcDbEntity
  8
LC-002-002-----0
  6
CONTINUOUS
 62
             7
100
AcDbLine
 10
464.056093657914
 20
198.49654787108349
 11
456.056093657914
 21
198.49654787108349
  0
LINE
  5
121
100
AcDbEntity
  8
LC-002-002-----0
  6
CONTINUOUS
 62
             7
100
AcDbLine
 10
546.05609365791406
 20
217.49654787108349
 11
545.60484665791409
 21
217.49654787108349
  0
LINE
  5
120
100
AcDbEntity
  8
LC-002-002-----0
  6
CONTINUOUS
 62
             7
100
AcDbLine
 10
545.93640065791419
 20
217.49654787108349
 11
545.2756376579141
 21
217.49654787108349
  0
LINE
  5
11F
100
AcDbEntity
  8
LC-002-002-----0
  6
CONTINUOUS
 62
             7
100
AcDbLine
 10
467.056093657914
 20
217.07330387108351
 11
545.05609365791406
 21
217.07330387108351
  0
LINE
  5
11E
100
AcDbEntity
  8
LC-002-002-----0
  6
CONTINUOUS
 62
             7
100
AcDbLine
 10
526.50733965791414
 20
217.49654787108349
 11
525.60484665791409
 21
217.49654787108349
  0
LINE
  5
11D
100
AcDbEntity
  8
LC-002-002-----0
  6
CONTINUOUS
 62
             7
100
AcDbLine
 10
542.05609365791406
 20
118.3729151727389
 11
542.05609365791406
 21
124.70958117273879
  0
LINE
  5
11C
100
AcDbEntity
  8
LC-002-002-----0
  6
CONTINUOUS
 62
             2
100
AcDbLine
 10
549.05609365791406
 20
198.49654787108349
 11
549.05609365791406
 21
118.7926111727388
  0
LINE
  5
11B
100
AcDbEntity
  8
LC-002-002-----0
  6
CONTINUOUS
 62
             7
100
AcDbLine
 10
553.05609365791406
 20
198.49654787108349
 11
553.05609365791406
 21
117.99645917273899
  0
LINE
  5
11A
100
AcDbEntity
  8
LC-002-002-----0
  6
CONTINUOUS
 62
             7
100
AcDbLine
 10
546.05609365791406
 20
200.49654787108349
 11
546.05609365791406
 21
217.49654787108349
  0
LINE
  5
119
100
AcDbEntity
  8
LC-002-002-----0
  6
CONTINUOUS
 62
             7
100
AcDbLine
 10
466.056093657914
 20
200.49654787108349
 11
466.056093657914
 21
217.49654787108349
  0
LINE
  5
118
100
AcDbEntity
  8
LC-002-002-----0
  6
CONTINUOUS
 62
             7
100
AcDbLine
 10
546.05609365791406
 20
217.49654787108349
 11
545.60484665791409
 21
217.49654787108349
  0
LINE
  5
117
100
AcDbEntity
  8
LC-002-002-----0
  6
CONTINUOUS
 62
             7
100
AcDbLine
 10
556.05609365791406
 20
198.49654787108349
 11
548.05609365791406
 21
198.49654787108349
  0
LINE
  5
116
100
AcDbEntity
  8
LC-002-002-----0
  6
CONTINUOUS
 62
             7
100
AcDbLine
 10
554.05609365791406
 20
235.99654787108349
 11
458.056093657914
 21
235.99654787108349
  0
LINE
  5
115
100
AcDbEntity
  8
LC-002-002-----0
  6
CONTINUOUS
 62
             7
100
AcDbLine
 10
456.056093657914
 20
118.3729151727389
 11
456.056093657914
 21
233.99654787108349
  0
LINE
  5
114
100
AcDbEntity
  8
LC-002-002-----0
  6
CONTINUOUS
 62
             7
100
AcDbLine
 10
556.05609365791406
 20
118.3729151727389
 11
556.05609365791406
 21
233.99654787108349
  0
LINE
  5
113
100
AcDbEntity
  8
LC-002-002-----0
  6
CONTINUOUS
 62
             7
100
AcDbLine
 10
545.05609365791406
 20
217.07330387108351
 11
545.05609365791406
 21
117.99645917273899
  0
LINE
  5
112
100
AcDbEntity
  8
LC-002-002-----0
  6
CONTINUOUS
 62
             7
100
AcDbLine
 10
459.056093657914
 20
198.49654787108349
 11
459.056093657914
 21
117.99645917273899
  0
LINE
  5
111
100
AcDbEntity
  8
LC-002-002-----0
  6
CONTINUOUS
 62
             7
100
AcDbLine
 10
467.056093657914
 20
217.07330387108351
 11
467.056093657914
 21
117.99645917273899
  0
LINE
  5
110
100
AcDbEntity
  8
LC-002-002-----0
  6
CONTINUOUS
 62
             7
100
AcDbLine
 10
470.056093657914
 20
118.3729151727389
 11
470.056093657914
 21
124.70958117273879
  0
LINE
  5
10F
100
AcDbEntity
  8
LC-002-002-----0
  6
CONTINUOUS
 62
             2
100
AcDbLine
 10
463.056093657914
 20
198.49654787108349
 11
463.056093657914
 21
110.99645917273899
  0
LINE
  5
10E
100
AcDbEntity
  8
LC-002-002-----0
  6
CONTINUOUS
 62
             7
100
AcDbLine
 10
406.04066302788942
 20
127.89479445882399
 11
409.04066302788942
 21
127.89479445882399
  0
LINE
  5
10D
100
AcDbEntity
  8
LC-002-002-----0
  6
CONTINUOUS
 62
             7
100
AcDbLine
 10
410.04066302788942
 20
128.89479445882401
 11
410.04066302788942
 21
131.6063513352843
  0
LINE
  5
10C
100
AcDbEntity
  8
LC-002-002-----0
  6
CONTINUOUS
 62
             7
100
AcDbLine
 10
405.04066302788942
 20
131.6063513352843
 11
405.04066302788942
 21
128.89479445882401
  0
LINE
  5
10B
100
AcDbEntity
  8
LC-002-002-----0
  6
CONTINUOUS
 62
             7
100
AcDbLine
 10
409.04066302788942
 20
132.6063513352843
 11
406.04066302788942
 21
132.6063513352843
  0
LINE
  5
10A
100
AcDbEntity
  8
LC-002-002-----0
  6
CONTINUOUS
 62
             7
100
AcDbLine
 10
386.05598302789531
 20
131.1365823352813
 11
386.05598302789531
 21
129.36456245881939
  0
LINE
  5
109
100
AcDbEntity
  8
LC-002-002-----0
  6
CONTINUOUS
 62
             7
100
AcDbLine
 10
429.02066302789262
 20
131.1365823352813
 11
429.02066302789262
 21
129.36456245881939
  0
LINE
  5
108
100
AcDbEntity
  8
LC-002-002-----0
  6
CONTINUOUS
 62
             7
100
AcDbLine
 10
583.09130302789072
 20
129.36456245881939
 11
583.09130302789072
 21
131.13654767043641
  0
LINE
  5
107
100
AcDbEntity
  8
LC-002-002-----0
  6
CONTINUOUS
 62
             7
100
AcDbLine
 10
626.05598302789531
 20
129.36456245881939
 11
626.05598302789531
 21
131.13654767043641
  0
LINE
  5
106
100
AcDbEntity
  8
LC-002-002-----0
  6
CONTINUOUS
 62
             7
100
AcDbLine
 10
606.07130302789392
 20
132.60631667043941
 11
603.07130302789392
 21
132.60631667043941
  0
LINE
  5
105
100
AcDbEntity
  8
LC-002-002-----0
  6
CONTINUOUS
 62
             7
100
AcDbLine
 10
607.07130302789392
 20
128.89479445882401
 11
607.07130302789392
 21
131.60631667043941
  0
LINE
  5
104
100
AcDbEntity
  8
LC-002-002-----0
  6
CONTINUOUS
 62
             7
100
AcDbLine
 10
602.07130302789392
 20
131.60631667043941
 11
602.07130302789392
 21
128.89479445882401
  0
LINE
  5
103
100
AcDbEntity
  8
LC-002-002-----0
  6
CONTINUOUS
 62
             7
100
AcDbLine
 10
603.07130302789392
 20
127.89479445882399
 11
606.07130302789392
 21
127.89479445882399
  0
LINE
  5
102
100
AcDbEntity
  8
1
  6
PHANTOM
 62
             2
100
AcDbLine
 10
604.57151214128044
 20
92.3150905676107
 11
604.57152428631616
 21
139.4217171220503
  0
LINE
  5
101
100
AcDbEntity
  8
1
  6
PHANTOM
 62
             2
100
AcDbLine
 10
407.54066359049187
 20
137.17141423722799
 11
407.54067533136998
 21
91.63238299109671
  0
LINE
  5
100
100
AcDbEntity
  8
LC-002-002-----0
  6
CONTINUOUS
 62
             7
100
AcDbLine
 10
421.31763499903258
 20
95.99645917273898
 11
424.58342542400442
 21
-4.31789028525372
  0
LINE
  5
FF
100
AcDbEntity
  8
LC-003-100-D03-0
  6
CONTINUOUS
 62
             7
100
AcDbLine
 10
506.056093657914
 20
95.99645917273898
 11
614.5124146579119
 21
95.99645917273898
  0
LINE
  5
FE
100
AcDbEntity
  8
LC-002-002-----0
  6
CONTINUOUS
 62
             7
100
AcDbLine
 10
590.79455231678821
 20
95.99645917273898
 11
587.47405953249199
 21
-5.99813425886299
  0
LINE
  5
FD
100
AcDbEntity
  8
LC-002-002-----0
  6
CONTINUOUS
 62
             7
100
AcDbLine
 10
398.05749465790808
 20
95.99645917273898
 11
614.05469265791271
 21
95.99645917273898
  0
LINE
  5
FC
100
AcDbEntity
  8
LC-002-002-----0
  6
CONTINUOUS
 62
             7
100
AcDbLine
 10
421.00616165791229
 20
110.99645917273899
 11
591.03602465790846
 21
110.99645917273899
  0
LINE
  5
FB
100
AcDbEntity
  8
LC-002-002-----0
  6
CONTINUOUS
 62
             7
100
AcDbLine
 10
594.10602465790816
 20
107.99645917273899
 11
594.10602465790816
 21
95.99645917273898
  0
LINE
  5
FA
100
AcDbEntity
  8
LC-003-100-D03-0
  6
CONTINUOUS
 62
             7
100
AcDbLine
 10
614.5124146579119
 20
95.99645917273898
 11
614.5124146579119
 21
89.04070954257131
  0
LINE
  5
F9
100
AcDbEntity
  8
LC-003-100-D03-0
  6
CONTINUOUS
 62
             7
100
AcDbLine
 10
506.056093657914
 20
95.99645917273898
 11
397.59977265790889
 21
95.99645917273898
  0
LINE
  5
F8
100
AcDbEntity
  8
LC-003-100-D03-0
  6
CONTINUOUS
 62
             7
100
AcDbLine
 10
614.01536465791378
 20
88.54365954256591
 11
590.53564432836811
 21
88.54365954256591
  0
LINE
  5
F7
100
AcDbEntity
  8
LC-003-100-D03-0
  6
CONTINUOUS
 62
             7
100
AcDbLine
 10
614.01536465791378
 20
88.54365954256591
 11
589.84626241991737
 21
66.86811926379471
  0
LINE
  5
F6
100
AcDbEntity
  8
LC-002-002-----0
  6
CONTINUOUS
 62
             7
100
AcDbLine
 10
596.10602465790816
 20
103.99645917273899
 11
614.05469265791271
 21
103.99645917273899
  0
LINE
  5
F5
100
AcDbEntity
  8
LC-002-002-----0
  6
CONTINUOUS
 62
             7
100
AcDbLine
 10
614.55469265791271
 20
96.49645917273898
 11
614.55469265791271
 21
103.49645917273899
  0
LINE
  5
F4
100
AcDbEntity
  8
LC-002-002-----0
  6
CONTINUOUS
 62
             7
100
AcDbLine
 10
595.07141365791267
 20
104.28485756059899
 11
595.07141365791267
 21
125.15149360874651
  0
LINE
  5
F3
100
AcDbEntity
  8
LC-002-002-----0
  6
CONTINUOUS
 62
             7
100
AcDbLine
 10
614.07161665790863
 20
103.9966261727446
 11
614.07162756590787
 21
125.1509095893621
  0
LINE
  5
F2
100
AcDbEntity
  8
LC-002-002-----0
  6
CONTINUOUS
 62
             7
100
AcDbLine
 10
398.04055974992752
 20
125.1508791548936
 11
398.04057065790852
 21
103.9966261727446
  0
LINE
  5
F1
100
AcDbEntity
  8
LC-002-002-----0
  6
CONTINUOUS
 62
             7
100
AcDbLine
 10
417.04077365790812
 20
125.151524057796
 11
417.04077365790812
 21
104.28485756059899
  0
LINE
  5
F0
100
AcDbEntity
  8
LC-002-002-----0
  6
CONTINUOUS
 62
             7
100
AcDbLine
 10
397.55749465790808
 20
103.49645917273899
 11
397.55749465790808
 21
96.49645917273898
  0
LINE
  5
EF
100
AcDbEntity
  8
LC-002-002-----0
  6
CONTINUOUS
 62
             7
100
AcDbLine
 10
398.05749465790808
 20
103.99645917273899
 11
416.00616265791263
 21
103.99645917273899
  0
LINE
  5
EE
100
AcDbEntity
  8
LC-003-100-D03-0
  6
CONTINUOUS
 62
             7
100
AcDbLine
 10
422.26592458260069
 20
66.86811953828737
 11
398.09682265791429
 21
88.54365954256591
  0
LINE
  5
ED
100
AcDbEntity
  8
LC-003-100-D03-0
  6
CONTINUOUS
 62
             7
100
AcDbLine
 10
421.57654290435403
 20
88.54365954256591
 11
398.09682265791429
 21
88.54365954256591
  0
LINE
  5
EC
100
AcDbEntity
  8
LC-003-100-D03-0
  6
CONTINUOUS
 62
             7
100
AcDbLine
 10
397.59977265790889
 20
89.04070954257131
 11
397.59977265790889
 21
95.99645917273898
  0
LINE
  5
EB
100
AcDbEntity
  8
LC-002-002-----0
  6
CONTINUOUS
 62
             7
100
AcDbLine
 10
418.00616265791263
 20
95.99645917273898
 11
418.00616265791263
 21
107.99645917273899
  0
LINE
  5
EA
100
AcDbEntity
  8
1
  6
PHANTOM
 62
             2
100
AcDbLine
 10
593.35557417753171
 20
-0.00000002782838
 11
419.96688399183131
 21
-0.00000002782838
  0
LINE
  5
E9
100
AcDbEntity
  8
1
  6
PHANTOM
 62
             2
100
AcDbLine
 10
506.056093657914
 20
237.9037468211211
 11
506.056093657914
 21
-89.25714336960078
  0
POINT
  5
E8
100
AcDbEntity
  8
1
 62
             3
 60
             1
100
AcDbPoint
 10
1581.914836802152
 20
-179.7235389665347
  0
POINT
  5
E7
100
AcDbEntity
  8
1
 62
             3
 60
             1
100
AcDbPoint
 10
1581.914836802152
 20
-7.97862876485118
  0
POINT
  5
E6
100
AcDbEntity
  8
1
 62
             3
 60
             1
100
AcDbPoint
 10
1581.914836802152
 20
-351.46844916822181
  0
ENDBLK
  5
195
100
AcDbEntity
  8
0
100
AcDbBlockEnd
  0
BLOCK
  5
198
100
AcDbEntity
  8
0
100
AcDbBlockBegin
  2
*D2
 70
             1
 10
0.0
 20
0.0
 30
0.0
  3
*D2
  1

  0
LINE
  5
199
100
AcDbEntity
  8
0
  6
CONTINUOUS
 62
             4
100
AcDbLine
 10
61.90490303294311
 20
159.53129547992663
 11
246.90546703294493
 21
159.53129536159327
  0
LINE
  5
19A
100
AcDbEntity
  8
0
  6
CONTINUOUS
 62
             4
100
AcDbLine
 10
246.90546700000053
 20
108.02654787108352
 11
246.90546703422422
 21
161.53129536159327
  0
LINE
  5
19B
100
AcDbEntity
  8
0
  6
CONTINUOUS
 62
             4
100
AcDbLine
 10
61.90490299999881
 20
108.02654787108352
 11
61.90490303422241
 21
161.53129547992663
  0
SOLID
  5
19C
100
AcDbEntity
  8
0
 62
             4
100
AcDbTrace
 10
76.90490303420624
 20
161.50608293414311
 11
76.90490303167998
 21
157.55650800652123
 12
61.90490303294311
 22
159.53129547992663
 13
61.90490303294311
 23
159.53129547992663
  0
SOLID
  5
19D
100
AcDbEntity
  8
0
 62
             4
100
AcDbTrace
 10
231.90546703168178
 20
157.55650790737678
 11
231.90546703420807
 21
161.50608283499867
 12
246.90546703294493
 22
159.53129536159327
 13
246.90546703294493
 23
159.53129536159327
  0
MTEXT
  5
19F
100
AcDbEntity
  8
0
 62
             1
100
AcDbMText
 10
146.77828201354461
 20
161.5312954155641
 30
0.0
 40
15.0
 41
0.0
 71
             7
 72
             1
  1
185
  7
CONVERTER_1
 11
0.99999999999706
 21
0.00000242406841
 31
0.0
  0
ENDBLK
  5
1A0
100
AcDbEntity
  8
0
100
AcDbBlockEnd
  0
BLOCK
  5
1A4
100
AcDbEntity
  8
0
100
AcDbBlockBegin
  2
*D3
 70
             1
 10
0.0
 20
0.0
 30
0.0
  3
*D3
  1

  0
LINE
  5
1A5
100
AcDbEntity
  8
0
  6
CONTINUOUS
 62
             4
100
AcDbLine
 10
286.29687052204076
 20
-16.50058690170123
 11
286.29687050285162
 21
-46.5005869017012
  0
LINE
  5
1A6
100
AcDbEntity
  8
0
  6
CONTINUOUS
 62
             4
100
AcDbLine
 10
286.29687053259516
 20
-0.00000018312632
 11
286.29687052204076
 21
-16.50058690170123
  0
LINE
  5
1A7
100
AcDbEntity
  8
0
  6
CONTINUOUS
 62
             4
100
AcDbLine
 10
286.29687059299005
 20
94.42047108831962
 11
286.29687053259516
 21
-0.00000018312632
  0
LINE
  5
1A8
100
AcDbEntity
  8
0
  6
CONTINUOUS
 62
             4
100
AcDbLine
 10
223.3955007535551
 20
-16.50058686146713
 11
288.29687052204076
 21
-16.5005869029805
  0
LINE
  5
1A9
100
AcDbEntity
  8
0
  6
CONTINUOUS
 62
             4
100
AcDbLine
 10
71.63988682440609
 20
-0.00000004582358
 11
288.29687053259516
 21
-0.00000018440559
  0
SOLID
  5
1AA
100
AcDbEntity
  8
0
 62
             4
100
AcDbTrace
 10
284.32208307837914
 20
14.99999981813687
 11
288.27165800600096
 21
14.99999981561049
 12
286.29687053259516
 22
-0.00000018312632
 13
286.29687053259516
 23
-0.00000018312632
  0
SOLID
  5
1AB
100
AcDbEntity
  8
0
 62
             4
100
AcDbTrace
 10
288.27165797625679
 20
-31.50058690296442
 11
284.32208304863497
 21
-31.50058690043804
 12
286.29687052204076
 22
-16.50058690170123
 13
286.29687052204076
 23
-16.50058690170123
  0
MTEXT
  5
1AC
100
AcDbEntity
  8
0
 62
             1
100
AcDbMText
 10
282.79687056948336
 20
57.67047109055835
 30
0.0
 40
15.0
 41
0.0
 71
             7
 72
             1
  1
16,5
  7
CONVERTER_1
 11
0.0
 21
1.0
 31
0.0
  0
ENDBLK
  5
1AD
100
AcDbEntity
  8
0
100
AcDbBlockEnd
  0
BLOCK
  5
1B1
100
AcDbEntity
  8
0
100
AcDbBlockBegin
  2
*D4
 70
             1
 10
0.0
 20
0.0
 30
0.0
  3
*D4
  1

  0
LINE
  5
1B2
100
AcDbEntity
  8
0
  6
CONTINUOUS
 62
             4
100
AcDbLine
 10
-43.51816301181786
 20
-83.9992651445878
 11
-43.51816280713642
 21
235.9965479620061
  0
LINE
  5
1B3
100
AcDbEntity
  8
0
  6
CONTINUOUS
 62
             4
100
AcDbLine
 10
98.62874799999887
 20
235.99654787108349
 11
-45.51816280713642
 21
235.99654796328531
  0
LINE
  5
1B4
100
AcDbEntity
  8
0
  6
CONTINUOUS
 62
             4
100
AcDbLine
 10
70.99151400000116
 20
-83.99926521783262
 11
-45.51816301181786
 21
-83.99926514330859
  0
SOLID
  5
1B5
100
AcDbEntity
  8
0
 62
             4
100
AcDbTrace
 10
-45.49295046603423
 20
-68.99926514332465
 11
-41.54337553841236
 21
-68.99926514585094
 12
-43.51816301181786
 22
-83.9992651445878
 13
-43.51816301181786
 23
-83.9992651445878
  0
SOLID
  5
1B6
100
AcDbEntity
  8
0
 62
             4
100
AcDbTrace
 10
-41.54337535292005
 20
220.99654796074296
 11
-45.49295028054193
 21
220.99654796326925
 12
-43.51816280713642
 22
235.9965479620061
 13
-43.51816280713642
 23
235.9965479620061
  0
MTEXT
  5
1B7
100
AcDbEntity
  8
0
 62
             1
100
AcDbMText
 10
-45.51816288033267
 20
72.36265917647432
 30
0.0
 40
15.0
 41
0.0
 71
             7
 72
             1
  1
\C1;220-\C1;320
  7
CONVERTER_1
 11
0.0
 21
1.0
 31
0.0
  0
ENDBLK
  5
1B8
100
AcDbEntity
  8
0
100
AcDbBlockEnd
  0
BLOCK
  5
1BC
100
AcDbEntity
  8
0
100
AcDbBlockBegin
  2
*D5
 70
             1
 10
0.0
 20
0.0
 30
0.0
  3
*D5
  1

  0
LINE
  5
1BD
100
AcDbEntity
  8
0
  6
CONTINUOUS
 62
             4
100
AcDbLine
 10
-15.99999999996141
 20
62.70002643893727
 11
-16.00034679901761
 21
-62.29997356202144
  0
LINE
  5
1BE
100
AcDbEntity
  8
0
  6
CONTINUOUS
 62
             4
100
AcDbLine
 10
-6.0
 20
-62.30000130690809
 11
-18.00034679900992
 21
-62.29996801323654
  0
LINE
  5
1BF
100
AcDbEntity
  8
0
  6
CONTINUOUS
 62
             4
100
AcDbLine
 10
-6.0
 20
62.69999869501277
 11
-17.99999999995371
 21
62.70003198772217
  0
SOLID
  5
1C0
100
AcDbEntity
  8
0
 62
             4
100
AcDbTrace
 10
-14.02525415204484
 20
47.70002096015956
 11
-17.97482907965151
 21
47.70003191783043
 12
-15.99999999996141
 22
62.70002643893727
 13
-15.99999999996141
 23
62.70002643893727
  0
SOLID
  5
1C1
100
AcDbEntity
  8
0
 62
             4
100
AcDbTrace
 10
-17.97509264693422
 20
-47.29996808324373
 11
-14.02551771932754
 21
-47.29997904091459
 12
-16.00034679901761
 22
-62.29997356202144
 13
-16.00034679901761
 23
-62.29997356202144
  0
MTEXT
  5
1C2
100
AcDbEntity
  8
0
 62
             1
100
AcDbMText
 10
-18.00023924992993
 20
-23.53505571599145
 30
0.0
 40
15.0
 41
0.0
 71
             7
 72
             1
  1
\C1;DN\C1;125
  7
CONVERTER_1
 11
0.00000277439245
 21
0.99999999999615
 31
0.0
  0
ENDBLK
  5
1C3
100
AcDbEntity
  8
0
100
AcDbBlockEnd
  0
BLOCK
  5
1C7
100
AcDbEntity
  8
0
100
AcDbBlockBegin
  2
*D6
 70
             1
 10
0.0
 20
0.0
 30
0.0
  3
*D6
  1

  0
LINE
  5
1C8
100
AcDbEntity
  8
0
  6
CONTINUOUS
 62
             4
100
AcDbLine
 10
342.35683905035393
 20
45.99846510506173
 11
342.35649225472685
 21
-79.00029889792401
  0
LINE
  5
1C9
100
AcDbEntity
  8
0
  6
CONTINUOUS
 62
             4
100
AcDbLine
 10
310.03226500000164
 20
-79.00020921783198
 11
344.35649225471917
 21
-79.00030444670891
  0
LINE
  5
1CA
100
AcDbEntity
  8
0
  6
CONTINUOUS
 62
             4
100
AcDbLine
 10
310.03368799999953
 20
45.99855478216796
 11
344.35683905034625
 21
45.99845955627683
  0
SOLID
  5
1CB
100
AcDbEntity
  8
0
 62
             4
100
AcDbTrace
 10
344.33158489827065
 20
30.99845962628404
 11
340.38200997066394
 21
30.99847058395487
 12
342.35683905035393
 22
45.99846510506173
 13
342.35683905035393
 23
45.99846510506173
  0
SOLID
  5
1CC
100
AcDbEntity
  8
0
 62
             4
100
AcDbTrace
 10
340.38174640681012
 20
-64.00029341914633
 11
344.33132133441683
 21
-64.00030437681716
 12
342.35649225472685
 22
-79.00029889792401
 13
342.35649225472685
 23
-79.00029889792401
  0
MTEXT
  5
1CD
100
AcDbEntity
  8
0
 62
             1
100
AcDbMText
 10
340.35660260657443
 20
-39.22515630578597
 30
0.0
 40
15.0
 41
0.0
 71
             7
 72
             1
  1
\C1;DN\C1;125
  7
CONVERTER_1
 11
0.00000277439245
 21
0.99999999999615
 31
0.0
  0
ENDBLK
  5
1CE
100
AcDbEntity
  8
0
100
AcDbBlockEnd
  0
BLOCK
  5
1D2
100
AcDbEntity
  8
0
100
AcDbBlockBegin
  2
*D7
 70
             1
 10
0.0
 20
0.0
 30
0.0
  3
*D7
  1

  0
LINE
  5
1D3
100
AcDbEntity
  8
0
  6
CONTINUOUS
 62
             4
100
AcDbLine
 10
315.00418897798556
 20
-112.08384302681135
 11
-0.0000000289524
 21
-112.08384282532276
  0
LINE
  5
1D4
100
AcDbEntity
  8
0
  6
CONTINUOUS
 62
             4
100
AcDbLine
 10
0.0
 20
-66.82012424959375
 11
-0.00000003023169
 21
-114.08384282532276
  0
LINE
  5
1D5
100
AcDbEntity
  8
0
  6
CONTINUOUS
 62
             4
100
AcDbLine
 10
315.00418899999931
 20
-77.66798621783433
 11
315.00418897670642
 21
-114.08384302681135
  0
SOLID
  5
1D6
100
AcDbEntity
  8
0
 62
             4
100
AcDbTrace
 10
300.00418897672239
 20
-114.05863048102762
 11
300.00418897924874
 21
-110.10905555340574
 12
315.00418897798556
 22
-112.08384302681135
 13
315.00418897798556
 23
-112.08384302681135
  0
SOLID
  5
1D7
100
AcDbEntity
  8
0
 62
             4
100
AcDbTrace
 10
14.99999997231074
 20
-110.10905537110629
 11
14.99999996978447
 21
-114.05863029872816
 12
-0.0000000289524
 22
-112.08384282532276
 13
-0.0000000289524
 23
-112.08384282532276
  0
MTEXT
  5
1D8
100
AcDbEntity
  8
0
 62
             1
100
AcDbMText
 10
136.7443165671778
 20
-110.08384292286389
 30
0.0
 40
15.0
 41
0.0
 71
             7
 72
             1
  1
315
  7
CONVERTER_1
 11
0.99999999999706
 21
0.00000242406841
 31
0.0
  0
ENDBLK
  5
1D9
100
AcDbEntity
  8
0
100
AcDbBlockEnd
  0
BLOCK
  5
1DD
100
AcDbEntity
  8
0
100
AcDbBlockBegin
  2
*D8
 70
             1
 10
0.0
 20
0.0
 30
0.0
  3
*D8
  1

  0
LINE
  5
1DE
100
AcDbEntity
  8
0
  6
CONTINUOUS
 62
             4
100
AcDbLine
 10
386.05598302789537
 20
-112.08384396233789
 11
626.05598302789531
 21
-112.08384396233789
  0
LINE
  5
1DF
100
AcDbEntity
  8
0
  6
CONTINUOUS
 62
             4
100
AcDbLine
 10
626.05598302789531
 20
129.36456245881942
 11
626.05598302789531
 21
-114.08384396233789
  0
LINE
  5
1E0
100
AcDbEntity
  8
0
  6
CONTINUOUS
 62
             4
100
AcDbLine
 10
386.05598302789537
 20
129.36456245881942
 11
386.05598302789537
 21
-114.08384396233789
  0
SOLID
  5
1E1
100
AcDbEntity
  8
0
 62
             4
100
AcDbTrace
 10
401.05598302789537
 20
-110.10905649852695
 11
401.05598302789537
 21
-114.05863142614884
 12
386.05598302789537
 22
-112.08384396233789
 13
386.05598302789537
 23
-112.08384396233789
  0
SOLID
  5
1E2
100
AcDbEntity
  8
0
 62
             4
100
AcDbTrace
 10
611.05598302789531
 20
-114.05863142614882
 11
611.05598302789531
 21
-110.10905649852695
 12
626.05598302789531
 22
-112.08384396233789
 13
626.05598302789531
 23
-112.08384396233789
  0
MTEXT
  5
1E3
100
AcDbEntity
  8
0
 62
             1
100
AcDbMText
 10
455.33548926870873
 20
-110.08384396233789
 30
0.0
 40
15.0
 41
0.0
 71
             7
 72
             1
  1
240
  7
CONVERTER_1
 11
0.99999999999706
 21
0.00000242406841
 31
0.0
  0
ENDBLK
  5
1E4
100
AcDbEntity
  8
0
100
AcDbBlockEnd
  0
ENDSEC
  0
SECTION
  2
ENTITIES
  0
DIMENSION
  5
1E6
100
AcDbEntity
  8
1
100
AcDbDimension
  2
*D8
 10
386.05598302789537
 20
-112.08384396233789
 11
473.33548926870873
 21
-102.58384396233789
 31
0.0
 53
0.00013888888889
  1
<>
  3
ME10_DIM_6
100
AcDbAlignedDimension
 13
626.05598302789531
 23
129.36456245881939
 14
386.05598302789531
 24
129.36456245881939
100
AcDbRotatedDimension
  0
DIMENSION
  5
1DB
100
AcDbEntity
  8
1
100
AcDbDimension
  2
*D7
 10
315.00418897798556
 20
-112.08384302681135
 11
152.4943165671778
 21
-102.58384292286389
 31
0.0
 53
0.00013888888889
  1
<>
  3
ME10_DIM_5
100
AcDbAlignedDimension
 13
0.0
 23
-66.82012424959379
 14
315.00418899999931
 24
-77.66798621783437
100
AcDbRotatedDimension
  0
DIMENSION
  5
1D0
100
AcDbEntity
  8
1
100
AcDbDimension
  2
*D6
 10
342.35683905035393
 20
45.99846510506173
 11
332.85666877586323
 21
-15.37513549793439
 31
0.0
 53
89.99984103902193
  1
<>
  3
ME10_DIM_4
100
AcDbAlignedDimension
 13
310.03226500000159
 23
-79.00020921783198
 14
310.03368799999947
 24
45.99855478216796
 50
89.99984103902193
100
AcDbRotatedDimension
  0
DIMENSION
  5
1C5
100
AcDbEntity
  8
1
100
AcDbDimension
  2
*D5
 10
-15.99999999996141
 20
62.70002643893727
 11
-25.50017308064114
 21
0.31496509186014
 31
0.0
 53
89.99984103902193
  1
<>
  3
ME10_DIM_3
100
AcDbAlignedDimension
 13
-6.0
 23
-62.30000130690809
 14
-6.0
 24
62.69999869501277
 50
89.99984103902193
100
AcDbRotatedDimension
  0
DIMENSION
  5
1BA
100
AcDbEntity
  8
1
100
AcDbDimension
  2
*D4
 10
-43.51816301181786
 20
-83.9992651445878
 11
-53.01816288656914
 21
111.8126591812716
 31
0.0
 53
89.99999996335146
  1
<>
  3
ME10_DIM_2
100
AcDbAlignedDimension
 13
98.62874799999884
 23
235.99654787108349
 14
70.99151400000119
 24
-83.99926521783254
 50
89.99999996335146
100
AcDbRotatedDimension
  0
DIMENSION
  5
1AF
100
AcDbEntity
  8
1
100
AcDbDimension
  2
*D3
 10
286.29687053259516
 20
-0.00000018312632
 11
276.0468705812367
 21
76.04547109487591
 31
0.0
 70
           128
 53
89.99999996335146
  1
<>
  3
ME10_DIM_1
100
AcDbAlignedDimension
 13
223.3955007535551
 23
-16.50058686146713
 14
71.63988682440606
 24
-0.00000004582358
 50
89.99999996335146
100
AcDbRotatedDimension
  0
DIMENSION
  5
1A2
100
AcDbEntity
  8
1
100
AcDbDimension
  2
*D2
 10
61.90490303294311
 20
159.53129547992663
 11
162.52828201354461
 21
169.0312954155641
 31
0.0
 53
0.00013888888889
  1
<>
  3
ME10_DIM_0
100
AcDbAlignedDimension
 13
246.9054670000005
 23
108.02654787108349
 14
61.90490299999874
 24
108.02654787108349
100
AcDbRotatedDimension
  0
INSERT
  5
32
100
AcDbEntity
  8
0
100
AcDbBlockReference
  2
HL_712_1_R_CKSTAUVERSCS__1
 10
-30.91486457831343
 20
-1688.7834973359941
  0
INSERT
  5
33
100
AcDbEntity
  8
0
100
AcDbBlockReference
  2
HL_712_1_R_CKSTAUVERSCS__2
 10
1068.0642528021531
 20
-744.25994807558345
  0
ENDSEC
  0
SECTION
  2
OBJECTS
  0
DICTIONARY
  5
19
100
AcDbDictionary
  3
ACAD_GROUP
350
1A
  3
ACAD_MLINESTYLE
350
1B
  0
DICTIONARY
  5
1A
102
{ACAD_REACTORS
330
19
102
}
100
AcDbDictionary
  0
DICTIONARY
  5
1B
102
{ACAD_REACTORS
330
19
102
}
100
AcDbDictionary
  3
STANDARD
350
1C
  0
MLINESTYLE
  5
1C
102
{ACAD_REACTORS
330
1B
102
}
100
AcDbMlineStyle
  2
STANDARD
 70
             0
  3

 62
             0
 51
90.0
 52
90.0
 71
             2
 49
0.5
 62
           256
  6
BYLAYER
 49
-0.5
 62
           256
  6
BYLAYER
  0
ENDSEC
  0
EOF
