  0
SECTION
  2
HEADER
  9
$ACADVER
  1
AC1015
  9
$ACADMAINTVER
 70
     6
  9
$DWGCODEPAGE
  3
ANSI_1252
  9
$INSBASE
 10
0.0
 20
0.0
 30
0.0
  9
$EXTMIN
 10
-200.889225325544
 20
-587.499037371933
 30
0.0
  9
$EXTMAX
 10
341.847325061818
 20
48.38114241324465
 30
0.0
  9
$LIMMIN
 10
0.0
 20
0.0
  9
$LIMMAX
 10
12.0
 20
9.0
  9
$ORTHOMODE
 70
     0
  9
$REGENMODE
 70
     1
  9
$FILLMODE
 70
     1
  9
$QTEXTMODE
 70
     0
  9
$MIRRTEXT
 70
     1
  9
$LTSCALE
 40
1.0
  9
$ATTMODE
 70
     1
  9
$TEXTSIZE
 40
0.2
  9
$TRACEWID
 40
0.05
  9
$TEXTSTYLE
  7
Standard
  9
$CLAYER
  8
0
  9
$CELTYPE
  6
ByLayer
  9
$CECOLOR
 62
   256
  9
$CELTSCALE
 40
1.0
  9
$DISPSILH
 70
     0
  9
$DIMSCALE
 40
1.0
  9
$DIMASZ
 40
0.18
  9
$DIMEXO
 40
0.0625
  9
$DIMDLI
 40
0.38
  9
$DIMRND
 40
0.0
  9
$DIMDLE
 40
0.0
  9
$DIMEXE
 40
0.18
  9
$DIMTP
 40
0.0
  9
$DIMTM
 40
0.0
  9
$DIMTXT
 40
0.18
  9
$DIMCEN
 40
0.09
  9
$DIMTSZ
 40
0.0
  9
$DIMTOL
 70
     0
  9
$DIMLIM
 70
     0
  9
$DIMTIH
 70
     1
  9
$DIMTOH
 70
     1
  9
$DIMSE1
 70
     0
  9
$DIMSE2
 70
     0
  9
$DIMTAD
 70
     0
  9
$DIMZIN
 70
     0
  9
$DIMBLK
  1

  9
$DIMASO
 70
     1
  9
$DIMSHO
 70
     1
  9
$DIMPOST
  1

  9
$DIMAPOST
  1

  9
$DIMALT
 70
     0
  9
$DIMALTD
 70
     2
  9
$DIMALTF
 40
25.4
  9
$DIMLFAC
 40
1.0
  9
$DIMTOFL
 70
     0
  9
$DIMTVP
 40
0.0
  9
$DIMTIX
 70
     0
  9
$DIMSOXD
 70
     0
  9
$DIMSAH
 70
     0
  9
$DIMBLK1
  1

  9
$DIMBLK2
  1

  9
$DIMSTYLE
  2
Standard
  9
$DIMCLRD
 70
     0
  9
$DIMCLRE
 70
     0
  9
$DIMCLRT
 70
     0
  9
$DIMTFAC
 40
1.0
  9
$DIMGAP
 40
0.09
  9
$DIMJUST
 70
     0
  9
$DIMSD1
 70
     0
  9
$DIMSD2
 70
     0
  9
$DIMTOLJ
 70
     1
  9
$DIMTZIN
 70
     0
  9
$DIMALTZ
 70
     0
  9
$DIMALTTZ
 70
     0
  9
$DIMUPT
 70
     0
  9
$DIMDEC
 70
     4
  9
$DIMTDEC
 70
     4
  9
$DIMALTU
 70
     2
  9
$DIMALTTD
 70
     2
  9
$DIMTXSTY
  7
Standard
  9
$DIMAUNIT
 70
     0
  9
$DIMADEC
 70
     0
  9
$DIMALTRND
 40
0.0
  9
$DIMAZIN
 70
     0
  9
$DIMDSEP
 70
    46
  9
$DIMATFIT
 70
     3
  9
$DIMFRAC
 70
     0
  9
$DIMLDRBLK
  1

  9
$DIMLUNIT
 70
     2
  9
$DIMLWD
 70
    -2
  9
$DIMLWE
 70
    -2
  9
$DIMTMOVE
 70
     0
  9
$LUNITS
 70
     2
  9
$LUPREC
 70
     4
  9
$SKETCHINC
 40
0.1
  9
$FILLETRAD
 40
0.5
  9
$AUNITS
 70
     0
  9
$AUPREC
 70
     0
  9
$MENU
  1
.
  9
$ELEVATION
 40
0.0
  9
$PELEVATION
 40
0.0
  9
$THICKNESS
 40
0.0
  9
$LIMCHECK
 70
     0
  9
$CHAMFERA
 40
0.5
  9
$CHAMFERB
 40
0.5
  9
$CHAMFERC
 40
1.0
  9
$CHAMFERD
 40
0.0
  9
$SKPOLY
 70
     0
  9
$TDCREATE
 40
2454704.47250787
  9
$TDUCREATE
 40
2454704.389174537
  9
$TDUPDATE
 40
2454704.472507882
  9
$TDUUPDATE
 40
2454704.389174548
  9
$TDINDWG
 40
0.0000000116
  9
$TDUSRTIMER
 40
0.0000000116
  9
$USRTIMER
 70
     1
  9
$ANGBASE
 50
0.0
  9
$ANGDIR
 70
     0
  9
$PDMODE
 70
     0
  9
$PDSIZE
 40
0.0
  9
$PLINEWID
 40
0.0
  9
$SPLFRAME
 70
     0
  9
$SPLINETYPE
 70
     6
  9
$SPLINESEGS
 70
     8
  9
$HANDSEED
  5
190
  9
$SURFTAB1
 70
     6
  9
$SURFTAB2
 70
     6
  9
$SURFTYPE
 70
     6
  9
$SURFU
 70
     6
  9
$SURFV
 70
     6
  9
$UCSBASE
  2

  9
$UCSNAME
  2

  9
$UCSORG
 10
0.0
 20
0.0
 30
0.0
  9
$UCSXDIR
 10
1.0
 20
0.0
 30
0.0
  9
$UCSYDIR
 10
0.0
 20
1.0
 30
0.0
  9
$UCSORTHOREF
  2

  9
$UCSORTHOVIEW
 70
     0
  9
$UCSORGTOP
 10
0.0
 20
0.0
 30
0.0
  9
$UCSORGBOTTOM
 10
0.0
 20
0.0
 30
0.0
  9
$UCSORGLEFT
 10
0.0
 20
0.0
 30
0.0
  9
$UCSORGRIGHT
 10
0.0
 20
0.0
 30
0.0
  9
$UCSORGFRONT
 10
0.0
 20
0.0
 30
0.0
  9
$UCSORGBACK
 10
0.0
 20
0.0
 30
0.0
  9
$PUCSBASE
  2

  9
$PUCSNAME
  2

  9
$PUCSORG
 10
0.0
 20
0.0
 30
0.0
  9
$PUCSXDIR
 10
1.0
 20
0.0
 30
0.0
  9
$PUCSYDIR
 10
0.0
 20
1.0
 30
0.0
  9
$PUCSORTHOREF
  2

  9
$PUCSORTHOVIEW
 70
     0
  9
$PUCSORGTOP
 10
0.0
 20
0.0
 30
0.0
  9
$PUCSORGBOTTOM
 10
0.0
 20
0.0
 30
0.0
  9
$PUCSORGLEFT
 10
0.0
 20
0.0
 30
0.0
  9
$PUCSORGRIGHT
 10
0.0
 20
0.0
 30
0.0
  9
$PUCSORGFRONT
 10
0.0
 20
0.0
 30
0.0
  9
$PUCSORGBACK
 10
0.0
 20
0.0
 30
0.0
  9
$USERI1
 70
     0
  9
$USERI2
 70
     0
  9
$USERI3
 70
     0
  9
$USERI4
 70
     0
  9
$USERI5
 70
     0
  9
$USERR1
 40
15.5
  9
$USERR2
 40
0.0
  9
$USERR3
 40
0.0
  9
$USERR4
 40
0.0
  9
$USERR5
 40
0.0
  9
$WORLDVIEW
 70
     1
  9
$SHADEDGE
 70
     3
  9
$SHADEDIF
 70
    70
  9
$TILEMODE
 70
     1
  9
$MAXACTVP
 70
    64
  9
$PINSBASE
 10
0.0
 20
0.0
 30
0.0
  9
$PLIMCHECK
 70
     0
  9
$PEXTMIN
 10
1.00000000000000E+20
 20
1.00000000000000E+20
 30
1.00000000000000E+20
  9
$PEXTMAX
 10
-1.00000000000000E+20
 20
-1.00000000000000E+20
 30
-1.00000000000000E+20
  9
$PLIMMIN
 10
0.0
 20
0.0
  9
$PLIMMAX
 10
12.0
 20
9.0
  9
$UNITMODE
 70
     0
  9
$VISRETAIN
 70
     1
  9
$PLINEGEN
 70
     0
  9
$PSLTSCALE
 70
     1
  9
$TREEDEPTH
 70
  3020
  9
$CMLSTYLE
  2
Standard
  9
$CMLJUST
 70
     0
  9
$CMLSCALE
 40
1.0
  9
$PROXYGRAPHICS
 70
     1
  9
$MEASUREMENT
 70
     1
  9
$CELWEIGHT
370
    -1
  9
$ENDCAPS
280
     0
  9
$JOINSTYLE
280
     0
  9
$LWDISPLAY
290
     0
  9
$INSUNITS
 70
     1
  9
$HYPERLINKBASE
  1

  9
$STYLESHEET
  1

  9
$XEDIT
290
     1
  9
$CEPSNTYPE
380
     0
  9
$PSTYLEMODE
290
     1
  9
$FINGERPRINTGUID
  2
{BD4D8E49-7137-4F43-87A0-450F82668E49}
  9
$VERSIONGUID
  2
{FAEB1C32-E019-11D5-929B-00C0DF256EC4}
  9
$EXTNAMES
290
     1
  9
$PSVPSCALE
 40
0.0
  9
$OLESTARTUP
290
     0
  0
ENDSEC
  0
SECTION
  2
CLASSES
  0
CLASS
  1
ACDBDICTIONARYWDFLT
  2
AcDbDictionaryWithDefault
  3
ObjectDBX Classes
 90
        0
280
     0
281
     0
  0
CLASS
  1
VISUALSTYLE
  2
AcDbVisualStyle
  3
ObjectDBX Classes
 90
     4095
280
     0
281
     0
  0
CLASS
  1

  2
exOdDbCircle
  3

 90
        0
280
     0
281
     1
  0
CLASS
  1
ACDBPLACEHOLDER
  2
AcDbPlaceHolder
  3
ObjectDBX Classes
 90
        0
280
     0
281
     0
  0
CLASS
  1
LAYOUT
  2
AcDbLayout
  3
ObjectDBX Classes
 90
        0
280
     0
281
     0
  0
ENDSEC
  0
SECTION
  2
TABLES
  0
TABLE
  2
VPORT
  5
8
330
0
100
AcDbSymbolTable
 70
     1
  0
VPORT
  5
29
330
8
100
AcDbSymbolTableRecord
100
AcDbViewportTableRecord
  2
*Active
 70
     0
 10
0.0
 20
0.0
 11
1.0
 21
1.0
 12
70.47904986813701
 22
-269.5589474793442
 13
0.0
 23
0.0
 14
0.5
 24
0.5
 15
0.5
 25
0.5
 16
0.0
 26
0.0
 36
1.0
 17
0.0
 27
0.0
 37
0.0
 40
699.4681977636955
 41
1.60267857142857
 42
50.0
 43
0.0
 44
0.0
 50
0.0
 51
0.0
 71
     0
 72
   100
 73
     1
 74
     3
 75
     0
 76
     0
 77
     0
 78
     0
281
     0
 65
     1
110
0.0
120
0.0
130
0.0
111
1.0
121
0.0
131
0.0
112
0.0
122
1.0
132
0.0
 79
     0
146
0.0
  0
ENDTAB
  0
TABLE
  2
LTYPE
  5
5
330
0
100
AcDbSymbolTable
 70
     8
  0
LTYPE
  5
14
330
5
100
AcDbSymbolTableRecord
100
AcDbLinetypeTableRecord
  2
ByBlock
 70
     0
  3

 72
    65
 73
     0
 40
0.0
  0
LTYPE
  5
15
330
5
100
AcDbSymbolTableRecord
100
AcDbLinetypeTableRecord
  2
ByLayer
 70
     0
  3

 72
    65
 73
     0
 40
0.0
  0
LTYPE
  5
16
330
5
100
AcDbSymbolTableRecord
100
AcDbLinetypeTableRecord
  2
Continuous
 70
     0
  3
Solid line
 72
    65
 73
     0
 40
0.0
  0
LTYPE
  5
3B
330
5
100
AcDbSymbolTableRecord
100
AcDbLinetypeTableRecord
  2
DASHED
 70
     0
  3
Dashed
 72
    65
 73
     2
 40
15.0
 49
7.0
 74
     0
 49
-8.0
 74
     0
  0
LTYPE
  5
3C
330
5
100
AcDbSymbolTableRecord
100
AcDbLinetypeTableRecord
  2
DOTTED
 70
     0
  3
Dotted
 72
    65
 73
     2
 40
1.0
 49
0.0
 74
     0
 49
-1.0
 74
     0
  0
LTYPE
  5
3D
330
5
100
AcDbSymbolTableRecord
100
AcDbLinetypeTableRecord
  2
DOT_CENTER
 70
     0
  3
Dot_Center
 72
    65
 73
     4
 40
14.0
 49
12.0
 74
     0
 49
-1.0
 74
     0
 49
0.0
 74
     0
 49
-1.0
 74
     0
  0
LTYPE
  5
3E
330
5
100
AcDbSymbolTableRecord
100
AcDbLinetypeTableRecord
  2
LONG_DASHED
 70
     0
  3
Long_Dashed
 72
    65
 73
     2
 40
15.0
 49
10.0
 74
     0
 49
-5.0
 74
     0
  0
LTYPE
  5
3F
330
5
100
AcDbSymbolTableRecord
100
AcDbLinetypeTableRecord
  2
DASH_CENTER
 70
     0
  3
Dash_Center
 72
    65
 73
     4
 40
14.0
 49
11.0
 74
     0
 49
-1.0
 74
     0
 49
1.0
 74
     0
 49
-1.0
 74
     0
  0
LTYPE
  5
40
330
5
100
AcDbSymbolTableRecord
100
AcDbLinetypeTableRecord
  2
PHANTOM
 70
     0
  3
Phantom
 72
    65
 73
     6
 40
13.0
 49
10.0
 74
     0
 49
-1.0
 74
     0
 49
0.0
 74
     0
 49
-1.0
 74
     0
 49
0.0
 74
     0
 49
-1.0
 74
     0
  0
LTYPE
  5
41
330
5
100
AcDbSymbolTableRecord
100
AcDbLinetypeTableRecord
  2
CENTER_DASH_DASH
 70
     0
  3
Center_Dash_Dash
 72
    65
 73
     6
 40
14.0
 49
9.0
 74
     0
 49
-1.0
 74
     0
 49
1.0
 74
     0
 49
-1.0
 74
     0
 49
1.0
 74
     0
 49
-1.0
 74
     0
  0
ENDTAB
  0
TABLE
  2
LAYER
  5
2
330
0
100
AcDbSymbolTable
 70
     7
  0
LAYER
  5
10
330
2
100
AcDbSymbolTableRecord
100
AcDbLayerTableRecord
  2
0
 70
     0
 62
     7
  6
Continuous
370
    -3
390
F
  0
LAYER
  5
42
330
2
100
AcDbSymbolTableRecord
100
AcDbLayerTableRecord
  2
1
 70
     0
 62
     7
  6
Continuous
370
    -3
390
F
  0
LAYER
  5
43
330
2
100
AcDbSymbolTableRecord
100
AcDbLayerTableRecord
  2
LC-001-020-----0
 70
     0
 62
     7
  6
Continuous
370
    -3
390
F
  0
LAYER
  5
44
330
2
100
AcDbSymbolTableRecord
100
AcDbLayerTableRecord
  2
LC-003-002-----0
 70
     0
 62
     7
  6
Continuous
370
    -3
390
F
  0
LAYER
  5
45
330
2
100
AcDbSymbolTableRecord
100
AcDbLayerTableRecord
  2
LC-004-002-----0
 70
     0
 62
     7
  6
Continuous
370
    -3
390
F
  0
LAYER
  5
46
330
2
100
AcDbSymbolTableRecord
100
AcDbLayerTableRecord
  2
LC-005-002-RND-0
 70
     0
 62
     7
  6
Continuous
370
    -3
390
F
  0
LAYER
  5
47
330
2
100
AcDbSymbolTableRecord
100
AcDbLayerTableRecord
  2
LC-009-002-RND-0
 70
     0
 62
     7
  6
Continuous
370
    -3
390
F
  0
ENDTAB
  0
TABLE
  2
STYLE
  5
3
330
0
100
AcDbSymbolTable
 70
     3
  0
STYLE
  5
11
330
3
100
AcDbSymbolTableRecord
100
AcDbTextStyleTableRecord
  2
Standard
 70
     0
 40
0.0
 41
1.0
 50
0.0
 71
     0
 42
0.2
  3
txt
  4

  0
STYLE
  5
9E
330
3
100
AcDbSymbolTableRecord
100
AcDbTextStyleTableRecord
  2
CONVERTER_11
 70
     0
 40
0.0
 41
0.95
 50
0.0
 71
     0
 42
0.2
  3
complex.shx
  4

  0
STYLE
  5
147
330
3
100
AcDbSymbolTableRecord
100
AcDbTextStyleTableRecord
  2
CONVERTER_12
 70
     0
 40
0.0
 41
0.9
 50
0.0
 71
     0
 42
0.2
  3
txt.shx
  4

  0
ENDTAB
  0
TABLE
  2
VIEW
  5
6
330
0
100
AcDbSymbolTable
 70
     0
  0
ENDTAB
  0
TABLE
  2
UCS
  5
7
330
0
100
AcDbSymbolTable
 70
     0
  0
ENDTAB
  0
TABLE
  2
APPID
  5
9
330
0
100
AcDbSymbolTable
 70
     1
  0
APPID
  5
12
330
9
100
AcDbSymbolTableRecord
100
AcDbRegAppTableRecord
  2
ACAD
 70
     0
  0
ENDTAB
  0
TABLE
  2
DIMSTYLE
  5
A
330
0
100
AcDbSymbolTable
 70
     8
100
AcDbDimStyleTable
  0
DIMSTYLE
105
27
330
A
100
AcDbSymbolTableRecord
100
AcDbDimStyleTableRecord
  2
Standard
 70
     0
340
11
  0
DIMSTYLE
105
14B
102
{ACAD_REACTORS
330
14C
102
}
330
A
100
AcDbSymbolTableRecord
100
AcDbDimStyleTableRecord
  2
ME10_DIM_10
 70
     0
 41
12.0
 42
0.0
 44
2.0
 73
     0
 74
     0
 77
     1
 78
     8
140
12.0
147
2.0
172
     1
173
     1
176
     4
177
     4
178
     1
271
     2
340
147
  0
DIMSTYLE
105
156
102
{ACAD_REACTORS
330
157
102
}
330
A
100
AcDbSymbolTableRecord
100
AcDbDimStyleTableRecord
  2
ME10_DIM_11
 70
     0
  3
DN<>
 41
12.0
 42
0.0
 44
2.0
 73
     0
 74
     0
 77
     1
 78
     8
140
12.0
147
2.0
172
     1
173
     1
176
     4
177
     4
178
     1
271
     2
340
147
  0
DIMSTYLE
105
161
102
{ACAD_REACTORS
330
162
102
}
330
A
100
AcDbSymbolTableRecord
100
AcDbDimStyleTableRecord
  2
ME10_DIM_12
 70
     0
  3
DN<>
 41
12.0
 42
0.0
 44
2.0
 73
     0
 74
     0
 77
     1
 78
     8
140
12.0
147
2.0
172
     1
173
     1
176
     4
177
     4
178
     1
271
     2
340
147
  0
DIMSTYLE
105
16C
102
{ACAD_REACTORS
330
16D
102
}
330
A
100
AcDbSymbolTableRecord
100
AcDbDimStyleTableRecord
  2
ME10_DIM_13
 70
     0
  3
x150
 41
12.0
 42
0.0
 44
2.0
 73
     0
 74
     0
 77
     1
 78
     8
140
12.0
147
2.0
172
     1
173
     1
176
     4
177
     4
178
     1
271
     2
340
147
  0
DIMSTYLE
105
177
102
{ACAD_REACTORS
330
178
102
}
330
A
100
AcDbSymbolTableRecord
100
AcDbDimStyleTableRecord
  2
ME10_DIM_14
 70
     0
  3
Ø<>
 41
12.0
 42
0.0
 44
2.0
 73
     0
 74
     0
 77
     1
 78
     8
140
12.0
147
2.0
172
     1
173
     1
176
     4
177
     4
178
     1
271
     2
340
147
  0
DIMSTYLE
105
182
102
{ACAD_REACTORS
330
183
102
}
330
A
100
AcDbSymbolTableRecord
100
AcDbDimStyleTableRecord
  2
ME10_DIM_15
 70
     0
  3
20-<>
 41
12.0
 42
0.0
 44
2.0
 73
     0
 74
     0
 77
     1
 78
     8
140
12.0
147
2.0
172
     1
173
     1
176
     4
177
     4
178
     1
271
     0
340
147
  0
DIMSTYLE
105
18D
102
{ACAD_REACTORS
330
18E
102
}
330
A
100
AcDbSymbolTableRecord
100
AcDbDimStyleTableRecord
  2
ME10_DIM_16
 70
     0
 41
12.0
 42
0.0
 44
2.0
 73
     0
 74
     0
 77
     1
 78
     8
140
12.0
147
2.0
172
     1
173
     1
176
     4
177
     4
178
     1
271
     2
340
147
  0
ENDTAB
  0
TABLE
  2
BLOCK_RECORD
  5
1
330
0
100
AcDbSymbolTable
 70
    15
  0
BLOCK_RECORD
  5
1F
330
1
100
AcDbSymbolTableRecord
100
AcDbBlockTableRecord
  2
*Model_Space
340
22
  0
BLOCK_RECORD
  5
1B
330
1
100
AcDbSymbolTableRecord
100
AcDbBlockTableRecord
  2
*Paper_Space
340
1E
  0
BLOCK_RECORD
  5
23
330
1
100
AcDbSymbolTableRecord
100
AcDbBlockTableRecord
  2
*Paper_Space0
340
26
  0
BLOCK_RECORD
  5
48
330
1
100
AcDbSymbolTableRecord
100
AcDbBlockTableRecord
  2
HL0317_1E-Einlaufrost
340
0
102
{BLKREFS
331
52
102
}
  0
BLOCK_RECORD
  5
4B
330
1
100
AcDbSymbolTableRecord
100
AcDbBlockTableRecord
  2
HL66_4-Aufsatzrahmen
340
0
102
{BLKREFS
331
53
102
}
  0
BLOCK_RECORD
  5
4E
330
1
100
AcDbSymbolTableRecord
100
AcDbBlockTableRecord
  2
HL72_1K
340
0
102
{BLKREFS
331
54
102
}
  0
BLOCK_RECORD
  5
51
330
1
100
AcDbSymbolTableRecord
100
AcDbBlockTableRecord
  2
HL72_1N-Draufsicht
340
0
102
{BLKREFS
331
60
102
}
  0
BLOCK_RECORD
  5
57
330
1
100
AcDbSymbolTableRecord
100
AcDbBlockTableRecord
  2
0317_4E_Reduktion_DN110-DN75
340
0
102
{BLKREFS
331
61
102
}
  0
BLOCK_RECORD
  5
5A
330
1
100
AcDbSymbolTableRecord
100
AcDbBlockTableRecord
  2
0317_2E_Aufsatzrahmen
340
0
102
{BLKREFS
331
62
102
}
  0
BLOCK_RECORD
  5
5D
330
1
100
AcDbSymbolTableRecord
100
AcDbBlockTableRecord
  2
HL_72_1K_Körper
340
0
102
{BLKREFS
331
63
102
}
  0
BLOCK_RECORD
  5
141
330
1
100
AcDbSymbolTableRecord
100
AcDbBlockTableRecord
  2
*D8
340
0
  0
BLOCK_RECORD
  5
14D
330
1
100
AcDbSymbolTableRecord
100
AcDbBlockTableRecord
  2
*D9
340
0
  0
BLOCK_RECORD
  5
158
330
1
100
AcDbSymbolTableRecord
100
AcDbBlockTableRecord
  2
*D10
340
0
  0
BLOCK_RECORD
  5
163
330
1
100
AcDbSymbolTableRecord
100
AcDbBlockTableRecord
  2
*D11
340
0
  0
BLOCK_RECORD
  5
16E
330
1
100
AcDbSymbolTableRecord
100
AcDbBlockTableRecord
  2
*D12
340
0
  0
BLOCK_RECORD
  5
179
330
1
100
AcDbSymbolTableRecord
100
AcDbBlockTableRecord
  2
*D13
340
0
  0
BLOCK_RECORD
  5
184
330
1
100
AcDbSymbolTableRecord
100
AcDbBlockTableRecord
  2
*D14
340
0
  0
ENDTAB
  0
ENDSEC
  0
SECTION
  2
BLOCKS
  0
BLOCK
  5
20
330
1F
100
AcDbEntity
  8
0
100
AcDbBlockBegin
  2
*Model_Space
 70
     0
 71
     0
 10
0.0
 20
0.0
 30
0.0
  3
*Model_Space
  1

  0
ENDBLK
  5
21
330
1F
100
AcDbEntity
  8
0
100
AcDbBlockEnd
  0
BLOCK
  5
1C
330
1B
100
AcDbEntity
 67
     1
  8
0
100
AcDbBlockBegin
  2
*Paper_Space
 70
     0
 71
     0
 10
0.0
 20
0.0
 30
0.0
  3
*Paper_Space
  1

  0
ENDBLK
  5
1D
330
1B
100
AcDbEntity
 67
     1
  8
0
100
AcDbBlockEnd
  0
BLOCK
  5
24
330
23
100
AcDbEntity
  8
0
100
AcDbBlockBegin
  2
*Paper_Space0
 70
     0
 71
     0
 10
0.0
 20
0.0
 30
0.0
  3
*Paper_Space0
  1

  0
ENDBLK
  5
25
330
23
100
AcDbEntity
  8
0
100
AcDbBlockEnd
  0
BLOCK
  5
49
330
48
100
AcDbEntity
  8
0
100
AcDbBlockBegin
  2
HL0317_1E-Einlaufrost
 70
     0
 71
     0
 10
-769.5294302961969
 20
-516.8323793772585
 30
0.0
  3
HL0317_1E-Einlaufrost
  1

  0
POINT
  5
64
330
48
100
AcDbEntity
  8
0
 62
     7
100
AcDbPoint
 10
-69.00007527287707
 20
-356.4998212908707
 30
0.0
  0
POINT
  5
65
330
48
100
AcDbEntity
  8
0
 62
     7
100
AcDbPoint
 10
68.99992472712293
 20
-356.5006072908712
 30
0.0
  0
LINE
  5
66
330
48
100
AcDbEntity
  8
LC-004-002-----0
  6
Continuous
 62
     7
100
AcDbLine
 10
-40.50024444563277
 20
-474.9996792907462
 30
0.0
 11
40.49944772712517
 21
-475.0001612908693
 31
0.0
  0
LINE
  5
67
330
48
100
AcDbEntity
  8
LC-004-002-----0
  6
Continuous
 62
     7
100
AcDbLine
 10
-8.50021827287455
 20
-450.0002042908694
 30
0.0
 11
8.49978172712545
 21
-450.0002042908694
 31
0.0
  0
LINE
  5
68
330
48
100
AcDbEntity
  8
LC-004-002-----0
  6
Continuous
 62
     7
100
AcDbLine
 10
8.49978172712545
 20
-443.0002042908694
 30
0.0
 11
-8.50021827287455
 21
-443.0002042908694
 31
0.0
  0
LINE
  5
69
330
48
100
AcDbEntity
  8
LC-004-002-----0
  6
Continuous
 62
     7
100
AcDbLine
 10
-24.50010627287666
 20
-466.0001822908728
 30
0.0
 11
24.49947972712509
 21
-466.0001822908728
 31
0.0
  0
LINE
  5
6A
330
48
100
AcDbEntity
  8
LC-004-002-----0
  6
Continuous
 62
     7
100
AcDbLine
 10
24.49947972712509
 20
-459.0001822908728
 30
0.0
 11
-24.50010627287666
 21
-459.0001822908728
 31
0.0
  0
LINE
  5
6B
330
48
100
AcDbEntity
  8
LC-004-002-----0
  6
Continuous
 62
     7
100
AcDbLine
 10
40.49944772712517
 20
-482.0001612908693
 30
0.0
 11
-40.50028610010085
 21
-481.9996792909972
 31
0.0
  0
LINE
  5
6C
330
48
100
AcDbEntity
  8
LC-004-002-----0
  6
Continuous
 62
     7
100
AcDbLine
 10
68.99992472712293
 20
-356.5006072908712
 30
0.0
 11
68.99992472712293
 21
-488.5006072908712
 31
0.0
  0
LINE
  5
6D
330
48
100
AcDbEntity
  8
LC-004-002-----0
  6
Continuous
 62
     7
100
AcDbLine
 10
-69.00007527287707
 20
-356.4998212908707
 30
0.0
 11
-69.00007527287707
 21
-488.4998212908707
 31
0.0
  0
LINE
  5
6E
330
48
100
AcDbEntity
  8
LC-004-002-----0
  6
Continuous
 62
     7
100
AcDbLine
 10
65.99994259075939
 20
-353.5006072908712
 30
0.0
 11
-66.00005740924061
 21
-353.4998212908707
 31
0.0
  0
LINE
  5
6F
330
48
100
AcDbEntity
  8
LC-004-002-----0
  6
Continuous
 62
     7
100
AcDbLine
 10
65.99990686348647
 20
-491.5006072908712
 30
0.0
 11
-66.00009313651353
 21
-491.4998212908707
 31
0.0
  0
LINE
  5
70
330
48
100
AcDbEntity
  8
LC-004-002-----0
  6
Continuous
 62
     7
100
AcDbLine
 10
-24.50010627287665
 20
-386.0003729353723
 30
0.0
 11
24.49947972712509
 21
-386.0003729353723
 31
0.0
  0
LINE
  5
71
330
48
100
AcDbEntity
  8
LC-004-002-----0
  6
Continuous
 62
     7
100
AcDbLine
 10
24.49947972712509
 20
-379.0003729353723
 30
0.0
 11
-24.50010627287666
 21
-379.0003729353723
 31
0.0
  0
LINE
  5
72
330
48
100
AcDbEntity
  8
LC-004-002-----0
  6
Continuous
 62
     7
100
AcDbLine
 10
-8.50021827287455
 20
-402.0003509353722
 30
0.0
 11
8.49978172712545
 21
-402.0003509353722
 31
0.0
  0
LINE
  5
73
330
48
100
AcDbEntity
  8
LC-004-002-----0
  6
Continuous
 62
     7
100
AcDbLine
 10
8.49978172712545
 20
-395.0003509353722
 30
0.0
 11
-8.50021827287455
 21
-395.0003509353722
 31
0.0
  0
LINE
  5
74
330
48
100
AcDbEntity
  8
LC-004-002-----0
  6
Continuous
 62
     7
100
AcDbLine
 10
40.49944772712517
 20
-370.0003939353722
 30
0.0
 11
-40.50024444563278
 21
-370.000875935499
 31
0.0
  0
LINE
  5
75
330
48
100
AcDbEntity
  8
LC-004-002-----0
  6
Continuous
 62
     7
100
AcDbLine
 10
40.49944772712517
 20
-363.0003939353722
 30
0.0
 11
-40.50028610010086
 21
-363.0008759352443
 31
0.0
  0
LINE
  5
76
330
48
100
AcDbEntity
  8
LC-004-002-----0
  6
Continuous
 62
     7
100
AcDbLine
 10
-52.49989562837763
 20
-382.0006912908705
 30
0.0
 11
-52.49941362825084
 21
-463.0003834636248
 31
0.0
  0
LINE
  5
77
330
48
100
AcDbEntity
  8
LC-004-002-----0
  6
Continuous
 62
     7
100
AcDbLine
 10
-27.49993862837763
 20
-414.0003572908702
 30
0.0
 11
-27.49993862837763
 21
-431.0003572908702
 31
0.0
  0
LINE
  5
78
330
48
100
AcDbEntity
  8
LC-004-002-----0
  6
Continuous
 62
     7
100
AcDbLine
 10
-20.49993862837763
 20
-431.0003572908702
 30
0.0
 11
-20.49993862837763
 21
-414.0003572908702
 31
0.0
  0
LINE
  5
79
330
48
100
AcDbEntity
  8
LC-004-002-----0
  6
Continuous
 62
     7
100
AcDbLine
 10
-43.49991662837746
 20
-398.0006592908706
 30
0.0
 11
-43.49991662837746
 21
-447.0002452908723
 31
0.0
  0
LINE
  5
7A
330
48
100
AcDbEntity
  8
LC-004-002-----0
  6
Continuous
 62
     7
100
AcDbLine
 10
-36.49991662837747
 20
-447.0002452908723
 30
0.0
 11
-36.49991662837747
 21
-398.0006592908706
 31
0.0
  0
LINE
  5
7B
330
48
100
AcDbEntity
  8
LC-004-002-----0
  6
Continuous
 62
     7
100
AcDbLine
 10
-59.49941362850186
 20
-463.0004251180929
 30
0.0
 11
-59.49989562837764
 21
-382.0006912908705
 31
0.0
  0
LINE
  5
7C
330
48
100
AcDbEntity
  8
LC-004-002-----0
  6
Continuous
 62
     7
100
AcDbLine
 10
52.49987172712319
 20
-382.0006912908705
 30
0.0
 11
52.49938972699638
 21
-463.0003834636248
 31
0.0
  0
LINE
  5
7D
330
48
100
AcDbEntity
  8
LC-004-002-----0
  6
Continuous
 62
     7
100
AcDbLine
 10
36.49989272712302
 20
-398.0006592908706
 30
0.0
 11
36.49989272712302
 21
-447.0002452908723
 31
0.0
  0
LINE
  5
7E
330
48
100
AcDbEntity
  8
LC-004-002-----0
  6
Continuous
 62
     7
100
AcDbLine
 10
43.49989272712302
 20
-447.0002452908723
 30
0.0
 11
43.49989272712302
 21
-398.0006592908706
 31
0.0
  0
LINE
  5
7F
330
48
100
AcDbEntity
  8
LC-004-002-----0
  6
Continuous
 62
     7
100
AcDbLine
 10
20.49991472712318
 20
-414.0003572908702
 30
0.0
 11
20.49991472712318
 21
-431.0003572908702
 31
0.0
  0
LINE
  5
80
330
48
100
AcDbEntity
  8
LC-004-002-----0
  6
Continuous
 62
     7
100
AcDbLine
 10
27.49991472712318
 20
-431.0003572908702
 30
0.0
 11
27.49991472712318
 21
-414.0003572908702
 31
0.0
  0
LINE
  5
81
330
48
100
AcDbEntity
  8
LC-004-002-----0
  6
Continuous
 62
     7
100
AcDbLine
 10
59.49938972725105
 20
-463.0004251180929
 30
0.0
 11
59.49987172712319
 21
-382.0006912908705
 31
0.0
  0
ARC
  5
82
330
48
100
AcDbEntity
  8
LC-004-002-----0
  6
Continuous
 62
     7
100
AcDbCircle
 10
-24.50010627287666
 20
-462.5001822908728
 30
0.0
 40
3.5
100
AcDbArc
 50
90.0
 51
-90.0
  0
ARC
  5
83
330
48
100
AcDbEntity
  8
LC-004-002-----0
  6
Continuous
 62
     7
100
AcDbCircle
 10
-8.50021827287455
 20
-446.5002042908694
 30
0.0
 40
3.5
100
AcDbArc
 50
90.0
 51
-90.0
  0
ARC
  5
84
330
48
100
AcDbEntity
  8
LC-004-002-----0
  6
Continuous
 62
     7
100
AcDbCircle
 10
-40.50026527287591
 20
-478.4996792908699
 30
0.0
 40
3.500000000185659
100
AcDbArc
 50
89.99965905339121
 51
-90.00034094631091
  0
ARC
  5
85
330
48
100
AcDbEntity
  8
LC-004-002-----0
  6
Continuous
 62
     7
100
AcDbCircle
 10
40.49944772712517
 20
-478.5001612908693
 30
0.0
 40
3.5
100
AcDbArc
 50
-90.0
 51
90.0
  0
ARC
  5
86
330
48
100
AcDbEntity
  8
LC-004-002-----0
  6
Continuous
 62
     7
100
AcDbCircle
 10
24.49947972712509
 20
-462.5001822908728
 30
0.0
 40
3.5
100
AcDbArc
 50
-90.0
 51
90.0
  0
ARC
  5
87
330
48
100
AcDbEntity
  8
LC-004-002-----0
  6
Continuous
 62
     7
100
AcDbCircle
 10
8.49978172712545
 20
-446.5002042908694
 30
0.0
 40
3.5
100
AcDbArc
 50
-90.0
 51
90.0
  0
ARC
  5
88
330
48
100
AcDbEntity
  8
LC-005-002-RND-0
  6
Continuous
 62
     7
100
AcDbCircle
 10
-66.00007527287707
 20
-356.4998212908707
 30
0.0
 40
3.000000000053185
100
AcDbArc
 50
89.99965882967474
 51
180.0
  0
ARC
  5
89
330
48
100
AcDbEntity
  8
LC-005-002-RND-0
  6
Continuous
 62
     7
100
AcDbCircle
 10
65.99992472712293
 20
-356.5006072908712
 30
0.0
 40
3.0
100
AcDbArc
 50
0.0
 51
89.99965882967474
  0
ARC
  5
8A
330
48
100
AcDbEntity
  8
LC-005-002-RND-0
  6
Continuous
 62
     7
100
AcDbCircle
 10
65.99992472712293
 20
-488.5006072908712
 30
0.0
 40
3.000000000053185
100
AcDbArc
 50
-90.00034117032527
 51
0.0
  0
ARC
  5
8B
330
48
100
AcDbEntity
  8
LC-005-002-RND-0
  6
Continuous
 62
     7
100
AcDbCircle
 10
-66.00007527287707
 20
-488.4998212908707
 30
0.0
 40
3.0
100
AcDbArc
 50
180.0
 51
-90.00034117032527
  0
ARC
  5
8C
330
48
100
AcDbEntity
  8
LC-004-002-----0
  6
Continuous
 62
     7
100
AcDbCircle
 10
8.49978172712545
 20
-398.5003509353722
 30
0.0
 40
3.5
100
AcDbArc
 50
-90.0
 51
90.0
  0
ARC
  5
8D
330
48
100
AcDbEntity
  8
LC-004-002-----0
  6
Continuous
 62
     7
100
AcDbCircle
 10
24.49947972712509
 20
-382.5003729353723
 30
0.0
 40
3.5
100
AcDbArc
 50
-90.0
 51
90.0
  0
ARC
  5
8E
330
48
100
AcDbEntity
  8
LC-004-002-----0
  6
Continuous
 62
     7
100
AcDbCircle
 10
40.49944772712517
 20
-366.5003939353722
 30
0.0
 40
3.5
100
AcDbArc
 50
-90.0
 51
90.0
  0
ARC
  5
8F
330
48
100
AcDbEntity
  8
LC-004-002-----0
  6
Continuous
 62
     7
100
AcDbCircle
 10
-40.50026527287591
 20
-366.5008759353716
 30
0.0
 40
3.50000000018924
100
AcDbArc
 50
90.00034094631103
 51
-89.99965905339144
  0
ARC
  5
90
330
48
100
AcDbEntity
  8
LC-004-002-----0
  6
Continuous
 62
     7
100
AcDbCircle
 10
-8.50021827287455
 20
-398.5003509353722
 30
0.0
 40
3.5
100
AcDbArc
 50
90.0
 51
-90.0
  0
ARC
  5
91
330
48
100
AcDbEntity
  8
LC-004-002-----0
  6
Continuous
 62
     7
100
AcDbCircle
 10
-24.50010627287666
 20
-382.5003729353723
 30
0.0
 40
3.5
100
AcDbArc
 50
90.0
 51
-89.99999999999983
  0
ARC
  5
92
330
48
100
AcDbEntity
  8
LC-004-002-----0
  6
Continuous
 62
     7
100
AcDbCircle
 10
-39.99991662837747
 20
-447.0002452908723
 30
0.0
 40
3.499999999999993
100
AcDbArc
 50
180.0
 51
0.0
  0
ARC
  5
93
330
48
100
AcDbEntity
  8
LC-004-002-----0
  6
Continuous
 62
     7
100
AcDbCircle
 10
-23.99993862837763
 20
-431.0003572908702
 30
0.0
 40
3.5
100
AcDbArc
 50
180.0
 51
0.0
  0
ARC
  5
94
330
48
100
AcDbEntity
  8
LC-004-002-----0
  6
Continuous
 62
     7
100
AcDbCircle
 10
-55.99941362837453
 20
-463.0004042908716
 30
0.0
 40
3.500000000189297
100
AcDbArc
 50
-179.9996590537486
 51
0.00034094666824
  0
ARC
  5
95
330
48
100
AcDbEntity
  8
LC-004-002-----0
  6
Continuous
 62
     7
100
AcDbCircle
 10
-55.99989562837764
 20
-382.0006912908705
 30
0.0
 40
3.500000000000007
100
AcDbArc
 50
0.0
 51
180.0
  0
ARC
  5
96
330
48
100
AcDbEntity
  8
LC-004-002-----0
  6
Continuous
 62
     7
100
AcDbCircle
 10
-39.99991662837747
 20
-398.0006592908706
 30
0.0
 40
3.5
100
AcDbArc
 50
0.0
 51
180.0
  0
ARC
  5
97
330
48
100
AcDbEntity
  8
LC-004-002-----0
  6
Continuous
 62
     7
100
AcDbCircle
 10
-23.99993862837763
 20
-414.0003572908702
 30
0.0
 40
3.5
100
AcDbArc
 50
0.0
 51
180.0
  0
ARC
  5
98
330
48
100
AcDbEntity
  8
LC-004-002-----0
  6
Continuous
 62
     7
100
AcDbCircle
 10
23.99991472712318
 20
-414.0003572908702
 30
0.0
 40
3.5
100
AcDbArc
 50
0.0
 51
180.0
  0
ARC
  5
99
330
48
100
AcDbEntity
  8
LC-004-002-----0
  6
Continuous
 62
     7
100
AcDbCircle
 10
39.99989272712302
 20
-398.0006592908706
 30
0.0
 40
3.5
100
AcDbArc
 50
0.0
 51
180.0
  0
ARC
  5
9A
330
48
100
AcDbEntity
  8
LC-004-002-----0
  6
Continuous
 62
     7
100
AcDbCircle
 10
55.99987172712319
 20
-382.0006912908705
 30
0.0
 40
3.5
100
AcDbArc
 50
0.0
 51
180.0
  0
ARC
  5
9B
330
48
100
AcDbEntity
  8
LC-004-002-----0
  6
Continuous
 62
     7
100
AcDbCircle
 10
55.99938972712372
 20
-463.0004042908716
 30
0.0
 40
3.500000000189311
100
AcDbArc
 50
179.9996590533318
 51
-0.00034094625136
  0
ARC
  5
9C
330
48
100
AcDbEntity
  8
LC-004-002-----0
  6
Continuous
 62
     7
100
AcDbCircle
 10
23.99991472712318
 20
-431.0003572908702
 30
0.0
 40
3.5
100
AcDbArc
 50
180.0
 51
0.0
  0
ARC
  5
9D
330
48
100
AcDbEntity
  8
LC-004-002-----0
  6
Continuous
 62
     7
100
AcDbCircle
 10
39.99989272712302
 20
-447.0002452908723
 30
0.0
 40
3.5
100
AcDbArc
 50
180.0
 51
0.0
  0
TEXT
  5
9F
330
48
100
AcDbEntity
  8
1
 62
     7
100
AcDbText
 10
-7.00007527242042
 20
-426.5002142908712
 30
0.0
 40
8.0
  1
HL
 41
0.95
  7
CONVERTER_11
100
AcDbText
  0
ENDBLK
  5
4A
330
48
100
AcDbEntity
  8
0
100
AcDbBlockEnd
  0
BLOCK
  5
4C
330
4B
100
AcDbEntity
  8
0
100
AcDbBlockBegin
  2
HL66_4-Aufsatzrahmen
 70
     0
 71
     0
 10
-73.50007527287707
 20
-496.0002142908712
 30
0.0
  3
HL66_4-Aufsatzrahmen
  1

  0
LINE
  5
A0
330
4B
100
AcDbEntity
  8
1
  6
Continuous
 62
     7
100
AcDbLine
 10
69.99992472712293
 20
-352.5002142908712
 30
0.0
 11
69.99992472712293
 21
-492.5002142908712
 31
0.0
  0
LINE
  5
A1
330
4B
100
AcDbEntity
  8
1
  6
Continuous
 62
     7
100
AcDbLine
 10
73.49992472712293
 20
-496.0002142908712
 30
0.0
 11
73.49992472712293
 21
-349.0002142908712
 31
0.0
  0
LINE
  5
A2
330
4B
100
AcDbEntity
  8
1
  6
Continuous
 62
     7
100
AcDbLine
 10
-70.00007527287707
 20
-352.5002142908712
 30
0.0
 11
69.99992472712293
 21
-352.5002142908712
 31
0.0
  0
LINE
  5
A3
330
4B
100
AcDbEntity
  8
1
  6
Continuous
 62
     7
100
AcDbLine
 10
-70.00007527287707
 20
-492.5002142908712
 30
0.0
 11
-70.00007527287707
 21
-352.5002142908712
 31
0.0
  0
LINE
  5
A4
330
4B
100
AcDbEntity
  8
1
  6
Continuous
 62
     7
100
AcDbLine
 10
69.99992472712293
 20
-492.5002142908712
 30
0.0
 11
-70.00007527287707
 21
-492.5002142908712
 31
0.0
  0
LINE
  5
A5
330
4B
100
AcDbEntity
  8
1
  6
Continuous
 62
     7
100
AcDbLine
 10
73.49992472712293
 20
-349.0002142908712
 30
0.0
 11
-73.50007527287707
 21
-349.0002142908712
 31
0.0
  0
LINE
  5
A6
330
4B
100
AcDbEntity
  8
1
  6
Continuous
 62
     7
100
AcDbLine
 10
-73.50007527287707
 20
-349.0002142908712
 30
0.0
 11
-73.50007527287707
 21
-496.0002142908712
 31
0.0
  0
LINE
  5
A7
330
4B
100
AcDbEntity
  8
1
  6
Continuous
 62
     7
100
AcDbLine
 10
-73.50007527287707
 20
-496.0002142908712
 30
0.0
 11
73.49992472712293
 21
-496.0002142908712
 31
0.0
  0
ENDBLK
  5
4D
330
4B
100
AcDbEntity
  8
0
100
AcDbBlockEnd
  0
BLOCK
  5
4F
330
4E
100
AcDbEntity
  8
0
100
AcDbBlockBegin
  2
HL72_1K
 70
     0
 71
     0
 10
-122.032268035702
 20
-544.5324070536961
 30
0.0
  3
HL72_1K
  1

  0
LINE
  5
A8
330
4E
100
AcDbEntity
  8
1
  6
PHANTOM
 62
     2
100
AcDbLine
 10
-0.0000752724204
 20
-257.5013912098095
 30
0.0
 11
-0.0000752724204
 21
-587.499037371933
 31
0.0
  0
LINE
  5
A9
330
4E
100
AcDbEntity
  8
1
  6
PHANTOM
 62
     2
100
AcDbLine
 10
164.9987478086414
 20
-422.5002142908712
 30
0.0
 11
-164.9988983534822
 21
-422.5002142908712
 31
0.0
  0
LINE
  5
AA
330
4E
100
AcDbEntity
  8
1
  6
Continuous
 62
     7
100
AcDbLine
 10
-78.20288227608555
 20
-294.5002142908712
 30
0.0
 11
-125.0000752724205
 21
-294.5002142908712
 31
0.0
  0
LINE
  5
AB
330
4E
100
AcDbEntity
  8
1
  6
Continuous
 62
     7
100
AcDbLine
 10
-128.0000752724205
 20
-297.5002142908712
 30
0.0
 11
-128.0000752724205
 21
-344.2974072872062
 31
0.0
  0
LINE
  5
AC
330
4E
100
AcDbEntity
  8
1
  6
PHANTOM
 62
     2
100
AcDbLine
 10
-116.3500752724205
 20
-304.5002142908712
 30
0.0
 11
-119.6500752724205
 21
-304.5002142908712
 31
0.0
  0
LINE
  5
AD
330
4E
100
AcDbEntity
  8
1
  6
PHANTOM
 62
     2
100
AcDbLine
 10
-118.0000752724205
 20
-302.8502142908712
 30
0.0
 11
-118.0000752724205
 21
-306.1502142908712
 31
0.0
  0
LINE
  5
AE
330
4E
100
AcDbEntity
  8
1
  6
Continuous
 62
     7
100
AcDbLine
 10
-128.0000752728771
 20
-500.7030212937889
 30
0.0
 11
-128.0000752728771
 21
-547.5002142904145
 31
0.0
  0
LINE
  5
AF
330
4E
100
AcDbEntity
  8
1
  6
Continuous
 62
     7
100
AcDbLine
 10
78.20273173124474
 20
-550.5002142908712
 30
0.0
 11
124.9999247266663
 21
-550.5002142908712
 31
0.0
  0
LINE
  5
B0
330
4E
100
AcDbEntity
  8
1
  6
Continuous
 62
     7
100
AcDbLine
 10
127.999924727123
 20
-344.2974072864587
 30
0.0
 11
127.999924727123
 21
-297.5002142913279
 31
0.0
  0
LINE
  5
B1
330
4E
100
AcDbEntity
  8
1
  6
PHANTOM
 62
     2
100
AcDbLine
 10
-118.0000752728771
 20
-538.8502142904146
 30
0.0
 11
-118.0000752728771
 21
-542.1502142904145
 31
0.0
  0
LINE
  5
B2
330
4E
100
AcDbEntity
  8
1
  6
PHANTOM
 62
     2
100
AcDbLine
 10
-119.6500752728771
 20
-540.5002142904145
 30
0.0
 11
-116.3500752728771
 21
-540.5002142904145
 31
0.0
  0
LINE
  5
B3
330
4E
100
AcDbEntity
  8
1
  6
PHANTOM
 62
     2
100
AcDbLine
 10
116.3499247266663
 20
-540.5002142908712
 30
0.0
 11
119.6499247266663
 21
-540.5002142908712
 31
0.0
  0
LINE
  5
B4
330
4E
100
AcDbEntity
  8
1
  6
PHANTOM
 62
     2
100
AcDbLine
 10
117.9999247266663
 20
-542.1502142908712
 30
0.0
 11
117.9999247266663
 21
-538.8502142908712
 31
0.0
  0
LINE
  5
B5
330
4E
100
AcDbEntity
  8
1
  6
PHANTOM
 62
     2
100
AcDbLine
 10
117.9999247271229
 20
-306.1502142913279
 30
0.0
 11
117.9999247271229
 21
-302.8502142913279
 31
0.0
  0
LINE
  5
B6
330
4E
100
AcDbEntity
  8
1
  6
PHANTOM
 62
     2
100
AcDbLine
 10
119.6499247271229
 20
-304.5002142913279
 30
0.0
 11
116.349924727123
 21
-304.5002142913279
 31
0.0
  0
LINE
  5
B7
330
4E
100
AcDbEntity
  8
1
  6
Continuous
 62
     7
100
AcDbLine
 10
-125.0000752728771
 20
-550.5002142904145
 30
0.0
 11
-78.20288227683302
 21
-550.5002142904145
 31
0.0
  0
LINE
  5
B8
330
4E
100
AcDbEntity
  8
1
  6
Continuous
 62
     7
100
AcDbLine
 10
127.9999247266663
 20
-547.5002142908712
 30
0.0
 11
127.9999247266663
 21
-500.7030212960313
 31
0.0
  0
LINE
  5
B9
330
4E
100
AcDbEntity
  8
1
  6
Continuous
 62
     7
100
AcDbLine
 10
124.9999247271229
 20
-294.5002142913279
 30
0.0
 11
78.20273173199222
 21
-294.5002142913279
 31
0.0
  0
ARC
  5
BA
330
4E
100
AcDbEntity
  8
1
  6
Continuous
 62
     7
100
AcDbCircle
 10
-0.0000752724204
 20
-422.5002142908712
 30
0.0
 40
149.9989300736925
100
AcDbArc
 50
121.4232375742605
 51
148.5767624257396
  0
ARC
  5
BB
330
4E
100
AcDbEntity
  8
1
  6
Continuous
 62
     7
100
AcDbCircle
 10
-0.0000752724204
 20
-422.5002142908712
 30
0.0
 40
149.9989300736925
100
AcDbArc
 50
58.57676242540493
 51
121.4232375742605
  0
ARC
  5
BC
330
4E
100
AcDbEntity
  8
1
  6
Continuous
 62
     7
100
AcDbCircle
 10
-0.0000752724204
 20
-422.5002142908712
 30
0.0
 40
149.9989300736925
100
AcDbArc
 50
0.0
 51
31.42323757459502
  0
ARC
  5
BD
330
4E
100
AcDbEntity
  8
1
  6
Continuous
 62
     7
100
AcDbCircle
 10
-0.0000752724204
 20
-422.5002142908712
 30
0.0
 40
149.9989300736925
100
AcDbArc
 50
31.42323757459502
 51
58.57676242540493
  0
ARC
  5
BE
330
4E
100
AcDbEntity
  8
1
  6
Continuous
 62
     7
100
AcDbCircle
 10
-0.0000752724204
 20
-422.5002142908712
 30
0.0
 40
149.9989300736925
100
AcDbArc
 50
-58.57676242573952
 51
-31.42323757492964
  0
ARC
  5
BF
330
4E
100
AcDbEntity
  8
1
  6
Continuous
 62
     7
100
AcDbCircle
 10
-0.0000752724204
 20
-422.5002142908712
 30
0.0
 40
149.9989300736925
100
AcDbArc
 50
-121.4232375745951
 51
-58.57676242573952
  0
ARC
  5
C0
330
4E
100
AcDbEntity
  8
1
  6
Continuous
 62
     7
100
AcDbCircle
 10
-0.0000752724204
 20
-422.5002142908712
 30
0.0
 40
149.9989300736925
100
AcDbArc
 50
-148.5767624260741
 51
-121.4232375745951
  0
ARC
  5
C1
330
4E
100
AcDbEntity
  8
1
  6
Continuous
 62
     7
100
AcDbCircle
 10
-0.0000752724204
 20
-422.5002142908712
 30
0.0
 40
149.9989300736925
100
AcDbArc
 50
-31.42323757492964
 51
0.0
  0
ARC
  5
C2
330
4E
100
AcDbEntity
  8
1
  6
Continuous
 62
     7
100
AcDbCircle
 10
-0.0000752724204
 20
-422.5002142908712
 30
0.0
 40
149.9989300736925
100
AcDbArc
 50
148.5767624257396
 51
-148.5767624260741
  0
ARC
  5
C3
330
4E
100
AcDbEntity
  8
1
  6
Continuous
 62
     7
100
AcDbCircle
 10
-0.00007527287707
 20
-422.5002142908712
 30
0.0
 40
82.6526579996571
100
AcDbArc
 50
62.78085626683735
 51
117.2191437331626
  0
ARC
  5
C4
330
4E
100
AcDbEntity
  8
1
  6
Continuous
 62
     7
100
AcDbCircle
 10
-0.00007527287707
 20
-422.5002142908712
 30
0.0
 40
82.65265799965707
100
AcDbArc
 50
-27.21914373316261
 51
0.0
  0
ARC
  5
C5
330
4E
100
AcDbEntity
  8
1
  6
Continuous
 62
     7
100
AcDbCircle
 10
-0.00007527287707
 20
-422.5002142908712
 30
0.0
 40
82.6526579996571
100
AcDbArc
 50
0.0
 51
27.21914373316264
  0
ARC
  5
C6
330
4E
100
AcDbEntity
  8
1
  6
Continuous
 62
     7
100
AcDbCircle
 10
-0.00007527287707
 20
-422.5002142908712
 30
0.0
 40
82.65265799965708
100
AcDbArc
 50
152.7808562668374
 51
-152.7808562668374
  0
ARC
  5
C7
330
4E
100
AcDbEntity
  8
1
  6
Continuous
 62
     7
100
AcDbCircle
 10
-0.00007527287707
 20
-422.5002142908712
 30
0.0
 40
82.65265799965708
100
AcDbArc
 50
-117.2191437331626
 51
-62.78085626683737
  0
CIRCLE
  5
C8
330
4E
100
AcDbEntity
  8
1
  6
Continuous
 62
     7
100
AcDbCircle
 10
-0.0000752724204
 20
-422.5002142908712
 30
0.0
 40
111.0
  0
CIRCLE
  5
C9
330
4E
100
AcDbEntity
  8
1
  6
Continuous
 62
     7
100
AcDbCircle
 10
-118.0000752724205
 20
-304.5002142908712
 30
0.0
 40
1.5
  0
CIRCLE
  5
CA
330
4E
100
AcDbEntity
  8
1
  6
Continuous
 62
     7
100
AcDbCircle
 10
-118.0000752728771
 20
-540.5002142904145
 30
0.0
 40
1.5
  0
CIRCLE
  5
CB
330
4E
100
AcDbEntity
  8
1
  6
Continuous
 62
     7
100
AcDbCircle
 10
117.9999247266663
 20
-540.5002142908712
 30
0.0
 40
1.5
  0
CIRCLE
  5
CC
330
4E
100
AcDbEntity
  8
1
  6
Continuous
 62
     7
100
AcDbCircle
 10
117.9999247271229
 20
-304.5002142913279
 30
0.0
 40
1.5
  0
ARC
  5
CD
330
4E
100
AcDbEntity
  8
1
  6
Continuous
 62
     7
100
AcDbCircle
 10
-125.0000752724205
 20
-297.5002142908712
 30
0.0
 40
3.0
100
AcDbArc
 50
90.0
 51
180.0
  0
ARC
  5
CE
330
4E
100
AcDbEntity
  8
1
  6
Continuous
 62
     7
100
AcDbCircle
 10
-125.0000752728771
 20
-547.5002142904145
 30
0.0
 40
3.0
100
AcDbArc
 50
180.0
 51
-90.0
  0
ARC
  5
CF
330
4E
100
AcDbEntity
  8
1
  6
Continuous
 62
     7
100
AcDbCircle
 10
124.9999247266663
 20
-547.5002142908712
 30
0.0
 40
3.0
100
AcDbArc
 50
-90.0
 51
0.0
  0
ARC
  5
D0
330
4E
100
AcDbEntity
  8
1
  6
Continuous
 62
     7
100
AcDbCircle
 10
124.9999247271229
 20
-297.5002142913279
 30
0.0
 40
3.000000000000099
100
AcDbArc
 50
0.0
 51
90.0
  0
ENDBLK
  5
50
330
4E
100
AcDbEntity
  8
0
100
AcDbBlockEnd
  0
BLOCK
  5
55
330
51
100
AcDbEntity
  8
0
100
AcDbBlockBegin
  2
HL72_1N-Draufsicht
 70
     0
 71
     0
 10
-122.032268035702
 20
-464.5324070536961
 30
0.0
  3
HL72_1N-Draufsicht
  1

  0
INSERT
  5
52
330
51
100
AcDbEntity
  8
0
100
AcDbBlockReference
  2
HL0317_1E-Einlaufrost
 10
-769.5294302961969
 20
-516.8323793772585
 30
0.0
  0
INSERT
  5
53
330
51
100
AcDbEntity
  8
1
100
AcDbBlockReference
  2
HL66_4-Aufsatzrahmen
 10
-73.50007527287707
 20
-496.0002142908712
 30
0.0
  0
INSERT
  5
54
330
51
100
AcDbEntity
  8
1
100
AcDbBlockReference
  2
HL72_1K
 10
-122.032268035702
 20
-544.5324070536961
 30
0.0
  0
ENDBLK
  5
56
330
51
100
AcDbEntity
  8
0
100
AcDbBlockEnd
  0
BLOCK
  5
58
330
57
100
AcDbEntity
  8
0
100
AcDbBlockBegin
  2
0317_4E_Reduktion_DN110-DN75
 70
     0
 71
     0
 10
220.7283592873761
 20
-200.306328
 30
0.0
  3
0317_4E_Reduktion_DN110-DN75
  1

  0
POINT
  5
D1
330
57
100
AcDbEntity
  8
0
 62
     7
100
AcDbPoint
 10
311.4263690000001
 20
-90.306217
 30
0.0
  0
POINT
  5
D2
330
57
100
AcDbEntity
  8
0
 62
     7
100
AcDbPoint
 10
311.4263690000001
 20
-200.306217
 30
0.0
  0
LINE
  5
D3
330
57
100
AcDbEntity
  8
1
  6
PHANTOM
 62
     2
100
AcDbLine
 10
220.076819587987
 20
-145.306217
 30
0.0
 11
319.7775559744311
 21
-145.306217
 31
0.0
  0
LINE
  5
D4
330
57
100
AcDbEntity
  8
LC-003-002-----0
  6
Continuous
 62
     7
100
AcDbLine
 10
232.497437
 20
-195.306217
 30
0.0
 11
241.4263690000001
 21
-195.306217
 31
0.0
  0
LINE
  5
D5
330
57
100
AcDbEntity
  8
LC-003-002-----0
  6
Continuous
 62
     7
100
AcDbLine
 10
226.4263690000001
 20
-191.306217
 30
0.0
 11
228.961903
 21
-193.841751
 31
0.0
  0
LINE
  5
D6
330
57
100
AcDbEntity
  8
LC-003-002-----0
  6
Continuous
 62
     7
100
AcDbLine
 10
222.9263690000001
 20
-191.306217
 30
0.0
 11
226.4263690000001
 21
-191.306217
 31
0.0
  0
LINE
  5
D7
330
57
100
AcDbEntity
  8
LC-003-002-----0
  6
Continuous
 62
     7
100
AcDbLine
 10
226.4263690000001
 20
-111.306217
 30
0.0
 11
228.961903
 21
-108.770683
 31
0.0
  0
LINE
  5
D8
330
57
100
AcDbEntity
  8
LC-003-002-----0
  6
Continuous
 62
     7
100
AcDbLine
 10
232.497437
 20
-107.306217
 30
0.0
 11
241.4263690000001
 21
-107.306217
 31
0.0
  0
LINE
  5
D9
330
57
100
AcDbEntity
  8
LC-003-002-----0
  6
Continuous
 62
     7
100
AcDbLine
 10
243.4263690000001
 20
-200.306217
 30
0.0
 11
311.4263690000001
 21
-200.306217
 31
0.0
  0
LINE
  5
DA
330
57
100
AcDbEntity
  8
LC-003-002-----0
  6
Continuous
 62
     7
100
AcDbLine
 10
241.4263690000001
 20
-92.306217
 30
0.0
 11
241.4263690000001
 21
-107.306217
 31
0.0
  0
LINE
  5
DB
330
57
100
AcDbEntity
  8
LC-003-002-----0
  6
Continuous
 62
     7
100
AcDbLine
 10
311.4263690000001
 20
-90.306217
 30
0.0
 11
317.4263690000001
 21
-91.36417900000004
 31
0.0
  0
LINE
  5
DC
330
57
100
AcDbEntity
  8
LC-003-002-----0
  6
Continuous
 62
     7
100
AcDbLine
 10
317.4263690000001
 20
-91.36417900000004
 30
0.0
 11
317.4263690000001
 21
-141.306217
 31
0.0
  0
LINE
  5
DD
330
57
100
AcDbEntity
  8
LC-003-002-----0
  6
Continuous
 62
     7
100
AcDbLine
 10
243.4263690000001
 20
-90.306217
 30
0.0
 11
311.4263690000001
 21
-90.306217
 31
0.0
  0
LINE
  5
DE
330
57
100
AcDbEntity
  8
LC-003-002-----0
  6
Continuous
 62
     7
100
AcDbLine
 10
311.4263690000001
 20
-200.306217
 30
0.0
 11
317.4263690000001
 21
-199.248255
 31
0.0
  0
LINE
  5
DF
330
57
100
AcDbEntity
  8
LC-003-002-----0
  6
Continuous
 62
     7
100
AcDbLine
 10
222.9263690000001
 20
-111.306217
 30
0.0
 11
226.4263690000001
 21
-111.306217
 31
0.0
  0
LINE
  5
E0
330
57
100
AcDbEntity
  8
LC-003-002-----0
  6
Continuous
 62
     7
100
AcDbLine
 10
317.4263690000001
 20
-199.248255
 30
0.0
 11
317.4263690000001
 21
-141.306217
 31
0.0
  0
LINE
  5
E1
330
57
100
AcDbEntity
  8
LC-003-002-----0
  6
Continuous
 62
     7
100
AcDbLine
 10
241.4263690000001
 20
-198.306217
 30
0.0
 11
241.4263690000001
 21
-195.306217
 31
0.0
  0
LINE
  5
E2
330
57
100
AcDbEntity
  8
LC-003-002-----0
  6
Continuous
 62
     7
100
AcDbLine
 10
222.9263690000001
 20
-111.306217
 30
0.0
 11
222.9263690000001
 21
-191.306217
 31
0.0
  0
LINE
  5
E3
330
57
100
AcDbEntity
  8
1
  6
Continuous
 62
     7
100
AcDbLine
 10
311.4263690000001
 20
-200.306217
 30
0.0
 11
311.4263690000001
 21
-90.306217
 31
0.0
  0
LINE
  5
E4
330
57
100
AcDbEntity
  8
1
  6
Continuous
 62
     7
100
AcDbLine
 10
241.4263690000001
 20
-107.306217
 30
0.0
 11
241.4263690000001
 21
-195.306217
 31
0.0
  0
LINE
  5
E5
330
57
100
AcDbEntity
  8
1
  6
Continuous
 62
     7
100
AcDbLine
 10
243.4263690000001
 20
-90.306217
 30
0.0
 11
243.4263690000001
 21
-200.306217
 31
0.0
  0
LINE
  5
E6
330
57
100
AcDbEntity
  8
1
  6
Continuous
 62
     7
100
AcDbLine
 10
232.497437
 20
-195.306217
 30
0.0
 11
232.497437
 21
-107.306217
 31
0.0
  0
LINE
  5
E7
330
57
100
AcDbEntity
  8
1
  6
Continuous
 62
     7
100
AcDbLine
 10
226.4263690000001
 20
-111.306217
 30
0.0
 11
226.4263690000001
 21
-191.306217
 31
0.0
  0
ARC
  5
E8
330
57
100
AcDbEntity
  8
LC-009-002-RND-0
  6
Continuous
 62
     7
100
AcDbCircle
 10
232.497437
 20
-190.306217
 30
0.0
 40
5.000000000000362
100
AcDbArc
 50
-135.0
 51
-90.0
  0
ARC
  5
E9
330
57
100
AcDbEntity
  8
LC-009-002-RND-0
  6
Continuous
 62
     7
100
AcDbCircle
 10
232.497437
 20
-112.306217
 30
0.0
 40
5.0
100
AcDbArc
 50
90.0
 51
134.9999999999999
  0
ARC
  5
EA
330
57
100
AcDbEntity
  8
LC-009-002-RND-0
  6
Continuous
 62
     7
100
AcDbCircle
 10
243.4263690000001
 20
-92.306217
 30
0.0
 40
2.0
100
AcDbArc
 50
90.0
 51
180.0
  0
ARC
  5
EB
330
57
100
AcDbEntity
  8
LC-009-002-RND-0
  6
Continuous
 62
     7
100
AcDbCircle
 10
243.4263690000001
 20
-198.306217
 30
0.0
 40
2.0
100
AcDbArc
 50
180.0
 51
-90.0
  0
ENDBLK
  5
59
330
57
100
AcDbEntity
  8
0
100
AcDbBlockEnd
  0
BLOCK
  5
5B
330
5A
100
AcDbEntity
  8
0
100
AcDbBlockBegin
  2
0317_2E_Aufsatzrahmen
 70
     0
 71
     0
 10
288.920712
 20
351.410059
 30
0.0
  3
0317_2E_Aufsatzrahmen
  1

  0
POINT
  5
EC
330
5A
100
AcDbEntity
  8
0
 62
     7
100
AcDbPoint
 10
73.657083
 20
-0.34993499999999
 30
0.0
  0
POINT
  5
ED
330
5A
100
AcDbEntity
  8
0
 62
     7
100
AcDbPoint
 10
73.657083
 20
-0.34993499999999
 30
0.0
  0
POINT
  5
EE
330
5A
100
AcDbEntity
  8
0
 62
     7
100
AcDbPoint
 10
-73.71000000000004
 20
-0.35
 30
0.0
  0
LINE
  5
EF
330
5A
100
AcDbEntity
  8
1
  6
Continuous
 62
     7
100
AcDbLine
 10
-68.21000000000004
 20
-0.35
 30
0.0
 11
-64.709611
 21
-0.35
 31
0.0
  0
LINE
  5
F0
330
5A
100
AcDbEntity
  8
1
  6
Continuous
 62
     7
100
AcDbLine
 10
68.157083
 20
-0.34993499999999
 30
0.0
 11
64.710171
 21
-0.34993499999999
 31
0.0
  0
LINE
  5
F1
330
5A
100
AcDbEntity
  8
LC-003-002-----0
  6
Continuous
 62
     7
100
AcDbLine
 10
-70.383843716915
 20
-70.35179300000004
 30
0.0
 11
-70.38396700000004
 21
-18.85000000000001
 31
0.0
  0
LINE
  5
F2
330
5A
100
AcDbEntity
  8
LC-003-002-----0
  6
Continuous
 62
     7
100
AcDbLine
 10
-64.709611
 20
-0.35
 30
0.0
 11
0.0
 21
-0.35
 31
0.0
  0
LINE
  5
F3
330
5A
100
AcDbEntity
  8
LC-003-002-----0
  6
Continuous
 62
     7
100
AcDbLine
 10
-73.71000000000004
 20
-15.85
 30
0.0
 11
-73.71000000000004
 21
-16.10858800000004
 31
0.0
  0
LINE
  5
F4
330
5A
100
AcDbEntity
  8
LC-003-002-----0
  6
Continuous
 62
     7
100
AcDbLine
 10
-73.71000000000004
 20
-11.85
 30
0.0
 11
-73.71000000000004
 21
-11.85
 31
0.0
  0
LINE
  5
F5
330
5A
100
AcDbEntity
  8
LC-003-002-----0
  6
Continuous
 62
     7
100
AcDbLine
 10
68.157083
 20
-0.34993499999999
 30
0.0
 11
73.657081
 21
-0.34993499999999
 31
0.0
  0
LINE
  5
F6
330
5A
100
AcDbEntity
  8
LC-003-002-----0
  6
Continuous
 62
     7
100
AcDbLine
 10
73.657083
 20
-0.34993499999999
 30
0.0
 11
73.65707399999997
 21
-13.84993699999999
 31
0.0
  0
LINE
  5
F7
330
5A
100
AcDbEntity
  8
LC-003-002-----0
  6
Continuous
 62
     7
100
AcDbLine
 10
0.00016899999997
 20
-0.349889
 30
0.0
 11
64.710171
 21
-0.349932
 31
0.0
  0
LINE
  5
F8
330
5A
100
AcDbEntity
  8
LC-003-002-----0
  6
Continuous
 62
     7
100
AcDbLine
 10
68.157083
 20
-0.349933
 30
0.0
 11
68.157083
 21
-0.34993499999999
 31
0.0
  0
LINE
  5
F9
330
5A
100
AcDbEntity
  8
LC-003-002-----0
  6
Continuous
 62
     7
100
AcDbLine
 10
-70.21000000000004
 20
-0.35
 30
0.0
 11
-68.21000000000004
 21
-0.35
 31
0.0
  0
LINE
  5
FA
330
5A
100
AcDbEntity
  8
LC-003-002-----0
  6
Continuous
 62
     7
100
AcDbLine
 10
-70.21000000000004
 20
-0.35
 30
0.0
 11
-73.71000000000004
 21
-0.35
 31
0.0
  0
LINE
  5
FB
330
5A
100
AcDbEntity
  8
LC-003-002-----0
  6
Continuous
 62
     7
100
AcDbLine
 10
-73.71000000000004
 20
-0.35
 30
0.0
 11
-73.71000000000004
 21
-13.85
 31
0.0
  0
LINE
  5
FC
330
5A
100
AcDbEntity
  8
LC-003-002-----0
  6
Continuous
 62
     7
100
AcDbLine
 10
73.71015699999998
 20
-18.84993799999999
 30
0.0
 11
70.38529599999998
 21
-18.84993599999999
 31
0.0
  0
LINE
  5
FD
330
5A
100
AcDbEntity
  8
LC-003-002-----0
  6
Continuous
 62
     7
100
AcDbLine
 10
73.71015999999997
 20
-13.84993699999999
 30
0.0
 11
73.71015699999998
 21
-18.84993799999999
 31
0.0
  0
LINE
  5
FE
330
5A
100
AcDbEntity
  8
LC-003-002-----0
  6
Continuous
 62
     7
100
AcDbLine
 10
-73.71000000000004
 20
-18.85
 30
0.0
 11
-70.38396700000004
 21
-18.85000000000001
 31
0.0
  0
LINE
  5
FF
330
5A
100
AcDbEntity
  8
LC-003-002-----0
  6
Continuous
 62
     7
100
AcDbLine
 10
-73.71000000000004
 20
-13.85
 30
0.0
 11
-73.71000000000004
 21
-18.85
 31
0.0
  0
LINE
  5
100
330
5A
100
AcDbEntity
  8
LC-003-002-----0
  6
Continuous
 62
     7
100
AcDbLine
 10
70.3854243594909
 20
-70.35179300000004
 30
0.0
 11
70.38529599999998
 21
-18.84993599999999
 31
0.0
  0
LINE
  5
101
330
5A
100
AcDbEntity
  8
1
  6
PHANTOM
 62
     2
100
AcDbLine
 10
0.00080304718808
 20
-75.64374452910735
 30
0.0
 11
0.00059149871693
 21
10.9483788533494
 31
0.0
  0
LINE
  5
102
330
5A
100
AcDbEntity
  8
1
  6
Continuous
 62
     7
100
AcDbLine
 10
-70.38396700000004
 20
-18.85000000000001
 30
0.0
 11
70.38529599999998
 21
-18.85
 31
0.0
  0
LINE
  5
103
330
5A
100
AcDbEntity
  8
LC-003-002-----0
  6
Continuous
 62
     7
100
AcDbLine
 10
64.710171
 20
-0.34993499999999
 30
0.0
 11
64.71016900000001
 21
-0.34993499999999
 31
0.0
  0
ENDBLK
  5
5C
330
5A
100
AcDbEntity
  8
0
100
AcDbBlockEnd
  0
BLOCK
  5
5E
330
5D
100
AcDbEntity
  8
0
100
AcDbBlockBegin
  2
HL_72_1K_Körper
 70
     0
 71
     0
 10
188.466279
 20
217.0696789999999
 30
0.0
  3
HL_72_1K_Körper
  1

  0
POINT
  5
104
330
5D
100
AcDbEntity
  8
0
 62
     7
100
AcDbPoint
 10
147.038035
 20
-187.8562170000001
 30
0.0
  0
POINT
  5
105
330
5D
100
AcDbEntity
  8
0
 62
     7
100
AcDbPoint
 10
150.0009946538871
 20
-73.35717
 30
0.0
  0
POINT
  5
106
330
5D
100
AcDbEntity
  8
0
 62
     7
100
AcDbPoint
 10
150.0009946538871
 20
-70.35179300000004
 30
0.0
  0
POINT
  5
107
330
5D
100
AcDbEntity
  8
0
 62
     7
100
AcDbPoint
 10
-149.9990053461129
 20
-70.35179300000004
 30
0.0
  0
POINT
  5
108
330
5D
100
AcDbEntity
  8
0
 62
     7
100
AcDbPoint
 10
-51.99960400000004
 20
-223.361581
 30
0.0
  0
POINT
  5
109
330
5D
100
AcDbEntity
  8
0
 62
     7
100
AcDbPoint
 10
-149.9990053461129
 20
-73.35717
 30
0.0
  0
LINE
  5
10A
330
5D
100
AcDbEntity
  8
LC-003-002-----0
  6
Continuous
 62
     7
100
AcDbLine
 10
147.038035
 20
-112.856641
 30
0.0
 11
147.226221
 21
-112.856641
 31
0.0
  0
LINE
  5
10B
330
5D
100
AcDbEntity
  8
1
  6
Continuous
 62
     7
100
AcDbLine
 10
147.038035
 20
-187.8562170000001
 30
0.0
 11
147.038035
 21
-112.856641
 31
0.0
  0
LINE
  5
10C
330
5D
100
AcDbEntity
  8
1
  6
Continuous
 62
     7
100
AcDbLine
 10
-81.84703660683954
 20
-70.35179300000004
 30
0.0
 11
150.0019515943982
 21
-70.35179300000004
 31
0.0
  0
LINE
  5
10D
330
5D
100
AcDbEntity
  8
1
  6
Continuous
 62
     7
100
AcDbLine
 10
-149.9990053461129
 20
-70.35179300000004
 30
0.0
 11
-81.84703660683954
 21
-70.35179300000004
 31
0.0
  0
LINE
  5
10E
330
5D
100
AcDbEntity
  8
1
  6
PHANTOM
 62
     2
100
AcDbLine
 10
54.8579455396711
 20
-150.3564290000001
 30
0.0
 11
153.128892769657
 21
-150.3564290000001
 31
0.0
  0
LINE
  5
10F
330
5D
100
AcDbEntity
  8
LC-003-002-----0
  6
Continuous
 62
     7
100
AcDbLine
 10
72.00098956064993
 20
-112.856641
 30
0.0
 11
147.038035
 21
-112.856641
 31
0.0
  0
LINE
  5
110
330
5D
100
AcDbEntity
  8
LC-003-002-----0
  6
Continuous
 62
     7
100
AcDbLine
 10
72.00098956064993
 20
-112.856641
 30
0.0
 11
72.00099656064991
 21
-108.854696
 31
0.0
  0
LINE
  5
111
330
5D
100
AcDbEntity
  8
LC-001-020-----0
  6
Continuous
 62
     7
100
AcDbLine
 10
72.00094265388711
 20
-203.361902
 30
0.0
 11
72.00104665388709
 21
-187.8562170000001
 31
0.0
  0
LINE
  5
112
330
5D
100
AcDbEntity
  8
LC-003-002-----0
  6
Continuous
 62
     7
100
AcDbLine
 10
147.038035
 20
-187.8562170000001
 30
0.0
 11
150.226221
 21
-187.0019450000001
 31
0.0
  0
LINE
  5
113
330
5D
100
AcDbEntity
  8
LC-003-002-----0
  6
Continuous
 62
     7
100
AcDbLine
 10
-89.20424100000002
 20
-90.07245600000005
 30
0.0
 11
-89.20420200000001
 21
-95.15635200000003
 31
0.0
  0
LINE
  5
114
330
5D
100
AcDbEntity
  8
LC-003-002-----0
  6
Continuous
 62
     7
100
AcDbLine
 10
-94.20104700000002
 20
-80.27590400000003
 30
0.0
 11
-94.20103
 21
-84.13160800000003
 31
0.0
  0
LINE
  5
115
330
5D
100
AcDbEntity
  8
LC-003-002-----0
  6
Continuous
 62
     7
100
AcDbLine
 10
-110.940877
 20
-78.17343500000004
 30
0.0
 11
-95.13068800000002
 21
-79.27899000000002
 31
0.0
  0
LINE
  5
116
330
5D
100
AcDbEntity
  8
LC-003-002-----0
  6
Continuous
 62
     7
100
AcDbLine
 10
-117.965641
 20
-75.64369099999999
 30
0.0
 11
-110.938446
 21
-78.138664
 31
0.0
  0
LINE
  5
117
330
5D
100
AcDbEntity
  8
LC-003-002-----0
  6
Continuous
 62
     7
100
AcDbLine
 10
-149.9990053461129
 20
-73.35717
 30
0.0
 11
-117.965641
 21
-75.64369099999999
 31
0.0
  0
LINE
  5
118
330
5D
100
AcDbEntity
  8
LC-003-002-----0
  6
Continuous
 62
     7
100
AcDbLine
 10
-149.9990053461129
 20
-73.35717
 30
0.0
 11
-149.9990053461129
 21
-70.35179300000004
 31
0.0
  0
LINE
  5
119
330
5D
100
AcDbEntity
  8
LC-003-002-----0
  6
Continuous
 62
     7
100
AcDbLine
 10
-89.20420200000001
 20
-95.15635200000003
 30
0.0
 11
-83.68979300000001
 21
-106.995664
 31
0.0
  0
LINE
  5
11A
330
5D
100
AcDbEntity
  8
LC-003-002-----0
  6
Continuous
 62
     7
100
AcDbLine
 10
-80.91610700000001
 20
-108.854401
 30
0.0
 11
-71.99946500000004
 21
-108.854401
 31
0.0
  0
LINE
  5
11B
330
5D
100
AcDbEntity
  8
LC-003-002-----0
  6
Continuous
 62
     7
100
AcDbLine
 10
150.0009946538871
 20
-73.35717
 30
0.0
 11
150.0009946538871
 21
-70.35179300000004
 31
0.0
  0
LINE
  5
11C
330
5D
100
AcDbEntity
  8
LC-003-002-----0
  6
Continuous
 62
     7
100
AcDbLine
 10
117.96632
 20
-75.64369099999999
 30
0.0
 11
110.939124
 21
-78.138664
 31
0.0
  0
LINE
  5
11D
330
5D
100
AcDbEntity
  8
LC-003-002-----0
  6
Continuous
 62
     7
100
AcDbLine
 10
89.20491999999996
 20
-90.07245600000005
 30
0.0
 11
89.204881
 21
-95.15635200000003
 31
0.0
  0
LINE
  5
11E
330
5D
100
AcDbEntity
  8
LC-003-002-----0
  6
Continuous
 62
     7
100
AcDbLine
 10
150.0009946538871
 20
-73.35717
 30
0.0
 11
117.96632
 21
-75.64369099999999
 31
0.0
  0
LINE
  5
11F
330
5D
100
AcDbEntity
  8
LC-003-002-----0
  6
Continuous
 62
     7
100
AcDbLine
 10
94.20172500000001
 20
-80.27590400000003
 30
0.0
 11
94.201709
 21
-84.13160800000003
 31
0.0
  0
LINE
  5
120
330
5D
100
AcDbEntity
  8
LC-003-002-----0
  6
Continuous
 62
     7
100
AcDbLine
 10
110.941556
 20
-78.17343500000004
 30
0.0
 11
95.13136599999996
 21
-79.27899000000002
 31
0.0
  0
LINE
  5
121
330
5D
100
AcDbEntity
  8
LC-003-002-----0
  6
Continuous
 62
     7
100
AcDbLine
 10
89.20490799999999
 20
-92.656068
 30
0.0
 11
89.20488399999999
 21
-94.42887200000001
 31
0.0
  0
LINE
  5
122
330
5D
100
AcDbEntity
  8
LC-003-002-----0
  6
Continuous
 62
     7
100
AcDbLine
 10
80.916786
 20
-108.854401
 30
0.0
 11
72.00099656064991
 21
-108.854401
 31
0.0
  0
LINE
  5
123
330
5D
100
AcDbEntity
  8
LC-003-002-----0
  6
Continuous
 62
     7
100
AcDbLine
 10
89.204881
 20
-95.15635200000003
 30
0.0
 11
83.690472
 21
-106.995664
 31
0.0
  0
LINE
  5
124
330
5D
100
AcDbEntity
  8
LC-003-002-----0
  6
Continuous
 62
     7
100
AcDbLine
 10
147.226221
 20
-112.856641
 30
0.0
 11
150.226221
 21
-113.660489
 31
0.0
  0
LINE
  5
125
330
5D
100
AcDbEntity
  8
LC-003-002-----0
  6
Continuous
 62
     7
100
AcDbLine
 10
150.226221
 20
-113.660489
 30
0.0
 11
150.226221
 21
-187.0019450000001
 31
0.0
  0
LINE
  5
126
330
5D
100
AcDbEntity
  8
LC-003-002-----0
  6
Continuous
 62
     7
100
AcDbLine
 10
72.00104665388709
 20
-187.8562170000001
 30
0.0
 11
147.038035
 21
-187.8562170000001
 31
0.0
  0
LINE
  5
127
330
5D
100
AcDbEntity
  8
LC-001-020-----0
  6
Continuous
 62
     7
100
AcDbLine
 10
-51.99960400000004
 20
-223.36158
 30
0.0
 11
52.00098665388709
 21
-223.361716
 31
0.0
  0
LINE
  5
128
330
5D
100
AcDbEntity
  8
LC-001-020-----0
  6
Continuous
 62
     7
100
AcDbLine
 10
-71.99946500000004
 20
-108.854402
 30
0.0
 11
-71.999592
 21
-203.361581
 31
0.0
  0
LINE
  5
129
330
5D
100
AcDbEntity
  8
1
  6
Continuous
 62
     7
100
AcDbLine
 10
-89.20424100002202
 20
-90.07245568598103
 30
0.0
 11
89.20491999999996
 21
-90.07245568598103
 31
0.0
  0
LINE
  5
12A
330
5D
100
AcDbEntity
  8
1
  6
Continuous
 62
     7
100
AcDbLine
 10
91.058254451464
 20
-88.079054511923
 30
0.0
 11
-91.057575451464
 21
-88.079054511923
 31
0.0
  0
LINE
  5
12B
330
5D
100
AcDbEntity
  8
1
  6
Continuous
 62
     7
100
AcDbLine
 10
-89.20420200000001
 20
-95.15635200000003
 30
0.0
 11
89.20488399999999
 21
-95.15635200000003
 31
0.0
  0
LINE
  5
12C
330
5D
100
AcDbEntity
  8
1
  6
Continuous
 62
     7
100
AcDbLine
 10
83.690472
 20
-106.995664
 30
0.0
 11
-83.68979300000001
 21
-106.995664
 31
0.0
  0
LINE
  5
12D
330
5D
100
AcDbEntity
  8
1
  6
Continuous
 62
     7
100
AcDbLine
 10
-71.99946500000004
 20
-108.854402
 30
0.0
 11
72.00099656064991
 21
-108.854402
 31
0.0
  0
LINE
  5
12E
330
5D
100
AcDbEntity
  8
1
  6
Continuous
 62
     7
100
AcDbLine
 10
-94.20102899996101
 20
-84.131607581519
 30
0.0
 11
94.20172500000001
 21
-84.131607581519
 31
0.0
  0
LINE
  5
12F
330
5D
100
AcDbEntity
  8
1
  6
Continuous
 62
     7
100
AcDbLine
 10
94.20172500000001
 20
-80.27590400000003
 30
0.0
 11
-94.20104700000002
 21
-80.27590400000003
 31
0.0
  0
LINE
  5
130
330
5D
100
AcDbEntity
  8
1
  6
Continuous
 62
     7
100
AcDbLine
 10
-95.13068800000002
 20
-79.27899000000002
 30
0.0
 11
95.13136678064899
 21
-79.27899000000002
 31
0.0
  0
LINE
  5
131
330
5D
100
AcDbEntity
  8
1
  6
Continuous
 62
     7
100
AcDbLine
 10
110.941556
 20
-78.17343500000004
 30
0.0
 11
-110.940877
 21
-78.17343500000004
 31
0.0
  0
LINE
  5
132
330
5D
100
AcDbEntity
  8
1
  6
Continuous
 62
     7
100
AcDbLine
 10
-117.965641
 20
-75.64369099999999
 30
0.0
 11
117.96632
 21
-75.64369099999999
 31
0.0
  0
LINE
  5
133
330
5D
100
AcDbEntity
  8
1
  6
Continuous
 62
     7
100
AcDbLine
 10
-149.9990053461129
 20
-73.35717
 30
0.0
 11
150.0009946538871
 21
-73.35717
 31
0.0
  0
LINE
  5
134
330
5D
100
AcDbEntity
  8
1
  6
Continuous
 62
     7
100
AcDbLine
 10
-71.99957799997304
 20
-203.361547838744
 30
0.0
 11
72.00101265318027
 21
-203.361547838744
 31
0.0
  0
LINE
  5
135
330
5D
100
AcDbEntity
  8
1
  6
PHANTOM
 62
     2
100
AcDbLine
 10
0.00044625704339
 20
-57.59389545819684
 30
0.0
 11
-0.0000752724204
 21
-235.3902464463013
 31
0.0
  0
ARC
  5
136
330
5D
100
AcDbEntity
  8
LC-003-002-----0
  6
Continuous
 62
     7
100
AcDbCircle
 10
-91.202945
 20
-90.07246500000002
 30
0.0
 40
1.998703999999679
100
AcDbArc
 50
0.00026700000539
 51
85.82908600001349
  0
ARC
  5
137
330
5D
100
AcDbEntity
  8
LC-003-002-----0
  6
Continuous
 62
     7
100
AcDbCircle
 10
-90.203621
 20
-84.13159000000002
 30
0.0
 40
3.997407999999676
100
AcDbArc
 50
-179.9997479999951
 51
-102.2904070000051
  0
ARC
  5
138
330
5D
100
AcDbEntity
  8
LC-003-002-----0
  6
Continuous
 62
     7
100
AcDbCircle
 10
-95.200399
 20
-80.27590800000002
 30
0.0
 40
0.9993519999996491
100
AcDbArc
 50
0.00025200002036
 51
86.00000299997842
  0
ARC
  5
139
330
5D
100
AcDbEntity
  8
LC-009-002-RND-0
  6
Continuous
 62
     7
100
AcDbCircle
 10
-80.91610700000001
 20
-105.855123
 30
0.0
 40
2.999027999999956
100
AcDbArc
 50
-157.6475119999963
 51
-90.0
  0
ARC
  5
13A
330
5D
100
AcDbEntity
  8
LC-003-002-----0
  6
Continuous
 62
     7
100
AcDbCircle
 10
91.20362399999999
 20
-90.07246500000002
 30
0.0
 40
1.998704000000254
100
AcDbArc
 50
94.17091399998652
 51
179.9997329999946
  0
ARC
  5
13B
330
5D
100
AcDbEntity
  8
LC-003-002-----0
  6
Continuous
 62
     7
100
AcDbCircle
 10
95.201078
 20
-80.27590800000002
 30
0.0
 40
0.99935199999967
100
AcDbArc
 50
93.99999700002158
 51
179.9997479999796
  0
ARC
  5
13C
330
5D
100
AcDbEntity
  8
LC-003-002-----0
  6
Continuous
 62
     7
100
AcDbCircle
 10
90.20429999999999
 20
-84.13159000000002
 30
0.0
 40
3.997407999999737
100
AcDbArc
 50
-77.70959299999565
 51
-0.00025200000488
  0
ARC
  5
13D
330
5D
100
AcDbEntity
  8
LC-009-002-RND-0
  6
Continuous
 62
     7
100
AcDbCircle
 10
80.916786
 20
-105.855123
 30
0.0
 40
2.999027999999996
100
AcDbArc
 50
-90.0
 51
-22.3524880000037
  0
ARC
  5
13E
330
5D
100
AcDbEntity
  8
LC-001-020-----0
  6
Continuous
 62
     7
100
AcDbCircle
 10
52.0010126538871
 20
-203.361716
 30
0.0
 40
19.9999999999996
100
AcDbArc
 50
-90.00007600000112
 51
-0.00053199999883
  0
ARC
  5
13F
330
5D
100
AcDbEntity
  8
LC-001-020-----0
  6
Continuous
 62
     7
100
AcDbCircle
 10
-51.99957800000004
 20
-203.361581
 30
0.0
 40
20.00000000000049
100
AcDbArc
 50
179.9999049999994
 51
-90.00007600000097
  0
ARC
  5
140
330
5D
100
AcDbEntity
  8
1
  6
Continuous
 62
     7
100
AcDbCircle
 10
125.0811214524001
 20
-150.3563885929059
 30
0.0
 40
64.99024135343124
100
AcDbArc
 50
144.7597775519198
 51
-144.7596903193858
  0
ENDBLK
  5
5F
330
5D
100
AcDbEntity
  8
0
100
AcDbBlockEnd
  0
BLOCK
  5
149
330
141
100
AcDbEntity
  8
0
100
AcDbBlockBegin
  2
*D8
 70
     1
 71
     0
 10
0.0
 20
0.0
 30
0.0
  3
*D8
  1

  0
LINE
  5
142
330
141
100
AcDbEntity
  8
1
  6
Continuous
 62
     4
100
AcDbLine
 10
172.2000529964949
 20
-150.356429
 30
0.0
 11
172.2000529964949
 21
-70.35179300000004
 31
0.0
  0
LINE
  5
143
330
141
100
AcDbEntity
  8
1
  6
Continuous
 62
     4
100
AcDbLine
 10
153.128892769657
 20
-150.356429
 30
0.0
 11
174.2000529964949
 21
-150.356429
 31
0.0
  0
LINE
  5
144
330
141
100
AcDbEntity
  8
1
  6
Continuous
 62
     4
100
AcDbLine
 10
150.0019515943982
 20
-70.35179300000004
 30
0.0
 11
174.2000529964949
 21
-70.35179300000004
 31
0.0
  0
SOLID
  5
145
330
141
100
AcDbEntity
  8
1
 62
     4
100
AcDbTrace
 10
170.6202230254461
 20
-138.356429
 30
0.0
 11
173.7798829675436
 21
-138.356429
 31
0.0
 12
172.2000529964949
 22
-150.356429
 32
0.0
 13
172.2000529964949
 23
-150.356429
 33
0.0
  0
SOLID
  5
146
330
141
100
AcDbEntity
  8
1
 62
     4
100
AcDbTrace
 10
173.7798829675436
 20
-82.35179300000004
 30
0.0
 11
170.6202230254461
 21
-82.35179300000004
 31
0.0
 12
172.2000529964949
 22
-70.35179300000004
 32
0.0
 13
172.2000529964949
 23
-70.35179300000004
 33
0.0
  0
MTEXT
  5
148
330
141
100
AcDbEntity
  8
1
 62
     1
100
AcDbMText
 10
170.2000529964949
 20
-106.4553589137106
 30
0.0
 40
12.0
 41
0.0
 71
     7
 72
     1
  1
80
  7
CONVERTER_12
 11
0.0
 21
1.0
 31
0.0
 73
     1
 44
0.60024009603842
  0
ENDBLK
  5
14A
330
141
100
AcDbEntity
  8
0
100
AcDbBlockEnd
  0
BLOCK
  5
154
330
14D
100
AcDbEntity
  8
0
100
AcDbBlockBegin
  2
*D9
 70
     1
 71
     0
 10
0.0
 20
0.0
 30
0.0
  3
*D9
  1

  0
LINE
  5
14E
330
14D
100
AcDbEntity
  8
1
  6
Continuous
 62
     4
100
AcDbLine
 10
339.847325061818
 20
-90.306217
 30
0.0
 11
339.847325061818
 21
-200.306217
 31
0.0
  0
LINE
  5
14F
330
14D
100
AcDbEntity
  8
1
  6
Continuous
 62
     4
100
AcDbLine
 10
311.4263690000001
 20
-90.306217
 30
0.0
 11
341.847325061818
 21
-90.306217
 31
0.0
  0
LINE
  5
150
330
14D
100
AcDbEntity
  8
1
  6
Continuous
 62
     4
100
AcDbLine
 10
311.4263690000001
 20
-200.306217
 30
0.0
 11
341.847325061818
 21
-200.306217
 31
0.0
  0
SOLID
  5
151
330
14D
100
AcDbEntity
  8
1
 62
     4
100
AcDbTrace
 10
341.4271550328668
 20
-102.306217
 30
0.0
 11
338.2674950907693
 21
-102.306217
 31
0.0
 12
339.847325061818
 22
-90.306217
 32
0.0
 13
339.847325061818
 23
-90.306217
 33
0.0
  0
SOLID
  5
152
330
14D
100
AcDbEntity
  8
1
 62
     4
100
AcDbTrace
 10
338.2674950907693
 20
-188.306217
 30
0.0
 11
341.4271550328668
 21
-188.306217
 31
0.0
 12
339.847325061818
 22
-200.306217
 32
0.0
 13
339.847325061818
 23
-200.306217
 33
0.0
  0
MTEXT
  5
153
330
14D
100
AcDbEntity
  8
1
 62
     1
100
AcDbMText
 10
337.847325061818
 20
-159.770723646161
 30
0.0
 40
12.0
 41
0.0
 71
     7
 72
     1
  1
\C1;DN\C1;110
  7
CONVERTER_12
 11
0.0
 21
1.0
 31
0.0
 73
     1
 44
0.60024009603842
  0
ENDBLK
  5
155
330
14D
100
AcDbEntity
  8
0
100
AcDbBlockEnd
  0
BLOCK
  5
15F
330
158
100
AcDbEntity
  8
0
100
AcDbBlockBegin
  2
*D10
 70
     1
 71
     0
 10
0.0
 20
0.0
 30
0.0
  3
*D10
  1

  0
LINE
  5
159
330
158
100
AcDbEntity
  8
1
  6
Continuous
 62
     4
100
AcDbLine
 10
199.034856100978
 20
-112.856641
 30
0.0
 11
199.034856100978
 21
-187.8562170000001
 31
0.0
  0
LINE
  5
15A
330
158
100
AcDbEntity
  8
1
  6
Continuous
 62
     4
100
AcDbLine
 10
147.226221
 20
-112.856641
 30
0.0
 11
201.034856100978
 21
-112.856641
 31
0.0
  0
LINE
  5
15B
330
158
100
AcDbEntity
  8
1
  6
Continuous
 62
     4
100
AcDbLine
 10
147.038035
 20
-187.8562170000001
 30
0.0
 11
201.034856100978
 21
-187.8562170000001
 31
0.0
  0
SOLID
  5
15C
330
158
100
AcDbEntity
  8
1
 62
     4
100
AcDbTrace
 10
200.6146860720268
 20
-124.856641
 30
0.0
 11
197.4550261299293
 21
-124.856641
 31
0.0
 12
199.034856100978
 22
-112.856641
 32
0.0
 13
199.034856100978
 23
-112.856641
 33
0.0
  0
SOLID
  5
15D
330
158
100
AcDbEntity
  8
1
 62
     4
100
AcDbTrace
 10
197.4550261299293
 20
-175.8562170000001
 30
0.0
 11
200.6146860720268
 21
-175.8562170000001
 31
0.0
 12
199.034856100978
 22
-187.8562170000001
 32
0.0
 13
199.034856100978
 23
-187.8562170000001
 33
0.0
  0
MTEXT
  5
15E
330
158
100
AcDbEntity
  8
1
 62
     1
100
AcDbMText
 10
197.034856100978
 20
-165.507161287489
 30
0.0
 40
12.0
 41
0.0
 71
     7
 72
     1
  1
\C1;DN\C1;75
  7
CONVERTER_12
 11
0.0
 21
1.0
 31
0.0
 73
     1
 44
0.60024009603842
  0
ENDBLK
  5
160
330
158
100
AcDbEntity
  8
0
100
AcDbBlockEnd
  0
BLOCK
  5
16A
330
163
100
AcDbEntity
  8
0
100
AcDbBlockBegin
  2
*D11
 70
     1
 71
     0
 10
0.0
 20
0.0
 30
0.0
  3
*D11
  1

  0
LINE
  5
164
330
163
100
AcDbEntity
  8
1
  6
Continuous
 62
     4
100
AcDbLine
 10
73.65704672125806
 20
14.49986883633752
 30
0.0
 11
-73.71003627802122
 21
14.49950881189316
 31
0.0
  0
LINE
  5
165
330
163
100
AcDbEntity
  8
1
  6
Continuous
 62
     4
100
AcDbLine
 10
73.657083
 20
-0.349935
 30
0.0
 11
73.65704183516766
 21
16.49986883633155
 31
0.0
  0
LINE
  5
166
330
163
100
AcDbEntity
  8
1
  6
Continuous
 62
     4
100
AcDbLine
 10
-73.71000000000004
 20
-0.35
 30
0.0
 11
-73.71004116411162
 21
16.4995088118872
 31
0.0
  0
SOLID
  5
167
330
163
100
AcDbEntity
  8
1
 62
     4
100
AcDbTrace
 10
61.65705058088989
 20
12.92000954875112
 30
0.0
 11
61.65704286169785
 21
16.07966949083919
 31
0.0
 12
73.65704672125806
 22
14.49986883633752
 32
0.0
 13
73.65704672125806
 23
14.49986883633752
 33
0.0
  0
SOLID
  5
168
330
163
100
AcDbEntity
  8
1
 62
     4
100
AcDbTrace
 10
-61.71004013765305
 20
16.07936809947957
 30
0.0
 11
-61.71003241846101
 21
12.91970815739149
 31
0.0
 12
-73.71003627802122
 22
14.49950881189316
 32
0.0
 13
-73.71003627802122
 23
14.49950881189316
 33
0.0
  0
MTEXT
  5
169
330
163
100
AcDbEntity
  8
1
 62
     1
100
AcDbMText
 10
-35.54605554183362
 20
16.49960204822898
 30
0.0
 40
12.0
 41
0.0
 71
     7
 72
     1
  1
\C1;150\C1;x150
  7
CONVERTER_12
 11
0.9999999999970619
 21
2.424068405545306E-6
 31
0.0
 73
     1
 44
0.60024009603842
  0
ENDBLK
  5
16B
330
163
100
AcDbEntity
  8
0
100
AcDbBlockEnd
  0
BLOCK
  5
175
330
16E
100
AcDbEntity
  8
0
100
AcDbBlockBegin
  2
*D12
 70
     1
 71
     0
 10
0.0
 20
0.0
 30
0.0
  3
*D12
  1

  0
LINE
  5
16F
330
16E
100
AcDbEntity
  8
1
  6
Continuous
 62
     4
100
AcDbLine
 10
-149.9992612126461
 20
34.38083063616078
 30
0.0
 11
150.0016957260745
 21
34.38156355205778
 31
0.0
  0
LINE
  5
170
330
16E
100
AcDbEntity
  8
1
  6
Continuous
 62
     4
100
AcDbLine
 10
-149.9990053461129
 20
-70.35179300000001
 30
0.0
 11
-149.9992660987364
 21
36.38083063615481
 31
0.0
  0
LINE
  5
171
330
16E
100
AcDbEntity
  8
1
  6
Continuous
 62
     4
100
AcDbLine
 10
150.0019515943982
 20
-70.35179300000001
 30
0.0
 11
150.0016908399841
 21
36.38156355205182
 31
0.0
  0
SOLID
  5
172
330
16E
100
AcDbEntity
  8
1
 62
     4
100
AcDbTrace
 10
-137.999265072278
 20
35.96068992374718
 30
0.0
 11
-137.9992573530859
 21
32.80102998165911
 31
0.0
 12
-149.9992612126461
 22
34.38083063616078
 32
0.0
 13
-149.9992612126461
 23
34.38083063616078
 33
0.0
  0
SOLID
  5
173
330
16E
100
AcDbEntity
  8
1
 62
     4
100
AcDbTrace
 10
138.0016995857063
 20
32.80170426447138
 30
0.0
 11
138.0016918665143
 21
35.96136420655945
 31
0.0
 12
150.0016957260745
 22
34.38156355205778
 32
0.0
 13
150.0016957260745
 23
34.38156355205778
 33
0.0
  0
MTEXT
  5
174
330
16E
100
AcDbEntity
  8
1
 62
     1
100
AcDbMText
 10
-70.86102718936291
 20
36.38102434791256
 30
0.0
 40
12.0
 41
0.0
 71
     7
 72
     1
  1
\C1;\U+00d8\C1;300
  7
CONVERTER_12
 11
0.9999999999970619
 21
2.424068405545306E-6
 31
0.0
 73
     1
 44
0.60024009603842
  0
ENDBLK
  5
176
330
16E
100
AcDbEntity
  8
0
100
AcDbBlockEnd
  0
BLOCK
  5
180
330
179
100
AcDbEntity
  8
0
100
AcDbBlockBegin
  2
*D13
 70
     1
 71
     0
 10
0.0
 20
0.0
 30
0.0
  3
*D13
  1

  0
LINE
  5
17A
330
179
100
AcDbEntity
  8
1
  6
Continuous
 62
     4
100
AcDbLine
 10
172.200117523311
 20
-0.35000342740779
 30
0.0
 11
172.2000710068917
 21
-70.35180775072027
 31
0.0
  0
LINE
  5
17B
330
179
100
AcDbEntity
  8
1
  6
Continuous
 62
     4
100
AcDbLine
 10
64.71017100000003
 20
-0.349932
 30
0.0
 11
174.2001175233106
 21
-0.35000475641409
 31
0.0
  0
LINE
  5
17C
330
179
100
AcDbEntity
  8
1
  6
Continuous
 62
     4
100
AcDbLine
 10
150.0019515943982
 20
-70.35179300000004
 30
0.0
 11
174.2000710068913
 21
-70.35180907972656
 31
0.0
  0
SOLID
  5
17D
330
179
100
AcDbEntity
  8
1
 62
     4
100
AcDbTrace
 10
173.7799395203216
 20
-12.35000447720713
 30
0.0
 11
170.6202795782249
 21
-12.35000237760315
 31
0.0
 12
172.200117523311
 22
-0.35000342740779
 32
0.0
 13
172.200117523311
 23
-0.35000342740779
 33
0.0
  0
SOLID
  5
17E
330
179
100
AcDbEntity
  8
1
 62
     4
100
AcDbTrace
 10
170.6202490098811
 20
-58.35180670092093
 30
0.0
 11
173.7799089519779
 21
-58.35180880052491
 31
0.0
 12
172.2000710068917
 22
-70.35180775072027
 32
0.0
 13
172.2000710068917
 23
-70.35180775072027
 33
0.0
  0
MTEXT
  5
17F
330
179
100
AcDbEntity
  8
1
 62
     1
100
AcDbMText
 10
170.2000793394183
 20
-57.81232308303723
 30
0.0
 40
12.0
 41
0.0
 71
     7
 72
     1
  1
\C1;20-\C1;70
  7
CONVERTER_12
 11
6.645031476794154E-7
 21
0.9999999999997794
 31
0.0
 73
     1
 44
0.60024009603842
  0
ENDBLK
  5
181
330
179
100
AcDbEntity
  8
0
100
AcDbBlockEnd
  0
BLOCK
  5
18B
330
184
100
AcDbEntity
  8
0
100
AcDbBlockBegin
  2
*D14
 70
     1
 71
     0
 10
0.0
 20
0.0
 30
0.0
  3
*D14
  1

  0
LINE
  5
185
330
184
100
AcDbEntity
  8
1
  6
Continuous
 62
     4
100
AcDbLine
 10
-186.889225325544
 20
-73.35717
 30
0.0
 11
-186.889225325544
 21
-223.361580999982
 31
0.0
  0
LINE
  5
186
330
184
100
AcDbEntity
  8
1
  6
Continuous
 62
     4
100
AcDbLine
 10
-149.9990053461129
 20
-73.35717
 30
0.0
 11
-188.889225325544
 21
-73.35717
 31
0.0
  0
LINE
  5
187
330
184
100
AcDbEntity
  8
1
  6
Continuous
 62
     4
100
AcDbLine
 10
-51.99960452900501
 20
-223.361580999982
 30
0.0
 11
-188.889225325544
 21
-223.361580999982
 31
0.0
  0
SOLID
  5
188
330
184
100
AcDbEntity
  8
1
 62
     4
100
AcDbTrace
 10
-185.3093953544953
 20
-85.35717
 30
0.0
 11
-188.4690552965928
 21
-85.35717
 31
0.0
 12
-186.889225325544
 22
-73.35717
 32
0.0
 13
-186.889225325544
 23
-73.35717
 33
0.0
  0
SOLID
  5
189
330
184
100
AcDbEntity
  8
1
 62
     4
100
AcDbTrace
 10
-188.4690552965928
 20
-211.361580999982
 30
0.0
 11
-185.3093953544953
 21
-211.361580999982
 31
0.0
 12
-186.889225325544
 22
-223.361580999982
 32
0.0
 13
-186.889225325544
 23
-223.361580999982
 33
0.0
  0
MTEXT
  5
18A
330
184
100
AcDbEntity
  8
1
 62
     1
100
AcDbMText
 10
-188.889225325544
 20
-162.0588014946738
 30
0.0
 40
12.0
 41
0.0
 71
     7
 72
     1
  1
150
  7
CONVERTER_12
 11
0.0
 21
1.0
 31
0.0
 73
     1
 44
0.60024009603842
  0
ENDBLK
  5
18C
330
184
100
AcDbEntity
  8
0
100
AcDbBlockEnd
  0
ENDSEC
  0
SECTION
  2
ENTITIES
  0
INSERT
  5
60
330
1F
100
AcDbEntity
  8
1
100
AcDbBlockReference
  2
HL72_1N-Draufsicht
 10
-122.032268035702
 20
-464.5324070536961
 30
0.0
  0
INSERT
  5
61
330
1F
100
AcDbEntity
  8
1
100
AcDbBlockReference
  2
0317_4E_Reduktion_DN110-DN75
 10
220.7283592873761
 20
-200.306328
 30
0.0
  0
INSERT
  5
62
330
1F
100
AcDbEntity
  8
1
100
AcDbBlockReference
  2
0317_2E_Aufsatzrahmen
 10
288.920712
 20
351.410059
 30
0.0
  0
INSERT
  5
63
330
1F
100
AcDbEntity
  8
1
100
AcDbBlockReference
  2
HL_72_1K_Körper
 10
188.466279
 20
217.0696789999999
 30
0.0
  0
DIMENSION
  5
14C
330
1F
100
AcDbEntity
  8
1
100
AcDbDimension
  2
*D8
 10
172.2000529964949
 20
-150.356429
 30
0.0
 11
164.2000529964949
 21
-97.45535891371063
 31
0.0
 70
    32
  1
<>
 71
     5
 42
-1.0
 53
90.0
  3
ME10_DIM_10
100
AcDbAlignedDimension
 13
150.0019515943982
 23
-70.35179300000004
 33
0.0
 14
153.128892769657
 24
-150.3564290000001
 34
0.0
 50
90.0
100
AcDbRotatedDimension
  0
DIMENSION
  5
157
330
1F
100
AcDbEntity
  8
1
100
AcDbDimension
  2
*D9
 10
339.847325061818
 20
-90.306217
 30
0.0
 11
331.847325061818
 21
-142.490723646161
 31
0.0
 70
    32
  1
<>
 71
     5
 42
-1.0
 53
90.0
  3
ME10_DIM_11
100
AcDbAlignedDimension
 13
311.4263690000001
 23
-200.306217
 33
0.0
 14
311.4263690000001
 24
-90.306217
 34
0.0
 50
90.0
100
AcDbRotatedDimension
  0
DIMENSION
  5
162
330
1F
100
AcDbEntity
  8
1
100
AcDbDimension
  2
*D10
 10
199.034856100978
 20
-112.856641
 30
0.0
 11
191.034856100978
 21
-150.027161287489
 31
0.0
 70
    32
  1
<>
 71
     5
 42
-1.0
 53
90.0
  3
ME10_DIM_12
100
AcDbAlignedDimension
 13
147.038035
 23
-187.8562170000001
 33
0.0
 14
147.226221
 24
-112.856641
 34
0.0
 50
90.0
100
AcDbRotatedDimension
  0
DIMENSION
  5
16D
330
1F
100
AcDbEntity
  8
1
100
AcDbDimension
  2
*D11
 10
73.65704672125806
 20
14.49986883633752
 30
0.0
 11
-1.94607020020507
 21
22.4996841345297
 31
0.0
 70
    32
  1
150
 71
     5
 42
-1.0
 53
0.00013888888889
  3
ME10_DIM_13
100
AcDbAlignedDimension
 13
-73.71000000000004
 23
-0.35
 33
0.0
 14
73.657083
 24
-0.34993499999999
 34
0.0
 50
0.00013997617894
100
AcDbRotatedDimension
  0
DIMENSION
  5
178
330
1F
100
AcDbEntity
  8
1
100
AcDbDimension
  2
*D12
 10
-149.9992612126461
 20
34.38083063616078
 30
0.0
 11
-43.9810418477134
 21
42.3810896434863
 31
0.0
 70
    32
  1
<>
 71
     5
 42
-1.0
 53
0.00013888888889
  3
ME10_DIM_14
100
AcDbAlignedDimension
 13
150.0019515943982
 23
-70.35179300000004
 33
0.0
 14
-149.9990053461129
 24
-70.35179300000004
 34
0.0
 50
0.00013997617894
100
AcDbRotatedDimension
  0
DIMENSION
  5
183
330
1F
100
AcDbEntity
  8
1
100
AcDbDimension
  2
*D13
 10
172.200117523311
 20
-0.35000342740779
 30
0.0
 11
164.200093772428
 21
-36.09231909602314
 31
0.0
 70
    32
  1
<>
 71
     5
 42
-1.0
 53
89.99996192677416
  3
ME10_DIM_15
100
AcDbAlignedDimension
 13
150.0019515943982
 23
-70.35179300000004
 33
0.0
 14
64.710171
 24
-0.349932
 34
0.0
 50
89.99996192677416
100
AcDbRotatedDimension
  0
DIMENSION
  5
18E
330
1F
100
AcDbEntity
  8
1
100
AcDbDimension
  2
*D14
 10
-186.889225325544
 20
-73.35717
 30
0.0
 11
-194.889225325544
 21
-149.4588014946738
 31
0.0
 70
    32
  1
<>
 71
     5
 42
-1.0
 53
90.0
  3
ME10_DIM_16
100
AcDbAlignedDimension
 13
-51.99960452900501
 23
-223.361580999982
 33
0.0
 14
-149.9990053461129
 24
-73.35717
 34
0.0
 50
90.0
100
AcDbRotatedDimension
  0
ENDSEC
  0
SECTION
  2
OBJECTS
  0
DICTIONARY
  5
C
330
0
100
AcDbDictionary
281
     1
  3
ACAD_GROUP
350
D
  3
ACAD_LAYOUT
350
1A
  3
ACAD_MLINESTYLE
350
17
  3
ACAD_PLOTSETTINGS
350
19
  3
ACAD_PLOTSTYLENAME
350
E
  3
ACAD_TABLESTYLE
350
18F
  3
ACAD_VISUALSTYLE
350
2A
  0
DICTIONARY
  5
D
102
{ACAD_REACTORS
330
C
102
}
330
C
100
AcDbDictionary
281
     1
  0
DICTIONARY
  5
1A
102
{ACAD_REACTORS
330
C
102
}
330
C
100
AcDbDictionary
281
     1
  3
Layout1
350
1E
  3
Layout2
350
26
  3
Model
350
22
  0
DICTIONARY
  5
17
102
{ACAD_REACTORS
330
C
102
}
330
C
100
AcDbDictionary
281
     1
  3
Standard
350
18
  0
DICTIONARY
  5
19
102
{ACAD_REACTORS
330
C
102
}
330
C
100
AcDbDictionary
281
     1
  0
ACDBDICTIONARYWDFLT
  5
E
102
{ACAD_REACTORS
330
C
102
}
330
C
100
AcDbDictionary
281
     1
  3
Normal
350
F
100
AcDbDictionaryWithDefault
340
F
  0
DICTIONARY
  5
18F
102
{ACAD_REACTORS
330
C
102
}
330
C
100
AcDbDictionary
281
     1
  0
DICTIONARY
  5
2A
102
{ACAD_REACTORS
330
C
102
}
330
C
100
AcDbDictionary
281
     1
  3
2dWireframe
350
2F
  3
3D Hidden
350
31
  3
3dWireframe
350
30
  3
Basic
350
32
  3
Brighten
350
36
  3
ColorChange
350
3A
  3
Conceptual
350
34
  3
Dim
350
35
  3
Facepattern
350
39
  3
Flat
350
2B
  3
FlatWithEdges
350
2C
  3
Gouraud
350
2D
  3
GouraudWithEdges
350
2E
  3
Linepattern
350
38
  3
Realistic
350
33
  3
Thicken
350
37
  0
LAYOUT
  5
1E
102
{ACAD_REACTORS
330
1A
102
}
330
1A
100
AcDbPlotSettings
  1

  2
none_device
  4

  6

 40
0.0
 41
0.0
 42
0.0
 43
0.0
 44
0.0
 45
0.0
 46
0.0
 47
0.0
 48
0.0
 49
0.0
140
0.0
141
0.0
142
1.0
143
1.0
 70
   688
 72
     0
 73
     0
 74
     5
  7

 75
    16
147
1.0
148
0.0
149
0.0
100
AcDbLayout
  1
Layout1
 70
     1
 71
     1
 10
0.0
 20
0.0
 11
12.0
 21
9.0
 12
0.0
 22
0.0
 32
0.0
 14
1.00000000000000E+20
 24
1.00000000000000E+20
 34
1.00000000000000E+20
 15
-1.00000000000000E+20
 25
-1.00000000000000E+20
 35
-1.00000000000000E+20
146
0.0
 13
0.0
 23
0.0
 33
0.0
 16
1.0
 26
0.0
 36
0.0
 17
0.0
 27
1.0
 37
0.0
 76
     0
330
1B
  0
LAYOUT
  5
26
102
{ACAD_REACTORS
330
1A
102
}
330
1A
100
AcDbPlotSettings
  1

  2
none_device
  4

  6

 40
0.0
 41
0.0
 42
0.0
 43
0.0
 44
0.0
 45
0.0
 46
0.0
 47
0.0
 48
0.0
 49
0.0
140
0.0
141
0.0
142
1.0
143
1.0
 70
   688
 72
     0
 73
     0
 74
     5
  7

 75
    16
147
1.0
148
0.0
149
0.0
100
AcDbLayout
  1
Layout2
 70
     1
 71
     2
 10
0.0
 20
0.0
 11
0.0
 21
0.0
 12
0.0
 22
0.0
 32
0.0
 14
0.0
 24
0.0
 34
0.0
 15
0.0
 25
0.0
 35
0.0
146
0.0
 13
0.0
 23
0.0
 33
0.0
 16
1.0
 26
0.0
 36
0.0
 17
0.0
 27
1.0
 37
0.0
 76
     0
330
23
  0
LAYOUT
  5
22
102
{ACAD_REACTORS
330
1A
102
}
330
1A
100
AcDbPlotSettings
  1

  2
none_device
  4

  6

 40
0.0
 41
0.0
 42
0.0
 43
0.0
 44
0.0
 45
0.0
 46
0.0
 47
0.0
 48
0.0
 49
0.0
140
0.0
141
0.0
142
1.0
143
1.0
 70
  1712
 72
     0
 73
     0
 74
     0
  7

 75
     0
147
1.0
148
0.0
149
0.0
100
AcDbLayout
  1
Model
 70
     1
 71
     0
 10
0.0
 20
0.0
 11
12.0
 21
9.0
 12
0.0
 22
0.0
 32
0.0
 14
-200.889225325544
 24
-587.499037371933
 34
0.0
 15
341.847325061818
 25
48.38114241324465
 35
0.0
146
0.0
 13
0.0
 23
0.0
 33
0.0
 16
1.0
 26
0.0
 36
0.0
 17
0.0
 27
1.0
 37
0.0
 76
     0
330
1F
331
29
  0
MLINESTYLE
  5
18
102
{ACAD_REACTORS
330
17
102
}
330
17
100
AcDbMlineStyle
  2
Standard
 70
     0
  3

 62
   256
 51
90.0
 52
90.0
 71
     2
 49
0.5
 62
   256
  6
BYLAYER
 49
-0.5
 62
   256
  6
BYLAYER
  0
ACDBPLACEHOLDER
  5
F
102
{ACAD_REACTORS
330
E
102
}
330
E
  0
VISUALSTYLE
  5
2F
102
{ACAD_REACTORS
330
2A
102
}
330
2A
100
AcDbVisualStyle
  2
2dWireframe
 70
     4
 71
     0
 72
     2
 73
     0
 90
        0
 40
-0.6
 41
-30.0
 62
     5
 63
     7
 74
     1
 91
        4
 64
     7
 65
   257
 75
     1
175
     1
 42
1.0
 92
        0
 66
   257
 43
1.0
 76
     1
 77
     6
 78
     2
 67
     7
 79
     5
170
     0
171
     0
290
     0
174
     0
 93
        1
 44
0.0
173
     0
291
     0
 45
0.0
1001
ACAD
1000
AcDbSavedByObjectVersion
1070
     0
  0
VISUALSTYLE
  5
31
102
{ACAD_REACTORS
330
2A
102
}
330
2A
100
AcDbVisualStyle
  2
3D Hidden
 70
     6
 71
     1
 72
     2
 73
     2
 90
        0
 40
-0.6
 41
-30.0
 62
     5
 63
     7
 74
     2
 91
        2
 64
     7
 65
   257
 75
     2
175
     1
 42
40.0
 92
        0
 66
   257
 43
1.0
 76
     1
 77
     6
 78
     2
 67
     7
 79
     3
170
     0
171
     0
290
     0
174
     0
 93
        1
 44
0.0
173
     0
291
     0
 45
0.0
1001
ACAD
1000
AcDbSavedByObjectVersion
1070
     0
  0
VISUALSTYLE
  5
30
102
{ACAD_REACTORS
330
2A
102
}
330
2A
100
AcDbVisualStyle
  2
3dWireframe
 70
     5
 71
     0
 72
     2
 73
     0
 90
        0
 40
-0.6
 41
-30.0
 62
     5
 63
     7
 74
     1
 91
        4
 64
     7
 65
   257
 75
     1
175
     1
 42
1.0
 92
        0
 66
   257
 43
1.0
 76
     1
 77
     6
 78
     2
 67
     7
 79
     5
170
     0
171
     0
290
     0
174
     0
 93
        1
 44
0.0
173
     0
291
     0
 45
0.0
1001
ACAD
1000
AcDbSavedByObjectVersion
1070
     0
  0
VISUALSTYLE
  5
32
102
{ACAD_REACTORS
330
2A
102
}
330
2A
100
AcDbVisualStyle
  2
Basic
 70
     7
 71
     1
 72
     0
 73
     1
 90
        0
 40
-0.6
 41
-30.0
 62
     5
 63
     7
 74
     0
 91
        4
 64
     7
 65
   257
 75
     1
175
     1
 42
1.0
 92
        8
 66
     7
 43
1.0
 76
     1
 77
     6
 78
     2
 67
     7
 79
     5
170
     0
171
     0
290
     0
174
     0
 93
        1
 44
0.0
173
     0
291
     1
 45
0.0
1001
ACAD
1000
AcDbSavedByObjectVersion
1070
     0
  0
VISUALSTYLE
  5
36
102
{ACAD_REACTORS
330
2A
102
}
330
2A
100
AcDbVisualStyle
  2
Brighten
 70
    12
 71
     2
 72
     2
 73
     0
 90
        0
 40
-0.6
 41
-30.0
 62
     5
 63
     7
 74
     1
 91
        4
 64
     7
 65
   257
 75
     1
175
     1
 42
1.0
 92
        8
 66
     7
 43
1.0
 76
     1
 77
     6
 78
     2
 67
     7
 79
     5
170
     0
171
     0
290
     0
174
     0
 93
        1
 44
50.0
173
     0
291
     1
 45
0.0
1001
ACAD
1000
AcDbSavedByObjectVersion
1070
     0
  0
VISUALSTYLE
  5
3A
102
{ACAD_REACTORS
330
2A
102
}
330
2A
100
AcDbVisualStyle
  2
ColorChange
 70
    16
 71
     2
 72
     2
 73
     3
 90
        0
 40
-0.6
 41
-30.0
 62
     5
 63
     8
 74
     1
 91
        4
 64
     7
 65
   257
 75
     1
175
     1
 42
1.0
 92
        8
 66
     8
 43
1.0
 76
     1
 77
     6
 78
     2
 67
     7
 79
     5
170
     0
171
     0
290
     0
174
     0
 93
        1
 44
0.0
173
     0
291
     1
 45
0.0
1001
ACAD
1000
AcDbSavedByObjectVersion
1070
     0
  0
VISUALSTYLE
  5
34
102
{ACAD_REACTORS
330
2A
102
}
330
2A
100
AcDbVisualStyle
  2
Conceptual
 70
     9
 71
     3
 72
     2
 73
     0
 90
        0
 40
-0.6
 41
-30.0
 62
     5
 63
     7
 74
     2
 91
        2
 64
     7
 65
   257
 75
     1
175
     1
 42
40.0
 92
        8
 66
     7
 43
1.0
 76
     1
 77
     6
 78
     2
 67
     7
 79
     3
170
     0
171
     0
290
     0
174
     0
 93
        1
 44
0.0
173
     0
291
     0
 45
0.0
1001
ACAD
1000
AcDbSavedByObjectVersion
1070
     0
  0
VISUALSTYLE
  5
35
102
{ACAD_REACTORS
330
2A
102
}
330
2A
100
AcDbVisualStyle
  2
Dim
 70
    11
 71
     2
 72
     2
 73
     0
 90
        0
 40
-0.6
 41
-30.0
 62
     5
 63
     7
 74
     1
 91
        4
 64
     7
 65
   257
 75
     1
175
     1
 42
1.0
 92
        8
 66
     7
 43
1.0
 76
     1
 77
     6
 78
     2
 67
     7
 79
     5
170
     0
171
     0
290
     0
174
     0
 93
        1
 44
-50.0
173
     0
291
     1
 45
0.0
1001
ACAD
1000
AcDbSavedByObjectVersion
1070
     0
  0
VISUALSTYLE
  5
39
102
{ACAD_REACTORS
330
2A
102
}
330
2A
100
AcDbVisualStyle
  2
Facepattern
 70
    15
 71
     2
 72
     2
 73
     0
 90
        0
 40
-0.6
 41
-30.0
 62
     5
 63
     7
 74
     1
 91
        4
 64
     7
 65
   257
 75
     1
175
     1
 42
1.0
 92
        8
 66
     7
 43
1.0
 76
     1
 77
     6
 78
     2
 67
     7
 79
     5
170
     0
171
     0
290
     0
174
     0
 93
        1
 44
0.0
173
     0
291
     1
 45
0.0
1001
ACAD
1000
AcDbSavedByObjectVersion
1070
     0
  0
VISUALSTYLE
  5
2B
102
{ACAD_REACTORS
330
2A
102
}
330
2A
100
AcDbVisualStyle
  2
Flat
 70
     0
 71
     2
 72
     1
 73
     1
 90
        2
 40
-0.6
 41
30.0
 62
     5
 63
     7
 74
     0
 91
        4
 64
     7
 65
   257
 75
     1
175
     1
 42
1.0
 92
        8
 66
     7
 43
1.0
 76
     1
 77
     6
 78
     2
 67
     7
 79
     5
170
     0
171
     0
290
     0
174
     0
 93
       13
 44
0.0
173
     0
291
     1
 45
0.0
1001
ACAD
1000
AcDbSavedByObjectVersion
1070
     0
  0
VISUALSTYLE
  5
2C
102
{ACAD_REACTORS
330
2A
102
}
330
2A
100
AcDbVisualStyle
  2
FlatWithEdges
 70
     1
 71
     2
 72
     1
 73
     1
 90
        2
 40
-0.6
 41
30.0
 62
     5
 63
     7
 74
     1
 91
        4
 64
     7
 65
   257
 75
     1
175
     1
 42
1.0
 92
        0
 66
   257
 43
1.0
 76
     1
 77
     6
 78
     2
 67
     7
 79
     5
170
     0
171
     0
290
     0
174
     0
 93
       13
 44
0.0
173
     0
291
     1
 45
0.0
1001
ACAD
1000
AcDbSavedByObjectVersion
1070
     0
  0
VISUALSTYLE
  5
2D
102
{ACAD_REACTORS
330
2A
102
}
330
2A
100
AcDbVisualStyle
  2
Gouraud
 70
     2
 71
     2
 72
     2
 73
     1
 90
        2
 40
-0.6
 41
30.0
 62
     5
 63
     7
 74
     0
 91
        4
 64
     7
 65
   257
 75
     1
175
     1
 42
1.0
 92
        0
 66
     7
 43
1.0
 76
     1
 77
     6
 78
     2
 67
     7
 79
     5
170
     0
171
     0
290
     0
174
     0
 93
       13
 44
0.0
173
     0
291
     1
 45
0.0
1001
ACAD
1000
AcDbSavedByObjectVersion
1070
     0
  0
VISUALSTYLE
  5
2E
102
{ACAD_REACTORS
330
2A
102
}
330
2A
100
AcDbVisualStyle
  2
GouraudWithEdges
 70
     3
 71
     2
 72
     2
 73
     1
 90
        2
 40
-0.6
 41
30.0
 62
     5
 63
     7
 74
     1
 91
        4
 64
     7
 65
   257
 75
     1
175
     1
 42
1.0
 92
        0
 66
   257
 43
1.0
 76
     1
 77
     6
 78
     2
 67
     7
 79
     5
170
     0
171
     0
290
     0
174
     0
 93
       13
 44
0.0
173
     0
291
     1
 45
0.0
1001
ACAD
1000
AcDbSavedByObjectVersion
1070
     0
  0
VISUALSTYLE
  5
38
102
{ACAD_REACTORS
330
2A
102
}
330
2A
100
AcDbVisualStyle
  2
Linepattern
 70
    14
 71
     2
 72
     2
 73
     0
 90
        0
 40
-0.6
 41
-30.0
 62
     5
 63
     7
 74
     1
 91
        4
 64
     7
 65
   257
 75
     7
175
     7
 42
1.0
 92
        8
 66
     7
 43
1.0
 76
     1
 77
     6
 78
     2
 67
     7
 79
     5
170
     0
171
     0
290
     0
174
     0
 93
        1
 44
0.0
173
     0
291
     1
 45
0.0
1001
ACAD
1000
AcDbSavedByObjectVersion
1070
     0
  0
VISUALSTYLE
  5
33
102
{ACAD_REACTORS
330
2A
102
}
330
2A
100
AcDbVisualStyle
  2
Realistic
 70
     8
 71
     2
 72
     2
 73
     0
 90
        0
 40
-0.6
 41
-30.0
 62
     5
 63
     7
 74
     1
 91
        0
 64
     7
 65
   257
 75
     1
175
     1
 42
1.0
 92
        8
 66
     8
 43
1.0
 76
     1
 77
     6
 78
     2
 67
     7
 79
     5
170
     0
171
     0
290
     0
174
     0
 93
       13
 44
0.0
173
     0
291
     0
 45
0.0
1001
ACAD
1000
AcDbSavedByObjectVersion
1070
     0
  0
VISUALSTYLE
  5
37
102
{ACAD_REACTORS
330
2A
102
}
330
2A
100
AcDbVisualStyle
  2
Thicken
 70
    13
 71
     2
 72
     2
 73
     0
 90
        0
 40
-0.6
 41
-30.0
 62
     5
 63
     7
 74
     1
 91
        4
 64
     7
 65
   257
 75
     1
175
     1
 42
1.0
 92
       12
 66
     7
 43
1.0
 76
     1
 77
     6
 78
     2
 67
     7
 79
     5
170
     0
171
     0
290
     0
174
     0
 93
        1
 44
0.0
173
     0
291
     1
 45
0.0
1001
ACAD
1000
AcDbSavedByObjectVersion
1070
     0
  0
ENDSEC
  0
EOF
