  0
SECTION
  2
HEADER
  9
$ACADVER
  1
AC1014
  9
$ACADMAINTVER
 70
             0
  9
$DWGCODEPAGE
  3
ANSI_1252
  9
$INSBASE
 10
0.0
 20
0.0
 30
0.0
  9
$EXTMIN
 10
-105.0036435725648
 20
-280.0
 30
0.0
  9
$EXTMAX
 10
3.44412855276039
 20
280.00000000000011
 30
0.0
  9
$LIMMIN
 10
0.0
 20
0.0
  9
$LIMMAX
 10
0.0
 20
0.0
  9
$ORTHOMODE
 70
             0
  9
$REGENMODE
 70
             1
  9
$FILLMODE
 70
             1
  9
$QTEXTMODE
 70
             0
  9
$MIRRTEXT
 70
             1
  9
$DRAGMODE
 70
             2
  9
$LTSCALE
 40
1.0
  9
$OSMODE
 70
             0
  9
$ATTMODE
 70
             1
  9
$TEXTSIZE
 40
0.2
  9
$TRACEWID
 40
0.05
  9
$TEXTSTYLE
  7
STANDARD
  9
$CLAYER
  8
0
  9
$CELTYPE
  6
CONTINUOUS
  9
$CECOLOR
 62
           256
  9
$CELTSCALE
 40
1.0
  9
$DELOBJ
 70
             1
  9
$DISPSILH
 70
             0
  9
$DIMSCALE
 40
1.0
  9
$DIMASZ
 40
0.18
  9
$DIMEXO
 40
0.0625
  9
$DIMDLI
 40
0.38
  9
$DIMRND
 40
0.0
  9
$DIMDLE
 40
0.0
  9
$DIMEXE
 40
0.18
  9
$DIMTP
 40
0.0
  9
$DIMTM
 40
0.0
  9
$DIMTXT
 40
0.18
  9
$DIMCEN
 40
0.09
  9
$DIMTSZ
 40
0.0
  9
$DIMTOL
 70
             0
  9
$DIMLIM
 70
             0
  9
$DIMTIH
 70
             1
  9
$DIMTOH
 70
             1
  9
$DIMSE1
 70
             0
  9
$DIMSE2
 70
             0
  9
$DIMTAD
 70
             0
  9
$DIMZIN
 70
             0
  9
$DIMBLK
  1

  9
$DIMASO
 70
             1
  9
$DIMSHO
 70
             1
  9
$DIMPOST
  1

  9
$DIMAPOST
  1

  9
$DIMALT
 70
             0
  9
$DIMALTD
 70
             2
  9
$DIMALTF
 40
25.4
  9
$DIMLFAC
 40
1.0
  9
$DIMTOFL
 70
             0
  9
$DIMTVP
 40
0.0
  9
$DIMTIX
 70
             0
  9
$DIMSOXD
 70
             0
  9
$DIMSAH
 70
             0
  9
$DIMBLK1
  1

  9
$DIMBLK2
  1

  9
$DIMSTYLE
  2
STANDARD
  9
$DIMCLRD
 70
             0
  9
$DIMCLRE
 70
             0
  9
$DIMCLRT
 70
             0
  9
$DIMTFAC
 40
1.0
  9
$DIMGAP
 40
0.09
  9
$DIMJUST
 70
             0
  9
$DIMSD1
 70
             0
  9
$DIMSD2
 70
             0
  9
$DIMTOLJ
 70
             1
  9
$DIMTZIN
 70
             0
  9
$DIMALTZ
 70
             0
  9
$DIMALTTZ
 70
             0
  9
$DIMFIT
 70
             3
  9
$DIMUPT
 70
             0
  9
$DIMUNIT
 70
             2
  9
$DIMDEC
 70
             4
  9
$DIMTDEC
 70
             4
  9
$DIMALTU
 70
             2
  9
$DIMALTTD
 70
             2
  9
$DIMTXSTY
  7
STANDARD
  9
$DIMAUNIT
 70
             0
  9
$LUNITS
 70
             2
  9
$LUPREC
 70
             4
  9
$SKETCHINC
 40
0.1
  9
$FILLETRAD
 40
0.0
  9
$AUNITS
 70
             0
  9
$AUPREC
 70
             0
  9
$MENU
  1
acad
  9
$ELEVATION
 40
0.0
  9
$PELEVATION
 40
0.0
  9
$THICKNESS
 40
0.0
  9
$LIMCHECK
 70
             0
  9
$BLIPMODE
 70
             1
  9
$CHAMFERA
 40
0.0
  9
$CHAMFERB
 40
0.0
  9
$CHAMFERC
 40
0.0
  9
$CHAMFERD
 40
0.0
  9
$SKPOLY
 70
             0
  9
$TDCREATE
 40
0.000000000
  9
$TDUPDATE
 40
0.000000000
  9
$TDINDWG
 40
0.0000000000
  9
$TDUSRTIMER
 40
0.0000000000
  9
$USRTIMER
 70
             1
  9
$ANGBASE
 50
0.0
  9
$ANGDIR
 70
             0
  9
$PDMODE
 70
             0
  9
$PDSIZE
 40
0.0
  9
$PLINEWID
 40
0.0
  9
$COORDS
 70
             0
  9
$SPLFRAME
 70
             0
  9
$SPLINETYPE
 70
             6
  9
$SPLINESEGS
 70
             8
  9
$ATTDIA
 70
             0
  9
$ATTREQ
 70
             1
  9
$HANDLING
 70
             1
  9
$HANDSEED
  5
D0
  9
$SURFTAB1
 70
             6
  9
$SURFTAB2
 70
             6
  9
$SURFTYPE
 70
             6
  9
$SURFU
 70
             6
  9
$SURFV
 70
             6
  9
$UCSNAME
  2

  9
$UCSORG
 10
0.0
 20
0.0
 30
0.0
  9
$UCSXDIR
 10
1.0
 20
0.0
 30
0.0
  9
$UCSYDIR
 10
0.0
 20
1.0
 30
0.0
  9
$PUCSNAME
  2

  9
$PUCSORG
 10
0.0
 20
0.0
 30
0.0
  9
$PUCSXDIR
 10
1.0
 20
0.0
 30
0.0
  9
$PUCSYDIR
 10
0.0
 20
1.0
 30
0.0
  9
$USERI1
 70
             0
  9
$USERI2
 70
             0
  9
$USERI3
 70
             0
  9
$USERI4
 70
             0
  9
$USERI5
 70
             0
  9
$USERR1
 40
12.01
  9
$USERR2
 40
0.0
  9
$USERR3
 40
0.0
  9
$USERR4
 40
0.0
  9
$USERR5
 40
0.0
  9
$WORLDVIEW
 70
             1
  9
$SHADEDGE
 70
             3
  9
$SHADEDIF
 70
            70
  9
$TILEMODE
 70
             1
  9
$MAXACTVP
 70
            16
  9
$PINSBASE
 10
0.0
 20
0.0
 30
0.0
  9
$PLIMCHECK
 70
             0
  9
$PEXTMIN
 10
1.00000000000000E+20
 20
1.00000000000000E+20
 30
1.00000000000000E+20
  9
$PEXTMAX
 10
-1.00000000000000E+20
 20
-1.00000000000000E+20
 30
-1.00000000000000E+20
  9
$PLIMMIN
 10
0.0
 20
0.0
  9
$PLIMMAX
 10
12.0
 20
9.0
  9
$UNITMODE
 70
             0
  9
$VISRETAIN
 70
             0
  9
$PLINEGEN
 70
             1
  9
$PSLTSCALE
 70
             0
  9
$TREEDEPTH
 70
          3020
  9
$PICKSTYLE
 70
             1
  9
$CMLSTYLE
  2
STANDARD
  9
$CMLJUST
 70
             0
  9
$CMLSCALE
 40
1.0
  9
$PROXYGRAPHICS
 70
             0
  9
$MEASUREMENT
 70
             1
  0
ENDSEC
  0
SECTION
  2
CLASSES
  0
CLASS
  1
LWPOLYLINE
  2
AcDbPolyline
  3
"AutoCAD"
 90
        0
280
             0
281
             1
  0
CLASS
  1
IMAGE
  2
AcDbRasterImage
  3
ISM
 90
      127
280
             0
281
             1
  0
CLASS
  1
OLE2FRAME
  2
AcDbOle2Frame
  3
""
 90
        0
280
             0
281
             1
  0
CLASS
  1
HATCH
  2
AcDbHatch
  3
"ACAD_SEDONA"
 90
        0
280
             0
281
             1
  0
CLASS
  1
DICTIONARYVAR
  2
AcDbDictionaryVar
  3
"AutoCAD"
 90
        0
280
             0
281
             0
  0
CLASS
  1
RASTERVARIABLES
  2
AcDbRasterVariables
  3
ISM
 90
        0
280
             0
281
             0
  0
CLASS
  1
IMAGEDEF
  2
AcDbRasterImageDef
  3
ISM
 90
        0
280
             0
281
             0
  0
CLASS
  1
IMAGEDEF_REACTOR
  2
AcDbRasterImageDefReactor
  3
ISM
 90
        1
280
             0
281
             0
  0
CLASS
  1
IDBUFFER
  2
AcDbIdBuffer
  3
"Acad"
 90
        0
280
             0
281
             0
  0
CLASS
  1
SPATIAL_FILTER
  2
AcDbSpatialFilter
  3
"Acad"
 90
        0
280
             0
281
             0
  0
CLASS
  1
XRECORD
  2
AcDbXrecord
  3
"<Built In>"
 90
        0
280
             0
281
             0
  0
CLASS
  1
SORTENTSTABLE
  2
AcDbSortentsTable
  3
"AutoCAD"
 90
        0
280
             0
281
             0
  0
CLASS
  1
LAYER_INDEX
  2
AcDbLayerIndex
  3
"Acad"
 90
        0
280
             0
281
             0
  0
CLASS
  1
SPATIAL_INDEX
  2
AcDbSpatialIndex
  3
"Acad"
 90
        0
280
             0
281
             0
  0
CLASS
  1
OBJECT_PTR
  2
CAseDLPNTableRecord
  3
"ASE-LPNTableRecord"
 90
        1
280
             0
281
             0
  0
CLASS
  1
LAYOUT
  2
AcDbLayout
  3
"AutoCAD 2000"
 90
        0
280
             0
281
             0
  0
CLASS
  1
PLOTSETTINGS
  2
AcDbPlotSettings
  3
"AutoCAD 2000"
 90
        0
280
             0
281
             0
  0
CLASS
  1
ACDBDICTIONARYWDFLT
  2
AcDbDictionaryWithDefault
  3
"AutoCAD 2000"
 90
        0
280
             0
281
             0
  0
CLASS
  1
ACDBPLACEHOLDER
  2
AcDbPlaceHolder
  3
"AutoCAD 2000"
 90
        0
280
             0
281
             0
  0
ENDSEC
  0
SECTION
  2
TABLES
  0
TABLE
  2
VPORT
  5
7
100
AcDbSymbolTable
 70
             1
  0
VPORT
  5
15
100
AcDbSymbolTableRecord
100
AcDbViewportTableRecord
  2
*ACTIVE
 70
             0
 10
0.0
 20
0.0
 11
1.0
 21
1.0
 12
-50.7797575099022
 22
0.00000000000006
 13
0.0
 23
0.0
 14
1.0
 24
1.0
 15
0.0
 25
0.0
 16
0.0
 26
0.0
 36
1.0
 17
0.0
 27
0.0
 37
0.0
 40
616.00000000000023
 41
1.60267857142857
 42
50.0
 43
0.0
 44
0.0
 50
0.0
 51
0.0
 71
             0
 72
           100
 73
             1
 74
             1
 75
             0
 76
             0
 77
             0
 78
             0
  0
ENDTAB
  0
TABLE
  2
LTYPE
  5
4
100
AcDbSymbolTable
 70
            10
  0
LTYPE
  5
11
100
AcDbSymbolTableRecord
100
AcDbLinetypeTableRecord
  2
BYBLOCK
 70
            64
  3

 72
            65
 73
             0
 40
0.0
  0
LTYPE
  5
12
100
AcDbSymbolTableRecord
100
AcDbLinetypeTableRecord
  2
BYLAYER
 70
            64
  3

 72
            65
 73
             0
 40
0.0
  0
LTYPE
  5
13
100
AcDbSymbolTableRecord
100
AcDbLinetypeTableRecord
  2
CONTINUOUS
 70
            64
  3
Solid line
 72
            65
 73
             0
 40
0.0
  0
LTYPE
  5
1D
100
AcDbSymbolTableRecord
100
AcDbLinetypeTableRecord
  2
DASHED
 70
            64
  3
Dashed
 72
            65
 73
             2
 40
15.0
 49
7.0
 74
             0
 49
-8.0
 74
             0
  0
LTYPE
  5
1E
100
AcDbSymbolTableRecord
100
AcDbLinetypeTableRecord
  2
DOTTED
 70
            64
  3
Dotted
 72
            65
 73
             2
 40
1.0
 49
0.0
 74
             0
 49
-1.0
 74
             0
  0
LTYPE
  5
1F
100
AcDbSymbolTableRecord
100
AcDbLinetypeTableRecord
  2
DOT_CENTER
 70
            64
  3
Dot_Center
 72
            65
 73
             4
 40
14.0
 49
12.0
 74
             0
 49
-1.0
 74
             0
 49
0.0
 74
             0
 49
-1.0
 74
             0
  0
LTYPE
  5
20
100
AcDbSymbolTableRecord
100
AcDbLinetypeTableRecord
  2
LONG_DASHED
 70
            64
  3
Long_Dashed
 72
            65
 73
             2
 40
15.0
 49
10.0
 74
             0
 49
-5.0
 74
             0
  0
LTYPE
  5
21
100
AcDbSymbolTableRecord
100
AcDbLinetypeTableRecord
  2
DASH_CENTER
 70
            64
  3
Dash_Center
 72
            65
 73
             4
 40
14.0
 49
11.0
 74
             0
 49
-1.0
 74
             0
 49
1.0
 74
             0
 49
-1.0
 74
             0
  0
LTYPE
  5
22
100
AcDbSymbolTableRecord
100
AcDbLinetypeTableRecord
  2
PHANTOM
 70
            64
  3
Phantom
 72
            65
 73
             6
 40
13.0
 49
10.0
 74
             0
 49
-1.0
 74
             0
 49
0.0
 74
             0
 49
-1.0
 74
             0
 49
0.0
 74
             0
 49
-1.0
 74
             0
  0
LTYPE
  5
23
100
AcDbSymbolTableRecord
100
AcDbLinetypeTableRecord
  2
CENTER_DASH_DASH
 70
            64
  3
Center_Dash_Dash
 72
            65
 73
             6
 40
14.0
 49
9.0
 74
             0
 49
-1.0
 74
             0
 49
1.0
 74
             0
 49
-1.0
 74
             0
 49
1.0
 74
             0
 49
-1.0
 74
             0
  0
ENDTAB
  0
TABLE
  2
LAYER
  5
2
100
AcDbSymbolTable
 70
             2
  0
LAYER
  5
14
100
AcDbSymbolTableRecord
100
AcDbLayerTableRecord
  2
0
 70
             0
 62
             7
  6
CONTINUOUS
  0
LAYER
  5
24
100
AcDbSymbolTableRecord
100
AcDbLayerTableRecord
  2
1
 70
             0
 62
             7
  6
CONTINUOUS
  0
ENDTAB
  0
TABLE
  2
STYLE
  5
3
100
AcDbSymbolTable
 70
             2
  0
STYLE
  5
17
100
AcDbSymbolTableRecord
100
AcDbTextStyleTableRecord
  2
STANDARD
 70
             0
 40
0.0
 41
1.0
 50
0.0
 71
             0
 42
0.0
  3
txt
  4

  0
STYLE
  5
BF
100
AcDbSymbolTableRecord
100
AcDbTextStyleTableRecord
  2
CONVERTER_1
 70
             0
 40
0.0
 41
0.9
 50
0.0
 71
             0
 42
0.0
  3
txt.shx
  4

  0
ENDTAB
  0
TABLE
  2
VIEW
  5
5
100
AcDbSymbolTable
 70
             0
  0
ENDTAB
  0
TABLE
  2
UCS
  5
6
100
AcDbSymbolTable
 70
             0
  0
ENDTAB
  0
TABLE
  2
APPID
  5
8
100
AcDbSymbolTable
 70
             1
  0
APPID
  5
16
100
AcDbSymbolTableRecord
100
AcDbRegAppTableRecord
  2
ACAD
 70
             0
  0
ENDTAB
  0
TABLE
  2
DIMSTYLE
  5
9
100
AcDbSymbolTable
 70
             3
  0
DIMSTYLE
105
18
100
AcDbSymbolTableRecord
100
AcDbDimStyleTableRecord
  2
STANDARD
 70
             0
  3

  4

  5

  6

  7

 40
1.0
 41
0.18
 42
0.0625
 43
0.38
 44
0.18
 45
0.0
 46
0.0
 47
0.0
 48
0.0
 71
             0
 72
             0
 73
             1
 74
             1
 75
             0
 76
             0
 77
             0
 78
             0
140
0.18
141
0.09
142
0.0
143
25.4
144
1.0
145
0.0
146
1.0
147
0.09
170
             0
171
             2
172
             0
173
             0
174
             0
175
             0
176
             0
177
             0
178
             0
270
             2
271
             4
272
             4
273
             2
274
             2
275
             0
280
             0
281
             0
282
             0
283
             1
284
             0
285
             0
286
             0
287
             3
288
             0
340
17
  0
DIMSTYLE
105
C2
100
AcDbSymbolTableRecord
100
AcDbDimStyleTableRecord
  2
ME10_DIM_0
 70
             0
  3

  4

  5

  6

  7

 40
1.0
 41
7.0
 42
0.0
 43
0.38
 44
2.0
 45
0.0
 46
0.0
 47
0.0
 48
0.0
 71
             0
 72
             0
 73
             0
 74
             0
 75
             0
 76
             0
 77
             1
 78
             8
140
7.0
141
0.09
142
0.0
143
25.4
144
1.0
145
0.0
146
1.0
147
0.625
170
             0
171
             2
172
             1
173
             1
174
             0
175
             0
176
             4
177
             4
178
             1
270
             2
271
             2
272
             4
273
             2
274
             2
275
             0
280
             0
281
             0
282
             0
283
             1
284
             0
285
             0
286
             0
287
             3
288
             0
340
BF
  0
DIMSTYLE
105
CD
100
AcDbSymbolTableRecord
100
AcDbDimStyleTableRecord
  2
ME10_DIM_1
 70
             0
  3
DN<>
  4

  5

  6

  7

 40
1.0
 41
7.0
 42
0.0
 43
0.38
 44
2.0
 45
0.0
 46
0.0
 47
0.0
 48
0.0
 71
             0
 72
             0
 73
             0
 74
             0
 75
             0
 76
             0
 77
             1
 78
             8
140
7.0
141
0.09
142
0.0
143
25.4
144
1.0
145
0.0
146
1.0
147
0.625
170
             0
171
             2
172
             1
173
             1
174
             0
175
             0
176
             4
177
             4
178
             1
270
             2
271
             2
272
             4
273
             2
274
             2
275
             0
280
             0
281
             0
282
             0
283
             1
284
             0
285
             0
286
             0
287
             3
288
             0
340
BF
  0
ENDTAB
  0
TABLE
  2
BLOCK_RECORD
  5
1
100
AcDbSymbolTable
 70
             5
  0
BLOCK_RECORD
  5
A
100
AcDbSymbolTableRecord
100
AcDbBlockTableRecord
  2
*MODEL_SPACE
  0
BLOCK_RECORD
  5
B
100
AcDbSymbolTableRecord
100
AcDbBlockTableRecord
  2
*PAPER_SPACE
  0
BLOCK_RECORD
  5
25
100
AcDbSymbolTableRecord
100
AcDbBlockTableRecord
  2
BITUMENFOLIE-DN160
  0
BLOCK_RECORD
  5
27
100
AcDbSymbolTableRecord
100
AcDbBlockTableRecord
  2
MUTTERDN160-ARTIKEL
  0
BLOCK_RECORD
  5
29
100
AcDbSymbolTableRecord
100
AcDbBlockTableRecord
  2
DICHTUNGDN160
  0
BLOCK_RECORD
  5
B8
100
AcDbSymbolTableRecord
100
AcDbBlockTableRecord
  2
*D3
  0
BLOCK_RECORD
  5
C4
100
AcDbSymbolTableRecord
100
AcDbBlockTableRecord
  2
*D4
  0
ENDTAB
  0
ENDSEC
  0
SECTION
  2
BLOCKS
  0
BLOCK
  5
D
100
AcDbEntity
  8
0
100
AcDbBlockBegin
  2
*MODEL_SPACE
 70
             0
 10
0.0
 20
0.0
 30
0.0
  3
*MODEL_SPACE
  1

  0
ENDBLK
  5
E
100
AcDbEntity
  8
0
100
AcDbBlockEnd
  0
BLOCK
  5
F
100
AcDbEntity
 67
             1
  8
0
100
AcDbBlockBegin
  2
*PAPER_SPACE
 70
             0
 10
0.0
 20
0.0
 30
0.0
  3
*PAPER_SPACE
  1

  0
ENDBLK
  5
10
100
AcDbEntity
 67
             1
  8
0
100
AcDbBlockEnd
  0
BLOCK
  5
26
100
AcDbEntity
  8
0
100
AcDbBlockBegin
  2
BITUMENFOLIE-DN160
 70
             0
 10
755.97931082622551
 20
576.71475977448097
 30
0.0
  3
BITUMENFOLIE-DN160
  1

  0
LINE
  5
3C
100
AcDbEntity
  8
0
  6
CONTINUOUS
 62
             7
100
AcDbLine
 10
0.0
 20
-192.0
 11
0.0
 21
-280.0
  0
LINE
  5
3B
100
AcDbEntity
  8
0
  6
CONTINUOUS
 62
             7
100
AcDbLine
 10
-4.0
 20
-280.0
 11
0.0
 21
-280.0
  0
LINE
  5
3A
100
AcDbEntity
  8
0
  6
CONTINUOUS
 62
             7
100
AcDbLine
 10
0.0
 20
0.0
 11
0.0
 21
-192.0
  0
LINE
  5
39
100
AcDbEntity
  8
0
  6
CONTINUOUS
 62
             7
100
AcDbLine
 10
0.0
 20
280.00000000000011
 11
0.0
 21
192.00000000000011
  0
LINE
  5
38
100
AcDbEntity
  8
0
  6
CONTINUOUS
 62
             7
100
AcDbLine
 10
-4.0
 20
280.00000000000011
 11
-4.0
 21
227.1042347972701
  0
LINE
  5
37
100
AcDbEntity
  8
0
  6
CONTINUOUS
 62
             7
100
AcDbLine
 10
-4.0
 20
280.00000000000011
 11
0.0
 21
280.00000000000011
  0
LINE
  5
36
100
AcDbEntity
  8
0
  6
CONTINUOUS
 62
             7
100
AcDbLine
 10
0.0
 20
192.00000000000011
 11
0.0
 21
0.0
  0
LINE
  5
35
100
AcDbEntity
  8
0
  6
CONTINUOUS
 62
             7
100
AcDbLine
 10
-9.0
 20
169.95397328346311
 11
-4.0
 21
227.1042347972701
  0
LINE
  5
34
100
AcDbEntity
  8
0
  6
CONTINUOUS
 62
             7
100
AcDbLine
 10
-9.0
 20
169.95397328346311
 11
-9.0
 21
0.0
  0
LINE
  5
33
100
AcDbEntity
  8
0
  6
CONTINUOUS
 62
             7
100
AcDbLine
 10
-9.0
 20
0.0
 11
-9.0
 21
-169.953973283463
  0
LINE
  5
32
100
AcDbEntity
  8
0
  6
CONTINUOUS
 62
             7
100
AcDbLine
 10
-9.0
 20
-169.953973283463
 11
-4.0
 21
-227.10423479726981
  0
LINE
  5
31
100
AcDbEntity
  8
0
  6
CONTINUOUS
 62
             7
100
AcDbLine
 10
-4.0
 20
-227.10423479726981
 11
-4.0
 21
-280.0
  0
LINE
  5
30
100
AcDbEntity
  8
0
  6
CONTINUOUS
 62
             7
100
AcDbLine
 10
-4.0
 20
227.1042347972701
 11
-4.0
 21
-227.10423479726981
  0
ENDBLK
  5
3D
100
AcDbEntity
  8
0
100
AcDbBlockEnd
  0
BLOCK
  5
28
100
AcDbEntity
  8
0
100
AcDbBlockBegin
  2
MUTTERDN160-ARTIKEL
 70
             0
 10
684.84566725366051
 20
718.27155494302747
 30
0.0
  3
MUTTERDN160-ARTIKEL
  1

  0
SPLINE
  5
A0
100
AcDbEntity
  8
0
  6
CONTINUOUS
 62
             3
100
AcDbSpline
210
0.0
220
0.0
230
1.0
 70
             0
 71
             3
 72
             8
 73
             4
 74
             3
 42
0.00000000001
 43
0.00000000001
 44
0.00000000001
 40
0.0
 40
0.0
 40
0.0
 40
0.0
 40
1.0
 40
1.0
 40
1.0
 40
1.0
 10
-64.862423800093211
 20
61.102238814639691
 30
0.0
 10
-64.930587513554769
 20
61.043207307165737
 30
0.0
 10
-64.968109666631449
 20
60.953396133826118
 30
0.0
 10
-64.968109666631449
 20
60.849274341630462
 30
0.0
 11
-64.862423800093211
 21
61.102238814639691
 31
0.0
 11
-64.940828125910414
 21
60.992665434905717
 31
0.0
 11
-64.968109666631449
 21
60.849274341630462
 31
0.0
  0
SPLINE
  5
9F
100
AcDbEntity
  8
0
  6
CONTINUOUS
 62
             3
100
AcDbSpline
210
0.0
220
0.0
230
1.0
 70
             0
 71
             3
 72
            12
 73
             8
 74
             7
 42
0.00000000001
 43
0.00000000001
 44
0.00000000001
 40
0.0
 40
0.0
 40
0.0
 40
0.0
 40
1.0
 40
1.0
 40
2.0
 40
2.0
 40
3.0
 40
3.0
 40
3.0
 40
3.0
 10
-64.968109666631449
 20
59.983248937846042
 30
0.0
 10
-64.968109666631449
 20
59.907239927644703
 30
0.0
 10
-64.948101469839912
 20
59.826792451749043
 30
0.0
 10
-64.872092459638566
 20
59.673199072996908
 30
0.0
 10
-64.817429049436328
 20
59.602755695497081
 30
0.0
 10
-64.685777581934531
 20
59.488742180194997
 30
0.0
 10
-64.611105974940642
 20
59.447178147204113
 30
0.0
 10
-64.535096964739296
 20
59.425236235953889
 30
0.0
 11
-64.968109666631449
 21
59.983248937846042
 31
0.0
 11
-64.953355005098103
 21
59.866917729800029
 31
0.0
 11
-64.910096964739239
 21
59.749995762372976
 31
0.0
 11
-64.841283100956161
 21
59.640451125712623
 31
0.0
 11
-64.751603315685429
 21
59.545748937846042
 31
0.0
 11
-64.64716886888128
 21
59.47234326949966
 31
0.0
 11
-64.535096964739296
 21
59.425236235953889
 31
0.0
  0
SPLINE
  5
9E
100
AcDbEntity
  8
0
  6
CONTINUOUS
 62
             3
100
AcDbSpline
210
0.0
220
0.0
230
1.0
 70
             0
 71
             3
 72
            12
 73
             8
 74
             7
 42
0.00000000001
 43
0.00000000001
 44
0.00000000001
 40
0.0
 40
0.0
 40
0.0
 40
0.0
 40
1.0
 40
1.0
 40
2.0
 40
2.0
 40
3.0
 40
3.0
 40
3.0
 40
3.0
 10
-64.535096964739296
 20
-59.425236235878863
 30
0.0
 10
-64.611105974940642
 20
-59.447178147129193
 30
0.0
 10
-64.685777581934531
 20
-59.488742180120077
 30
0.0
 10
-64.817429049436328
 20
-59.602755695422161
 30
0.0
 10
-64.872092459638566
 20
-59.673199072921989
 30
0.0
 10
-64.948101469839912
 20
-59.826792451674123
 30
0.0
 10
-64.968109666631449
 20
-59.907239927569663
 30
0.0
 10
-64.968109666631449
 20
-59.983248937771123
 30
0.0
 11
-64.535096964739296
 21
-59.425236235878863
 31
0.0
 11
-64.64716886888128
 21
-59.472343269424719
 31
0.0
 11
-64.751603315685429
 21
-59.545748937771123
 31
0.0
 11
-64.841283100956161
 21
-59.640451125637703
 31
0.0
 11
-64.910096964739239
 21
-59.749995762298056
 31
0.0
 11
-64.953355005098103
 21
-59.866917729725067
 31
0.0
 11
-64.968109666631449
 21
-59.983248937771123
 31
0.0
  0
SPLINE
  5
9D
100
AcDbEntity
  8
0
  6
CONTINUOUS
 62
             3
100
AcDbSpline
210
0.0
220
0.0
230
1.0
 70
             0
 71
             3
 72
             8
 73
             4
 74
             3
 42
0.00000000001
 43
0.00000000001
 44
0.00000000001
 40
0.0
 40
0.0
 40
0.0
 40
0.0
 40
1.0
 40
1.0
 40
1.0
 40
1.0
 10
-64.968109666631449
 20
-60.849274341555542
 30
0.0
 10
-64.968109666631449
 20
-60.953396133751092
 30
0.0
 10
-64.930587513554769
 20
-61.043207307090832
 30
0.0
 10
-64.862423800093211
 20
-61.102238814564771
 30
0.0
 11
-64.968109666631449
 21
-60.849274341555542
 31
0.0
 11
-64.940828125910414
 21
-60.992665434830762
 31
0.0
 11
-64.862423800093211
 21
-61.102238814564771
 31
0.0
  0
SPLINE
  5
9C
100
AcDbEntity
  8
0
  6
CONTINUOUS
 62
             7
100
AcDbSpline
210
0.0
220
0.0
230
1.0
 70
             0
 71
             3
 72
            35
 73
            31
 74
           248
 42
0.00000000001
 43
0.00000000001
 44
0.00000000001
 40
0.0
 40
0.0
 40
0.0
 40
0.0
 40
0.0000350339099612
 40
0.0000350339099612
 40
0.0000350339099612
 40
0.0001571037542616
 40
0.0001571037542616
 40
0.0001571037542616
 40
0.0006899961085168
 40
0.0006899961085168
 40
0.0006899961085168
 40
0.0029116568415606
 40
0.0029116568415606
 40
0.0029116568415606
 40
0.0118294309909952
 40
0.0118294309909952
 40
0.0118294309909952
 40
0.0464073757649559
 40
0.0464073757649559
 40
0.0464073757649559
 40
0.116370483176793
 40
0.116370483176793
 40
0.116370483176793
 40
0.2485316532944895
 40
0.2485316532944895
 40
0.2485316532944895
 40
0.5701705675461883
 40
0.5701705675461883
 40
0.5701705675461883
 40
0.7035933298349986
 40
0.7035933298349986
 40
0.7035933298349986
 40
0.7035933298349986
 10
-76.004482921957674
 20
-101.71696406988249
 30
0.0
 10
-76.00448951063197
 20
-101.7169526579639
 30
0.0
 10
-76.004480355620785
 20
-101.71694540759439
 30
0.0
 10
-76.004455457380573
 20
-101.7169423196674
 30
0.0
 10
-76.004430421845314
 20
-101.71693921471289
 30
0.0
 10
-76.004389608327642
 20
-101.7169403353063
 30
0.0
 10
-76.004333549930493
 20
-101.7169455414941
 30
0.0
 10
-76.004219556867838
 20
-101.7169561281203
 30
0.0
 10
-76.004042532930043
 20
-101.7169836080509
 30
0.0
 10
-76.003806982697029
 20
-101.71702679863751
 30
0.0
 10
-76.003357201616041
 20
-101.7171092706794
 30
0.0
 10
-76.002657718322212
 20
-101.71725568320799
 30
0.0
 10
-76.001633405087318
 20
-101.717486123489
 30
0.0
 10
-75.999530026684056
 20
-101.7179593216221
 30
0.0
 10
-75.996438243084754
 20
-101.7187010559923
 30
0.0
 10
-75.992958674348529
 20
-101.719553588655
 30
0.0
 10
-75.987426709338934
 20
-101.720908981009
 30
0.0
 10
-75.977594656300766
 20
-101.7233576266798
 30
0.0
 10
-75.959426616009296
 20
-101.7279933836793
 30
0.0
 10
-75.941548657499538
 20
-101.732555123414
 30
0.0
 10
-75.918721215419509
 20
-101.7384380092047
 30
0.0
 10
-75.891677789423284
 20
-101.7454555821719
 30
0.0
 10
-75.842338198702691
 20
-101.7582588482264
 30
0.0
 10
-75.792180881109971
 20
-101.7714091094347
 30
0.0
 10
-75.763807745792178
 20
-101.7788594474458
 30
0.0
 10
-75.628545288959799
 20
-101.814377236098
 30
0.0
 10
-75.50293277481137
 20
-101.8478302469223
 30
0.0
 10
-75.452880337328565
 20
-101.8611737900856
 30
0.0
 10
-75.41056113650211
 20
-101.8724557198229
 30
0.0
 10
-75.367497431280754
 20
-101.8839652851709
 30
0.0
 10
-75.323982321068002
 20
-101.8956256852989
 30
0.0
 11
-76.004482921957674
 21
-101.71696406988249
 31
0.0
 11
-76.004480997262064
 21
-101.7169500732781
 31
0.0
 11
-76.004455457380573
 21
-101.7169423196674
 31
0.0
 11
-76.004406137228742
 21
-101.71694081390238
 31
0.0
 11
-76.004333549930493
 21
-101.7169455414941
 31
0.0
 11
-76.004198713412421
 21
-101.71696171541996
 31
0.0
 11
-76.004022857328664
 21
-101.716988888738
 31
0.0
 11
-76.003806982697029
 21
-101.71702679863751
 31
0.0
 11
-76.00359871245476
 21
-101.71706611708545
 31
0.0
 11
-76.00335855224364
 21
-101.7171136163615
 31
0.0
 11
-76.003085187876025
 21
-101.71716964784636
 31
0.0
 11
-76.002777305164258
 21
-101.71723456292081
 31
0.0
 11
-76.00243358992067
 21
-101.71730871296558
 31
0.0
 11
-76.002052727957576
 21
-101.7173924493614
 31
0.0
 11
-76.001633405087318
 21
-101.717486123489
 31
0.0
 11
-76.001087316292654
 21
-101.71760992624368
 31
0.0
 11
-76.000502129434437
 21
-101.71774437030703
 31
0.0
 11
-75.99987992999904
 21
-101.71788890797791
 31
0.0
 11
-75.999222803472762
 21
-101.71804299155504
 31
0.0
 11
-75.998532835341891
 21
-101.71820607333727
 31
0.0
 11
-75.997812111092784
 21
-101.71837760562339
 31
0.0
 11
-75.997062716211744
 21
-101.71855704071224
 31
0.0
 11
-75.99628673618507
 21
-101.71874383090258
 31
0.0
 11
-75.995486256499106
 21
-101.71893742849322
 31
0.0
 11
-75.994663362640139
 21
-101.71913728578295
 31
0.0
 11
-75.993820140094513
 21
-101.71934285507064
 31
0.0
 11
-75.992958674348529
 21
-101.719553588655
 31
0.0
 11
-75.992443810161205
 21
-101.71967984829708
 31
0.0
 11
-75.991904580199716
 21
-101.71981231400267
 31
0.0
 11
-75.991340310635039
 21
-101.71995116840102
 31
0.0
 11
-75.990750327638082
 21
-101.72009659412147
 31
0.0
 11
-75.990133957379797
 21
-101.72024877379327
 31
0.0
 11
-75.989490526031076
 21
-101.72040789004562
 31
0.0
 11
-75.988819359762857
 21
-101.72057412550788
 31
0.0
 11
-75.988119784746104
 21
-101.72074766280926
 31
0.0
 11
-75.987391127151682
 21
-101.72092868457904
 31
0.0
 11
-75.986632713150556
 21
-101.72111737344653
 31
0.0
 11
-75.985843868913676
 21
-101.72131391204097
 31
0.0
 11
-75.985023920611937
 21
-101.72151848299164
 31
0.0
 11
-75.984172194416288
 21
-101.72173126892775
 31
0.0
 11
-75.983288016497625
 21
-101.72195245247866
 31
0.0
 11
-75.982370713026924
 21
-101.72218221627361
 31
0.0
 11
-75.981419610175053
 21
-101.72242074294184
 31
0.0
 11
-75.980434034113003
 21
-101.72266821511265
 31
0.0
 11
-75.979413311011655
 21
-101.72292481541528
 31
0.0
 11
-75.978356767041959
 21
-101.72319072647905
 31
0.0
 11
-75.977263728374851
 21
-101.72346613093319
 31
0.0
 11
-75.976133521181254
 21
-101.72375121140698
 31
0.0
 11
-75.974965471632089
 21
-101.72404615052969
 31
0.0
 11
-75.973758905898251
 21
-101.72435113093056
 31
0.0
 11
-75.972513150150746
 21
-101.72466633523892
 31
0.0
 11
-75.971227530560441
 21
-101.724991946084
 31
0.0
 11
-75.969901373298271
 21
-101.72532814609508
 31
0.0
 11
-75.968534004535172
 21
-101.72567511790142
 31
0.0
 11
-75.967124750442096
 21
-101.72603304413231
 31
0.0
 11
-75.965672937189964
 21
-101.72640210741702
 31
0.0
 11
-75.964177890949685
 21
-101.72678249038479
 31
0.0
 11
-75.962638937892194
 21
-101.72717437566492
 31
0.0
 11
-75.961055404188414
 21
-101.72757794588667
 31
0.0
 11
-75.959426616009296
 21
-101.7279933836793
 31
0.0
 11
-75.957341851212021
 21
-101.72852559072957
 31
0.0
 11
-75.95521340648537
 21
-101.72906946027595
 31
0.0
 11
-75.953041532227502
 21
-101.72962492866608
 31
0.0
 11
-75.950826478836518
 21
-101.73019193224768
 31
0.0
 11
-75.948568496710578
 21
-101.73077040736838
 31
0.0
 11
-75.94626783624787
 21
-101.73136029037589
 31
0.0
 11
-75.943924747846523
 21
-101.73196151761786
 31
0.0
 11
-75.941539481904698
 21
-101.73257402544198
 31
0.0
 11
-75.939112288820553
 21
-101.73319775019596
 31
0.0
 11
-75.936643418992233
 21
-101.73383262822739
 31
0.0
 11
-75.934133122817869
 21
-101.73447859588399
 31
0.0
 11
-75.931581650695662
 21
-101.73513558951343
 31
0.0
 11
-75.928989253023715
 21
-101.73580354546341
 31
0.0
 11
-75.92635618020023
 21
-101.7364824000816
 31
0.0
 11
-75.923682682623294
 21
-101.73717208971561
 31
0.0
 11
-75.920969010691095
 21
-101.73787255071318
 31
0.0
 11
-75.918215414801793
 21
-101.73858371942195
 31
0.0
 11
-75.915422145353546
 21
-101.73930553218963
 31
0.0
 11
-75.912589452744484
 21
-101.74003792536385
 31
0.0
 11
-75.909717587372768
 21
-101.74078083529234
 31
0.0
 11
-75.906806799636556
 21
-101.74153419832271
 31
0.0
 11
-75.903857339933964
 21
-101.74229795080265
 31
0.0
 11
-75.900869458663209
 21
-101.7430720290799
 31
0.0
 11
-75.897843406222407
 21
-101.74385636950205
 31
0.0
 11
-75.894779433009717
 21
-101.74465090841684
 31
0.0
 11
-75.891677789423284
 21
-101.7454555821719
 31
0.0
 11
-75.88888426088856
 21
-101.74618062531727
 31
0.0
 11
-75.886089896592139
 21
-101.74690616594006
 31
0.0
 11
-75.88329560743
 21
-101.74763196033906
 31
0.0
 11
-75.880502304298062
 21
-101.74835776481301
 31
0.0
 11
-75.877710898092289
 21
-101.74908333566069
 31
0.0
 11
-75.874922299708587
 21
-101.7498084291808
 31
0.0
 11
-75.872137420042918
 21
-101.75053280167215
 31
0.0
 11
-75.869357169991218
 21
-101.75125620943348
 31
0.0
 11
-75.866582460449422
 21
-101.75197840876351
 31
0.0
 11
-75.863814202313506
 21
-101.75269915596105
 31
0.0
 11
-75.861053306479349
 21
-101.75341820732484
 31
0.0
 11
-75.858300683842927
 21
-101.7541353191536
 31
0.0
 11
-75.855557245300176
 21
-101.75485024774615
 31
0.0
 11
-75.85282390174703
 21
-101.75556274940119
 31
0.0
 11
-75.850101564079452
 21
-101.75627258041752
 31
0.0
 11
-75.847391143193335
 21
-101.75697949709384
 31
0.0
 11
-75.844693549984655
 21
-101.75768325572898
 31
0.0
 11
-75.842009695349375
 21
-101.75838361262161
 31
0.0
 11
-75.839340490183389
 21
-101.75908032407058
 31
0.0
 11
-75.836686845382644
 21
-101.75977314637456
 31
0.0
 11
-75.83404967184309
 21
-101.76046183583234
 31
0.0
 11
-75.831429880460675
 21
-101.76114614874271
 31
0.0
 11
-75.82882838213132
 21
-101.76182584140437
 31
0.0
 11
-75.826246087750988
 21
-101.76250067011614
 31
0.0
 11
-75.823683908215614
 21
-101.76317039117669
 31
0.0
 11
-75.821142754421118
 21
-101.76383476088485
 31
0.0
 11
-75.818623537263463
 21
-101.76449353553934
 31
0.0
 11
-75.81612716763857
 21
-101.76514647143894
 31
0.0
 11
-75.813654556442387
 21
-101.76579332488237
 31
0.0
 11
-75.81120661457085
 21
-101.7664338521684
 31
0.0
 11
-75.808784252919921
 21
-101.7670678095958
 31
0.0
 11
-75.806388382385535
 21
-101.76769495346335
 31
0.0
 11
-75.804019913863613
 21
-101.76831504006975
 31
0.0
 11
-75.801679758250089
 21
-101.76892782571379
 31
0.0
 11
-75.799368826440926
 21
-101.76953306669418
 31
0.0
 11
-75.797088029332059
 21
-101.77013051930976
 31
0.0
 11
-75.794838277819437
 21
-101.77071993985923
 31
0.0
 11
-75.792620482798981
 21
-101.77130108464137
 31
0.0
 11
-75.790435555166624
 21
-101.77187370995487
 31
0.0
 11
-75.788284405818303
 21
-101.77243757209855
 31
0.0
 11
-75.786167945650021
 21
-101.77299242737121
 31
0.0
 11
-75.784087085557644
 21
-101.77353803207149
 31
0.0
 11
-75.782042736437177
 21
-101.77407414249824
 31
0.0
 11
-75.780035809184483
 21
-101.77460051495015
 31
0.0
 11
-75.778067214695568
 21
-101.77511690572601
 31
0.0
 11
-75.776137863866353
 21
-101.77562307112461
 31
0.0
 11
-75.774248667592758
 21
-101.77611876744464
 31
0.0
 11
-75.772400536770732
 21
-101.77660375098488
 31
0.0
 11
-75.770594382296224
 21
-101.77707777804409
 31
0.0
 11
-75.768831115065183
 21
-101.77754060492104
 31
0.0
 11
-75.767111645973529
 21
-101.77799198791448
 31
0.0
 11
-75.765436885917225
 21
-101.77843168332316
 31
0.0
 11
-75.763807745792178
 21
-101.7788594474458
 31
0.0
 11
-75.759711905154276
 21
-101.77993509346422
 31
0.0
 11
-75.755622379607644
 21
-101.7810093638797
 31
0.0
 11
-75.751539576718201
 21
-101.78208214710999
 31
0.0
 11
-75.747463904051912
 21
-101.78315333157285
 31
0.0
 11
-75.743395769174626
 21
-101.78422280568599
 31
0.0
 11
-75.73933557965232
 21
-101.78529045786722
 31
0.0
 11
-75.7352837430509
 21
-101.78635617653428
 31
0.0
 11
-75.731240666936259
 21
-101.78741985010495
 31
0.0
 11
-75.727206758874374
 21
-101.78848136699693
 31
0.0
 11
-75.723182426431109
 21
-101.78954061562807
 31
0.0
 11
-75.719168077172398
 21
-101.79059748441603
 31
0.0
 11
-75.715164118664163
 21
-101.79165186177862
 31
0.0
 11
-75.711170958472323
 21
-101.79270363613355
 31
0.0
 11
-75.707189004162828
 21
-101.79375269589865
 31
0.0
 11
-75.703218663301541
 21
-101.79479892949161
 31
0.0
 11
-75.699260343454412
 21
-101.79584222533023
 31
0.0
 11
-75.695314452187347
 21
-101.79688247183223
 31
0.0
 11
-75.691381397066294
 21
-101.7979195574154
 31
0.0
 11
-75.687461585657132
 21
-101.79895337049749
 31
0.0
 11
-75.68355542552581
 21
-101.79998379949623
 31
0.0
 11
-75.67966332423822
 21
-101.80101073282943
 31
0.0
 11
-75.675785689360325
 21
-101.80203405891478
 31
0.0
 11
-75.671922928458017
 21
-101.80305366617009
 31
0.0
 11
-75.668075449097216
 21
-101.80406944301309
 31
0.0
 11
-75.66424365884383
 21
-101.80508127786155
 31
0.0
 11
-75.660427965263821
 21
-101.80608905913321
 31
0.0
 11
-75.656628775923039
 21
-101.80709267524584
 31
0.0
 11
-75.652846498387461
 21
-101.8080920146172
 31
0.0
 11
-75.649081540222994
 21
-101.80908696566505
 31
0.0
 11
-75.64533430899553
 21
-101.81007741680713
 31
0.0
 11
-75.641605212271031
 21
-101.8110632564612
 31
0.0
 11
-75.637894657615377
 21
-101.81204437304503
 31
0.0
 11
-75.634203052594515
 21
-101.81302065497636
 31
0.0
 11
-75.630530804774352
 21
-101.81399199067296
 31
0.0
 11
-75.62687832172081
 21
-101.81495826855259
 31
0.0
 11
-75.623246010999807
 21
-101.81591937703298
 31
0.0
 11
-75.619634280177237
 21
-101.81687520453193
 31
0.0
 11
-75.616043536819078
 21
-101.81782563946716
 31
0.0
 11
-75.612474188491205
 21
-101.81877057025642
 31
0.0
 11
-75.608926642759542
 21
-101.81970988531751
 31
0.0
 11
-75.605401307190021
 21
-101.82064347306817
 31
0.0
 11
-75.601898589348565
 21
-101.82157122192613
 31
0.0
 11
-75.598418896801064
 21
-101.82249302030917
 31
0.0
 11
-75.594962637113468
 21
-101.82340875663506
 31
0.0
 11
-75.59153021785167
 21
-101.82431831932152
 31
0.0
 11
-75.588122046581631
 21
-101.82522159678635
 31
0.0
 11
-75.584738530869217
 21
-101.82611847744727
 31
0.0
 11
-75.58138007828039
 21
-101.82700884972205
 31
0.0
 11
-75.578047096381056
 21
-101.82789260202844
 31
0.0
 11
-75.574739992737108
 21
-101.82876962278421
 31
0.0
 11
-75.571459174914509
 21
-101.82963980040712
 31
0.0
 11
-75.56820505047915
 21
-101.83050302331489
 31
0.0
 11
-75.564978026996926
 21
-101.8313591799253
 31
0.0
 11
-75.56177851203384
 21
-101.83220815865619
 31
0.0
 11
-75.558606913155742
 21
-101.83304984792514
 31
0.0
 11
-75.555463637928568
 21
-101.83388413615008
 31
0.0
 11
-75.552349093918224
 21
-101.83471091174866
 31
0.0
 11
-75.549263688690644
 21
-101.83553006313862
 31
0.0
 11
-75.546207829811749
 21
-101.83634147873784
 31
0.0
 11
-75.54318192484746
 21
-101.83714504696397
 31
0.0
 11
-75.540186381363696
 21
-101.83794065623481
 31
0.0
 11
-75.53722160692638
 21
-101.83872819496814
 31
0.0
 11
-75.534288009101431
 21
-101.83950755158162
 31
0.0
 11
-75.531385995454741
 21
-101.8402786144931
 31
0.0
 11
-75.528515973552231
 21
-101.84104127212029
 31
0.0
 11
-75.525678350959836
 21
-101.84179541288094
 31
0.0
 11
-75.522873535243519
 21
-101.84254092519289
 31
0.0
 11
-75.52010193396913
 21
-101.84327769747381
 31
0.0
 11
-75.517363954702631
 21
-101.84400561814148
 31
0.0
 11
-75.514660005009887
 21
-101.84472457561364
 31
0.0
 11
-75.511990492456889
 21
-101.84543445830811
 31
0.0
 11
-75.509355824609514
 21
-101.84613515464257
 31
0.0
 11
-75.506756409033699
 21
-101.84682655303483
 31
0.0
 11
-75.504192653295362
 21
-101.84750854190261
 31
0.0
 11
-75.501664964960412
 21
-101.84818100966372
 31
0.0
 11
-75.499173751594753
 21
-101.84884384473582
 31
0.0
 11
-75.49671942076435
 21
-101.84949693553679
 31
0.0
 11
-75.494302380035066
 21
-101.85014017048428
 31
0.0
 11
-75.491923036972878
 21
-101.85077343799614
 31
0.0
 11
-75.489581799143622
 21
-101.85139662649
 31
0.0
 11
-75.487279074113331
 21
-101.85200962438377
 31
0.0
 11
-75.485015269447857
 21
-101.8526123200951
 31
0.0
 11
-75.482790792713104
 21
-101.85320460204179
 31
0.0
 11
-75.480606051475036
 21
-101.85378635864157
 31
0.0
 11
-75.478461453299516
 21
-101.8543574783122
 31
0.0
 11
-75.476357405752537
 21
-101.85491784947149
 31
0.0
 11
-75.474294316399948
 21
-101.85546736053711
 31
0.0
 11
-75.472272592807727
 21
-101.85600589992688
 31
0.0
 11
-75.470292642541779
 21
-101.85653335605858
 31
0.0
 11
-75.468354873167968
 21
-101.85704961734987
 31
0.0
 11
-75.466459692252272
 21
-101.85755457221856
 31
0.0
 11
-75.464607507360611
 21
-101.85804810908247
 31
0.0
 11
-75.46279872605885
 21
-101.85853011635925
 31
0.0
 11
-75.461033755912979
 21
-101.8590004824667
 31
0.0
 11
-75.459313004488877
 21
-101.85945909582261
 31
0.0
 11
-75.457636879352449
 21
-101.85990584484468
 31
0.0
 11
-75.456005788069646
 21
-101.8603406179507
 31
0.0
 11
-75.454420138206373
 21
-101.8607633035584
 31
0.0
 11
-75.452880337328565
 21
-101.8611737900856
 31
0.0
 11
-75.440162535048188
 21
-101.86456512127427
 31
0.0
 11
-75.427401821100531
 21
-101.86796964979462
 31
0.0
 11
-75.414599954082021
 21
-101.87138691484162
 31
0.0
 11
-75.401758692589098
 21
-101.87481645561034
 31
0.0
 11
-75.388879795218145
 21
-101.87825781129574
 31
0.0
 11
-75.375965020565616
 21
-101.88171052109287
 31
0.0
 11
-75.363016127227908
 21
-101.88517412419672
 31
0.0
 11
-75.350034873801448
 21
-101.88864815980233
 31
0.0
 11
-75.337023018882689
 21
-101.89213216710473
 31
0.0
 11
-75.323982321068002
 21
-101.8956256852989
 31
0.0
  0
SPLINE
  5
9B
100
AcDbEntity
  8
0
  6
CONTINUOUS
 62
             7
100
AcDbSpline
210
0.0
220
0.0
230
1.0
 70
             0
 71
             3
 72
            17
 73
            13
 74
            10
 42
0.00000000001
 43
0.00000000001
 44
0.00000000001
 40
0.0
 40
0.0
 40
0.0
 40
0.0
 40
0.0937330701765641
 40
0.0937330701765641
 40
0.0937330701765641
 40
0.1848379688793002
 40
0.1848379688793002
 40
0.1848379688793002
 40
0.3464673588655587
 40
0.3464673588655587
 40
0.3464673588655587
 40
0.3568200089232303
 40
0.3568200089232303
 40
0.3568200089232303
 40
0.3568200089232303
 10
-75.839237003604808
 20
-51.59603972772743
 30
0.0
 10
-75.8637642292789
 20
-51.574798527209282
 30
0.0
 10
-75.885891861352206
 20
-51.552621897958261
 30
0.0
 10
-75.905396473836163
 20
-51.529735111199443
 30
0.0
 10
-75.925983356073971
 20
-51.505578384979117
 30
0.0
 10
-75.94357032389064
 20
-51.480721711583669
 30
0.0
 10
-75.957961361954176
 20
-51.455446799112003
 30
0.0
 10
-75.986933197464396
 20
-51.404563700656809
 30
0.0
 10
-76.002617173752242
 20
-51.352575139287751
 30
0.0
 10
-76.004328049949322
 20
-51.3018457708489
 30
0.0
 10
-76.004444707927178
 20
-51.298386732990821
 30
0.0
 10
-76.004496308621242
 20
-51.294936144096937
 30
0.0
 10
-76.004482921957333
 20
-51.291494736803656
 30
0.0
 11
-75.839237003604808
 21
-51.59603972772743
 31
0.0
 11
-75.874200218666786
 21
-51.563504514303688
 31
0.0
 11
-75.905396473836163
 21
-51.529735111199443
 31
0.0
 11
-75.934002359460521
 21
-51.493010274999982
 31
0.0
 11
-75.957961361954176
 21
-51.455446799112003
 31
0.0
 11
-75.982478531765523
 21
-51.404282792864933
 31
0.0
 11
-75.997984853013392
 21
-51.352907290418401
 31
0.0
 11
-76.004328049949322
 21
-51.3018457708489
 31
0.0
 11
-76.004454252693989
 21
-51.296663642364479
 31
0.0
 11
-76.004482921957333
 21
-51.291494736803656
 31
0.0
  0
SPLINE
  5
9A
100
AcDbEntity
  8
0
  6
CONTINUOUS
 62
             7
100
AcDbSpline
210
0.0
220
0.0
230
1.0
 70
             0
 71
             3
 72
             8
 73
             4
 74
             3
 42
0.00000000001
 43
0.00000000001
 44
0.00000000001
 40
0.0
 40
0.0
 40
0.0
 40
0.0
 40
1.0
 40
1.0
 40
1.0
 40
1.0
 10
-76.004482921957333
 20
-51.291494736803656
 30
0.0
 10
-76.003363789433934
 20
-51.003791181476231
 30
0.0
 10
-76.003363789434047
 20
-50.715111282722432
 30
0.0
 10
-76.004482921957901
 20
-50.42546933295182
 30
0.0
 11
-76.004482921957333
 21
-51.291494736803656
 31
0.0
 11
-76.003643572564897
 21
-50.859208932793933
 31
0.0
 11
-76.004482921957901
 21
-50.42546933295182
 31
0.0
  0
SPLINE
  5
99
100
AcDbEntity
  8
0
  6
CONTINUOUS
 62
             7
100
AcDbSpline
210
0.0
220
0.0
230
1.0
 70
             0
 71
             3
 72
             8
 73
             4
 74
             3
 42
0.00000000001
 43
0.00000000001
 44
0.00000000001
 40
0.0
 40
0.0
 40
0.0
 40
0.0
 40
1.0
 40
1.0
 40
1.0
 40
1.0
 10
-76.004482921957333
 20
50.425469333086767
 30
0.0
 10
-76.003363789434047
 20
50.715111282797352
 30
0.0
 10
-76.003363789434161
 20
51.003791181551037
 30
0.0
 10
-76.004482921957674
 20
51.291494736870959
 30
0.0
 11
-76.004482921957333
 21
50.425469333086767
 31
0.0
 11
-76.003643572564954
 21
50.859208932875362
 31
0.0
 11
-76.004482921957674
 21
51.291494736870959
 31
0.0
  0
SPLINE
  5
98
100
AcDbEntity
  8
0
  6
CONTINUOUS
 62
             7
100
AcDbSpline
210
0.0
220
0.0
230
1.0
 70
             0
 71
             3
 72
            35
 73
            31
 74
           271
 42
0.00000000001
 43
0.00000000001
 44
0.00000000001
 40
0.0
 40
0.0
 40
0.0
 40
0.0
 40
0.1335256012648361
 40
0.1335256012648361
 40
0.1335256012648361
 40
0.4550612175240738
 40
0.4550612175240738
 40
0.4550612175240738
 40
0.5872622166313752
 40
0.5872622166313752
 40
0.5872622166313752
 40
0.6572171734544751
 40
0.6572171734544751
 40
0.6572171734544751
 40
0.6917757227650354
 40
0.6917757227650354
 40
0.6917757227650354
 40
0.700684831103415
 40
0.700684831103415
 40
0.700684831103415
 40
0.7029039339737622
 40
0.7029039339737622
 40
0.7029039339737622
 40
0.7034363460868766
 40
0.7034363460868766
 40
0.7034363460868766
 40
0.7035583203037825
 40
0.7035583203037825
 40
0.7035583203037825
 40
0.7035933334507323
 40
0.7035933334507323
 40
0.7035933334507323
 40
0.7035933334507323
 10
-75.323982321001267
 20
101.8956256853176
 30
0.0
 10
-75.371954394633576
 20
101.8827709879311
 30
0.0
 10
-75.415282614632702
 20
101.8711969743414
 30
0.0
 10
-75.452979705759617
 20
101.861147299384
 30
0.0
 10
-75.503034269760292
 20
101.8478032432964
 30
0.0
 10
-75.628596418225584
 20
101.8143638113974
 30
0.0
 10
-75.763807301728434
 20
101.77885956405071
 30
0.0
 10
-75.792181463093812
 20
101.77140895639791
 30
0.0
 10
-75.842360558221799
 20
101.7582529763813
 30
0.0
 10
-75.89171589719524
 20
101.7454456935089
 30
0.0
 10
-75.926157085811838
 20
101.73650850344519
 30
0.0
 10
-75.947404335577403
 20
101.7310609443993
 30
0.0
 10
-75.959456866115829
 20
101.7279856651186
 30
0.0
 10
-75.973902272482292
 20
101.724299828459
 30
0.0
 10
-75.985271364561413
 20
101.7214369873622
 30
0.0
 10
-75.992970158563935
 20
101.7195507749536
 30
0.0
 10
-75.996446634707695
 20
101.71869903474111
 30
0.0
 10
-75.999535309859539
 20
101.71795808801561
 30
0.0
 10
-76.001636486141706
 20
101.7174854303761
 30
0.0
 10
-76.002659558153368
 20
101.717255291284
 30
0.0
 10
-76.003358258989692
 20
101.7171090609304
 30
0.0
 10
-76.003807573030372
 20
101.71702669040459
 30
0.0
 10
-76.004051276109067
 20
101.7169820135218
 30
0.0
 10
-76.004223753576525
 20
101.716955730935
 30
0.0
 10
-76.0043336693426
 20
101.71694553040879
 30
0.0
 10
-76.004390660368585
 20
101.7169402414637
 30
0.0
 10
-76.004430898216697
 20
101.7169392698947
 30
0.0
 10
-76.004455481498212
 20
101.716942322661
 30
0.0
 10
-76.004480361532615
 20
101.71694541227831
 30
0.0
 10
-76.004489508503752
 20
101.71695266165
 30
0.0
 10
-76.004482921957333
 20
101.71696406988301
 30
0.0
 11
-75.323982321001267
 21
101.8956256853176
 31
0.0
 11
-75.329293390737291
 21
101.89420266829063
 31
0.0
 11
-75.33456593850309
 21
101.89279026614471
 31
0.0
 11
-75.339799663346
 21
101.89138855315358
 31
0.0
 11
-75.344994264313343
 21
101.88999760359088
 31
0.0
 11
-75.350149440452427
 21
101.88861749173032
 31
0.0
 11
-75.355264890810616
 21
101.88724829184559
 31
0.0
 11
-75.360340314435177
 21
101.88589007821035
 31
0.0
 11
-75.365375410373517
 21
101.88454292509833
 31
0.0
 11
-75.370369877672928
 21
101.88320690678319
 31
0.0
 11
-75.37532341538072
 21
101.88188209753864
 31
0.0
 11
-75.380235722544242
 21
101.88056857163835
 31
0.0
 11
-75.385106498210831
 21
101.87926640335603
 31
0.0
 11
-75.389935441427795
 21
101.87797566696531
 31
0.0
 11
-75.394722251242484
 21
101.87669643674
 31
0.0
 11
-75.399466626702207
 21
101.87542878695365
 31
0.0
 11
-75.404168266854285
 21
101.87417279188003
 31
0.0
 11
-75.408826870746054
 21
101.87292852579279
 31
0.0
 11
-75.41344213742488
 21
101.87169606296564
 31
0.0
 11
-75.41801376593807
 21
101.87047547767231
 31
0.0
 11
-75.422541455332905
 21
101.86926684418641
 31
0.0
 11
-75.427024904656761
 21
101.86807023678165
 31
0.0
 11
-75.431463812956991
 21
101.86688572973179
 31
0.0
 11
-75.43585787928086
 21
101.8657133973104
 31
0.0
 11
-75.440206802675732
 21
101.86455331379125
 31
0.0
 11
-75.444510282188929
 21
101.86340555344799
 31
0.0
 11
-75.448768016867788
 21
101.86227019055437
 31
0.0
 11
-75.452979705759617
 21
101.861147299384
 31
0.0
 11
-75.454519555062816
 21
101.86073680161249
 31
0.0
 11
-75.45610522153379
 21
101.86031411329984
 31
0.0
 11
-75.457736297923759
 21
101.85987934594094
 31
0.0
 11
-75.459412376983906
 21
101.85943261103066
 31
0.0
 11
-75.461133051465438
 21
101.85897402006384
 31
0.0
 11
-75.462897914119623
 21
101.85850368453536
 31
0.0
 11
-75.464706557697568
 21
101.85802171594014
 31
0.0
 11
-75.466558574950554
 21
101.85752822577302
 31
0.0
 11
-75.468453558629747
 21
101.85702332552884
 31
0.0
 11
-75.470391101486385
 21
101.8565071267025
 31
0.0
 11
-75.472370796271676
 21
101.85597974078891
 31
0.0
 11
-75.474392235736786
 21
101.85544127928286
 31
0.0
 11
-75.476455012632968
 21
101.85489185367926
 31
0.0
 11
-75.478558719711387
 21
101.85433157547301
 31
0.0
 11
-75.48070294972328
 21
101.85376055615895
 31
0.0
 11
-75.482887295419857
 21
101.85317890723195
 31
0.0
 11
-75.485111349552326
 21
101.85258674018689
 31
0.0
 11
-75.487374704871868
 21
101.85198416651865
 31
0.0
 11
-75.489676954129692
 21
101.85137129772208
 31
0.0
 11
-75.492017690077034
 21
101.85074824529205
 31
0.0
 11
-75.494396505465104
 21
101.85011512072346
 31
0.0
 11
-75.496812993045054
 21
101.84947203551116
 31
0.0
 11
-75.49926674556815
 21
101.84881910115003
 31
0.0
 11
-75.501757355785571
 21
101.84815642913495
 31
0.0
 11
-75.504284416448542
 21
101.84748413096077
 31
0.0
 11
-75.506847520308256
 21
101.84680231812237
 31
0.0
 11
-75.50944626011588
 21
101.84611110211459
 31
0.0
 11
-75.512080228622693
 21
101.84541059443239
 31
0.0
 11
-75.514749018579877
 21
101.84470090657054
 31
0.0
 11
-75.517452222738626
 21
101.84398215002399
 31
0.0
 11
-75.520189433850163
 21
101.84325443628755
 31
0.0
 11
-75.522960244665668
 21
101.84251787685615
 31
0.0
 11
-75.52576424793638
 21
101.8417725832246
 31
0.0
 11
-75.528601036413491
 21
101.84101866688781
 31
0.0
 11
-75.531470202848197
 21
101.84025623934062
 31
0.0
 11
-75.53437133999175
 21
101.83948541207795
 31
0.0
 11
-75.537304040595288
 21
101.83870629659465
 31
0.0
 11
-75.540267897410089
 21
101.83791900438557
 31
0.0
 11
-75.543262503187293
 21
101.83712364694561
 31
0.0
 11
-75.546287450678179
 21
101.83632033576964
 31
0.0
 11
-75.549342332633884
 21
101.83550918235251
 31
0.0
 11
-75.552426741805647
 21
101.83469029818909
 31
0.0
 11
-75.555540270944689
 21
101.83386379477429
 31
0.0
 11
-75.558682512802193
 21
101.83302978360294
 31
0.0
 11
-75.561853060129366
 21
101.83218837616992
 31
0.0
 11
-75.565051505677445
 21
101.83133968397013
 31
0.0
 11
-75.568277442197598
 21
101.83048381849839
 31
0.0
 11
-75.571530462441061
 21
101.82962089124963
 31
0.0
 11
-75.574810159159043
 21
101.82875101371866
 31
0.0
 11
-75.578116125102724
 21
101.8278742974004
 31
0.0
 11
-75.581447953023329
 21
101.8269908537897
 31
0.0
 11
-75.584805235672064
 21
101.82610079438146
 31
0.0
 11
-75.588187565800098
 21
101.82520423067048
 31
0.0
 11
-75.591594536158723
 21
101.82430127415172
 31
0.0
 11
-75.59502573949905
 21
101.82339203631997
 31
0.0
 11
-75.598480768572358
 21
101.82247662867019
 31
0.0
 11
-75.601959216129828
 21
101.82155516269717
 31
0.0
 11
-75.605460674922668
 21
101.82062774989579
 31
0.0
 11
-75.608984737702102
 21
101.81969450176102
 31
0.0
 11
-75.612530997219309
 21
101.81875552978761
 31
0.0
 11
-75.616099046225472
 21
101.81781094547048
 31
0.0
 11
-75.619688477471882
 21
101.81686086030452
 31
0.0
 11
-75.623298883709666
 21
101.81590538578455
 31
0.0
 11
-75.626929857690087
 21
101.81494463340549
 31
0.0
 11
-75.630580992164298
 21
101.81397871466217
 31
0.0
 11
-75.63425187988355
 21
101.81300774104952
 31
0.0
 11
-75.637942113599024
 21
101.81203182406233
 31
0.0
 11
-75.641651286061943
 21
101.81105107519555
 31
0.0
 11
-75.645378990023531
 21
101.81006560594403
 31
0.0
 11
-75.649124818234966
 21
101.80907552780263
 31
0.0
 11
-75.652888363447445
 21
101.80808095226621
 31
0.0
 11
-75.656669218412205
 21
101.80708199082966
 31
0.0
 11
-75.660466975880425
 21
101.80607875498782
 31
0.0
 11
-75.664281228603343
 21
101.80507135623562
 31
0.0
 11
-75.668111569332126
 21
101.80405990606785
 31
0.0
 11
-75.671957590818025
 21
101.80304451597945
 31
0.0
 11
-75.67581888581222
 21
101.80202529746526
 31
0.0
 11
-75.679695047065934
 21
101.8010023620202
 31
0.0
 11
-75.683585667330362
 21
101.79997582113907
 31
0.0
 11
-75.687490339356714
 21
101.79894578631678
 31
0.0
 11
-75.691408655896197
 21
101.79791236904822
 31
0.0
 11
-75.695340209700049
 21
101.79687568082824
 31
0.0
 11
-75.699284593519394
 21
101.79583583315164
 31
0.0
 11
-75.703241400105526
 21
101.79479293751342
 31
0.0
 11
-75.707210222209596
 21
101.79374710540837
 31
0.0
 11
-75.711190652582843
 21
101.79269844833139
 31
0.0
 11
-75.715182283976475
 21
101.79164707777736
 31
0.0
 11
-75.719184709141672
 21
101.7905931052411
 31
0.0
 11
-75.723197520829657
 21
101.78953664221751
 31
0.0
 11
-75.727220311791626
 21
101.78847780020149
 31
0.0
 11
-75.73125267477883
 21
101.78741669068791
 31
0.0
 11
-75.735294202542434
 21
101.7863534251716
 31
0.0
 11
-75.73934448783362
 21
101.78528811514742
 31
0.0
 11
-75.743403123403667
 21
101.78422087211031
 31
0.0
 11
-75.747469702003727
 21
101.78315180755509
 31
0.0
 11
-75.751543816385038
 21
101.78208103297666
 31
0.0
 11
-75.755625059298794
 21
101.78100865986988
 31
0.0
 11
-75.759713023496175
 21
101.77993479972957
 31
0.0
 11
-75.763807301728434
 21
101.77885956405071
 31
0.0
 11
-75.765436521914253
 21
101.77843177889365
 31
0.0
 11
-75.767111405277049
 21
101.77799205109943
 31
0.0
 11
-75.768831039841544
 21
101.77754062465748
 31
0.0
 11
-75.770594513632503
 21
101.77707774355723
 31
0.0
 11
-75.772400914674677
 21
101.77660365178818
 31
0.0
 11
-75.774249330992802
 21
101.77611859333973
 31
0.0
 11
-75.776138850611645
 21
101.77562281220136
 31
0.0
 11
-75.778068561555941
 21
101.77511655236249
 31
0.0
 11
-75.780037551850441
 21
101.77460005781258
 31
0.0
 11
-75.782044909519897
 21
101.7740735725411
 31
0.0
 11
-75.784089722589044
 21
101.77353734053744
 31
0.0
 11
-75.786171079082663
 21
101.77299160579111
 31
0.0
 11
-75.788288067025462
 21
101.77243661229153
 31
0.0
 11
-75.79043977444222
 21
101.77187260402815
 31
0.0
 11
-75.792625289357673
 21
101.77129982499042
 31
0.0
 11
-75.794843699796559
 21
101.77071851916779
 31
0.0
 11
-75.79709409378367
 21
101.7701289305497
 31
0.0
 11
-75.799375559343687
 21
101.7695313031256
 31
0.0
 11
-75.801687184501418
 21
101.76892588088495
 31
0.0
 11
-75.804028057281585
 21
101.7683129078172
 31
0.0
 11
-75.806397265708938
 21
101.76769262791176
 31
0.0
 11
-75.808793897808215
 21
101.76706528515813
 31
0.0
 11
-75.811217041604195
 21
101.76643112354571
 31
0.0
 11
-75.8136657851216
 21
101.76579038706399
 31
0.0
 11
-75.81613921638521
 21
101.76514331970239
 31
0.0
 11
-75.818636423419733
 21
101.76449016545037
 31
0.0
 11
-75.821156494249919
 21
101.76383116829737
 31
0.0
 11
-75.823698516900535
 21
101.76316657223282
 31
0.0
 11
-75.826261579396359
 21
101.76249662124626
 31
0.0
 11
-75.8288447697621
 21
101.76182155932703
 31
0.0
 11
-75.831447176022508
 21
101.76114163046461
 31
0.0
 11
-75.83406788620232
 21
101.76045707864843
 31
0.0
 11
-75.836705988326344
 21
101.75976814786802
 31
0.0
 11
-75.839360570419259
 21
101.75907508211273
 31
0.0
 11
-75.842030720505861
 21
101.75837812537209
 31
0.0
 11
-75.844715526610855
 21
101.75767752163544
 31
0.0
 11
-75.847414076759023
 21
101.75697351489234
 31
0.0
 11
-75.850125458975128
 21
101.7562663491322
 31
0.0
 11
-75.85284876128388
 21
101.75555626834446
 31
0.0
 11
-75.855583071710043
 21
101.75484351651855
 31
0.0
 11
-75.858327478278355
 21
101.75412833764392
 31
0.0
 11
-75.861081069013593
 21
101.75341097571007
 31
0.0
 11
-75.863842931940496
 21
101.75269167470643
 31
0.0
 11
-75.866612155083786
 21
101.7519706786224
 31
0.0
 11
-75.869387826468227
 21
101.75124823144742
 31
0.0
 11
-75.872169034118599
 21
101.75052457717105
 31
0.0
 11
-75.874954866059582
 21
101.74979995978262
 31
0.0
 11
-75.877744410316012
 21
101.74907462327167
 31
0.0
 11
-75.880536754912555
 21
101.74834881162754
 31
0.0
 11
-75.883330987874018
 21
101.74762276883978
 31
0.0
 11
-75.88612619722511
 21
101.74689673889777
 31
0.0
 11
-75.88892147099061
 21
101.74617096579101
 31
0.0
 11
-75.89171589719524
 21
101.7454456935089
 31
0.0
 11
-75.894153597404241
 21
101.74481324245529
 31
0.0
 11
-75.896546744146093
 21
101.74419257040648
 31
0.0
 11
-75.898895661296706
 21
101.74358358687408
 31
0.0
 11
-75.901200672732017
 21
101.74298620136958
 31
0.0
 11
-75.903462102327879
 21
101.74240032340461
 31
0.0
 11
-75.905680273960229
 21
101.7418258624907
 31
0.0
 11
-75.907855511504962
 21
101.74126272813939
 31
0.0
 11
-75.909988138837946
 21
101.74071082986228
 31
0.0
 11
-75.912078479835131
 21
101.7401700771709
 31
0.0
 11
-75.91412685837237
 21
101.73964037957683
 31
0.0
 11
-75.916133598325601
 21
101.7391216465916
 31
0.0
 11
-75.918099023570704
 21
101.73861378772682
 31
0.0
 11
-75.920023457983589
 21
101.738116712494
 31
0.0
 11
-75.921907225440151
 21
101.73763033040474
 31
0.0
 11
-75.923750649816313
 21
101.73715455097057
 31
0.0
 11
-75.925554054987927
 21
101.73668928370307
 31
0.0
 11
-75.927317764830946
 21
101.73623443811378
 31
0.0
 11
-75.929042103221235
 21
101.73578992371429
 31
0.0
 11
-75.930727394034733
 21
101.73535565001615
 31
0.0
 11
-75.932373961147292
 21
101.7349315265309
 31
0.0
 11
-75.933982128434849
 21
101.73451746277011
 31
0.0
 11
-75.935552219773285
 21
101.73411336824536
 31
0.0
 11
-75.937084559038524
 21
101.7337191524682
 31
0.0
 11
-75.938579470106419
 21
101.73333472495015
 31
0.0
 11
-75.940037276852962
 21
101.73295999520289
 31
0.0
 11
-75.941458303153937
 21
101.73259487273779
 31
0.0
 11
-75.942842872885365
 21
101.73223926706662
 31
0.0
 11
-75.944191309923013
 21
101.73189308770074
 31
0.0
 11
-75.945503938142906
 21
101.73155624415188
 31
0.0
 11
-75.94678108142088
 21
101.73122864593151
 31
0.0
 11
-75.948023063632846
 21
101.73091020255117
 31
0.0
 11
-75.949230208654711
 21
101.73060082352251
 31
0.0
 11
-75.950402840362358
 21
101.730300418357
 31
0.0
 11
-75.951541282631752
 21
101.73000889656629
 31
0.0
 11
-75.952645859338674
 21
101.72972616766184
 31
0.0
 11
-75.953716894359161
 21
101.72945214115532
 31
0.0
 11
-75.954754711569009
 21
101.72918672655817
 31
0.0
 11
-75.955759634844171
 21
101.72892983338204
 31
0.0
 11
-75.95673198806054
 21
101.72868137113845
 31
0.0
 11
-75.957672095093997
 21
101.72844124933897
 31
0.0
 11
-75.958580279820467
 21
101.72820937749518
 31
0.0
 11
-75.959456866115829
 21
101.7279856651186
 31
0.0
 11
-75.961407570409349
 21
101.72748816666919
 31
0.0
 11
-75.963319803873716
 21
101.7270009572142
 31
0.0
 11
-75.965193231807362
 21
101.72652412332386
 31
0.0
 11
-75.967027519508619
 21
101.72605775156819
 31
0.0
 11
-75.968822332275934
 21
101.72560192851742
 31
0.0
 11
-75.970577335407654
 21
101.72515674074161
 31
0.0
 11
-75.972292194202211
 21
101.72472227481093
 31
0.0
 11
-75.973966573957966
 21
101.7242986172955
 31
0.0
 11
-75.975600139973309
 21
101.72388585476543
 31
0.0
 11
-75.977192557546644
 21
101.72348407379087
 31
0.0
 11
-75.978743491976346
 21
101.72309336094196
 31
0.0
 11
-75.98025260856086
 21
101.72271380278885
 31
0.0
 11
-75.981719572598479
 21
101.7223454859016
 31
0.0
 11
-75.983144049387676
 21
101.7219884968504
 31
0.0
 11
-75.984525704226826
 21
101.72164292220536
 31
0.0
 11
-75.985864202414277
 21
101.72130884853658
 31
0.0
 11
-75.987159209248489
 21
101.72098636241429
 31
0.0
 11
-75.988410390027781
 21
101.7206755504085
 31
0.0
 11
-75.98961741005057
 21
101.72037649908941
 31
0.0
 11
-75.990779934615261
 21
101.72008929502712
 31
0.0
 11
-75.991897629020286
 21
101.71981402479186
 31
0.0
 11
-75.992970158563935
 21
101.7195507749536
 31
0.0
 11
-75.993830851365175
 21
101.7193402392414
 31
0.0
 11
-75.994673303507426
 21
101.71913486678423
 31
0.0
 11
-75.995495432706434
 21
101.71893520444179
 31
0.0
 11
-75.996295156677874
 21
101.71874179907377
 31
0.0
 11
-75.997070393137477
 21
101.71855519753994
 31
0.0
 11
-75.997819059800918
 21
101.71837594669998
 31
0.0
 11
-75.998539074383913
 21
101.71820459341363
 31
0.0
 11
-75.999228354602167
 21
101.71804168454062
 31
0.0
 11
-75.999884818171353
 21
101.71788776694063
 31
0.0
 11
-76.000506382807202
 21
101.71774338747338
 31
0.0
 11
-76.001090966225419
 21
101.71760909299863
 31
0.0
 11
-76.001636486141706
 21
101.7174854303761
 31
0.0
 11
-76.002055304728913
 21
101.7173918781547
 31
0.0
 11
-76.002435716076803
 21
101.71730824976291
 31
0.0
 11
-76.002779031865487
 21
101.71723419449089
 31
0.0
 11
-76.003086563775071
 21
101.71716936162886
 31
0.0
 11
-76.003359623485665
 21
101.71711340046699
 31
0.0
 11
-76.003599522677391
 21
101.7170659602955
 31
0.0
 11
-76.003807573030372
 21
101.71702669040459
 31
0.0
 11
-76.003977130910869
 21
101.71699659554432
 31
0.0
 11
-76.004120791428718
 21
101.71697318177297
 31
0.0
 11
-76.004239366825431
 21
101.71695623231847
 31
0.0
 11
-76.0043336693426
 21
101.71694553040879
 31
0.0
 11
-76.004406728324597
 21
101.71694079839315
 31
0.0
 11
-76.004455481498212
 21
101.716942322661
 31
0.0
 11
-76.004481001695581
 21
101.71695007679112
 31
0.0
 11
-76.004482921957333
 21
101.71696406988301
 31
0.0
  0
SPLINE
  5
97
100
AcDbEntity
  8
0
  6
CONTINUOUS
 62
             7
100
AcDbSpline
210
0.0
220
0.0
230
1.0
 70
             0
 71
             3
 72
            20
 73
            16
 74
            11
 42
0.00000000001
 43
0.00000000001
 44
0.00000000001
 40
0.0
 40
0.0
 40
0.0
 40
0.0
 40
0.0103543898233613
 40
0.0103543898233613
 40
0.0103543898233613
 40
0.0894750641992517
 40
0.0894750641992517
 40
0.0894750641992517
 40
0.1722844429662106
 40
0.1722844429662106
 40
0.1722844429662106
 40
0.2633915271621887
 40
0.2633915271621887
 40
0.2633915271621887
 40
0.3571202994866719
 40
0.3571202994866719
 40
0.3571202994866719
 40
0.3571202994866719
 10
-76.004482921957674
 20
51.291494736870959
 30
0.0
 10
-76.004496310394984
 20
51.294936600033679
 30
0.0
 10
-76.004444694725521
 20
51.298387768127441
 30
0.0
 10
-76.00432799130067
 20
51.301847509769459
 30
0.0
 10
-76.003332483051622
 20
51.331359937079363
 30
0.0
 10
-75.997726986441648
 20
51.357781066020607
 30
0.0
 10
-75.9910389868121
 20
51.379670641263488
 30
0.0
 10
-75.98215450529085
 20
51.408749220438722
 30
0.0
 10
-75.96998289884948
 20
51.434333674345453
 30
0.0
 10
-75.957960317098923
 20
51.455448634251177
 30
0.0
 10
-75.945849234706543
 20
51.476719025622742
 30
0.0
 10
-75.929003575795605
 20
51.502034884994373
 30
0.0
 10
-75.905393683445027
 20
51.529738385504288
 30
0.0
 10
-75.888806736950414
 20
51.549201264616393
 30
0.0
 10
-75.867176182492813
 20
51.571843689124648
 30
0.0
 10
-75.839237003605263
 20
51.596039727801902
 30
0.0
 11
-76.004482921957674
 21
51.291494736870959
 31
0.0
 11
-76.004454241077482
 21
51.296664418890472
 31
0.0
 11
-76.00432799130067
 21
51.301847509769459
 31
0.0
 11
-75.999818173324073
 21
51.343617645041604
 31
0.0
 11
-75.9910389868121
 21
51.379670641263488
 31
0.0
 11
-75.975676439541502
 21
51.420545994983399
 31
0.0
 11
-75.957960317098923
 21
51.455448634251177
 31
0.0
 11
-75.935989054006299
 21
51.490181093950852
 31
0.0
 11
-75.905393683445027
 21
51.529738385504288
 31
0.0
 11
-75.876572430672496
 21
51.561114121816161
 31
0.0
 11
-75.839237003605263
 21
51.596039727801902
 31
0.0
  0
SPLINE
  5
96
100
AcDbEntity
  8
0
  6
CONTINUOUS
 62
             7
100
AcDbSpline
210
0.0
220
0.0
230
1.0
 70
             0
 71
             3
 72
            23
 73
            19
 74
            13
 42
0.00000000001
 43
0.00000000001
 44
0.00000000001
 40
0.0
 40
0.0
 40
0.0
 40
0.0
 40
0.1294022539878148
 40
0.1294022539878148
 40
0.1294022539878148
 40
0.2903066578911794
 40
0.2903066578911794
 40
0.2903066578911794
 40
0.4466468258487668
 40
0.4466468258487668
 40
0.4466468258487668
 40
0.595212703103011
 40
0.595212703103011
 40
0.595212703103011
 40
0.6965180625015078
 40
0.6965180625015078
 40
0.6965180625015078
 40
0.8551222783840204
 40
0.8551222783840204
 40
0.8551222783840204
 40
0.8551222783840204
 10
-75.323982321002973
 20
50.081787438911647
 30
0.0
 10
-75.374223023354034
 20
50.075056136966062
 30
0.0
 10
-75.417872989520902
 20
50.072741346657153
 30
0.0
 10
-75.452979705765642
 20
50.072348366082913
 30
0.0
 10
-75.508397669268788
 20
50.071728023725427
 30
0.0
 10
-75.562247256584328
 20
50.075678363589191
 30
0.0
 10
-75.613300763116854
 20
50.084108102078289
 30
0.0
 10
-75.667523249197188
 20
50.093061089031274
 30
0.0
 10
-75.718124564099753
 20
50.106989665604367
 30
0.0
 10
-75.763807301731958
 20
50.12552841578713
 30
0.0
 10
-75.813073958790142
 20
50.145521575017028
 30
0.0
 10
-75.856137397137672
 20
50.170680760093212
 30
0.0
 10
-75.891715897199219
 20
50.200242478751314
 30
0.0
 10
-75.913526436174834
 20
50.218364575407008
 30
0.0
 10
-75.938495765955736
 20
50.2430987964525
 30
0.0
 10
-75.95945686611924
 20
50.275187467357
 30
0.0
 10
-75.989419603299098
 20
50.321056453491451
 30
0.0
 10
-76.004689496161632
 20
50.372005999624662
 30
0.0
 10
-76.004482921957333
 20
50.425469333086767
 30
0.0
 11
-75.323982321002973
 21
50.081787438911647
 31
0.0
 11
-75.394156258174178
 21
50.074691031983022
 31
0.0
 11
-75.452979705765642
 21
50.072348366082913
 31
0.0
 11
-75.534776905805231
 21
50.074834453763131
 31
0.0
 11
-75.613300763116854
 21
50.084108102078289
 31
0.0
 11
-75.691756438092455
 21
50.101223597721543
 31
0.0
 11
-75.763807301731958
 21
50.12552841578713
 31
0.0
 11
-75.832894658339328
 21
50.159297237483642
 31
0.0
 11
-75.891715897199219
 21
50.200242478751314
 31
0.0
 11
-75.925904921213771
 21
50.232477507710854
 31
0.0
 11
-75.95945686611924
 21
50.275187467357
 31
0.0
 11
-75.993283385807345
 21
50.347480519974013
 31
0.0
 11
-76.004482921957333
 21
50.425469333086767
 31
0.0
  0
SPLINE
  5
95
100
AcDbEntity
  8
0
  6
CONTINUOUS
 62
             7
100
AcDbSpline
210
0.0
220
0.0
230
1.0
 70
             0
 71
             3
 72
            20
 73
            16
 74
            11
 42
0.00000000001
 43
0.00000000001
 44
0.00000000001
 40
0.0
 40
0.0
 40
0.0
 40
0.0
 40
0.1586589576600019
 40
0.1586589576600019
 40
0.1586589576600019
 40
0.2599585903196811
 40
0.2599585903196811
 40
0.2599585903196811
 40
0.4084746184637571
 40
0.4084746184637571
 40
0.4084746184637571
 40
0.7254237144887192
 40
0.7254237144887192
 40
0.7254237144887192
 40
0.8547266413287245
 40
0.8547266413287245
 40
0.8547266413287245
 40
0.8547266413287245
 10
-76.004482921957901
 20
-50.42546933295182
 30
0.0
 10
-76.004689566329262
 20
-50.371987836622907
 30
0.0
 10
-75.98940922746965
 20
-50.321022015636458
 30
0.0
 10
-75.959426615982125
 20
-50.275141167689533
 30
0.0
 10
-75.93846137663013
 20
-50.243059140435889
 30
0.0
 10
-75.913490291325843
 20
-50.218329898123898
 30
0.0
 10
-75.891677789392133
 20
-50.20021081944958
 30
0.0
 10
-75.847688973785353
 20
-50.163670453140639
 30
0.0
 10
-75.799870008322728
 20
-50.140163244682753
 30
0.0
 10
-75.763807745764097
 20
-50.125528595906637
 30
0.0
 10
-75.674698773302907
 20
-50.089366735217823
 30
0.0
 10
-75.567650031870357
 20
-50.071053492854503
 30
0.0
 10
-75.452880337280703
 20
-50.07234948318262
 30
0.0
 10
-75.417793783250318
 20
-50.072745683894141
 30
0.0
 10
-75.374178380279886
 20
-50.075062118221012
 30
0.0
 10
-75.323982321068229
 20
-50.081787438827519
 30
0.0
 11
-76.004482921957901
 21
-50.42546933295182
 31
0.0
 11
-75.993275739917095
 21
-50.34745500717743
 31
0.0
 11
-75.959426615982125
 21
-50.275141167689533
 31
0.0
 11
-75.925869926155286
 21
-50.232439887852308
 31
0.0
 11
-75.891677789392133
 21
-50.20021081944958
 31
0.0
 11
-75.824770310185059
 21
-50.1546550636033
 31
0.0
 11
-75.763807745764097
 21
-50.125528595906637
 31
0.0
 11
-75.61796681232056
 21
-50.084892345413266
 31
0.0
 11
-75.452880337280703
 21
-50.07234948318262
 31
0.0
 11
-75.394097393617443
 21
-50.07469504104445
 31
0.0
 11
-75.323982321068229
 21
-50.081787438827519
 31
0.0
  0
SPLINE
  5
94
100
AcDbEntity
  8
0
  6
CONTINUOUS
 62
             3
100
AcDbSpline
210
0.0
220
0.0
230
1.0
 70
             0
 71
             3
 72
            10
 73
             6
 74
             5
 42
0.00000000001
 43
0.00000000001
 44
0.00000000001
 40
0.0
 40
0.0
 40
0.0
 40
0.0
 40
1.0
 40
1.0
 40
2.0
 40
2.0
 40
2.0
 40
2.0
 10
-55.860014286403263
 20
-64.343718038723409
 30
0.0
 10
-55.860014286403263
 20
-64.418615767871188
 30
0.0
 10
-55.854208152479373
 20
-64.481400036072728
 30
0.0
 10
-55.832118463698507
 20
-64.570470054026373
 30
0.0
 10
-55.816212145966908
 20
-64.595234708671683
 30
0.0
 10
-55.796998851900057
 20
-64.597808801986275
 30
0.0
 11
-55.860014286403263
 21
-64.343718038723409
 31
0.0
 11
-55.855730613892511
 21
-64.446212561950588
 31
0.0
 11
-55.84316330808894
 21
-64.52593504504955
 31
0.0
 11
-55.823144248623151
 21
-64.577607266891249
 31
0.0
 11
-55.796998851900057
 21
-64.597808801986275
 31
0.0
  0
SPLINE
  5
93
100
AcDbEntity
  8
0
  6
CONTINUOUS
 62
             3
100
AcDbSpline
210
0.0
220
0.0
230
1.0
 70
             0
 71
             3
 72
            12
 73
             8
 74
             7
 42
0.00000000001
 43
0.00000000001
 44
0.00000000001
 40
0.0
 40
0.0
 40
0.0
 40
0.0
 40
1.0
 40
1.0
 40
2.0
 40
2.0
 40
3.0
 40
3.0
 40
3.0
 40
3.0
 10
-55.73060476385205
 20
-62.803198476474563
 30
0.0
 10
-55.753320701922107
 20
-62.84558699398417
 30
0.0
 10
-55.775636945688113
 20
-62.90723786856006
 30
0.0
 10
-55.8149821045672
 20
-63.056665944745653
 30
0.0
 10
-55.831318728838021
 20
-63.141813910849351
 30
0.0
 10
-55.854034666908092
 20
-63.315853895860762
 30
0.0
 10
-55.860014286403263
 20
-63.401683624737643
 30
0.0
 10
-55.860014286403263
 20
-63.47769263493899
 30
0.0
 11
-55.73060476385205
 21
-62.803198476474563
 31
0.0
 11
-55.764098403976291
 21
-62.880453121345013
 31
0.0
 11
-55.795309525127657
 21
-62.981951906652853
 31
0.0
 11
-55.822111090402046
 21
-63.100778172099112
 31
0.0
 11
-55.84267669787306
 21
-63.228833903355053
 31
0.0
 11
-55.855604730526295
 21
-63.357392387511155
 31
0.0
 11
-55.860014286403263
 21
-63.47769263493899
 31
0.0
  0
SPLINE
  5
92
100
AcDbEntity
  8
0
  6
CONTINUOUS
 62
             3
100
AcDbSpline
210
0.0
220
0.0
230
1.0
 70
             0
 71
             3
 72
            10
 73
             6
 74
             5
 42
0.00000000001
 43
0.00000000001
 44
0.00000000001
 40
0.0
 40
0.0
 40
0.0
 40
0.0
 40
1.0
 40
1.0
 40
2.0
 40
2.0
 40
2.0
 40
2.0
 10
-64.535096964739296
 20
-59.425236235878863
 30
0.0
 10
-63.583015749127412
 20
-60.249762755064687
 30
0.0
 10
-62.31544295575997
 20
-60.972457631641987
 30
0.0
 10
-59.294095705223292
 20
-62.131638274338457
 30
0.0
 10
-57.569884433620352
 20
-62.556781725389783
 30
0.0
 10
-55.73060476385205
 20
-62.803198476474563
 30
0.0
 11
-64.535096964739296
 21
-59.425236235878863
 31
0.0
 11
-62.879405301236631
 21
-60.580493168623633
 31
0.0
 11
-60.804769330491631
 21
-61.552047952990222
 31
0.0
 11
-58.390914313859327
 21
-62.302563303581188
 31
0.0
 11
-55.73060476385205
 21
-62.803198476474563
 31
0.0
  0
SPLINE
  5
91
100
AcDbEntity
  8
0
  6
CONTINUOUS
 62
             3
100
AcDbSpline
210
0.0
220
0.0
230
1.0
 70
             0
 71
             3
 72
            10
 73
             6
 74
             5
 42
0.00000000001
 43
0.00000000001
 44
0.00000000001
 40
0.0
 40
0.0
 40
0.0
 40
0.0
 40
1.0
 40
1.0
 40
2.0
 40
2.0
 40
2.0
 40
2.0
 10
-64.968109666631449
 20
-59.983248937771123
 30
0.0
 10
-63.983198064274447
 20
-60.836207405894363
 30
0.0
 10
-62.671915864239047
 20
-61.583822795457081
 30
0.0
 10
-59.546384225752817
 20
-62.782975184453448
 30
0.0
 10
-57.762717393060143
 20
-63.222778754506521
 30
0.0
 10
-55.860014286403263
 20
-63.47769263493899
 30
0.0
 11
-64.968109666631449
 21
-59.983248937771123
 31
0.0
 11
-63.255325187145978
 21
-61.178342316472587
 31
0.0
 11
-61.109150044995928
 21
-62.183398989955265
 31
0.0
 11
-58.61205864847976
 21
-62.95979418022177
 31
0.0
 11
-55.860014286403263
 21
-63.47769263493899
 31
0.0
  0
SPLINE
  5
90
100
AcDbEntity
  8
0
  6
CONTINUOUS
 62
             3
100
AcDbSpline
210
0.0
220
0.0
230
1.0
 70
             0
 71
             3
 72
            10
 73
             6
 74
             5
 42
0.00000000001
 43
0.00000000001
 44
0.00000000001
 40
0.0
 40
0.0
 40
0.0
 40
0.0
 40
1.0
 40
1.0
 40
2.0
 40
2.0
 40
2.0
 40
2.0
 10
-64.968109666631449
 20
-60.849274341555542
 30
0.0
 10
-63.983198064274447
 20
-61.702232809678783
 30
0.0
 10
-62.671915864239047
 20
-62.449848199241501
 30
0.0
 10
-59.546384225752817
 20
-63.649000588237868
 30
0.0
 10
-57.762717393060143
 20
-64.088804158290941
 30
0.0
 10
-55.860014286403263
 20
-64.343718038723409
 30
0.0
 11
-64.968109666631449
 21
-60.849274341555542
 31
0.0
 11
-63.255325187145978
 21
-62.044367720257014
 31
0.0
 11
-61.109150044995928
 21
-63.049424393739685
 31
0.0
 11
-58.61205864847976
 21
-63.82581958400619
 31
0.0
 11
-55.860014286403263
 21
-64.343718038723409
 31
0.0
  0
SPLINE
  5
8F
100
AcDbEntity
  8
0
  6
CONTINUOUS
 62
             7
100
AcDbSpline
210
0.0
220
0.0
230
1.0
 70
             0
 71
             3
 72
            14
 73
            10
 74
             7
 42
0.00000000001
 43
0.00000000001
 44
0.00000000001
 40
0.0
 40
0.0
 40
0.0
 40
0.0
 40
3.2794377097402658
 40
3.2794377097402658
 40
3.2794377097402658
 40
6.0039810083584104
 40
6.0039810083584104
 40
6.0039810083584104
 40
9.8382621138260689
 40
9.8382621138260689
 40
9.8382621138260689
 40
9.8382621138260689
 10
-55.796998851900057
 20
-64.597808801986275
 30
0.0
 10
-56.913058516642529
 20
-64.448285159049874
 30
0.0
 10
-57.991906817990973
 20
-64.233566287714893
 30
0.0
 10
-59.011545936025982
 20
-63.957565496774812
 30
0.0
 10
-59.92678783180758
 20
-63.709823445033862
 30
0.0
 10
-60.790126700663563
 20
-63.413841904721153
 30
0.0
 10
-61.587036269280922
 20
-63.073775115826152
 30
0.0
 10
-62.882201491814257
 20
-62.521086710943109
 30
0.0
 10
-63.991692268321223
 20
-61.85631444095543
 30
0.0
 10
-64.862423800093211
 20
-61.102238814564771
 30
0.0
 11
-55.796998851900057
 21
-64.597808801986275
 31
0.0
 11
-57.440430098978311
 21
-64.325116079881923
 31
0.0
 11
-59.011545936025982
 21
-63.957565496774812
 31
0.0
 11
-60.343665725340031
 21
-63.550292082733236
 31
0.0
 11
-61.587036269280922
 21
-63.073775115826152
 31
0.0
 11
-63.383892668722559
 21
-62.163527173260803
 31
0.0
 11
-64.862423800093211
 21
-61.102238814564771
 31
0.0
  0
SPLINE
  5
8E
100
AcDbEntity
  8
0
  6
CONTINUOUS
 62
             7
100
AcDbSpline
210
0.0
220
0.0
230
1.0
 70
             0
 71
             3
 72
            11
 73
             7
 74
             5
 42
0.00000000001
 43
0.00000000001
 44
0.00000000001
 40
2.8883557017964532
 40
2.8883557017964532
 40
2.8883557017964532
 40
2.8883557017964532
 40
25.868259117912601
 40
25.868259117912601
 40
25.868259117912601
 40
51.73651140641239
 40
51.73651140641239
 40
51.73651140641239
 40
51.73651140641239
 10
-26.98235344650822
 20
-56.558614354935457
 30
0.0
 10
-34.745589165114772
 20
-55.518498559322779
 30
0.0
 10
-42.310904303539132
 20
-54.504897956410453
 30
0.0
 10
-49.684828297285087
 20
-53.516937713003927
 30
0.0
 10
-58.512398248506308
 20
-52.334217608335962
 30
0.0
 10
-67.054228897261396
 20
-51.18977766815442
 30
0.0
 10
-75.323982321068229
 20
-50.081787438827519
 30
0.0
 11
-26.98235344650822
 21
-56.558614354935457
 31
0.0
 11
-38.479582768719382
 21
-55.018217701892382
 31
0.0
 11
-49.684828297285094
 21
-53.516937713003919
 31
0.0
 11
-62.713586506957043
 21
-51.77133887266281
 31
0.0
 11
-75.323982321068229
 21
-50.081787438827519
 31
0.0
  0
SPLINE
  5
8D
100
AcDbEntity
  8
0
  6
CONTINUOUS
 62
             7
100
AcDbSpline
210
0.0
220
0.0
230
1.0
 70
             0
 71
             3
 72
            11
 73
             7
 74
             5
 42
0.00000000001
 43
0.00000000001
 44
0.00000000001
 40
2.8841305473479681
 40
2.8841305473479681
 40
2.8841305473479681
 40
2.8841305473479681
 40
25.868259117880591
 40
25.868259117880591
 40
25.868259117880591
 40
51.736511406348349
 40
51.736511406348349
 40
51.736511406348349
 40
51.736511406348349
 10
-26.98235344650822
 20
56.558614355010718
 30
0.0
 10
-34.756960049895149
 20
55.51697509195435
 30
0.0
 10
-42.321660944689697
 20
54.50345677892301
 30
0.0
 10
-49.684828297251549
 20
53.516937713083742
 30
0.0
 10
-58.512398281064627
 20
52.334217604049172
 30
0.0
 10
-67.054228838338076
 20
51.189777676124443
 30
0.0
 10
-75.323982321002973
 20
50.081787438911647
 30
0.0
 11
-26.98235344650822
 21
56.558614355010718
 31
0.0
 11
-38.487880590939291
 21
55.017105960090817
 31
0.0
 11
-49.684828297251549
 21
53.516937713083742
 31
0.0
 11
-62.713586497057833
 21
51.771338874064526
 31
0.0
 11
-75.323982321002973
 21
50.081787438911647
 31
0.0
  0
SPLINE
  5
8C
100
AcDbEntity
  8
0
  6
CONTINUOUS
 62
             3
100
AcDbSpline
210
0.0
220
0.0
230
1.0
 70
             0
 71
             3
 72
            12
 73
             8
 74
             7
 42
0.00000000001
 43
0.00000000001
 44
0.00000000001
 40
0.0
 40
0.0
 40
0.0
 40
0.0
 40
1.0
 40
1.0
 40
2.0
 40
2.0
 40
3.0
 40
3.0
 40
3.0
 40
3.0
 10
-55.860014286403263
 20
63.477692635014023
 30
0.0
 10
-55.860014286403263
 20
63.401683624812563
 30
0.0
 10
-55.854034666908092
 20
63.315853895935788
 30
0.0
 10
-55.831318728838021
 20
63.14181391092427
 30
0.0
 10
-55.8149821045672
 20
63.056665944820573
 30
0.0
 10
-55.775636945688113
 20
62.907237868635093
 30
0.0
 10
-55.753320701922107
 20
62.84558699405909
 30
0.0
 10
-55.73060476385205
 20
62.803198476549483
 30
0.0
 11
-55.860014286403263
 21
63.477692635014023
 31
0.0
 11
-55.855604730526302
 21
63.357392387586138
 31
0.0
 11
-55.84267669787306
 21
63.228833903430029
 31
0.0
 11
-55.822111090402046
 21
63.100778172174046
 31
0.0
 11
-55.795309525127657
 21
62.981951906727829
 31
0.0
 11
-55.764098403976291
 21
62.880453121419983
 31
0.0
 11
-55.73060476385205
 21
62.803198476549483
 31
0.0
  0
SPLINE
  5
8B
100
AcDbEntity
  8
0
  6
CONTINUOUS
 62
             3
100
AcDbSpline
210
0.0
220
0.0
230
1.0
 70
             0
 71
             3
 72
            10
 73
             6
 74
             5
 42
0.00000000001
 43
0.00000000001
 44
0.00000000001
 40
0.0
 40
0.0
 40
0.0
 40
0.0
 40
1.0
 40
1.0
 40
2.0
 40
2.0
 40
2.0
 40
2.0
 10
-64.535096964739296
 20
59.425236235953889
 30
0.0
 10
-63.583015749127412
 20
60.249762755139614
 30
0.0
 10
-62.31544295575997
 20
60.97245763171702
 30
0.0
 10
-59.294095705223292
 20
62.131638274413383
 30
0.0
 10
-57.569884433620352
 20
62.556781725464703
 30
0.0
 10
-55.73060476385205
 20
62.803198476549483
 30
0.0
 11
-64.535096964739296
 21
59.425236235953889
 31
0.0
 11
-62.879405301236631
 21
60.580493168698624
 31
0.0
 11
-60.804769330491631
 21
61.552047953065198
 31
0.0
 11
-58.390914313859327
 21
62.302563303656115
 31
0.0
 11
-55.73060476385205
 21
62.803198476549483
 31
0.0
  0
SPLINE
  5
8A
100
AcDbEntity
  8
0
  6
CONTINUOUS
 62
             3
100
AcDbSpline
210
0.0
220
0.0
230
1.0
 70
             0
 71
             3
 72
            10
 73
             6
 74
             5
 42
0.00000000001
 43
0.00000000001
 44
0.00000000001
 40
0.0
 40
0.0
 40
0.0
 40
0.0
 40
1.0
 40
1.0
 40
2.0
 40
2.0
 40
2.0
 40
2.0
 10
-64.968109666631449
 20
59.983248937846042
 30
0.0
 10
-63.983198064274447
 20
60.836207405969283
 30
0.0
 10
-62.671915864239047
 20
61.583822795532001
 30
0.0
 10
-59.546384225752817
 20
62.782975184528368
 30
0.0
 10
-57.762717393060143
 20
63.222778754581547
 30
0.0
 10
-55.860014286403263
 20
63.477692635014023
 30
0.0
 11
-64.968109666631449
 21
59.983248937846042
 31
0.0
 11
-63.255325187145978
 21
61.178342316547514
 31
0.0
 11
-61.109150044995928
 21
62.183398990030184
 31
0.0
 11
-58.61205864847976
 21
62.95979418029674
 31
0.0
 11
-55.860014286403263
 21
63.477692635014023
 31
0.0
  0
SPLINE
  5
89
100
AcDbEntity
  8
0
  6
CONTINUOUS
 62
             3
100
AcDbSpline
210
0.0
220
0.0
230
1.0
 70
             0
 71
             3
 72
            10
 73
             6
 74
             5
 42
0.00000000001
 43
0.00000000001
 44
0.00000000001
 40
0.0
 40
0.0
 40
0.0
 40
0.0
 40
1.0
 40
1.0
 40
2.0
 40
2.0
 40
2.0
 40
2.0
 10
-64.968109666631449
 20
60.849274341630462
 30
0.0
 10
-63.983198064274447
 20
61.702232809753703
 30
0.0
 10
-62.671915864239047
 20
62.449848199316527
 30
0.0
 10
-59.546384225752817
 20
63.649000588312788
 30
0.0
 10
-57.762717393060143
 20
64.088804158365974
 30
0.0
 10
-55.860014286403263
 20
64.343718038798443
 30
0.0
 11
-64.968109666631449
 21
60.849274341630462
 31
0.0
 11
-63.255325187145978
 21
62.044367720331977
 31
0.0
 11
-61.109150044995928
 21
63.049424393814661
 31
0.0
 11
-58.61205864847976
 21
63.825819584081174
 31
0.0
 11
-55.860014286403263
 21
64.343718038798443
 31
0.0
  0
SPLINE
  5
88
100
AcDbEntity
  8
0
  6
CONTINUOUS
 62
             3
100
AcDbSpline
210
0.0
220
0.0
230
1.0
 70
             0
 71
             3
 72
            10
 73
             6
 74
             5
 42
0.00000000001
 43
0.00000000001
 44
0.00000000001
 40
0.0
 40
0.0
 40
0.0
 40
0.0
 40
1.0
 40
1.0
 40
2.0
 40
2.0
 40
2.0
 40
2.0
 10
-55.796998851900177
 20
64.597808801986162
 30
0.0
 10
-55.816212145966908
 20
64.595234708746716
 30
0.0
 10
-55.832118463698507
 20
64.570470054101406
 30
0.0
 10
-55.854208152479373
 20
64.481400036147647
 30
0.0
 10
-55.860014286403263
 20
64.418615767946221
 30
0.0
 10
-55.860014286403263
 20
64.343718038798443
 30
0.0
 11
-55.796998851900177
 21
64.597808801986162
 31
0.0
 11
-55.823144248623173
 21
64.577607266956875
 31
0.0
 11
-55.84316330808894
 21
64.525935045124527
 31
0.0
 11
-55.855730613892518
 21
64.446212562025579
 31
0.0
 11
-55.860014286403263
 21
64.343718038798443
 31
0.0
  0
SPLINE
  5
87
100
AcDbEntity
  8
0
  6
CONTINUOUS
 62
             7
100
AcDbSpline
210
0.0
220
0.0
230
1.0
 70
             0
 71
             3
 72
            20
 73
            16
 74
            11
 42
0.00000000001
 43
0.00000000001
 44
0.00000000001
 40
0.0
 40
0.0
 40
0.0
 40
0.0
 40
3.83428110546767
 40
3.83428110546767
 40
3.83428110546767
 40
5.1229887461430881
 40
5.1229887461430881
 40
5.1229887461430881
 40
6.5592346712512244
 40
6.5592346712512244
 40
6.5592346712512244
 40
8.1371814621840244
 40
8.1371814621840244
 40
8.1371814621840244
 40
9.8391123917678804
 40
9.8391123917678804
 40
9.8391123917678804
 40
9.8391123917678804
 10
-64.862423800093211
 20
61.102238814639691
 30
0.0
 10
-63.991692268322701
 20
61.856314441029213
 30
0.0
 10
-62.882201491816197
 20
62.521086711017233
 30
0.0
 10
-61.587036269280922
 20
63.073775115901192
 30
0.0
 10
-61.169369379628733
 20
63.252006929880046
 30
0.0
 10
-60.763853436367178
 20
63.40515729070205
 30
0.0
 10
-60.384393758396747
 20
63.53626953343985
 30
0.0
 10
-59.984347201190978
 20
63.674495027108257
 30
0.0
 10
-59.526889079051656
 20
63.818069951254301
 30
0.0
 10
-59.011545936025982
 20
63.957565496849732
 30
0.0
 10
-58.465778072313583
 20
64.105296551288461
 30
0.0
 10
-57.947826723046198
 20
64.223349630803114
 30
0.0
 10
-57.475560624302943
 20
64.318094352711569
 30
0.0
 10
-56.927310258013897
 20
64.428082828760466
 30
0.0
 10
-56.366794118792193
 20
64.521470711253755
 30
0.0
 10
-55.796998851900177
 20
64.597808801986162
 30
0.0
 11
-64.862423800093211
 21
61.102238814639691
 31
0.0
 11
-63.38389266872386
 21
62.163527173335027
 31
0.0
 11
-61.587036269280922
 21
63.073775115901192
 31
0.0
 11
-60.97138730945818
 21
63.322692163885918
 31
0.0
 11
-60.384393758396747
 21
63.53626953343985
 31
0.0
 11
-59.741206066893831
 21
63.746441245672159
 31
0.0
 11
-59.011545936025982
 21
63.957565496849732
 31
0.0
 11
-58.215990118301036
 21
64.157699799479502
 31
0.0
 11
-57.475560624302943
 21
64.318094352711569
 31
0.0
 11
-56.644359075827673
 21
64.470570471842549
 31
0.0
 11
-55.796998851900177
 21
64.597808801986162
 31
0.0
  0
SPLINE
  5
86
100
AcDbEntity
  8
0
  6
CONTINUOUS
 62
             7
100
AcDbSpline
210
0.0
220
0.0
230
1.0
 70
             0
 71
             3
 72
            11
 73
             7
 74
             5
 42
0.00000000001
 43
0.00000000001
 44
0.00000000001
 40
2.9592650730885941
 40
2.9592650730885941
 40
2.9592650730885941
 40
2.9592650730885941
 40
26.543685649729831
 40
26.543685649729831
 40
26.543685649729831
 40
53.087371314652643
 40
53.087371314652643
 40
53.087371314652643
 40
53.087371314652643
 10
-26.98235344650822
 20
114.8492795175154
 30
0.0
 10
-34.757408892307119
 20
112.76588071988201
 30
0.0
 10
-42.322085887146827
 20
110.7388504975395
 30
0.0
 10
-49.684828297251663
 20
108.7659262336615
 30
0.0
 10
-58.508555825317323
 20
106.40151564202139
 30
0.0
 10
-67.050629917493211
 20
104.11257053411479
 30
0.0
 10
-75.323982321001267
 20
101.8956256853176
 30
0.0
 11
-26.98235344650822
 21
114.8492795175154
 31
0.0
 11
-38.48820826026521
 21
111.76617492543016
 31
0.0
 11
-49.684828297251663
 21
108.7659262336615
 31
0.0
 11
-62.710795980835577
 21
105.27547630592348
 31
0.0
 11
-75.323982321001267
 21
101.8956256853176
 31
0.0
  0
SPLINE
  5
85
100
AcDbEntity
  8
0
  6
CONTINUOUS
 62
             7
100
AcDbSpline
210
0.0
220
0.0
230
1.0
 70
             0
 71
             3
 72
            11
 73
             7
 74
             5
 42
0.00000000001
 43
0.00000000001
 44
0.00000000001
 40
2.9592650857644358
 40
2.9592650857644358
 40
2.9592650857644358
 40
2.9592650857644358
 40
26.543685649764381
 40
26.543685649764381
 40
26.543685649764381
 40
53.08737131471991
 40
53.08737131471991
 40
53.08737131471991
 40
53.08737131471991
 10
-26.98235344650822
 20
-114.8492795175145
 30
0.0
 10
-34.757408864039569
 20
-112.76588072745569
 30
0.0
 10
-42.322085900778227
 20
-110.7388504938862
 30
0.0
 10
-49.684828297286792
 20
-108.7659262336513
 30
0.0
 10
-58.5123983481352
 20
-106.4004859976191
 30
0.0
 10
-67.054228940694543
 20
-104.11160613231429
 30
0.0
 10
-75.323982321068002
 20
-101.8956256852989
 30
0.0
 11
-26.98235344650822
 21
-114.8492795175145
 31
0.0
 11
-38.48820825478105
 21
-111.76617492689894
 31
0.0
 11
-49.684828297286792
 21
-108.7659262336513
 31
0.0
 11
-62.713586560605499
 21
-105.27472853859381
 31
0.0
 11
-75.323982321068002
 21
-101.8956256852989
 31
0.0
  0
ARC
  5
84
100
AcDbEntity
  8
0
  6
CONTINUOUS
 62
             7
100
AcDbCircle
 10
-26.48235344650822
 20
137.5959084761196
 40
0.50000000000001
100
AcDbArc
 50
100.00000000000503
 51
180.0
  0
ARC
  5
83
100
AcDbEntity
  8
0
  6
CONTINUOUS
 62
             7
100
AcDbCircle
 10
-26.48235344650822
 20
-137.5959084761196
 40
0.5
100
AcDbArc
 50
180.0
 51
-100.00000000000503
  0
ARC
  5
82
100
AcDbEntity
  8
0
  6
CONTINUOUS
 62
             7
100
AcDbCircle
 10
-24.51273794048381
 20
137.94320483145361
 40
0.49999999999994
100
AcDbArc
 50
10.00000000000309
 51
100.00000000000558
  0
ARC
  5
81
100
AcDbEntity
  8
0
  6
CONTINUOUS
 62
             7
100
AcDbCircle
 10
-24.51273794048381
 20
-137.94320483145361
 40
0.49999999999998
100
AcDbArc
 50
-100.00000000000558
 51
-10.00000000000309
  0
ARC
  5
80
100
AcDbEntity
  8
0
  6
CONTINUOUS
 62
             7
100
AcDbCircle
 10
-51.97772860986492
 20
-113.3325232794016
 40
14.99999999999996
100
AcDbArc
 50
-149.99999999999991
 51
-105.00000000000219
  0
ARC
  5
7F
100
AcDbEntity
  8
0
  6
CONTINUOUS
 62
             3
100
AcDbCircle
 10
-51.97772860986492
 20
-113.3325232794016
 40
14.50000000000001
100
AcDbArc
 50
-150.00000000000003
 51
-105.00000000000242
  0
ARC
  5
7E
100
AcDbEntity
  8
0
  6
CONTINUOUS
 62
             7
100
AcDbCircle
 10
-22.01663014307166
 20
115.14891833546849
 40
2.0
100
AcDbArc
 50
0.0
 51
9.99999999999863
  0
ARC
  5
7D
100
AcDbEntity
  8
0
  6
CONTINUOUS
 62
             3
100
AcDbCircle
 10
-51.97772860986492
 20
113.3325232794016
 40
14.49999999999997
100
AcDbArc
 50
105.00000000000242
 51
150.00000000000003
  0
ARC
  5
7C
100
AcDbEntity
  8
0
  6
CONTINUOUS
 62
             7
100
AcDbCircle
 10
-51.97772860986492
 20
113.3325232794016
 40
14.99999999999996
100
AcDbArc
 50
105.0000000000026
 51
149.99999999999991
  0
ARC
  5
7B
100
AcDbEntity
  8
0
  6
CONTINUOUS
 62
             7
100
AcDbCircle
 10
-75.00364357256501
 20
96.80998615605665
 40
4.99999999999993
100
AcDbArc
 50
105.00000000000142
 51
180.0
  0
ARC
  5
7A
100
AcDbEntity
  8
0
  6
CONTINUOUS
 62
             7
100
AcDbCircle
 10
-75.00364357256501
 20
-96.80998615605665
 40
5.0
100
AcDbArc
 50
180.0
 51
-105.00000000000142
  0
ARC
  5
79
100
AcDbEntity
  8
0
  6
CONTINUOUS
 62
             7
100
AcDbCircle
 10
-22.01663014307166
 20
-115.14891833546849
 40
1.99999999999998
100
AcDbArc
 50
-9.99999999999863
 51
0.0
  0
LINE
  5
78
100
AcDbEntity
  8
1
  6
DOT_CENTER
 62
             2
100
AcDbLine
 10
-76.29773879807772
 20
0.0
 11
-76.0036435725649
 21
0.0
  0
LINE
  5
77
100
AcDbEntity
  8
1
  6
DOT_CENTER
 62
             2
100
AcDbLine
 10
-84.27653421143168
 20
-0.00000000000034
 11
3.44412855276039
 21
-0.00000000000011
  0
LINE
  5
76
100
AcDbEntity
  8
0
  6
CONTINUOUS
 62
             3
100
AcDbLine
 10
-24.59956202931732
 20
-138.43560870795969
 11
-24.59956202931732
 21
138.43560870795969
  0
LINE
  5
75
100
AcDbEntity
  8
0
  6
CONTINUOUS
 62
             3
100
AcDbLine
 10
-26.56917753534173
 20
138.08831235262571
 11
-26.56917753534173
 21
-138.08831235262571
  0
LINE
  5
74
100
AcDbEntity
  8
0
  6
CONTINUOUS
 62
             7
100
AcDbLine
 10
-26.98235344650822
 20
-135.55915657508839
 11
-26.98235344650822
 21
-137.5959084761196
  0
LINE
  5
73
100
AcDbEntity
  8
0
  6
CONTINUOUS
 62
             7
100
AcDbLine
 10
-26.98235344650822
 20
137.5959084761196
 11
-26.98235344650822
 21
135.55915657508839
  0
LINE
  5
72
100
AcDbEntity
  8
0
  6
CONTINUOUS
 62
             7
100
AcDbLine
 10
-26.98235344650822
 20
135.55915657508839
 11
-26.98235344650822
 21
68.45823928526875
  0
LINE
  5
71
100
AcDbEntity
  8
0
  6
CONTINUOUS
 62
             7
100
AcDbLine
 10
-26.56917753534173
 20
-138.08831235262571
 11
-24.59956202931732
 21
-138.43560870795969
  0
LINE
  5
70
100
AcDbEntity
  8
0
  6
CONTINUOUS
 62
             7
100
AcDbLine
 10
-26.56917753534173
 20
138.08831235262571
 11
-24.59956202931732
 21
138.43560870795969
  0
LINE
  5
6F
100
AcDbEntity
  8
0
  6
CONTINUOUS
 62
             3
100
AcDbLine
 10
-24.02033406397777
 20
-138.03002892028709
 11
-24.02033406397777
 21
138.03002892028709
  0
LINE
  5
6E
100
AcDbEntity
  8
0
  6
CONTINUOUS
 62
             7
100
AcDbLine
 10
-26.98235344650822
 20
-68.45823928526886
 11
-26.98235344650822
 21
-135.55915657508839
  0
LINE
  5
6D
100
AcDbEntity
  8
0
  6
CONTINUOUS
 62
             7
100
AcDbLine
 10
-26.98235344650822
 20
-135.55915657508839
 11
-55.86001428640326
 21
-127.8214106737374
  0
LINE
  5
6C
100
AcDbEntity
  8
0
  6
CONTINUOUS
 62
             3
100
AcDbLine
 10
-55.73060476385205
 20
-127.3384477605929
 11
-55.86001428640326
 21
-127.8214106737374
  0
LINE
  5
6B
100
AcDbEntity
  8
0
  6
CONTINUOUS
 62
             3
100
AcDbLine
 10
-64.5350969647393
 20
-120.5825232794016
 11
-64.96810966663145
 21
-120.8325232794016
  0
LINE
  5
6A
100
AcDbEntity
  8
0
  6
CONTINUOUS
 62
             3
100
AcDbLine
 10
-64.5350969647393
 20
-120.5825232794016
 11
-75.323982321068
 21
-101.8956256852989
  0
LINE
  5
69
100
AcDbEntity
  8
0
  6
CONTINUOUS
 62
             7
100
AcDbLine
 10
-64.96810966663145
 20
-120.8325232794016
 11
-76.0036435725649
 21
-101.7184178656759
  0
LINE
  5
68
100
AcDbEntity
  8
0
  6
CONTINUOUS
 62
             3
100
AcDbLine
 10
-26.98235344650822
 20
-135.04151848488331
 11
-55.73060476385205
 21
-127.3384477605929
  0
LINE
  5
67
100
AcDbEntity
  8
0
  6
CONTINUOUS
 62
             3
100
AcDbLine
 10
-20.04701463704725
 20
0.0
 11
-20.04701463704725
 21
115.4962146908023
  0
LINE
  5
66
100
AcDbEntity
  8
0
  6
CONTINUOUS
 62
             7
100
AcDbLine
 10
-20.04701463704725
 20
115.4962146908023
 11
-24.02033406397777
 21
138.03002892028709
  0
LINE
  5
65
100
AcDbEntity
  8
0
  6
CONTINUOUS
 62
             3
100
AcDbLine
 10
-55.86001428640338
 20
127.8214106737374
 11
-55.73060476385205
 21
127.3384477605929
  0
LINE
  5
64
100
AcDbEntity
  8
0
  6
CONTINUOUS
 62
             3
100
AcDbLine
 10
-75.32398232100127
 20
101.8956256853176
 11
-64.5350969647393
 21
120.5825232794016
  0
LINE
  5
63
100
AcDbEntity
  8
0
  6
CONTINUOUS
 62
             3
100
AcDbLine
 10
-64.96810966663145
 20
120.8325232794016
 11
-64.5350969647393
 21
120.5825232794016
  0
LINE
  5
62
100
AcDbEntity
  8
0
  6
CONTINUOUS
 62
             7
100
AcDbLine
 10
-76.0036435725649
 20
101.7184178656759
 11
-64.96810966663145
 21
120.8325232794016
  0
LINE
  5
61
100
AcDbEntity
  8
0
  6
CONTINUOUS
 62
             3
100
AcDbLine
 10
-55.73060476385205
 20
127.3384477605929
 11
-26.98235344650822
 21
135.04151848488331
  0
LINE
  5
60
100
AcDbEntity
  8
0
  6
CONTINUOUS
 62
             7
100
AcDbLine
 10
-55.86001428640338
 20
127.8214106737374
 11
-26.98235344650822
 21
135.55915657508839
  0
LINE
  5
5F
100
AcDbEntity
  8
0
  6
CONTINUOUS
 62
             3
100
AcDbLine
 10
-64.96810966663145
 20
59.98324893784604
 11
-64.96810966663145
 21
60.84927434163046
  0
LINE
  5
5E
100
AcDbEntity
  8
0
  6
CONTINUOUS
 62
             3
100
AcDbLine
 10
-75.32398232100297
 20
50.08178743891165
 11
-64.5350969647393
 21
59.42523623595389
  0
LINE
  5
5D
100
AcDbEntity
  8
0
  6
CONTINUOUS
 62
             3
100
AcDbLine
 10
-76.00448292195733
 20
50.42546933308677
 11
-64.96810966663145
 21
59.98324893784604
  0
LINE
  5
5C
100
AcDbEntity
  8
0
  6
CONTINUOUS
 62
             7
100
AcDbLine
 10
-64.86242380009321
 20
61.10223881463969
 11
-75.83923700360526
 21
51.5960397278019
  0
LINE
  5
5B
100
AcDbEntity
  8
0
  6
CONTINUOUS
 62
             3
100
AcDbLine
 10
-64.96810966663145
 20
60.84927434163046
 11
-76.00448292195767
 21
51.29149473687096
  0
LINE
  5
5A
100
AcDbEntity
  8
0
  6
CONTINUOUS
 62
             3
100
AcDbLine
 10
-64.5350969647393
 20
-59.42523623587886
 11
-75.32398232106823
 21
-50.08178743882752
  0
LINE
  5
59
100
AcDbEntity
  8
0
  6
CONTINUOUS
 62
             3
100
AcDbLine
 10
-64.96810966663145
 20
-60.84927434155554
 11
-64.96810966663145
 21
-59.98324893777112
  0
LINE
  5
58
100
AcDbEntity
  8
0
  6
CONTINUOUS
 62
             3
100
AcDbLine
 10
-76.00448292195733
 20
-51.29149473680366
 11
-64.96810966663145
 21
-60.84927434155554
  0
LINE
  5
57
100
AcDbEntity
  8
0
  6
CONTINUOUS
 62
             3
100
AcDbLine
 10
-64.96810966663145
 20
-59.98324893777112
 11
-76.0044829219579
 21
-50.42546933295182
  0
LINE
  5
56
100
AcDbEntity
  8
0
  6
CONTINUOUS
 62
             7
100
AcDbLine
 10
-75.83923700360481
 20
-51.59603972772743
 11
-64.86242380009321
 21
-61.10223881456477
  0
LINE
  5
55
100
AcDbEntity
  8
0
  6
CONTINUOUS
 62
             7
100
AcDbLine
 10
-80.00364357256501
 20
0.0
 11
-80.00364357256501
 21
-96.80998615605665
  0
LINE
  5
54
100
AcDbEntity
  8
0
  6
CONTINUOUS
 62
             7
100
AcDbLine
 10
-80.00364357256501
 20
96.80998615605665
 11
-80.00364357256501
 21
0.0
  0
LINE
  5
53
100
AcDbEntity
  8
0
  6
CONTINUOUS
 62
             7
100
AcDbLine
 10
-76.29773879807772
 20
101.6396152875019
 11
-76.0036435725649
 21
101.7184178656759
  0
LINE
  5
52
100
AcDbEntity
  8
0
  6
CONTINUOUS
 62
             7
100
AcDbLine
 10
-76.0036435725649
 20
-101.7184178656759
 11
-76.00448292195767
 21
-101.71696406988249
  0
LINE
  5
51
100
AcDbEntity
  8
0
  6
CONTINUOUS
 62
             7
100
AcDbLine
 10
-76.29773879807772
 20
-101.6396152875019
 11
-76.0036435725649
 21
-101.7184178656759
  0
LINE
  5
50
100
AcDbEntity
  8
0
  6
CONTINUOUS
 62
             3
100
AcDbLine
 10
-76.29773879807772
 20
0.0
 11
-76.29773879807772
 21
-101.6396152875019
  0
LINE
  5
4F
100
AcDbEntity
  8
0
  6
CONTINUOUS
 62
             3
100
AcDbLine
 10
-76.29773879807772
 20
101.6396152875019
 11
-76.29773879807772
 21
0.0
  0
LINE
  5
4E
100
AcDbEntity
  8
0
  6
CONTINUOUS
 62
             7
100
AcDbLine
 10
-76.00448292195733
 20
101.71696406988301
 11
-76.0036435725649
 21
101.7184178656759
  0
LINE
  5
4D
100
AcDbEntity
  8
0
  6
CONTINUOUS
 62
             7
100
AcDbLine
 10
-26.98235344650822
 20
68.45823928526875
 11
-26.98235344650822
 21
-68.45823928526886
  0
LINE
  5
4C
100
AcDbEntity
  8
0
  6
CONTINUOUS
 62
             7
100
AcDbLine
 10
-55.79699885190006
 20
-64.59780880198628
 11
-26.98235344650822
 21
-68.45823928526886
  0
LINE
  5
4B
100
AcDbEntity
  8
0
  6
CONTINUOUS
 62
             3
100
AcDbLine
 10
-26.98235344650822
 20
-66.65473383861979
 11
-55.73060476385205
 21
-62.80319847647456
  0
LINE
  5
4A
100
AcDbEntity
  8
0
  6
CONTINUOUS
 62
             3
100
AcDbLine
 10
-26.98235344650822
 20
-67.34656558561449
 11
-55.86001428640326
 21
-63.47769263493899
  0
LINE
  5
49
100
AcDbEntity
  8
0
  6
CONTINUOUS
 62
             3
100
AcDbLine
 10
-55.86001428640326
 20
-64.34371803872341
 11
-55.86001428640326
 21
-63.47769263493899
  0
LINE
  5
48
100
AcDbEntity
  8
0
  6
CONTINUOUS
 62
             3
100
AcDbLine
 10
-55.86001428640326
 20
-64.34371803872341
 11
-26.98235344650822
 21
-68.21259098939891
  0
LINE
  5
47
100
AcDbEntity
  8
0
  6
CONTINUOUS
 62
             3
100
AcDbLine
 10
-26.98235344650822
 20
68.21259098947394
 11
-55.86001428640326
 21
64.34371803879844
  0
LINE
  5
46
100
AcDbEntity
  8
0
  6
CONTINUOUS
 62
             7
100
AcDbLine
 10
-55.79699885190018
 20
64.59780880198616
 11
-26.98235344650822
 21
68.45823928526875
  0
LINE
  5
45
100
AcDbEntity
  8
0
  6
CONTINUOUS
 62
             3
100
AcDbLine
 10
-55.73060476385205
 20
62.80319847654948
 11
-26.98235344650822
 21
66.65473383869471
  0
LINE
  5
44
100
AcDbEntity
  8
0
  6
CONTINUOUS
 62
             3
100
AcDbLine
 10
-55.86001428640326
 20
63.47769263501402
 11
-26.98235344650822
 21
67.34656558568952
  0
LINE
  5
43
100
AcDbEntity
  8
0
  6
CONTINUOUS
 62
             3
100
AcDbLine
 10
-55.86001428640326
 20
63.47769263501402
 11
-55.86001428640326
 21
64.34371803879844
  0
LINE
  5
42
100
AcDbEntity
  8
0
  6
CONTINUOUS
 62
             7
100
AcDbLine
 10
-20.01663014307166
 20
-115.14891833546849
 11
-20.01663014307166
 21
115.14891833546849
  0
LINE
  5
41
100
AcDbEntity
  8
0
  6
CONTINUOUS
 62
             3
100
AcDbLine
 10
-20.04701463704725
 20
-115.4962146908023
 11
-20.04701463704725
 21
0.0
  0
LINE
  5
40
100
AcDbEntity
  8
0
  6
CONTINUOUS
 62
             7
100
AcDbLine
 10
-20.04701463704725
 20
-115.4962146908023
 11
-24.02033406397777
 21
-138.03002892028709
  0
LINE
  5
3F
100
AcDbEntity
  8
1
  6
DOT_CENTER
 62
             2
100
AcDbLine
 10
-86.00364357256501
 20
-80.00000000000034
 11
-83.00364357256501
 21
-80.00000000000034
  0
LINE
  5
3E
100
AcDbEntity
  8
1
  6
DOT_CENTER
 62
             2
100
AcDbLine
 10
-83.00364357256501
 20
79.99999999999989
 11
-86.00364357256501
 21
79.99999999999989
  0
ENDBLK
  5
A1
100
AcDbEntity
  8
0
100
AcDbBlockEnd
  0
BLOCK
  5
2A
100
AcDbEntity
  8
0
100
AcDbBlockBegin
  2
DICHTUNGDN160
 70
             0
 10
744.83268068315385
 20
664.71475977448097
 30
0.0
  3
DICHTUNGDN160
  1

  0
ARC
  5
B5
100
AcDbEntity
  8
0
  6
CONTINUOUS
 62
             7
100
AcDbCircle
 10
-10.83370175961375
 20
91.5
 40
1.99999999999992
100
AcDbArc
 50
-154.99999999999929
 51
-90.0
  0
ARC
  5
B4
100
AcDbEntity
  8
0
  6
CONTINUOUS
 62
             7
100
AcDbCircle
 10
-19.25680867958363
 20
93.0
 40
5.00000000000007
100
AcDbArc
 50
24.99999999999932
 51
90.0
  0
ARC
  5
B3
100
AcDbEntity
  8
0
  6
CONTINUOUS
 62
             7
100
AcDbCircle
 10
-19.25680867958363
 20
-93.0
 40
5.0
100
AcDbArc
 50
-90.0
 51
-24.99999999999932
  0
ARC
  5
B2
100
AcDbEntity
  8
0
  6
CONTINUOUS
 62
             7
100
AcDbCircle
 10
-10.83370175961375
 20
-91.5
 40
2.0
100
AcDbArc
 50
90.0
 51
154.99999999999929
  0
LINE
  5
B1
100
AcDbEntity
  8
0
  6
CONTINUOUS
 62
             7
100
AcDbLine
 10
0.0
 20
0.0
 11
0.0
 21
-192.0
  0
LINE
  5
B0
100
AcDbEntity
  8
0
  6
CONTINUOUS
 62
             3
100
AcDbLine
 10
-10.83370175961375
 20
-89.5
 11
-10.83370175961375
 21
0.0
  0
LINE
  5
AF
100
AcDbEntity
  8
0
  6
CONTINUOUS
 62
             3
100
AcDbLine
 10
-14.72526974440029
 20
95.11309130870347
 11
-14.72526974440029
 21
0.0
  0
LINE
  5
AE
100
AcDbEntity
  8
0
  6
CONTINUOUS
 62
             3
100
AcDbLine
 10
-19.25680867958363
 20
98.0
 11
-19.25680867958363
 21
0.0
  0
LINE
  5
AD
100
AcDbEntity
  8
0
  6
CONTINUOUS
 62
             3
100
AcDbLine
 10
-12.64631733368697
 20
0.0
 11
-12.64631733368697
 21
90.65476347651861
  0
LINE
  5
AC
100
AcDbEntity
  8
0
  6
CONTINUOUS
 62
             3
100
AcDbLine
 10
-10.83370175961375
 20
0.0
 11
-10.83370175961375
 21
89.5
  0
LINE
  5
AB
100
AcDbEntity
  8
0
  6
CONTINUOUS
 62
             7
100
AcDbLine
 10
-12.64631733368697
 20
90.65476347651861
 11
-14.72526974440029
 21
95.11309130870347
  0
LINE
  5
AA
100
AcDbEntity
  8
0
  6
CONTINUOUS
 62
             7
100
AcDbLine
 10
-20.01663014307166
 20
98.0
 11
-19.25680867958363
 21
98.0
  0
LINE
  5
A9
100
AcDbEntity
  8
0
  6
CONTINUOUS
 62
             7
100
AcDbLine
 10
-9.0
 20
89.5
 11
-10.83370175961375
 21
89.5
  0
LINE
  5
A8
100
AcDbEntity
  8
0
  6
CONTINUOUS
 62
             7
100
AcDbLine
 10
-9.0
 20
-89.5
 11
-10.83370175961375
 21
-89.5
  0
LINE
  5
A7
100
AcDbEntity
  8
0
  6
CONTINUOUS
 62
             7
100
AcDbLine
 10
0.0
 20
192.00000000000011
 11
0.0
 21
0.0
  0
LINE
  5
A6
100
AcDbEntity
  8
0
  6
CONTINUOUS
 62
             7
100
AcDbLine
 10
-20.01663014307166
 20
-98.0
 11
-19.25680867958363
 21
-98.0
  0
LINE
  5
A5
100
AcDbEntity
  8
0
  6
CONTINUOUS
 62
             7
100
AcDbLine
 10
-12.64631733368697
 20
-90.65476347651861
 11
-14.72526974440029
 21
-95.11309130870347
  0
LINE
  5
A4
100
AcDbEntity
  8
0
  6
CONTINUOUS
 62
             3
100
AcDbLine
 10
-19.25680867958363
 20
0.0
 11
-19.25680867958363
 21
-98.0
  0
LINE
  5
A3
100
AcDbEntity
  8
0
  6
CONTINUOUS
 62
             3
100
AcDbLine
 10
-14.72526974440029
 20
0.0
 11
-14.72526974440029
 21
-95.11309130870347
  0
LINE
  5
A2
100
AcDbEntity
  8
0
  6
CONTINUOUS
 62
             3
100
AcDbLine
 10
-12.64631733368697
 20
-90.65476347651861
 11
-12.64631733368697
 21
0.0
  0
ENDBLK
  5
B6
100
AcDbEntity
  8
0
100
AcDbBlockEnd
  0
BLOCK
  5
B9
100
AcDbEntity
  8
0
100
AcDbBlockBegin
  2
*D3
 70
             1
 10
0.0
 20
0.0
 30
0.0
  3
*D3
  1

  0
LINE
  5
BA
100
AcDbEntity
  8
0
  6
CONTINUOUS
 62
             4
100
AcDbLine
 10
-80.00364357256501
 20
-257.12557856272804
 11
0.0
 21
-257.12557856272804
  0
LINE
  5
BB
100
AcDbEntity
  8
0
  6
CONTINUOUS
 62
             4
100
AcDbLine
 10
0.0
 20
-191.99999999999997
 11
0.0
 21
-259.12557856272804
  0
LINE
  5
BC
100
AcDbEntity
  8
0
  6
CONTINUOUS
 62
             4
100
AcDbLine
 10
-80.00364357256501
 20
-96.8099861560566
 11
-80.00364357256501
 21
-259.12557856272804
  0
SOLID
  5
BD
100
AcDbEntity
  8
0
 62
             4
100
AcDbTrace
 10
-73.00364357256501
 20
-256.20401107961629
 11
-73.00364357256501
 21
-258.04714604583978
 12
-80.00364357256501
 22
-257.12557856272804
 13
-80.00364357256501
 23
-257.12557856272804
  0
SOLID
  5
BE
100
AcDbEntity
  8
0
 62
             4
100
AcDbTrace
 10
-7.0
 20
-258.04714604583978
 11
-7.0
 21
-256.20401107961629
 12
0.0
 22
-257.12557856272804
 13
0.0
 23
-257.12557856272804
  0
MTEXT
  5
C0
100
AcDbEntity
  8
0
 62
             1
100
AcDbMText
 10
-44.9172118338973
 20
-255.12557856272801
 30
0.0
 40
7.0
 41
0.0
 71
             7
 72
             1
  1
80
  7
CONVERTER_1
 11
0.99999999999706
 21
0.00000242406841
 31
0.0
  0
ENDBLK
  5
C1
100
AcDbEntity
  8
0
100
AcDbBlockEnd
  0
BLOCK
  5
C5
100
AcDbEntity
  8
0
100
AcDbBlockBegin
  2
*D4
 70
             1
 10
0.0
 20
0.0
 30
0.0
  3
*D4
  1

  0
LINE
  5
C6
100
AcDbEntity
  8
0
  6
CONTINUOUS
 62
             4
100
AcDbLine
 10
-96.0036435725648
 20
79.99999999999989
 11
-96.0036435725648
 21
-80.00000000000034
  0
LINE
  5
C7
100
AcDbEntity
  8
0
  6
CONTINUOUS
 62
             4
100
AcDbLine
 10
-86.003643572565
 20
-80.00000000000034
 11
-98.0036435725648
 21
-80.00000000000034
  0
LINE
  5
C8
100
AcDbEntity
  8
0
  6
CONTINUOUS
 62
             4
100
AcDbLine
 10
-86.003643572565
 20
79.99999999999989
 11
-98.0036435725648
 21
79.99999999999989
  0
SOLID
  5
C9
100
AcDbEntity
  8
0
 62
             4
100
AcDbTrace
 10
-95.08207608945303
 20
72.99999999999989
 11
-96.92521105567657
 21
72.99999999999989
 12
-96.0036435725648
 22
79.99999999999989
 13
-96.0036435725648
 23
79.99999999999989
  0
SOLID
  5
CA
100
AcDbEntity
  8
0
 62
             4
100
AcDbTrace
 10
-96.92521105567657
 20
-73.00000000000034
 11
-95.08207608945303
 21
-73.00000000000034
 12
-96.0036435725648
 22
-80.00000000000034
 13
-96.0036435725648
 23
-80.00000000000034
  0
MTEXT
  5
CB
100
AcDbEntity
  8
0
 62
             1
100
AcDbMText
 10
-98.0036435725648
 20
-10.00454323995123
 30
0.0
 40
7.0
 41
0.0
 71
             7
 72
             1
  1
\C1;DN\C1;160
  7
CONVERTER_1
 11
0.0
 21
1.0
 31
0.0
  0
ENDBLK
  5
CC
100
AcDbEntity
  8
0
100
AcDbBlockEnd
  0
ENDSEC
  0
SECTION
  2
ENTITIES
  0
DIMENSION
  5
CE
100
AcDbEntity
  8
1
100
AcDbDimension
  2
*D4
 10
-96.0036435725648
 20
79.99999999999989
 11
-101.5036435725648
 21
1.12545676004877
 31
0.0
 53
90.00000000000016
  1
<>
  3
ME10_DIM_1
100
AcDbAlignedDimension
 13
-86.00364357256501
 23
-80.00000000000034
 14
-86.00364357256501
 24
79.99999999999989
 50
90.00000000000016
100
AcDbRotatedDimension
  0
DIMENSION
  5
C3
100
AcDbEntity
  8
1
100
AcDbDimension
  2
*D3
 10
-80.00364357256501
 20
-257.12557856272804
 11
-39.6672118338973
 21
-251.62557856272801
 31
0.0
 53
0.00013888888889
  1
<>
  3
ME10_DIM_0
100
AcDbAlignedDimension
 13
0.0
 23
-192.0
 14
-80.00364357256501
 24
-96.80998615605665
100
AcDbRotatedDimension
  0
INSERT
  5
2D
100
AcDbEntity
  8
0
100
AcDbBlockReference
  2
BITUMENFOLIE-DN160
 10
755.97931082622551
 20
576.71475977448097
  0
INSERT
  5
2E
100
AcDbEntity
  8
0
100
AcDbBlockReference
  2
MUTTERDN160-ARTIKEL
 10
684.84566725366051
 20
718.27155494302747
  0
INSERT
  5
2F
100
AcDbEntity
  8
0
100
AcDbBlockReference
  2
DICHTUNGDN160
 10
744.83268068315385
 20
664.71475977448097
  0
ENDSEC
  0
SECTION
  2
OBJECTS
  0
DICTIONARY
  5
19
100
AcDbDictionary
  3
ACAD_GROUP
350
1A
  3
ACAD_MLINESTYLE
350
1B
  0
DICTIONARY
  5
1A
102
{ACAD_REACTORS
330
19
102
}
100
AcDbDictionary
  0
DICTIONARY
  5
1B
102
{ACAD_REACTORS
330
19
102
}
100
AcDbDictionary
  3
STANDARD
350
1C
  0
MLINESTYLE
  5
1C
102
{ACAD_REACTORS
330
1B
102
}
100
AcDbMlineStyle
  2
STANDARD
 70
             0
  3

 62
             0
 51
90.0
 52
90.0
 71
             2
 49
0.5
 62
           256
  6
BYLAYER
 49
-0.5
 62
           256
  6
BYLAYER
  0
ENDSEC
  0
EOF
